  0
SECTION
  2
HEADER
  9
$ACADVER
  1
AC1015
  9
$ACADMAINTVER
 70
    20
  9
$DWGCODEPAGE
  3
ANSI_932
  9
$INSBASE
 10
0.0
 20
0.0
 30
0.0
  9
$EXTMIN
 10
-170.2775904975133
 20
692.0538088270586
 30
-0.0000000349181948
  9
$EXTMAX
 10
19334.70497356957
 20
13763.58606637957
 30
0.0000000814935746
  9
$LIMMIN
 10
0.0
 20
0.0
  9
$LIMMAX
 10
420.0
 20
297.0
  9
$ORTHOMODE
 70
     1
  9
$REGENMODE
 70
     1
  9
$FILLMODE
 70
     1
  9
$QTEXTMODE
 70
     0
  9
$MIRRTEXT
 70
     0
  9
$LTSCALE
 40
1.0
  9
$ATTMODE
 70
     1
  9
$TEXTSIZE
 40
2.5
  9
$TRACEWID
 40
1.0
  9
$TEXTSTYLE
  7
1_100
  9
$CLAYER
  8
寸法引出
  9
$CELTYPE
  6
ByLayer
  9
$CECOLOR
 62
   256
  9
$CELTSCALE
 40
1.0
  9
$DISPSILH
 70
     0
  9
$DIMSCALE
 40
500.0
  9
$DIMASZ
 40
2.5
  9
$DIMEXO
 40
0.625
  9
$DIMDLI
 40
3.75
  9
$DIMRND
 40
0.0
  9
$DIMDLE
 40
0.0
  9
$DIMEXE
 40
1.25
  9
$DIMTP
 40
0.0
  9
$DIMTM
 40
0.0
  9
$DIMTXT
 40
2.5
  9
$DIMCEN
 40
2.5
  9
$DIMTSZ
 40
0.0
  9
$DIMTOL
 70
     0
  9
$DIMLIM
 70
     0
  9
$DIMTIH
 70
     0
  9
$DIMTOH
 70
     0
  9
$DIMSE1
 70
     0
  9
$DIMSE2
 70
     0
  9
$DIMTAD
 70
     1
  9
$DIMZIN
 70
     8
  9
$DIMBLK
  1

  9
$DIMASO
 70
     1
  9
$DIMSHO
 70
     1
  9
$DIMPOST
  1

  9
$DIMAPOST
  1

  9
$DIMALT
 70
     0
  9
$DIMALTD
 70
     3
  9
$DIMALTF
 40
0.03937007874016
  9
$DIMLFAC
 40
1.0
  9
$DIMTOFL
 70
     1
  9
$DIMTVP
 40
0.0
  9
$DIMTIX
 70
     0
  9
$DIMSOXD
 70
     0
  9
$DIMSAH
 70
     0
  9
$DIMBLK1
  1

  9
$DIMBLK2
  1

  9
$DIMSTYLE
  2
ISO-25
  9
$DIMCLRD
 70
     0
  9
$DIMCLRE
 70
     0
  9
$DIMCLRT
 70
     0
  9
$DIMTFAC
 40
1.0
  9
$DIMGAP
 40
0.625
  9
$DIMJUST
 70
     0
  9
$DIMSD1
 70
     0
  9
$DIMSD2
 70
     0
  9
$DIMTOLJ
 70
     0
  9
$DIMTZIN
 70
     8
  9
$DIMALTZ
 70
     0
  9
$DIMALTTZ
 70
     0
  9
$DIMUPT
 70
     0
  9
$DIMDEC
 70
     2
  9
$DIMTDEC
 70
     2
  9
$DIMALTU
 70
     2
  9
$DIMALTTD
 70
     3
  9
$DIMTXSTY
  7
Standard
  9
$DIMAUNIT
 70
     0
  9
$DIMADEC
 70
     0
  9
$DIMALTRND
 40
0.0
  9
$DIMAZIN
 70
     0
  9
$DIMDSEP
 70
    44
  9
$DIMATFIT
 70
     3
  9
$DIMFRAC
 70
     0
  9
$DIMLDRBLK
  1

  9
$DIMLUNIT
 70
     2
  9
$DIMLWD
 70
    -2
  9
$DIMLWE
 70
    -2
  9
$DIMTMOVE
 70
     0
  9
$LUNITS
 70
     2
  9
$LUPREC
 70
     4
  9
$SKETCHINC
 40
1.0
  9
$FILLETRAD
 40
0.0
  9
$AUNITS
 70
     0
  9
$AUPREC
 70
     0
  9
$MENU
  1
.
  9
$ELEVATION
 40
0.0
  9
$PELEVATION
 40
0.0
  9
$THICKNESS
 40
0.0
  9
$LIMCHECK
 70
     0
  9
$CHAMFERA
 40
0.0
  9
$CHAMFERB
 40
0.0
  9
$CHAMFERC
 40
0.0
  9
$CHAMFERD
 40
0.0
  9
$SKPOLY
 70
     0
  9
$TDCREATE
 40
2454357.823627743
  9
$TDUCREATE
 40
2454357.448627743
  9
$TDUPDATE
 40
2454568.545588646
  9
$TDUUPDATE
 40
2454568.170588646
  9
$TDINDWG
 40
0.1010178588
  9
$TDUSRTIMER
 40
0.1010165856
  9
$USRTIMER
 70
     1
  9
$ANGBASE
 50
0.0
  9
$ANGDIR
 70
     0
  9
$PDMODE
 70
     0
  9
$PDSIZE
 40
0.0
  9
$PLINEWID
 40
0.0
  9
$SPLFRAME
 70
     0
  9
$SPLINETYPE
 70
     6
  9
$SPLINESEGS
 70
     8
  9
$HANDSEED
  5
BAC
  9
$SURFTAB1
 70
     6
  9
$SURFTAB2
 70
     6
  9
$SURFTYPE
 70
     6
  9
$SURFU
 70
     6
  9
$SURFV
 70
     6
  9
$UCSBASE
  2

  9
$UCSNAME
  2

  9
$UCSORG
 10
0.0
 20
0.0
 30
0.0
  9
$UCSXDIR
 10
1.0
 20
0.0
 30
0.0
  9
$UCSYDIR
 10
0.0
 20
1.0
 30
0.0
  9
$UCSORTHOREF
  2

  9
$UCSORTHOVIEW
 70
     0
  9
$UCSORGTOP
 10
0.0
 20
0.0
 30
0.0
  9
$UCSORGBOTTOM
 10
0.0
 20
0.0
 30
0.0
  9
$UCSORGLEFT
 10
0.0
 20
0.0
 30
0.0
  9
$UCSORGRIGHT
 10
0.0
 20
0.0
 30
0.0
  9
$UCSORGFRONT
 10
0.0
 20
0.0
 30
0.0
  9
$UCSORGBACK
 10
0.0
 20
0.0
 30
0.0
  9
$PUCSBASE
  2

  9
$PUCSNAME
  2

  9
$PUCSORG
 10
0.0
 20
0.0
 30
0.0
  9
$PUCSXDIR
 10
1.0
 20
0.0
 30
0.0
  9
$PUCSYDIR
 10
0.0
 20
1.0
 30
0.0
  9
$PUCSORTHOREF
  2

  9
$PUCSORTHOVIEW
 70
     0
  9
$PUCSORGTOP
 10
0.0
 20
0.0
 30
0.0
  9
$PUCSORGBOTTOM
 10
0.0
 20
0.0
 30
0.0
  9
$PUCSORGLEFT
 10
0.0
 20
0.0
 30
0.0
  9
$PUCSORGRIGHT
 10
0.0
 20
0.0
 30
0.0
  9
$PUCSORGFRONT
 10
0.0
 20
0.0
 30
0.0
  9
$PUCSORGBACK
 10
0.0
 20
0.0
 30
0.0
  9
$USERI1
 70
     0
  9
$USERI2
 70
     0
  9
$USERI3
 70
     0
  9
$USERI4
 70
     0
  9
$USERI5
 70
     0
  9
$USERR1
 40
0.0
  9
$USERR2
 40
0.0
  9
$USERR3
 40
0.0
  9
$USERR4
 40
0.0
  9
$USERR5
 40
0.0
  9
$WORLDVIEW
 70
     1
  9
$SHADEDGE
 70
     3
  9
$SHADEDIF
 70
    70
  9
$TILEMODE
 70
     1
  9
$MAXACTVP
 70
    64
  9
$PINSBASE
 10
0.0
 20
0.0
 30
0.0
  9
$PLIMCHECK
 70
     0
  9
$PEXTMIN
 10
26.66999878883363
 20
20.31999878883363
 30
0.0
  9
$PEXTMAX
 10
240.0299890995026
 20
182.8799890995025
 30
0.0
  9
$PLIMMIN
 10
-6.350006103515625
 20
-6.349999904632567
  9
$PLIMMAX
 10
273.0499877929688
 20
209.5499939918518
  9
$UNITMODE
 70
     0
  9
$VISRETAIN
 70
     1
  9
$PLINEGEN
 70
     0
  9
$PSLTSCALE
 70
     1
  9
$TREEDEPTH
 70
  3020
  9
$CMLSTYLE
  2
Standard
  9
$CMLJUST
 70
     0
  9
$CMLSCALE
 40
20.0
  9
$PROXYGRAPHICS
 70
     1
  9
$MEASUREMENT
 70
     1
  9
$CELWEIGHT
370
    -1
  9
$ENDCAPS
280
     0
  9
$JOINSTYLE
280
     0
  9
$LWDISPLAY
290
     0
  9
$INSUNITS
 70
     6
  9
$HYPERLINKBASE
  1

  9
$STYLESHEET
  1
monochrome.ctb
  9
$XEDIT
290
     1
  9
$CEPSNTYPE
380
     0
  9
$PSTYLEMODE
290
     1
  9
$FINGERPRINTGUID
  2
{FDEAD578-A652-11D2-9A35-0060089B3A3F}
  9
$VERSIONGUID
  2
{102D1DE9-B152-4229-B1DB-B98E38E4EBD4}
  9
$EXTNAMES
290
     1
  9
$PSVPSCALE
 40
0.0
  9
$OLESTARTUP
290
     0
  0
ENDSEC
  0
SECTION
  2
CLASSES
  0
CLASS
  1
ACDBDICTIONARYWDFLT
  2
AcDbDictionaryWithDefault
  3
ObjectDBX Classes
 90
        0
280
     0
281
     0
  0
CLASS
  1
ACDBPLACEHOLDER
  2
AcDbPlaceHolder
  3
ObjectDBX Classes
 90
        0
280
     0
281
     0
  0
CLASS
  1
LAYOUT
  2
AcDbLayout
  3
ObjectDBX Classes
 90
        0
280
     0
281
     0
  0
CLASS
  1
DICTIONARYVAR
  2
AcDbDictionaryVar
  3
ObjectDBX Classes
 90
        0
280
     0
281
     0
  0
CLASS
  1
SORTENTSTABLE
  2
AcDbSortentsTable
  3
ObjectDBX Classes
 90
    32768
280
     0
281
     0
  0
CLASS
  1
TABLESTYLE
  2
AcDbTableStyle
  3
ObjectDBX Classes
 90
     2047
280
     0
281
     0
  0
CLASS
  1
DMMAPMANAGER
  2
AcMapDMMapManager
  3
AcMapDisplayManagement
 90
     1024
280
     0
281
     0
  0
CLASS
  1
DMSTYLELIBRARY
  2
AcMapDMStyleLibrary
  3
AcMapDisplayManagement
 90
     1024
280
     0
281
     0
  0
CLASS
  1
DMMAP
  2
AcMapDMMap
  3
AcMapDisplayManagement
 90
     1024
280
     0
281
     0
  0
CLASS
  1
DMBASEELEMENT
  2
AcMapDMBaseElement
  3
AcMapDisplayManagement
 90
     1024
280
     0
281
     0
  0
CLASS
  1
DMDEFAULTSTYLE
  2
AcMapDMDefaultStyle
  3
AcMapDisplayManagement
 90
     1024
280
     0
281
     0
  0
CLASS
  1
DMSTYLEREFERENCE
  2
AcMapDMStyleReference
  3
AcMapDisplayManagement
 90
     1024
280
     0
281
     0
  0
CLASS
  1
DMSTYLECATEGORY
  2
AcMapDMStyleCategory
  3
AcMapDisplayManagement
 90
     1024
280
     0
281
     0
  0
CLASS
  1
AECC_TREE_NODE
  2
AeccDbTreeNode
  3
AeccvBase10|Product Desc: Autodesk Civil 3D |Company: Autodesk,Inc. |WEB Address: www.autodesk.com
 90
     1023
280
     0
281
     0
  0
CLASS
  1
AECC_CLASS_NODE
  2
AeccDbClassNode
  3
AeccLand10|Product Desc: Autodesk Civil 3D |Company: Autodesk,Inc. |WEB Address: www.autodesk.com
 90
     1023
280
     0
281
     0
  0
CLASS
  1
AECC_ROOT_SETTINGS_NODE
  2
AeccDbRootSettingsNode
  3
AeccvBase10|Product Desc: Autodesk Civil 3D |Company: Autodesk,Inc. |WEB Address: www.autodesk.com
 90
     1023
280
     0
281
     0
  0
CLASS
  1
AEC_VARS_DWG_SETUP
  2
AecDbVarsDwgSetup
  3
AecBase40|Product Desc: Autodesk Architectural Desktop 2005 |Company: Autodesk,Inc. |WEB Address: www.autodesk.com
 90
      129
280
     0
281
     0
  0
CLASS
  1
AECC_SETTINGS_NODE
  2
AeccDbSettingsNode
  3
AeccvBase10|Product Desc: Autodesk Civil 3D |Company: Autodesk,Inc. |WEB Address: www.autodesk.com
 90
     1023
280
     0
281
     0
  0
CLASS
  1
AECC_PROFILE_VIEW_STYLE
  2
AeccDbGraphStyleProfile
  3
AeccLand10|Product Desc: Autodesk Civil 3D |Company: Autodesk,Inc. |WEB Address: www.autodesk.com
 90
      129
280
     0
281
     0
  0
CLASS
  1
AECC_PROFILE_VIEW_BAND_STYLE_SET
  2
AeccDbGraphProfileBandStyleSet
  3
AeccLand10|Product Desc: Autodesk Civil 3D |Company: Autodesk,Inc. |WEB Address: www.autodesk.com
 90
      129
280
     0
281
     0
  0
CLASS
  1
AECC_PROFILE_VIEW_DATA_BAND_STYLE
  2
AeccDbGraphStyleProfileDataBands
  3
AeccLand10|Product Desc: Autodesk Civil 3D |Company: Autodesk,Inc. |WEB Address: www.autodesk.com
 90
      129
280
     0
281
     0
  0
CLASS
  1
AECC_LABEL_NODE
  2
AeccDbLabelNode
  3
AeccLand10|Product Desc: Autodesk Civil 3D |Company: Autodesk,Inc. |WEB Address: www.autodesk.com
 90
     1023
280
     0
281
     0
  0
CLASS
  1
AECC_LABEL_COLLECTOR_STYLE
  2
AeccDbLabelStyleCollector
  3
AeccLand10|Product Desc: Autodesk Civil 3D |Company: Autodesk,Inc. |WEB Address: www.autodesk.com
 90
     1023
280
     0
281
     0
  0
CLASS
  1
AECC_LABEL_TEXT_STYLE
  2
AeccDbLabelStyleText
  3
AeccLand10|Product Desc: Autodesk Civil 3D |Company: Autodesk,Inc. |WEB Address: www.autodesk.com
 90
     1023
280
     0
281
     0
  0
CLASS
  1
AECC_PROFILE_VIEW_HORIZONTAL_GEOMETRY_BAND_STYLE
  2
AeccDbGraphStyleHorGeometryBands
  3
AeccLand10|Product Desc: Autodesk Civil 3D |Company: Autodesk,Inc. |WEB Address: www.autodesk.com
 90
      129
280
     0
281
     0
  0
CLASS
  1
AECC_PROFILE_VIEW_VERTICAL_GEOMETRY_BAND_STYLE
  2
AeccDbGraphStyleVertGeometryBands
  3
AeccLand10|Product Desc: Autodesk Civil 3D |Company: Autodesk,Inc. |WEB Address: www.autodesk.com
 90
      129
280
     0
281
     0
  0
CLASS
  1
AECC_LABEL_RADIAL_LINE_STYLE
  2
AeccDbLabelStyleRadialLine
  3
AeccLand10|Product Desc: Autodesk Civil 3D |Company: Autodesk,Inc. |WEB Address: www.autodesk.com
 90
     1023
280
     0
281
     0
  0
CLASS
  1
AECC_POINT_STYLE
  2
AeccDbPointStyle
  3
AeccLand10|Product Desc: Autodesk Civil 3D |Company: Autodesk,Inc. |WEB Address: www.autodesk.com
 90
      895
280
     0
281
     0
  0
CLASS
  1
AECC_PROFILE_LABEL_SET
  2
AeccDbVAlignStnLabelsDlgTemplate
  3
AeccLand10|Product Desc: Autodesk Civil 3D |Company: Autodesk,Inc. |WEB Address: www.autodesk.com
 90
     1023
280
     0
281
     0
  0
CLASS
  1
AECC_SECTION_VIEW_STYLE
  2
AeccDbGraphStyleCrossSection
  3
AeccLand10|Product Desc: Autodesk Civil 3D |Company: Autodesk,Inc. |WEB Address: www.autodesk.com
 90
      129
280
     0
281
     0
  0
CLASS
  1
AECC_SECTION_VIEW_BAND_STYLE_SET
  2
AeccDbGraphSectionBandStyleSet
  3
AeccLand10|Product Desc: Autodesk Civil 3D |Company: Autodesk,Inc. |WEB Address: www.autodesk.com
 90
      129
280
     0
281
     0
  0
CLASS
  1
AECC_SECTION_VIEW_DATA_BAND_STYLE
  2
AeccDbGraphStyleSectionDataBands
  3
AeccLand10|Product Desc: Autodesk Civil 3D |Company: Autodesk,Inc. |WEB Address: www.autodesk.com
 90
      129
280
     0
281
     0
  0
CLASS
  1
AECC_SECTION_LABEL_SET
  2
AeccDbSectionLabelsDlgTemplate
  3
AeccLand10|Product Desc: Autodesk Civil 3D |Company: Autodesk,Inc. |WEB Address: www.autodesk.com
 90
     1023
280
     0
281
     0
  0
CLASS
  1
AECC_ALIGNMENT_STYLE
  2
AeccDbAlignmentStyle
  3
AeccLand10|Product Desc: Autodesk Civil 3D |Company: Autodesk,Inc. |WEB Address: www.autodesk.com
 90
     1023
280
     0
281
     0
  0
CLASS
  1
AECC_LABEL_VECTOR_ARROW_STYLE
  2
AeccDbLabelStyleVectorArrow
  3
AeccLand10|Product Desc: Autodesk Civil 3D |Company: Autodesk,Inc. |WEB Address: www.autodesk.com
 90
     1023
280
     0
281
     0
  0
CLASS
  1
AECC_ALIGNMENT_LABEL_SET
  2
AeccDbAlignStnLabelsDlgTemplate
  3
AeccLand10|Product Desc: Autodesk Civil 3D |Company: Autodesk,Inc. |WEB Address: www.autodesk.com
 90
     1023
280
     0
281
     0
  0
CLASS
  1
AECC_SURFACE_STYLE
  2
AeccDbSurfaceStyle
  3
AeccLand10|Product Desc: Autodesk Civil 3D |Company: Autodesk,Inc. |WEB Address: www.autodesk.com
 90
      129
280
     0
281
     0
  0
CLASS
  1
AECC_LEGEND_TABLE_STYLE
  2
AeccDbLegendScheduleTableStyle
  3
AeccLand10|Product Desc: Autodesk Civil 3D |Company: Autodesk,Inc. |WEB Address: www.autodesk.com
 90
     1023
280
     0
281
     0
  0
CLASS
  1
AECC_SECTION_STYLE
  2
AeccDbSectionStyle
  3
AeccLand10|Product Desc: Autodesk Civil 3D |Company: Autodesk,Inc. |WEB Address: www.autodesk.com
 90
     1023
280
     0
281
     0
  0
CLASS
  1
AECC_GRADING_STYLE
  2
AeccDbGradingStyle
  3
AeccLand10|Product Desc: Autodesk Civil 3D |Company: Autodesk,Inc. |WEB Address: www.autodesk.com
 90
     1023
280
     0
281
     0
  0
CLASS
  1
AECC_GRADING_CRITERIA
  2
AeccDbGradingCriteria
  3
AeccLand10|Product Desc: Autodesk Civil 3D |Company: Autodesk,Inc. |WEB Address: www.autodesk.com
 90
     1023
280
     0
281
     0
  0
CLASS
  1
AECC_PARCEL_STYLE
  2
AeccDbParcelStyle
  3
AeccLand10|Product Desc: Autodesk Civil 3D |Company: Autodesk,Inc. |WEB Address: www.autodesk.com
 90
      129
280
     0
281
     0
  0
CLASS
  1
AECC_SAMPLE_LINE_GROUP_STYLE
  2
AeccDbSampleLineGroupStyle
  3
AeccLand10|Product Desc: Autodesk Civil 3D |Company: Autodesk,Inc. |WEB Address: www.autodesk.com
 90
      129
280
     0
281
     0
  0
CLASS
  1
AECC_SHEET_STYLE
  2
AeccDbSheetStyle
  3
AeccLand10|Product Desc: Autodesk Civil 3D |Company: Autodesk,Inc. |WEB Address: www.autodesk.com
 90
      129
280
     0
281
     0
  0
CLASS
  1
AECC_SAMPLE_LINE_STYLE
  2
AeccDbSampleLineStyle
  3
AeccLand10|Product Desc: Autodesk Civil 3D |Company: Autodesk,Inc. |WEB Address: www.autodesk.com
 90
     1023
280
     0
281
     0
  0
CLASS
  1
AECC_PROFILE_STYLE
  2
AeccDbVAlignmentStyle
  3
AeccLand10|Product Desc: Autodesk Civil 3D |Company: Autodesk,Inc. |WEB Address: www.autodesk.com
 90
     1023
280
     0
281
     0
  0
CLASS
  1
AECC_STATION_FORMAT_STYLE
  2
AeccDbStationFormatStyle
  3
AeccLand10|Product Desc: Autodesk Civil 3D |Company: Autodesk,Inc. |WEB Address: www.autodesk.com
 90
     1023
280
     0
281
     0
  0
CLASS
  1
AECC_TABLE_STYLE
  2
AeccDbScheduleTableStyle
  3
AeccLand10|Product Desc: Autodesk Civil 3D |Company: Autodesk,Inc. |WEB Address: www.autodesk.com
 90
     1023
280
     0
281
     0
  0
CLASS
  1
AECC_GRADING_CRITERIA_SET
  2
AeccDbGradingCriteriaSet
  3
AeccLand10|Product Desc: Autodesk Civil 3D |Company: Autodesk,Inc. |WEB Address: www.autodesk.com
 90
     1023
280
     0
281
     0
  0
CLASS
  1
AECC_FORMAT_MANAGER_OBJECT
  2
AeccDbFormatManagerObject
  3
AeccLand10|Product Desc: Autodesk Civil 3D |Company: Autodesk,Inc. |WEB Address: www.autodesk.com
 90
     1023
280
     0
281
     0
  0
CLASS
  1
AECC_POINT_DESCRIPTION_KEY_SET_NODE
  2
AeccDbPointDescKeySetsNode
  3
AeccvBase10|Product Desc: Autodesk Civil 3D |Company: Autodesk,Inc. |WEB Address: www.autodesk.com
 90
     1023
280
     0
281
     0
  0
ENDSEC
  0
SECTION
  2
TABLES
  0
TABLE
  2
VPORT
  5
8
330
0
100
AcDbSymbolTable
 70
     4
  0
VPORT
  5
B9B
330
8
100
AcDbSymbolTableRecord
100
AcDbViewportTableRecord
  2
*Active
 70
     0
 10
0.0
 20
0.0
 11
1.0
 21
1.0
 12
9582.213691536031
 22
6881.793033189788
 13
0.0
 23
0.0
 14
10.0
 24
10.0
 15
10.0
 25
10.0
 16
0.0
 26
0.0
 36
1.0
 17
0.0
 27
0.0
 37
0.0
 40
15986.5481735692
 41
1.227931488801053
 42
50.0
 43
0.0
 44
0.0
 50
0.0
 51
0.0
 71
     0
 72
  1000
 73
     1
 74
     1
 75
     0
 76
     0
 77
     0
 78
     0
281
     0
 65
     1
110
0.0
120
0.0
130
0.0
111
1.0
121
0.0
131
0.0
112
0.0
122
1.0
132
0.0
 79
     0
146
0.0
  0
ENDTAB
  0
TABLE
  2
LTYPE
  5
5
330
0
100
AcDbSymbolTable
 70
     3
  0
LTYPE
  5
14
330
5
100
AcDbSymbolTableRecord
100
AcDbLinetypeTableRecord
  2
ByBlock
 70
     0
  3

 72
    65
 73
     0
 40
0.0
  0
LTYPE
  5
15
330
5
100
AcDbSymbolTableRecord
100
AcDbLinetypeTableRecord
  2
ByLayer
 70
     0
  3

 72
    65
 73
     0
 40
0.0
  0
LTYPE
  5
16
330
5
100
AcDbSymbolTableRecord
100
AcDbLinetypeTableRecord
  2
Continuous
 70
     0
  3
Solid line
 72
    65
 73
     0
 40
0.0
  0
LTYPE
  5
1B4
330
5
100
AcDbSymbolTableRecord
100
AcDbLinetypeTableRecord
  2
DASHED
 70
     0
  3
__ __ __ __ __ __ __ __ __ __ __ __ __ __ __
 72
    65
 73
     2
 40
3.0
 49
2.0
 74
     0
 49
-1.0
 74
     0
  0
LTYPE
  5
1B5
330
5
100
AcDbSymbolTableRecord
100
AcDbLinetypeTableRecord
  2
DASHDOT
 70
     0
  3
__ . __ . __ . __ . __ . __ . __ . __ . __ . __
 72
    65
 73
     4
 40
8.5
 49
6.0
 74
     0
 49
-1.0
 74
     0
 49
0.5
 74
     0
 49
-1.0
 74
     0
  0
ENDTAB
  0
TABLE
  2
LAYER
  5
2
330
0
100
AcDbSymbolTable
 70
    13
  0
LAYER
  5
10
330
2
100
AcDbSymbolTableRecord
100
AcDbLayerTableRecord
  2
0
 70
     0
 62
     7
  6
Continuous
370
    -3
390
F
  0
LAYER
  5
1B6
330
2
100
AcDbSymbolTableRecord
100
AcDbLayerTableRecord
  2
DEFPOINTS
 70
     0
 62
     4
  6
Continuous
290
     0
370
    -3
390
F
  0
LAYER
  5
1B7
330
2
100
AcDbSymbolTableRecord
100
AcDbLayerTableRecord
  2
寸法
 70
     0
 62
     6
  6
Continuous
370
    -3
390
F
  0
LAYER
  5
1B8
330
2
100
AcDbSymbolTableRecord
100
AcDbLayerTableRecord
  2
画層2
 70
     0
 62
    40
  6
Continuous
370
    -3
390
F
  0
LAYER
  5
1B9
330
2
100
AcDbSymbolTableRecord
100
AcDbLayerTableRecord
  2
通り芯
 70
     0
 62
     4
  6
Continuous
370
    13
390
F
  0
LAYER
  5
1BA
330
2
100
AcDbSymbolTableRecord
100
AcDbLayerTableRecord
  2
画層1-1
 70
     0
 62
    82
  6
Continuous
370
    -3
390
F
  0
LAYER
  5
1BB
330
2
100
AcDbSymbolTableRecord
100
AcDbLayerTableRecord
  2
画層1
 70
     0
 62
     7
  6
Continuous
370
    -3
390
F
  0
LAYER
  5
1BC
330
2
100
AcDbSymbolTableRecord
100
AcDbLayerTableRecord
  2
図面枠
 70
     0
 62
     7
  6
Continuous
370
    -3
390
F
  0
LAYER
  5
1BD
330
2
100
AcDbSymbolTableRecord
100
AcDbLayerTableRecord
  2
ﾊｯﾁﾝｸﾞ
 70
     0
 62
     1
  6
Continuous
370
    -3
390
F
  0
LAYER
  5
1BE
330
2
100
AcDbSymbolTableRecord
100
AcDbLayerTableRecord
  2
ﾈｯﾄ
 70
     0
 62
   230
  6
Continuous
370
    13
390
F
  0
LAYER
  5
1BF
330
2
100
AcDbSymbolTableRecord
100
AcDbLayerTableRecord
  2
画層2-1
 70
     0
 62
     7
  6
Continuous
370
    -3
390
F
  0
LAYER
  5
1C0
330
2
100
AcDbSymbolTableRecord
100
AcDbLayerTableRecord
  2
寸法文字
 70
     0
 62
     6
  6
Continuous
370
    -3
390
F
  0
LAYER
  5
1C1
330
2
100
AcDbSymbolTableRecord
100
AcDbLayerTableRecord
  2
寸法引出
 70
     0
 62
     3
  6
Continuous
370
    -3
390
F
  0
ENDTAB
  0
TABLE
  2
STYLE
  5
3
330
0
100
AcDbSymbolTable
 70
     7
  0
STYLE
  5
11
330
3
100
AcDbSymbolTableRecord
100
AcDbTextStyleTableRecord
  2
Standard
 70
     0
 40
0.0
 41
1.0
 50
0.0
 71
     0
 42
2.5
  3
txt
  4

  0
STYLE
  5
1C2
330
3
100
AcDbSymbolTableRecord
100
AcDbTextStyleTableRecord
  2
1_100
 70
     0
 40
0.0
 41
0.75
 50
0.0
 71
     0
 42
2.5
  3
romans.shx
  4
extfont2.shx
  0
STYLE
  5
1C3
330
3
100
AcDbSymbolTableRecord
100
AcDbTextStyleTableRecord
  2
STYLE1
 70
     0
 40
0.0
 41
0.75
 50
0.0
 71
     0
 42
0.2
  3
HGRSKP.TTF
  4

1001
ACAD
1000
HGSeikaishotaiPRO
1071
    32833
  0
STYLE
  5
1C4
330
3
100
AcDbSymbolTableRecord
100
AcDbTextStyleTableRecord
  2
1_50
 70
     0
 40
0.0
 41
0.75
 50
0.0
 71
     0
 42
175.0
  3
romans.shx
  4
EXTFONT.shx
  0
STYLE
  5
1C5
330
3
100
AcDbSymbolTableRecord
100
AcDbTextStyleTableRecord
  2
MSP明朝
 70
     0
 40
0.0
 41
0.75
 50
0.0
 71
     0
 42
0.2
  3
MS PMincho.ttf
  4

1001
ACAD
1000
MS PMincho
1071
    32786
  0
ENDTAB
  0
TABLE
  2
VIEW
  5
6
330
0
100
AcDbSymbolTable
 70
     0
  0
ENDTAB
  0
TABLE
  2
UCS
  5
7
330
0
100
AcDbSymbolTable
 70
     0
  0
ENDTAB
  0
TABLE
  2
APPID
  5
9
330
0
100
AcDbSymbolTable
 70
     4
  0
APPID
  5
12
330
9
100
AcDbSymbolTableRecord
100
AcDbRegAppTableRecord
  2
ACAD
 70
     0
  0
APPID
  5
1C9
330
9
100
AcDbSymbolTableRecord
100
AcDbRegAppTableRecord
  2
AcDbBlockRepETag
 70
     0
  0
APPID
  5
B39
330
9
100
AcDbSymbolTableRecord
100
AcDbRegAppTableRecord
  2
DCO15
 70
     0
  0
APPID
  5
B3B
330
9
100
AcDbSymbolTableRecord
100
AcDbRegAppTableRecord
  2
ADE
 70
     0
  0
ENDTAB
  0
TABLE
  2
DIMSTYLE
  5
A
330
0
100
AcDbSymbolTable
 70
     6
100
AcDbDimStyleTable
 71
     1
340
27
  0
DIMSTYLE
105
27
330
A
100
AcDbSymbolTableRecord
100
AcDbDimStyleTableRecord
  2
ISO-25
 70
     0
 41
2.5
 42
0.625
 43
3.75
 44
1.25
 73
     0
 74
     0
 77
     1
 78
     8
140
2.5
141
2.5
143
0.03937007874016
147
0.625
171
     3
172
     1
271
     2
272
     2
274
     3
278
    44
283
     0
284
     8
340
11
  0
DIMSTYLE
105
1C6
330
A
100
AcDbSymbolTableRecord
100
AcDbDimStyleTableRecord
  2
STANDARD
 70
     0
340
11
  0
DIMSTYLE
105
1C7
330
A
100
AcDbSymbolTableRecord
100
AcDbDimStyleTableRecord
  2
1_100
 70
     0
 40
100.0
 41
0.6
 42
3.0
 43
10.0
 44
0.0
 73
     0
 74
     0
 77
     1
 78
     8
140
3.0
141
0.0
147
1.0
172
     1
173
     1
176
   256
177
   256
178
   256
271
     1
272
     1
277
     6
279
     2
284
     8
340
1C2
341
87
343
87
344
87
  0
DIMSTYLE
105
1C8
102
{ACAD_REACTORS
330
331
330
332
330
336
330
337
330
346
330
347
330
348
330
349
330
36B
330
37C
330
37D
330
37E
330
37F
330
380
330
381
330
382
330
39A
330
427
330
429
330
441
330
442
330
451
330
452
102
}
330
A
100
AcDbSymbolTableRecord
100
AcDbDimStyleTableRecord
  2
1_50
 70
     0
 40
50.0
 41
1.0
 42
3.0
 43
10.0
 44
0.0
 73
     0
 74
     0
 77
     1
 78
    12
140
3.0
141
0.0
147
1.0
172
     1
173
     1
176
   256
177
   256
178
   256
271
     1
272
     1
277
     6
279
     2
340
1C2
341
87
343
87
344
87
  0
ENDTAB
  0
TABLE
  2
BLOCK_RECORD
  5
1
330
0
100
AcDbSymbolTable
 70
    27
  0
BLOCK_RECORD
  5
1F
330
1
100
AcDbSymbolTableRecord
100
AcDbBlockTableRecord
  2
*Model_Space
340
22
  0
BLOCK_RECORD
  5
55
330
1
100
AcDbSymbolTableRecord
100
AcDbBlockTableRecord
  2
*Paper_Space
340
56
  0
BLOCK_RECORD
  5
50
330
1
100
AcDbSymbolTableRecord
100
AcDbBlockTableRecord
  2
*Paper_Space0
340
51
  0
BLOCK_RECORD
  5
87
330
1
100
AcDbSymbolTableRecord
100
AcDbBlockTableRecord
  2
_ORIGIN
340
0
102
{BLKREFS
331
604
331
605
331
60C
331
60D
331
615
331
616
331
621
331
622
331
629
331
62A
331
635
331
636
331
63E
331
63F
331
649
331
64A
331
651
331
652
331
65D
331
65E
331
665
331
666
331
66E
331
66F
331
6AC
331
6AD
331
6B7
331
6B8
331
6C3
331
6C4
331
6CB
331
6CC
331
6DF
331
6E0
331
6EA
331
6EB
331
6F3
331
6F4
331
6FF
331
700
331
707
331
708
331
723
331
724
331
72C
331
72D
102
}
  0
BLOCK_RECORD
  5
469
330
1
100
AcDbSymbolTableRecord
100
AcDbBlockTableRecord
  2
*D2
340
0
  0
BLOCK_RECORD
  5
475
330
1
100
AcDbSymbolTableRecord
100
AcDbBlockTableRecord
  2
*D3
340
0
  0
BLOCK_RECORD
  5
481
330
1
100
AcDbSymbolTableRecord
100
AcDbBlockTableRecord
  2
*D4
340
0
  0
BLOCK_RECORD
  5
48D
330
1
100
AcDbSymbolTableRecord
100
AcDbBlockTableRecord
  2
*D5
340
0
  0
BLOCK_RECORD
  5
499
330
1
100
AcDbSymbolTableRecord
100
AcDbBlockTableRecord
  2
*D6
340
0
  0
BLOCK_RECORD
  5
4A7
330
1
100
AcDbSymbolTableRecord
100
AcDbBlockTableRecord
  2
*D7
340
0
  0
BLOCK_RECORD
  5
4B3
330
1
100
AcDbSymbolTableRecord
100
AcDbBlockTableRecord
  2
*D8
340
0
  0
BLOCK_RECORD
  5
4C1
330
1
100
AcDbSymbolTableRecord
100
AcDbBlockTableRecord
  2
*D9
340
0
  0
BLOCK_RECORD
  5
4CF
330
1
100
AcDbSymbolTableRecord
100
AcDbBlockTableRecord
  2
*D10
340
0
  0
BLOCK_RECORD
  5
4DD
330
1
100
AcDbSymbolTableRecord
100
AcDbBlockTableRecord
  2
*D11
340
0
  0
BLOCK_RECORD
  5
4EB
330
1
100
AcDbSymbolTableRecord
100
AcDbBlockTableRecord
  2
*D12
340
0
  0
BLOCK_RECORD
  5
4F9
330
1
100
AcDbSymbolTableRecord
100
AcDbBlockTableRecord
  2
*D13
340
0
  0
BLOCK_RECORD
  5
505
330
1
100
AcDbSymbolTableRecord
100
AcDbBlockTableRecord
  2
*D14
340
0
  0
BLOCK_RECORD
  5
511
330
1
100
AcDbSymbolTableRecord
100
AcDbBlockTableRecord
  2
*D15
340
0
  0
BLOCK_RECORD
  5
51D
330
1
100
AcDbSymbolTableRecord
100
AcDbBlockTableRecord
  2
*D16
340
0
  0
BLOCK_RECORD
  5
52B
330
1
100
AcDbSymbolTableRecord
100
AcDbBlockTableRecord
  2
*D17
340
0
  0
BLOCK_RECORD
  5
537
330
1
100
AcDbSymbolTableRecord
100
AcDbBlockTableRecord
  2
*D18
340
0
  0
BLOCK_RECORD
  5
545
330
1
100
AcDbSymbolTableRecord
100
AcDbBlockTableRecord
  2
*D19
340
0
  0
BLOCK_RECORD
  5
551
330
1
100
AcDbSymbolTableRecord
100
AcDbBlockTableRecord
  2
*D20
340
0
  0
BLOCK_RECORD
  5
55F
330
1
100
AcDbSymbolTableRecord
100
AcDbBlockTableRecord
  2
*D21
340
0
  0
BLOCK_RECORD
  5
56B
330
1
100
AcDbSymbolTableRecord
100
AcDbBlockTableRecord
  2
*D22
340
0
  0
BLOCK_RECORD
  5
579
330
1
100
AcDbSymbolTableRecord
100
AcDbBlockTableRecord
  2
*D23
340
0
  0
BLOCK_RECORD
  5
585
330
1
100
AcDbSymbolTableRecord
100
AcDbBlockTableRecord
  2
*D24
340
0
  0
ENDTAB
  0
ENDSEC
  0
SECTION
  2
BLOCKS
  0
BLOCK
  5
20
330
1F
100
AcDbEntity
  8
0
100
AcDbBlockBegin
  2
*Model_Space
 70
     0
 10
0.0
 20
0.0
 30
0.0
  3
*Model_Space
  1

  0
ENDBLK
  5
21
330
1F
100
AcDbEntity
  8
0
100
AcDbBlockEnd
  0
BLOCK
  5
57
330
55
100
AcDbEntity
 67
     1
  8
0
100
AcDbBlockBegin
  2
*Paper_Space
 70
     0
 10
0.0
 20
0.0
 30
0.0
  3
*Paper_Space
  1

  0
ENDBLK
  5
58
330
55
100
AcDbEntity
 67
     1
  8
0
100
AcDbBlockEnd
  0
BLOCK
  5
52
330
50
100
AcDbEntity
  8
0
100
AcDbBlockBegin
  2
*Paper_Space0
 70
     0
 10
0.0
 20
0.0
 30
0.0
  3
*Paper_Space0
  1

  0
VIEWPORT
  5
677
102
{ACAD_XDICTIONARY
360
BA4
102
}
330
50
100
AcDbEntity
  8
0
100
AcDbViewport
 10
133.3499908447265
 20
101.5999970436096
 30
0.0
 40
492.3034279597864
 41
228.4221935424805
 69
     0
 12
133.3499908447265
 22
101.5999970436096
 13
0.0
 23
0.0
 14
10.0
 24
10.0
 15
10.0
 25
10.0
 16
0.0
 26
0.0
 36
1.0
 17
0.0
 27
0.0
 37
0.0
 42
50.0
 43
0.0
 44
0.0
 45
228.4221935424805
 50
0.0
 51
0.0
 72
  1000
 90
    32800
  1

281
     0
 71
     1
 74
     0
110
0.0
120
0.0
130
0.0
111
1.0
121
0.0
131
0.0
112
0.0
122
1.0
132
0.0
 79
     0
146
0.0
  0
VIEWPORT
  5
679
102
{ACAD_XDICTIONARY
360
BA6
102
}
330
50
100
AcDbEntity
  8
0
100
AcDbViewport
 10
133.3499939441681
 20
101.5999939441681
 30
0.0
 40
213.3599903106689
 41
162.5599903106689
 69
     0
 12
9582.153511901408
 22
7228.192915292379
 13
0.0
 23
0.0
 14
10.0
 24
10.0
 15
10.0
 25
10.0
 16
0.0
 26
0.0
 36
1.0
 17
0.0
 27
0.0
 37
0.0
 42
50.0
 43
0.0
 44
0.0
 45
15029.56596520901
 50
0.0
 51
0.0
 72
  1000
 90
    32864
  1

281
     0
 71
     1
 74
     0
110
0.0
120
0.0
130
0.0
111
1.0
121
0.0
131
0.0
112
0.0
122
1.0
132
0.0
 79
     0
146
0.0
  0
ENDBLK
  5
53
330
50
100
AcDbEntity
  8
0
100
AcDbBlockEnd
  0
BLOCK
  5
88
330
87
100
AcDbEntity
  8
0
100
AcDbBlockBegin
  2
_ORIGIN
 70
     0
 10
0.0
 20
0.0
 30
0.0
  3
_ORIGIN
  1

  0
CIRCLE
  5
89
330
87
100
AcDbEntity
  8
0
  6
ByBlock
 62
     0
100
AcDbCircle
 10
0.0
 20
0.0
 30
0.0
 40
0.5
  0
LINE
  5
8A
330
87
100
AcDbEntity
  8
0
  6
ByBlock
 62
     0
100
AcDbLine
 10
0.0
 20
0.0
 30
0.0
 11
-1.0
 21
0.0
 31
0.0
  0
ENDBLK
  5
8B
330
87
100
AcDbEntity
  8
0
100
AcDbBlockEnd
  0
BLOCK
  5
473
330
469
100
AcDbEntity
  8
0
100
AcDbBlockBegin
  2
*D2
 70
     1
 10
0.0
 20
0.0
 30
0.0
  3
*D2
  1

  0
LINE
  5
71F
330
469
100
AcDbEntity
  8
寸法
  6
Continuous
370
    -2
100
AcDbLine
 10
16299.50252121319
 20
7445.220712987303
 30
0.0
 11
17099.50252121319
 21
7445.220712987303
 31
0.0
  0
LINE
  5
720
330
469
100
AcDbEntity
  8
寸法
  6
Continuous
370
    -2
100
AcDbLine
 10
16299.50252121319
 20
6445.220712987302
 30
0.0
 11
17099.50252121319
 21
6445.220712987302
 31
0.0
  0
LINE
  5
721
330
469
100
AcDbEntity
  8
寸法
  6
Continuous
370
    -2
100
AcDbLine
 10
17099.50252121319
 20
7395.220712987303
 30
0.0
 11
17099.50252121319
 21
6495.220712987301
 31
0.0
  0
MTEXT
  5
722
330
469
100
AcDbEntity
  8
寸法
  6
Continuous
100
AcDbMText
 10
16960.21680692748
 20
6845.220712987305
 30
0.0
 40
150.0
 41
0.0
 71
     5
 72
     1
  1
\A1;1,000
  7
1_100
 11
0.0000000000000001
 21
1.0
 31
0.0
 73
     1
 44
1.0
1001
ACAD
1000
MTEXTBEGIN
1070
    73
1070
     1
1070
    44
1040
1.0
1070
    74
1070
     0
1000
MTEXTEND
  0
INSERT
  5
723
330
469
100
AcDbEntity
  8
寸法
  6
Continuous
370
    -2
100
AcDbBlockReference
  2
_ORIGIN
 10
17099.50252121319
 20
7445.220712987303
 30
0.0
 41
50.0
 42
50.0
 43
50.0
 50
90.0
  0
INSERT
  5
724
330
469
100
AcDbEntity
  8
寸法
  6
Continuous
370
    -2
100
AcDbBlockReference
  2
_ORIGIN
 10
17099.50252121319
 20
6445.220712987302
 30
0.0
 41
50.0
 42
50.0
 43
50.0
 50
270.0
  0
POINT
  5
725
330
469
100
AcDbEntity
  8
DEFPOINTS
  6
Continuous
 62
     0
100
AcDbPoint
 10
16149.50252121319
 20
7445.220712987303
 30
0.0
  0
POINT
  5
726
330
469
100
AcDbEntity
  8
DEFPOINTS
  6
Continuous
 62
     0
100
AcDbPoint
 10
16149.50252121319
 20
6445.220712987302
 30
0.0
  0
POINT
  5
727
330
469
100
AcDbEntity
  8
DEFPOINTS
  6
Continuous
 62
     0
100
AcDbPoint
 10
17099.50252121319
 20
6445.220712987302
 30
0.0
  0
ENDBLK
  5
474
330
469
100
AcDbEntity
  8
0
100
AcDbBlockEnd
  0
BLOCK
  5
47F
330
475
100
AcDbEntity
  8
0
100
AcDbBlockBegin
  2
*D3
 70
     1
 10
0.0
 20
0.0
 30
0.0
  3
*D3
  1

  0
LINE
  5
728
330
475
100
AcDbEntity
  8
寸法
  6
Continuous
370
    -2
100
AcDbLine
 10
13448.82016281462
 20
7445.220712987303
 30
0.0
 11
14249.50252121319
 21
7445.220712987303
 31
0.0
  0
LINE
  5
729
330
475
100
AcDbEntity
  8
寸法
  6
Continuous
370
    -2
100
AcDbLine
 10
13448.82016281462
 20
6445.220712987302
 30
0.0
 11
14249.50252121319
 21
6445.220712987302
 31
0.0
  0
LINE
  5
72A
330
475
100
AcDbEntity
  8
寸法
  6
Continuous
370
    -2
100
AcDbLine
 10
14249.50252121319
 20
7395.220712987303
 30
0.0
 11
14249.50252121319
 21
6495.220712987301
 31
0.0
  0
MTEXT
  5
72B
330
475
100
AcDbEntity
  8
寸法
  6
Continuous
100
AcDbMText
 10
14110.21680692748
 20
6845.220712987303
 30
0.0
 40
150.0
 41
0.0
 71
     5
 72
     1
  1
\A1;1,000
  7
1_100
 11
0.0000000000000001
 21
1.0
 31
0.0
 73
     1
 44
1.0
1001
ACAD
1000
MTEXTBEGIN
1070
    73
1070
     1
1070
    44
1040
1.0
1070
    74
1070
     0
1000
MTEXTEND
  0
INSERT
  5
72C
330
475
100
AcDbEntity
  8
寸法
  6
Continuous
370
    -2
100
AcDbBlockReference
  2
_ORIGIN
 10
14249.50252121319
 20
7445.220712987303
 30
0.0
 41
50.0
 42
50.0
 43
50.0
 50
90.0
  0
INSERT
  5
72D
330
475
100
AcDbEntity
  8
寸法
  6
Continuous
370
    -2
100
AcDbBlockReference
  2
_ORIGIN
 10
14249.50252121319
 20
6445.220712987302
 30
0.0
 41
50.0
 42
50.0
 43
50.0
 50
270.0
  0
POINT
  5
72E
330
475
100
AcDbEntity
  8
DEFPOINTS
  6
Continuous
 62
     0
100
AcDbPoint
 10
13298.82016281463
 20
7445.220712987303
 30
0.0
  0
POINT
  5
72F
330
475
100
AcDbEntity
  8
DEFPOINTS
  6
Continuous
 62
     0
100
AcDbPoint
 10
13298.82016281463
 20
6445.220712987302
 30
0.0
  0
POINT
  5
730
330
475
100
AcDbEntity
  8
DEFPOINTS
  6
Continuous
 62
     0
100
AcDbPoint
 10
14249.50252121319
 20
6445.220712987302
 30
0.0
  0
ENDBLK
  5
480
330
475
100
AcDbEntity
  8
0
100
AcDbBlockEnd
  0
BLOCK
  5
48B
330
481
100
AcDbEntity
  8
0
100
AcDbBlockBegin
  2
*D4
 70
     1
 10
0.0
 20
0.0
 30
0.0
  3
*D4
  1

  0
LINE
  5
6C8
330
481
100
AcDbEntity
  8
寸法
  6
Continuous
370
    -2
100
AcDbLine
 10
16299.50252121319
 20
6445.220712987302
 30
0.0
 11
16699.50252121319
 21
6445.220712987302
 31
0.0
  0
LINE
  5
6C9
330
481
100
AcDbEntity
  8
寸法
  6
Continuous
370
    -2
100
AcDbLine
 10
16299.50252121319
 20
7245.220712987301
 30
0.0
 11
16699.50252121319
 21
7245.220712987301
 31
0.0
  0
LINE
  5
6CA
330
481
100
AcDbEntity
  8
寸法
  6
Continuous
370
    -2
100
AcDbLine
 10
16699.50252121319
 20
6495.220712987301
 30
0.0
 11
16699.50252121319
 21
7195.220712987303
 31
0.0
  0
INSERT
  5
6CB
330
481
100
AcDbEntity
  8
寸法
  6
Continuous
370
    -2
100
AcDbBlockReference
  2
_ORIGIN
 10
16699.50252121319
 20
6445.220712987302
 30
0.0
 41
50.0
 42
50.0
 43
50.0
 50
270.0
  0
INSERT
  5
6CC
330
481
100
AcDbEntity
  8
寸法
  6
Continuous
370
    -2
100
AcDbBlockReference
  2
_ORIGIN
 10
16699.50252121319
 20
7245.220712987301
 30
0.0
 41
50.0
 42
50.0
 43
50.0
 50
90.0
  0
MTEXT
  5
6CD
330
481
100
AcDbEntity
  8
寸法
  6
Continuous
100
AcDbMText
 10
16574.50252121319
 20
6845.220712987305
 30
0.0
 40
150.0
 41
0.0
 71
     5
 72
     1
  1
\A1;800
  7
1_100
 11
0.0000000000000001
 21
1.0
 31
0.0
 73
     1
 44
1.0
1001
ACAD
1000
MTEXTBEGIN
1070
    73
1070
     1
1070
    44
1040
1.0
1070
    74
1070
     0
1000
MTEXTEND
  0
POINT
  5
6CE
330
481
100
AcDbEntity
  8
DEFPOINTS
  6
Continuous
 62
     0
100
AcDbPoint
 10
16149.50252121319
 20
6445.220712987302
 30
0.0
  0
POINT
  5
6CF
330
481
100
AcDbEntity
  8
DEFPOINTS
  6
Continuous
 62
     0
100
AcDbPoint
 10
16149.50252121319
 20
7245.220712987301
 30
0.0
  0
POINT
  5
6D0
330
481
100
AcDbEntity
  8
DEFPOINTS
  6
Continuous
 62
     0
100
AcDbPoint
 10
16699.50252121319
 20
7245.220712987301
 30
0.0
  0
ENDBLK
  5
48C
330
481
100
AcDbEntity
  8
0
100
AcDbBlockEnd
  0
BLOCK
  5
497
330
48D
100
AcDbEntity
  8
0
100
AcDbBlockBegin
  2
*D5
 70
     1
 10
0.0
 20
0.0
 30
0.0
  3
*D5
  1

  0
LINE
  5
704
330
48D
100
AcDbEntity
  8
寸法
  6
Continuous
370
    -2
100
AcDbLine
 10
13448.82016281462
 20
6445.220712987302
 30
0.0
 11
13849.50252121319
 21
6445.220712987302
 31
0.0
  0
LINE
  5
705
330
48D
100
AcDbEntity
  8
寸法
  6
Continuous
370
    -2
100
AcDbLine
 10
13448.82016281462
 20
7245.220712987301
 30
0.0
 11
13849.50252121319
 21
7245.220712987301
 31
0.0
  0
LINE
  5
706
330
48D
100
AcDbEntity
  8
寸法
  6
Continuous
370
    -2
100
AcDbLine
 10
13849.50252121319
 20
6495.220712987301
 30
0.0
 11
13849.50252121319
 21
7195.220712987303
 31
0.0
  0
INSERT
  5
707
330
48D
100
AcDbEntity
  8
寸法
  6
Continuous
370
    -2
100
AcDbBlockReference
  2
_ORIGIN
 10
13849.50252121319
 20
6445.220712987302
 30
0.0
 41
50.0
 42
50.0
 43
50.0
 50
270.0
  0
INSERT
  5
708
330
48D
100
AcDbEntity
  8
寸法
  6
Continuous
370
    -2
100
AcDbBlockReference
  2
_ORIGIN
 10
13849.50252121319
 20
7245.220712987301
 30
0.0
 41
50.0
 42
50.0
 43
50.0
 50
90.0
  0
MTEXT
  5
709
330
48D
100
AcDbEntity
  8
寸法
  6
Continuous
100
AcDbMText
 10
13724.50252121319
 20
6845.220712987303
 30
0.0
 40
150.0
 41
0.0
 71
     5
 72
     1
  1
\A1;800
  7
1_100
 11
0.0000000000000001
 21
1.0
 31
0.0
 73
     1
 44
1.0
1001
ACAD
1000
MTEXTBEGIN
1070
    73
1070
     1
1070
    44
1040
1.0
1070
    74
1070
     0
1000
MTEXTEND
  0
POINT
  5
70A
330
48D
100
AcDbEntity
  8
DEFPOINTS
  6
Continuous
 62
     0
100
AcDbPoint
 10
13298.82016281463
 20
6445.220712987302
 30
0.0
  0
POINT
  5
70B
330
48D
100
AcDbEntity
  8
DEFPOINTS
  6
Continuous
 62
     0
100
AcDbPoint
 10
13298.82016281463
 20
7245.220712987301
 30
0.0
  0
POINT
  5
70C
330
48D
100
AcDbEntity
  8
DEFPOINTS
  6
Continuous
 62
     0
100
AcDbPoint
 10
13849.50252121319
 20
7245.220712987301
 30
0.0
  0
ENDBLK
  5
498
330
48D
100
AcDbEntity
  8
0
100
AcDbBlockEnd
  0
BLOCK
  5
4A5
330
499
100
AcDbEntity
  8
0
100
AcDbBlockBegin
  2
*D6
 70
     1
 10
0.0
 20
0.0
 30
0.0
  3
*D6
  1

  0
LINE
  5
6F9
330
499
100
AcDbEntity
  8
寸法
  6
Continuous
370
    -2
100
AcDbLine
 10
13448.82016281462
 20
6345.220712987302
 30
0.0
 11
13849.50252121319
 21
6345.220712987302
 31
0.0
  0
LINE
  5
6FA
330
499
100
AcDbEntity
  8
寸法
  6
Continuous
370
    -2
100
AcDbLine
 10
13448.82016281462
 20
6445.220712987302
 30
0.0
 11
13849.50252121319
 21
6445.220712987302
 31
0.0
  0
LINE
  5
6FB
330
499
100
AcDbEntity
  8
寸法
  6
Continuous
370
    -2
100
AcDbLine
 10
13849.50252121319
 20
6295.220712987301
 30
0.0
 11
13849.50252121319
 21
6245.220712987301
 31
0.0
  0
LINE
  5
6FC
330
499
100
AcDbEntity
  8
寸法
  6
Continuous
370
    -2
100
AcDbLine
 10
13849.50252121319
 20
6495.220712987301
 30
0.0
 11
13849.50252121319
 21
6545.220712987301
 31
0.0
  0
MTEXT
  5
6FD
330
499
100
AcDbEntity
  8
寸法
  6
Continuous
100
AcDbMText
 10
13691.56235354562
 20
6146.215260054571
 30
0.0
 40
150.0
 41
0.0
 71
     5
 72
     1
  1
\A1;100
  7
1_100
 11
0.0000000000000001
 21
1.0
 31
0.0
 73
     1
 44
1.0
1001
ACAD
1000
MTEXTBEGIN
1070
    73
1070
     1
1070
    44
1040
1.0
1070
    74
1070
     0
1000
MTEXTEND
  0
LINE
  5
6FE
330
499
100
AcDbEntity
  8
寸法
  6
Continuous
370
    -2
100
AcDbLine
 10
13849.50252121319
 20
6345.220712987302
 30
0.0
 11
13849.50252121319
 21
6445.220712987302
 31
0.0
  0
INSERT
  5
6FF
330
499
100
AcDbEntity
  8
寸法
  6
Continuous
370
    -2
100
AcDbBlockReference
  2
_ORIGIN
 10
13849.50252121319
 20
6345.220712987302
 30
0.0
 41
50.0
 42
50.0
 43
50.0
 50
90.0
  0
INSERT
  5
700
330
499
100
AcDbEntity
  8
寸法
  6
Continuous
370
    -2
100
AcDbBlockReference
  2
_ORIGIN
 10
13849.50252121319
 20
6445.220712987302
 30
0.0
 41
50.0
 42
50.0
 43
50.0
 50
270.0
  0
POINT
  5
701
330
499
100
AcDbEntity
  8
DEFPOINTS
  6
Continuous
 62
     0
100
AcDbPoint
 10
13298.82016281463
 20
6345.220712987302
 30
0.0
  0
POINT
  5
702
330
499
100
AcDbEntity
  8
DEFPOINTS
  6
Continuous
 62
     0
100
AcDbPoint
 10
13298.82016281463
 20
6445.220712987302
 30
0.0
  0
POINT
  5
703
330
499
100
AcDbEntity
  8
DEFPOINTS
  6
Continuous
 62
     0
100
AcDbPoint
 10
13849.50252121319
 20
6445.220712987302
 30
0.0
  0
ENDBLK
  5
4A6
330
499
100
AcDbEntity
  8
0
100
AcDbBlockEnd
  0
BLOCK
  5
4B1
330
4A7
100
AcDbEntity
  8
0
100
AcDbBlockBegin
  2
*D7
 70
     1
 10
0.0
 20
0.0
 30
0.0
  3
*D7
  1

  0
LINE
  5
6F0
330
4A7
100
AcDbEntity
  8
寸法
  6
Continuous
370
    -2
100
AcDbLine
 10
3598.82016281486
 20
5478.473833550644
 30
0.0
 11
3598.82016281486
 21
4845.220712987361
 31
0.0
  0
LINE
  5
6F1
330
4A7
100
AcDbEntity
  8
寸法
  6
Continuous
370
    -2
100
AcDbLine
 10
9598.82016281486
 20
6052.753241193892
 30
0.0
 11
9598.82016281486
 21
4845.220712987361
 31
0.0
  0
LINE
  5
6F2
330
4A7
100
AcDbEntity
  8
寸法
  6
Continuous
370
    -2
100
AcDbLine
 10
3648.820162814859
 20
4845.220712987361
 30
0.0
 11
9548.820162814861
 21
4845.220712987361
 31
0.0
  0
INSERT
  5
6F3
330
4A7
100
AcDbEntity
  8
寸法
  6
Continuous
370
    -2
100
AcDbBlockReference
  2
_ORIGIN
 10
3598.82016281486
 20
4845.220712987361
 30
0.0
 41
50.0
 42
50.0
 43
50.0
 50
180.0
  0
INSERT
  5
6F4
330
4A7
100
AcDbEntity
  8
寸法
  6
Continuous
370
    -2
100
AcDbBlockReference
  2
_ORIGIN
 10
9598.82016281486
 20
4845.220712987361
 30
0.0
 41
50.0
 42
50.0
 43
50.0
  0
MTEXT
  5
6F5
330
4A7
100
AcDbEntity
  8
寸法
  6
Continuous
100
AcDbMText
 10
6598.82016281486
 20
4984.506427273075
 30
0.0
 40
150.0
 41
0.0
 71
     5
 72
     1
  1
\A1;6,000
  7
1_100
 73
     1
 44
1.0
1001
ACAD
1000
MTEXTBEGIN
1070
    73
1070
     1
1070
    44
1040
1.0
1070
    74
1070
     0
1000
MTEXTEND
  0
POINT
  5
6F6
330
4A7
100
AcDbEntity
  8
DEFPOINTS
  6
Continuous
 62
     0
100
AcDbPoint
 10
3598.82016281486
 20
5628.473833550645
 30
0.0
  0
POINT
  5
6F7
330
4A7
100
AcDbEntity
  8
DEFPOINTS
  6
Continuous
 62
     0
100
AcDbPoint
 10
9598.82016281486
 20
6202.753241193892
 30
0.0
  0
POINT
  5
6F8
330
4A7
100
AcDbEntity
  8
DEFPOINTS
  6
Continuous
 62
     0
100
AcDbPoint
 10
9598.82016281486
 20
4845.220712987361
 30
0.0
  0
ENDBLK
  5
4B2
330
4A7
100
AcDbEntity
  8
0
100
AcDbBlockEnd
  0
BLOCK
  5
4BF
330
4B3
100
AcDbEntity
  8
0
100
AcDbBlockBegin
  2
*D8
 70
     1
 10
0.0
 20
0.0
 30
0.0
  3
*D8
  1

  0
LINE
  5
6E5
330
4B3
100
AcDbEntity
  8
寸法
  6
Continuous
370
    -2
100
AcDbLine
 10
3348.82016281486
 20
6195.220712987302
 30
0.0
 11
3348.82016281486
 21
5745.220712987244
 31
0.0
  0
LINE
  5
6E6
330
4B3
100
AcDbEntity
  8
寸法
  6
Continuous
370
    -2
100
AcDbLine
 10
3848.82016281486
 20
6195.220712987243
 30
0.0
 11
3848.82016281486
 21
5745.220712987244
 31
0.0
  0
LINE
  5
6E7
330
4B3
100
AcDbEntity
  8
寸法
  6
Continuous
370
    -2
100
AcDbLine
 10
3298.820162814859
 20
5745.220712987244
 30
0.0
 11
3248.82016281486
 21
5745.220712987244
 31
0.0
  0
LINE
  5
6E8
330
4B3
100
AcDbEntity
  8
寸法
  6
Continuous
370
    -2
100
AcDbLine
 10
3898.820162814859
 20
5745.220712987244
 30
0.0
 11
3948.82016281486
 21
5745.220712987244
 31
0.0
  0
LINE
  5
6E9
330
4B3
100
AcDbEntity
  8
寸法
  6
Continuous
370
    -2
100
AcDbLine
 10
3348.82016281486
 20
5745.220712987244
 30
0.0
 11
3848.82016281486
 21
5745.220712987244
 31
0.0
  0
INSERT
  5
6EA
330
4B3
100
AcDbEntity
  8
寸法
  6
Continuous
370
    -2
100
AcDbBlockReference
  2
_ORIGIN
 10
3348.82016281486
 20
5745.220712987244
 30
0.0
 41
50.0
 42
50.0
 43
50.0
  0
INSERT
  5
6EB
330
4B3
100
AcDbEntity
  8
寸法
  6
Continuous
370
    -2
100
AcDbBlockReference
  2
_ORIGIN
 10
3848.82016281486
 20
5745.220712987244
 30
0.0
 41
50.0
 42
50.0
 43
50.0
 50
180.0
  0
MTEXT
  5
6EC
330
4B3
100
AcDbEntity
  8
寸法
  6
Continuous
100
AcDbMText
 10
3598.82016281486
 20
5620.220712987244
 30
0.0
 40
150.0
 41
0.0
 71
     5
 72
     1
  1
\A1;□500
  7
1_100
 73
     1
 44
1.0
1001
ACAD
1000
MTEXTBEGIN
1070
    73
1070
     1
1070
    44
1040
1.0
1070
    74
1070
     0
1000
MTEXTEND
  0
POINT
  5
6ED
330
4B3
100
AcDbEntity
  8
DEFPOINTS
  6
Continuous
 62
     0
100
AcDbPoint
 10
3348.82016281486
 20
6345.220712987302
 30
0.0
  0
POINT
  5
6EE
330
4B3
100
AcDbEntity
  8
DEFPOINTS
  6
Continuous
 62
     0
100
AcDbPoint
 10
3848.82016281486
 20
6345.220712987242
 30
0.0
  0
POINT
  5
6EF
330
4B3
100
AcDbEntity
  8
DEFPOINTS
  6
Continuous
 62
     0
100
AcDbPoint
 10
3848.82016281486
 20
5745.220712987244
 30
0.0
  0
ENDBLK
  5
4C0
330
4B3
100
AcDbEntity
  8
0
100
AcDbBlockEnd
  0
BLOCK
  5
4CD
330
4C1
100
AcDbEntity
  8
0
100
AcDbBlockBegin
  2
*D9
 70
     1
 10
0.0
 20
0.0
 30
0.0
  3
*D9
  1

  0
LINE
  5
6DA
330
4C1
100
AcDbEntity
  8
寸法
  6
Continuous
370
    -2
100
AcDbLine
 10
3373.82016281486
 20
6195.220712987302
 30
0.0
 11
3373.82016281486
 21
6045.220712987301
 31
0.0
  0
LINE
  5
6DB
330
4C1
100
AcDbEntity
  8
寸法
  6
Continuous
370
    -2
100
AcDbLine
 10
3823.82016281486
 20
6195.220712987302
 30
0.0
 11
3823.82016281486
 21
6045.220712987301
 31
0.0
  0
LINE
  5
6DC
330
4C1
100
AcDbEntity
  8
寸法
  6
Continuous
370
    -2
100
AcDbLine
 10
3323.82016281486
 20
6045.220712987301
 30
0.0
 11
3273.820162814859
 21
6045.220712987301
 31
0.0
  0
LINE
  5
6DD
330
4C1
100
AcDbEntity
  8
寸法
  6
Continuous
370
    -2
100
AcDbLine
 10
3873.82016281486
 20
6045.220712987301
 30
0.0
 11
3923.820162814859
 21
6045.220712987301
 31
0.0
  0
LINE
  5
6DE
330
4C1
100
AcDbEntity
  8
寸法
  6
Continuous
370
    -2
100
AcDbLine
 10
3373.82016281486
 20
6045.220712987301
 30
0.0
 11
3823.82016281486
 21
6045.220712987301
 31
0.0
  0
INSERT
  5
6DF
330
4C1
100
AcDbEntity
  8
寸法
  6
Continuous
370
    -2
100
AcDbBlockReference
  2
_ORIGIN
 10
3373.82016281486
 20
6045.220712987301
 30
0.0
 41
50.0
 42
50.0
 43
50.0
  0
INSERT
  5
6E0
330
4C1
100
AcDbEntity
  8
寸法
  6
Continuous
370
    -2
100
AcDbBlockReference
  2
_ORIGIN
 10
3823.82016281486
 20
6045.220712987301
 30
0.0
 41
50.0
 42
50.0
 43
50.0
 50
180.0
  0
MTEXT
  5
6E1
330
4C1
100
AcDbEntity
  8
寸法
  6
Continuous
100
AcDbMText
 10
3598.82016281486
 20
5920.220712987301
 30
0.0
 40
150.0
 41
0.0
 71
     5
 72
     1
  1
\A1;φ450
  7
1_100
 73
     1
 44
1.0
1001
ACAD
1000
MTEXTBEGIN
1070
    73
1070
     1
1070
    44
1040
1.0
1070
    74
1070
     0
1000
MTEXTEND
  0
POINT
  5
6E2
330
4C1
100
AcDbEntity
  8
DEFPOINTS
  6
Continuous
 62
     0
100
AcDbPoint
 10
3373.82016281486
 20
6345.220712987302
 30
0.0
  0
POINT
  5
6E3
330
4C1
100
AcDbEntity
  8
DEFPOINTS
  6
Continuous
 62
     0
100
AcDbPoint
 10
3823.82016281486
 20
6345.220712987302
 30
0.0
  0
POINT
  5
6E4
330
4C1
100
AcDbEntity
  8
DEFPOINTS
  6
Continuous
 62
     0
100
AcDbPoint
 10
3823.82016281486
 20
6045.220712987301
 30
0.0
  0
ENDBLK
  5
4CE
330
4C1
100
AcDbEntity
  8
0
100
AcDbBlockEnd
  0
BLOCK
  5
4DB
330
4CF
100
AcDbEntity
  8
0
100
AcDbBlockBegin
  2
*D10
 70
     1
 10
0.0
 20
0.0
 30
0.0
  3
*D10
  1

  0
LINE
  5
6BD
330
4CF
100
AcDbEntity
  8
寸法
  6
Continuous
370
    -2
100
AcDbLine
 10
16299.50252121319
 20
6345.220712987302
 30
0.0
 11
16699.50252121319
 21
6345.220712987302
 31
0.0
  0
LINE
  5
6BE
330
4CF
100
AcDbEntity
  8
寸法
  6
Continuous
370
    -2
100
AcDbLine
 10
16299.50252121319
 20
6445.220712987302
 30
0.0
 11
16699.50252121319
 21
6445.220712987302
 31
0.0
  0
LINE
  5
6BF
330
4CF
100
AcDbEntity
  8
寸法
  6
Continuous
370
    -2
100
AcDbLine
 10
16699.50252121319
 20
6295.220712987301
 30
0.0
 11
16699.50252121319
 21
6245.220712987301
 31
0.0
  0
LINE
  5
6C0
330
4CF
100
AcDbEntity
  8
寸法
  6
Continuous
370
    -2
100
AcDbLine
 10
16699.50252121319
 20
6495.220712987301
 30
0.0
 11
16699.50252121319
 21
6545.220712987301
 31
0.0
  0
MTEXT
  5
6C1
330
4CF
100
AcDbEntity
  8
寸法
  6
Continuous
100
AcDbMText
 10
16567.29768158384
 20
6167.328846760621
 30
0.0
 40
150.0
 41
0.0
 71
     5
 72
     1
  1
\A1;100
  7
1_100
 11
0.0000000000000001
 21
1.0
 31
0.0
 73
     1
 44
1.0
1001
ACAD
1000
MTEXTBEGIN
1070
    73
1070
     1
1070
    44
1040
1.0
1070
    74
1070
     0
1000
MTEXTEND
  0
LINE
  5
6C2
330
4CF
100
AcDbEntity
  8
寸法
  6
Continuous
370
    -2
100
AcDbLine
 10
16699.50252121319
 20
6345.220712987302
 30
0.0
 11
16699.50252121319
 21
6445.220712987302
 31
0.0
  0
INSERT
  5
6C3
330
4CF
100
AcDbEntity
  8
寸法
  6
Continuous
370
    -2
100
AcDbBlockReference
  2
_ORIGIN
 10
16699.50252121319
 20
6345.220712987302
 30
0.0
 41
50.0
 42
50.0
 43
50.0
 50
90.0
  0
INSERT
  5
6C4
330
4CF
100
AcDbEntity
  8
寸法
  6
Continuous
370
    -2
100
AcDbBlockReference
  2
_ORIGIN
 10
16699.50252121319
 20
6445.220712987302
 30
0.0
 41
50.0
 42
50.0
 43
50.0
 50
270.0
  0
POINT
  5
6C5
330
4CF
100
AcDbEntity
  8
DEFPOINTS
  6
Continuous
 62
     0
100
AcDbPoint
 10
16149.50252121319
 20
6345.220712987302
 30
0.0
  0
POINT
  5
6C6
330
4CF
100
AcDbEntity
  8
DEFPOINTS
  6
Continuous
 62
     0
100
AcDbPoint
 10
16149.50252121319
 20
6445.220712987302
 30
0.0
  0
POINT
  5
6C7
330
4CF
100
AcDbEntity
  8
DEFPOINTS
  6
Continuous
 62
     0
100
AcDbPoint
 10
16699.50252121319
 20
6445.220712987302
 30
0.0
  0
ENDBLK
  5
4DC
330
4CF
100
AcDbEntity
  8
0
100
AcDbBlockEnd
  0
BLOCK
  5
4E9
330
4DD
100
AcDbEntity
  8
0
100
AcDbBlockBegin
  2
*D11
 70
     1
 10
0.0
 20
0.0
 30
0.0
  3
*D11
  1

  0
LINE
  5
6B2
330
4DD
100
AcDbEntity
  8
寸法
  6
Continuous
370
    -2
100
AcDbLine
 10
15174.50252121319
 20
6195.22071298736
 30
0.0
 11
15174.50252121319
 21
6045.22071298736
 31
0.0
  0
LINE
  5
6B3
330
4DD
100
AcDbEntity
  8
寸法
  6
Continuous
370
    -2
100
AcDbLine
 10
15624.50252121319
 20
6195.22071298736
 30
0.0
 11
15624.50252121319
 21
6045.22071298736
 31
0.0
  0
LINE
  5
6B4
330
4DD
100
AcDbEntity
  8
寸法
  6
Continuous
370
    -2
100
AcDbLine
 10
15124.50252121319
 20
6045.22071298736
 30
0.0
 11
15074.50252121319
 21
6045.22071298736
 31
0.0
  0
LINE
  5
6B5
330
4DD
100
AcDbEntity
  8
寸法
  6
Continuous
370
    -2
100
AcDbLine
 10
15674.50252121319
 20
6045.22071298736
 30
0.0
 11
15724.50252121319
 21
6045.22071298736
 31
0.0
  0
LINE
  5
6B6
330
4DD
100
AcDbEntity
  8
寸法
  6
Continuous
370
    -2
100
AcDbLine
 10
15174.50252121319
 20
6045.22071298736
 30
0.0
 11
15624.50252121319
 21
6045.22071298736
 31
0.0
  0
INSERT
  5
6B7
330
4DD
100
AcDbEntity
  8
寸法
  6
Continuous
370
    -2
100
AcDbBlockReference
  2
_ORIGIN
 10
15174.50252121319
 20
6045.22071298736
 30
0.0
 41
50.0
 42
50.0
 43
50.0
  0
INSERT
  5
6B8
330
4DD
100
AcDbEntity
  8
寸法
  6
Continuous
370
    -2
100
AcDbBlockReference
  2
_ORIGIN
 10
15624.50252121319
 20
6045.22071298736
 30
0.0
 41
50.0
 42
50.0
 43
50.0
 50
180.0
  0
MTEXT
  5
6B9
330
4DD
100
AcDbEntity
  8
寸法
  6
Continuous
100
AcDbMText
 10
15399.50252121319
 20
5920.22071298736
 30
0.0
 40
150.0
 41
0.0
 71
     5
 72
     1
  1
\A1;φ450
  7
1_100
 73
     1
 44
1.0
1001
ACAD
1000
MTEXTBEGIN
1070
    73
1070
     1
1070
    44
1040
1.0
1070
    74
1070
     0
1000
MTEXTEND
  0
POINT
  5
6BA
330
4DD
100
AcDbEntity
  8
DEFPOINTS
  6
Continuous
 62
     0
100
AcDbPoint
 10
15174.50252121319
 20
6345.22071298736
 30
0.0
  0
POINT
  5
6BB
330
4DD
100
AcDbEntity
  8
DEFPOINTS
  6
Continuous
 62
     0
100
AcDbPoint
 10
15624.50252121319
 20
6345.22071298736
 30
0.0
  0
POINT
  5
6BC
330
4DD
100
AcDbEntity
  8
DEFPOINTS
  6
Continuous
 62
     0
100
AcDbPoint
 10
15624.50252121319
 20
6045.22071298736
 30
0.0
  0
ENDBLK
  5
4EA
330
4DD
100
AcDbEntity
  8
0
100
AcDbBlockEnd
  0
BLOCK
  5
4F7
330
4EB
100
AcDbEntity
  8
0
100
AcDbBlockBegin
  2
*D12
 70
     1
 10
0.0
 20
0.0
 30
0.0
  3
*D12
  1

  0
LINE
  5
6A7
330
4EB
100
AcDbEntity
  8
寸法
  6
Continuous
370
    -2
100
AcDbLine
 10
15149.50252121319
 20
6195.22071298736
 30
0.0
 11
15149.50252121319
 21
5745.220712987301
 31
0.0
  0
LINE
  5
6A8
330
4EB
100
AcDbEntity
  8
寸法
  6
Continuous
370
    -2
100
AcDbLine
 10
15649.50252121319
 20
6195.220712987302
 30
0.0
 11
15649.50252121319
 21
5745.220712987301
 31
0.0
  0
LINE
  5
6A9
330
4EB
100
AcDbEntity
  8
寸法
  6
Continuous
370
    -2
100
AcDbLine
 10
15099.50252121319
 20
5745.220712987301
 30
0.0
 11
15049.50252121319
 21
5745.220712987301
 31
0.0
  0
LINE
  5
6AA
330
4EB
100
AcDbEntity
  8
寸法
  6
Continuous
370
    -2
100
AcDbLine
 10
15699.50252121319
 20
5745.220712987301
 30
0.0
 11
15749.50252121319
 21
5745.220712987301
 31
0.0
  0
LINE
  5
6AB
330
4EB
100
AcDbEntity
  8
寸法
  6
Continuous
370
    -2
100
AcDbLine
 10
15149.50252121319
 20
5745.220712987301
 30
0.0
 11
15649.50252121319
 21
5745.220712987301
 31
0.0
  0
INSERT
  5
6AC
330
4EB
100
AcDbEntity
  8
寸法
  6
Continuous
370
    -2
100
AcDbBlockReference
  2
_ORIGIN
 10
15149.50252121319
 20
5745.220712987301
 30
0.0
 41
50.0
 42
50.0
 43
50.0
  0
INSERT
  5
6AD
330
4EB
100
AcDbEntity
  8
寸法
  6
Continuous
370
    -2
100
AcDbBlockReference
  2
_ORIGIN
 10
15649.50252121319
 20
5745.220712987301
 30
0.0
 41
50.0
 42
50.0
 43
50.0
 50
180.0
  0
MTEXT
  5
6AE
330
4EB
100
AcDbEntity
  8
寸法
  6
Continuous
100
AcDbMText
 10
15399.50252121319
 20
5620.220712987301
 30
0.0
 40
150.0
 41
0.0
 71
     5
 72
     1
  1
\A1;□500
  7
1_100
 73
     1
 44
1.0
1001
ACAD
1000
MTEXTBEGIN
1070
    73
1070
     1
1070
    44
1040
1.0
1070
    74
1070
     0
1000
MTEXTEND
  0
POINT
  5
6AF
330
4EB
100
AcDbEntity
  8
DEFPOINTS
  6
Continuous
 62
     0
100
AcDbPoint
 10
15149.50252121319
 20
6345.22071298736
 30
0.0
  0
POINT
  5
6B0
330
4EB
100
AcDbEntity
  8
DEFPOINTS
  6
Continuous
 62
     0
100
AcDbPoint
 10
15649.50252121319
 20
6345.220712987302
 30
0.0
  0
POINT
  5
6B1
330
4EB
100
AcDbEntity
  8
DEFPOINTS
  6
Continuous
 62
     0
100
AcDbPoint
 10
15649.50252121319
 20
5745.220712987301
 30
0.0
  0
ENDBLK
  5
4F8
330
4EB
100
AcDbEntity
  8
0
100
AcDbBlockEnd
  0
BLOCK
  5
503
330
4F9
100
AcDbEntity
  8
0
100
AcDbBlockBegin
  2
*D13
 70
     1
 10
0.0
 20
0.0
 30
0.0
  3
*D13
  1

  0
LINE
  5
600
330
4F9
100
AcDbEntity
  8
寸法
  6
Continuous
370
    -2
100
AcDbLine
 10
13448.82016281462
 20
7245.220712987301
 30
0.0
 11
13849.50252121319
 21
7245.220712987301
 31
0.0
  0
LINE
  5
601
330
4F9
100
AcDbEntity
  8
寸法
  6
Continuous
370
    -2
100
AcDbLine
 10
13448.82016281462
 20
7445.220712987303
 30
0.0
 11
13849.50252121319
 21
7445.220712987303
 31
0.0
  0
LINE
  5
602
330
4F9
100
AcDbEntity
  8
寸法
  6
Continuous
370
    -2
100
AcDbLine
 10
13849.50252121319
 20
7295.220712987301
 30
0.0
 11
13849.50252121319
 21
7395.220712987303
 31
0.0
  0
MTEXT
  5
603
330
4F9
100
AcDbEntity
  8
寸法
  6
Continuous
100
AcDbMText
 10
13972.05988570471
 20
7263.815728216783
 30
0.0
 40
150.0
 41
0.0
 71
     5
 72
     1
  1
\A1;200
  7
1_100
 11
0.0000000000000001
 21
1.0
 31
0.0
 73
     1
 44
1.0
1001
ACAD
1000
MTEXTBEGIN
1070
    73
1070
     1
1070
    44
1040
1.0
1070
    74
1070
     0
1000
MTEXTEND
  0
INSERT
  5
604
330
4F9
100
AcDbEntity
  8
寸法
  6
Continuous
370
    -2
100
AcDbBlockReference
  2
_ORIGIN
 10
13849.50252121319
 20
7245.220712987301
 30
0.0
 41
50.0
 42
50.0
 43
50.0
 50
270.0
  0
INSERT
  5
605
330
4F9
100
AcDbEntity
  8
寸法
  6
Continuous
370
    -2
100
AcDbBlockReference
  2
_ORIGIN
 10
13849.50252121319
 20
7445.220712987303
 30
0.0
 41
50.0
 42
50.0
 43
50.0
 50
90.0
  0
POINT
  5
606
330
4F9
100
AcDbEntity
  8
DEFPOINTS
  6
Continuous
 62
     0
100
AcDbPoint
 10
13298.82016281463
 20
7245.220712987301
 30
0.0
  0
POINT
  5
607
330
4F9
100
AcDbEntity
  8
DEFPOINTS
  6
Continuous
 62
     0
100
AcDbPoint
 10
13298.82016281463
 20
7445.220712987303
 30
0.0
  0
POINT
  5
608
330
4F9
100
AcDbEntity
  8
DEFPOINTS
  6
Continuous
 62
     0
100
AcDbPoint
 10
13849.50252121319
 20
7445.220712987303
 30
0.0
  0
ENDBLK
  5
504
330
4F9
100
AcDbEntity
  8
0
100
AcDbBlockEnd
  0
BLOCK
  5
50F
330
505
100
AcDbEntity
  8
0
100
AcDbBlockBegin
  2
*D14
 70
     1
 10
0.0
 20
0.0
 30
0.0
  3
*D14
  1

  0
LINE
  5
609
330
505
100
AcDbEntity
  8
寸法
  6
Continuous
370
    -2
100
AcDbLine
 10
13448.82016281462
 20
11445.22071298736
 30
0.0
 11
14249.50252121319
 21
11445.22071298736
 31
0.0
  0
LINE
  5
60A
330
505
100
AcDbEntity
  8
寸法
  6
Continuous
370
    -2
100
AcDbLine
 10
13448.82016281462
 20
7445.220712987303
 30
0.0
 11
14249.50252121319
 21
7445.220712987303
 31
0.0
  0
LINE
  5
60B
330
505
100
AcDbEntity
  8
寸法
  6
Continuous
370
    -2
100
AcDbLine
 10
14249.50252121319
 20
11395.22071298736
 30
0.0
 11
14249.50252121319
 21
7495.220712987301
 31
0.0
  0
INSERT
  5
60C
330
505
100
AcDbEntity
  8
寸法
  6
Continuous
370
    -2
100
AcDbBlockReference
  2
_ORIGIN
 10
14249.50252121319
 20
11445.22071298736
 30
0.0
 41
50.0
 42
50.0
 43
50.0
 50
90.0
  0
INSERT
  5
60D
330
505
100
AcDbEntity
  8
寸法
  6
Continuous
370
    -2
100
AcDbBlockReference
  2
_ORIGIN
 10
14249.50252121319
 20
7445.220712987303
 30
0.0
 41
50.0
 42
50.0
 43
50.0
 50
270.0
  0
MTEXT
  5
60E
330
505
100
AcDbEntity
  8
寸法
  6
Continuous
100
AcDbMText
 10
14110.21680692748
 20
9445.220712987337
 30
0.0
 40
150.0
 41
0.0
 71
     5
 72
     1
  1
\A1;4,000
  7
1_100
 11
0.0000000000000001
 21
1.0
 31
0.0
 73
     1
 44
1.0
1001
ACAD
1000
MTEXTBEGIN
1070
    73
1070
     1
1070
    44
1040
1.0
1070
    74
1070
     0
1000
MTEXTEND
  0
POINT
  5
60F
330
505
100
AcDbEntity
  8
DEFPOINTS
  6
Continuous
 62
     0
100
AcDbPoint
 10
13298.82016281463
 20
11445.22071298736
 30
0.0
  0
POINT
  5
610
330
505
100
AcDbEntity
  8
DEFPOINTS
  6
Continuous
 62
     0
100
AcDbPoint
 10
13298.82016281463
 20
7445.220712987303
 30
0.0
  0
POINT
  5
611
330
505
100
AcDbEntity
  8
DEFPOINTS
  6
Continuous
 62
     0
100
AcDbPoint
 10
14249.50252121319
 20
7445.220712987303
 30
0.0
  0
ENDBLK
  5
510
330
505
100
AcDbEntity
  8
0
100
AcDbBlockEnd
  0
BLOCK
  5
51B
330
511
100
AcDbEntity
  8
0
100
AcDbBlockBegin
  2
*D15
 70
     1
 10
0.0
 20
0.0
 30
0.0
  3
*D15
  1

  0
LINE
  5
612
330
511
100
AcDbEntity
  8
寸法
  6
Continuous
370
    -2
100
AcDbLine
 10
13448.82016281462
 20
9425.220712987361
 30
0.0
 11
13849.50252121319
 21
9425.220712987361
 31
0.0
  0
LINE
  5
613
330
511
100
AcDbEntity
  8
寸法
  6
Continuous
370
    -2
100
AcDbLine
 10
13448.82016281462
 20
11405.22071298736
 30
0.0
 11
13849.50252121319
 21
11405.22071298736
 31
0.0
  0
LINE
  5
614
330
511
100
AcDbEntity
  8
寸法
  6
Continuous
370
    -2
100
AcDbLine
 10
13849.50252121319
 20
9475.220712987361
 30
0.0
 11
13849.50252121319
 21
11355.22071298736
 31
0.0
  0
INSERT
  5
615
330
511
100
AcDbEntity
  8
寸法
  6
Continuous
370
    -2
100
AcDbBlockReference
  2
_ORIGIN
 10
13849.50252121319
 20
9425.220712987361
 30
0.0
 41
50.0
 42
50.0
 43
50.0
 50
270.0
  0
INSERT
  5
616
330
511
100
AcDbEntity
  8
寸法
  6
Continuous
370
    -2
100
AcDbBlockReference
  2
_ORIGIN
 10
13849.50252121319
 20
11405.22071298736
 30
0.0
 41
50.0
 42
50.0
 43
50.0
 50
90.0
  0
MTEXT
  5
617
330
511
100
AcDbEntity
  8
寸法
  6
Continuous
100
AcDbMText
 10
13710.21680692748
 20
10415.22071298736
 30
0.0
 40
150.0
 41
0.0
 71
     5
 72
     1
  1
\A1;1,980
  7
1_100
 11
0.0000000000000001
 21
1.0
 31
0.0
 73
     1
 44
1.0
1001
ACAD
1000
MTEXTBEGIN
1070
    73
1070
     1
1070
    44
1040
1.0
1070
    74
1070
     0
1000
MTEXTEND
  0
POINT
  5
618
330
511
100
AcDbEntity
  8
DEFPOINTS
  6
Continuous
 62
     0
100
AcDbPoint
 10
13298.82016281463
 20
9425.220712987361
 30
0.0
  0
POINT
  5
619
330
511
100
AcDbEntity
  8
DEFPOINTS
  6
Continuous
 62
     0
100
AcDbPoint
 10
13298.82016281463
 20
11405.22071298736
 30
0.0
  0
POINT
  5
61A
330
511
100
AcDbEntity
  8
DEFPOINTS
  6
Continuous
 62
     0
100
AcDbPoint
 10
13849.50252121319
 20
11405.22071298736
 30
0.0
  0
ENDBLK
  5
51C
330
511
100
AcDbEntity
  8
0
100
AcDbBlockEnd
  0
BLOCK
  5
529
330
51D
100
AcDbEntity
  8
0
100
AcDbBlockBegin
  2
*D16
 70
     1
 10
0.0
 20
0.0
 30
0.0
  3
*D16
  1

  0
LINE
  5
61B
330
51D
100
AcDbEntity
  8
寸法
  6
Continuous
370
    -2
100
AcDbLine
 10
13448.82016281462
 20
11405.22071298736
 30
0.0
 11
13849.50252121319
 21
11405.22071298736
 31
0.0
  0
LINE
  5
61C
330
51D
100
AcDbEntity
  8
寸法
  6
Continuous
370
    -2
100
AcDbLine
 10
13448.82016281462
 20
11445.22071298736
 30
0.0
 11
13849.50252121319
 21
11445.22071298736
 31
0.0
  0
LINE
  5
61D
330
51D
100
AcDbEntity
  8
寸法
  6
Continuous
370
    -2
100
AcDbLine
 10
13849.50252121319
 20
11355.22071298736
 30
0.0
 11
13849.50252121319
 21
11305.22071298736
 31
0.0
  0
LINE
  5
61E
330
51D
100
AcDbEntity
  8
寸法
  6
Continuous
370
    -2
100
AcDbLine
 10
13849.50252121319
 20
11495.22071298736
 30
0.0
 11
13849.50252121319
 21
11545.22071298736
 31
0.0
  0
MTEXT
  5
61F
330
51D
100
AcDbEntity
  8
寸法
  6
Continuous
100
AcDbMText
 10
13719.43148178635
 20
11583.05877157382
 30
0.0
 40
150.0
 41
0.0
 71
     5
 72
     1
  1
\A1;40
  7
1_100
 11
0.0000000000000001
 21
1.0
 31
0.0
 73
     1
 44
1.0
1001
ACAD
1000
MTEXTBEGIN
1070
    73
1070
     1
1070
    44
1040
1.0
1070
    74
1070
     0
1000
MTEXTEND
  0
LINE
  5
620
330
51D
100
AcDbEntity
  8
寸法
  6
Continuous
370
    -2
100
AcDbLine
 10
13849.50252121319
 20
11405.22071298736
 30
0.0
 11
13849.50252121319
 21
11445.22071298736
 31
0.0
  0
INSERT
  5
621
330
51D
100
AcDbEntity
  8
寸法
  6
Continuous
370
    -2
100
AcDbBlockReference
  2
_ORIGIN
 10
13849.50252121319
 20
11405.22071298736
 30
0.0
 41
50.0
 42
50.0
 43
50.0
 50
90.0
  0
INSERT
  5
622
330
51D
100
AcDbEntity
  8
寸法
  6
Continuous
370
    -2
100
AcDbBlockReference
  2
_ORIGIN
 10
13849.50252121319
 20
11445.22071298736
 30
0.0
 41
50.0
 42
50.0
 43
50.0
 50
270.0
  0
POINT
  5
623
330
51D
100
AcDbEntity
  8
DEFPOINTS
  6
Continuous
 62
     0
100
AcDbPoint
 10
13298.82016281463
 20
11405.22071298736
 30
0.0
  0
POINT
  5
624
330
51D
100
AcDbEntity
  8
DEFPOINTS
  6
Continuous
 62
     0
100
AcDbPoint
 10
13298.82016281463
 20
11445.22071298736
 30
0.0
  0
POINT
  5
625
330
51D
100
AcDbEntity
  8
DEFPOINTS
  6
Continuous
 62
     0
100
AcDbPoint
 10
13849.50252121319
 20
11445.22071298736
 30
0.0
  0
ENDBLK
  5
52A
330
51D
100
AcDbEntity
  8
0
100
AcDbBlockEnd
  0
BLOCK
  5
535
330
52B
100
AcDbEntity
  8
0
100
AcDbBlockBegin
  2
*D17
 70
     1
 10
0.0
 20
0.0
 30
0.0
  3
*D17
  1

  0
LINE
  5
626
330
52B
100
AcDbEntity
  8
寸法
  6
Continuous
370
    -2
100
AcDbLine
 10
13448.82016281462
 20
7445.220712987303
 30
0.0
 11
13849.50252121319
 21
7445.220712987303
 31
0.0
  0
LINE
  5
627
330
52B
100
AcDbEntity
  8
寸法
  6
Continuous
370
    -2
100
AcDbLine
 10
13448.82016281462
 20
9425.220712987361
 30
0.0
 11
13849.50252121319
 21
9425.220712987361
 31
0.0
  0
LINE
  5
628
330
52B
100
AcDbEntity
  8
寸法
  6
Continuous
370
    -2
100
AcDbLine
 10
13849.50252121319
 20
7495.220712987301
 30
0.0
 11
13849.50252121319
 21
9375.220712987362
 31
0.0
  0
INSERT
  5
629
330
52B
100
AcDbEntity
  8
寸法
  6
Continuous
370
    -2
100
AcDbBlockReference
  2
_ORIGIN
 10
13849.50252121319
 20
7445.220712987303
 30
0.0
 41
50.0
 42
50.0
 43
50.0
 50
270.0
  0
INSERT
  5
62A
330
52B
100
AcDbEntity
  8
寸法
  6
Continuous
370
    -2
100
AcDbBlockReference
  2
_ORIGIN
 10
13849.50252121319
 20
9425.220712987361
 30
0.0
 41
50.0
 42
50.0
 43
50.0
 50
90.0
  0
MTEXT
  5
62B
330
52B
100
AcDbEntity
  8
寸法
  6
Continuous
100
AcDbMText
 10
13710.21680692748
 20
8435.220712987336
 30
0.0
 40
150.0
 41
0.0
 71
     5
 72
     1
  1
\A1;1,980
  7
1_100
 11
0.0000000000000001
 21
1.0
 31
0.0
 73
     1
 44
1.0
1001
ACAD
1000
MTEXTBEGIN
1070
    73
1070
     1
1070
    44
1040
1.0
1070
    74
1070
     0
1000
MTEXTEND
  0
POINT
  5
62C
330
52B
100
AcDbEntity
  8
DEFPOINTS
  6
Continuous
 62
     0
100
AcDbPoint
 10
13298.82016281463
 20
7445.220712987303
 30
0.0
  0
POINT
  5
62D
330
52B
100
AcDbEntity
  8
DEFPOINTS
  6
Continuous
 62
     0
100
AcDbPoint
 10
13298.82016281463
 20
9425.220712987361
 30
0.0
  0
POINT
  5
62E
330
52B
100
AcDbEntity
  8
DEFPOINTS
  6
Continuous
 62
     0
100
AcDbPoint
 10
13849.50252121319
 20
9425.220712987361
 30
0.0
  0
ENDBLK
  5
536
330
52B
100
AcDbEntity
  8
0
100
AcDbBlockEnd
  0
BLOCK
  5
543
330
537
100
AcDbEntity
  8
0
100
AcDbBlockBegin
  2
*D18
 70
     1
 10
0.0
 20
0.0
 30
0.0
  3
*D18
  1

  0
LINE
  5
62F
330
537
100
AcDbEntity
  8
寸法
  6
Continuous
370
    -2
100
AcDbLine
 10
3541.670162814952
 20
11580.22071298736
 30
0.0
 11
3541.670162814952
 21
11745.22071298736
 31
0.0
  0
LINE
  5
630
330
537
100
AcDbEntity
  8
寸法
  6
Continuous
370
    -2
100
AcDbLine
 10
3655.970162814766
 20
11580.22071298736
 30
0.0
 11
3655.970162814766
 21
11745.22071298736
 31
0.0
  0
LINE
  5
631
330
537
100
AcDbEntity
  8
寸法
  6
Continuous
370
    -2
100
AcDbLine
 10
3491.670162814954
 20
11745.22071298736
 30
0.0
 11
3441.670162814953
 21
11745.22071298736
 31
0.0
  0
LINE
  5
632
330
537
100
AcDbEntity
  8
寸法
  6
Continuous
370
    -2
100
AcDbLine
 10
3705.970162814767
 20
11745.22071298736
 30
0.0
 11
3755.970162814767
 21
11745.22071298736
 31
0.0
  0
MTEXT
  5
633
330
537
100
AcDbEntity
  8
寸法
  6
Continuous
100
AcDbMText
 10
3598.82016281486
 20
11895.22071298736
 30
0.0
 40
150.0
 41
0.0
 71
     5
 72
     1
  1
\A1;φ114.3
  7
1_100
 73
     1
 44
1.0
1001
ACAD
1000
MTEXTBEGIN
1070
    73
1070
     1
1070
    44
1040
1.0
1070
    74
1070
     0
1000
MTEXTEND
  0
LINE
  5
634
330
537
100
AcDbEntity
  8
寸法
  6
Continuous
370
    -2
100
AcDbLine
 10
3541.670162814952
 20
11745.22071298736
 30
0.0
 11
3655.970162814766
 21
11745.22071298736
 31
0.0
  0
INSERT
  5
635
330
537
100
AcDbEntity
  8
寸法
  6
Continuous
370
    -2
100
AcDbBlockReference
  2
_ORIGIN
 10
3541.670162814952
 20
11745.22071298736
 30
0.0
 41
50.0
 42
50.0
 43
50.0
  0
INSERT
  5
636
330
537
100
AcDbEntity
  8
寸法
  6
Continuous
370
    -2
100
AcDbBlockReference
  2
_ORIGIN
 10
3655.970162814766
 20
11745.22071298736
 30
0.0
 41
50.0
 42
50.0
 43
50.0
 50
180.0
  0
POINT
  5
637
330
537
100
AcDbEntity
  8
DEFPOINTS
  6
Continuous
 62
     0
100
AcDbPoint
 10
3541.670162814952
 20
11430.22071298736
 30
0.0
  0
POINT
  5
638
330
537
100
AcDbEntity
  8
DEFPOINTS
  6
Continuous
 62
     0
100
AcDbPoint
 10
3655.970162814766
 20
11430.22071298736
 30
0.0
  0
POINT
  5
639
330
537
100
AcDbEntity
  8
DEFPOINTS
  6
Continuous
 62
     0
100
AcDbPoint
 10
3655.970162814766
 20
11745.22071298736
 30
0.0
  0
ENDBLK
  5
544
330
537
100
AcDbEntity
  8
0
100
AcDbBlockEnd
  0
BLOCK
  5
54F
330
545
100
AcDbEntity
  8
0
100
AcDbBlockBegin
  2
*D19
 70
     1
 10
0.0
 20
0.0
 30
0.0
  3
*D19
  1

  0
LINE
  5
63A
330
545
100
AcDbEntity
  8
寸法
  6
Continuous
370
    -2
100
AcDbLine
 10
16299.50252121319
 20
7245.220712987301
 30
0.0
 11
16699.50252121319
 21
7245.220712987301
 31
0.0
  0
LINE
  5
63B
330
545
100
AcDbEntity
  8
寸法
  6
Continuous
370
    -2
100
AcDbLine
 10
16299.50252121319
 20
7445.220712987303
 30
0.0
 11
16699.50252121319
 21
7445.220712987303
 31
0.0
  0
LINE
  5
63C
330
545
100
AcDbEntity
  8
寸法
  6
Continuous
370
    -2
100
AcDbLine
 10
16699.50252121319
 20
7295.220712987301
 30
0.0
 11
16699.50252121319
 21
7395.220712987303
 31
0.0
  0
MTEXT
  5
63D
330
545
100
AcDbEntity
  8
寸法
  6
Continuous
100
AcDbMText
 10
16814.00119454768
 20
7276.458371194954
 30
0.0
 40
150.0
 41
0.0
 71
     5
 72
     1
  1
\A1;200
  7
1_100
 11
0.0000000000000001
 21
1.0
 31
0.0
 73
     1
 44
1.0
1001
ACAD
1000
MTEXTBEGIN
1070
    73
1070
     1
1070
    44
1040
1.0
1070
    74
1070
     0
1000
MTEXTEND
  0
INSERT
  5
63E
330
545
100
AcDbEntity
  8
寸法
  6
Continuous
370
    -2
100
AcDbBlockReference
  2
_ORIGIN
 10
16699.50252121319
 20
7245.220712987301
 30
0.0
 41
50.0
 42
50.0
 43
50.0
 50
270.0
  0
INSERT
  5
63F
330
545
100
AcDbEntity
  8
寸法
  6
Continuous
370
    -2
100
AcDbBlockReference
  2
_ORIGIN
 10
16699.50252121319
 20
7445.220712987303
 30
0.0
 41
50.0
 42
50.0
 43
50.0
 50
90.0
  0
POINT
  5
640
330
545
100
AcDbEntity
  8
DEFPOINTS
  6
Continuous
 62
     0
100
AcDbPoint
 10
16149.50252121319
 20
7245.220712987301
 30
0.0
  0
POINT
  5
641
330
545
100
AcDbEntity
  8
DEFPOINTS
  6
Continuous
 62
     0
100
AcDbPoint
 10
16149.50252121319
 20
7445.220712987303
 30
0.0
  0
POINT
  5
642
330
545
100
AcDbEntity
  8
DEFPOINTS
  6
Continuous
 62
     0
100
AcDbPoint
 10
16699.50252121319
 20
7445.220712987303
 30
0.0
  0
ENDBLK
  5
550
330
545
100
AcDbEntity
  8
0
100
AcDbBlockEnd
  0
BLOCK
  5
55D
330
551
100
AcDbEntity
  8
0
100
AcDbBlockBegin
  2
*D20
 70
     1
 10
0.0
 20
0.0
 30
0.0
  3
*D20
  1

  0
LINE
  5
643
330
551
100
AcDbEntity
  8
寸法
  6
Continuous
370
    -2
100
AcDbLine
 10
15342.35252121305
 20
11595.22071298736
 30
0.0
 11
15342.35252121305
 21
11745.22071298736
 31
0.0
  0
LINE
  5
644
330
551
100
AcDbEntity
  8
寸法
  6
Continuous
370
    -2
100
AcDbLine
 10
15456.65252121333
 20
11595.22071298736
 30
0.0
 11
15456.65252121333
 21
11745.22071298736
 31
0.0
  0
LINE
  5
645
330
551
100
AcDbEntity
  8
寸法
  6
Continuous
370
    -2
100
AcDbLine
 10
15292.35252121305
 20
11745.22071298736
 30
0.0
 11
15242.35252121305
 21
11745.22071298736
 31
0.0
  0
LINE
  5
646
330
551
100
AcDbEntity
  8
寸法
  6
Continuous
370
    -2
100
AcDbLine
 10
15506.65252121333
 20
11745.22071298736
 30
0.0
 11
15556.65252121333
 21
11745.22071298736
 31
0.0
  0
MTEXT
  5
647
330
551
100
AcDbEntity
  8
寸法
  6
Continuous
100
AcDbMText
 10
15399.50252121319
 20
11895.22071298736
 30
0.0
 40
150.0
 41
0.0
 71
     5
 72
     1
  1
\A1;φ114.3
  7
1_100
 73
     1
 44
1.0
1001
ACAD
1000
MTEXTBEGIN
1070
    73
1070
     1
1070
    44
1040
1.0
1070
    74
1070
     0
1000
MTEXTEND
  0
LINE
  5
648
330
551
100
AcDbEntity
  8
寸法
  6
Continuous
370
    -2
100
AcDbLine
 10
15342.35252121305
 20
11745.22071298736
 30
0.0
 11
15456.65252121333
 21
11745.22071298736
 31
0.0
  0
INSERT
  5
649
330
551
100
AcDbEntity
  8
寸法
  6
Continuous
370
    -2
100
AcDbBlockReference
  2
_ORIGIN
 10
15342.35252121305
 20
11745.22071298736
 30
0.0
 41
50.0
 42
50.0
 43
50.0
  0
INSERT
  5
64A
330
551
100
AcDbEntity
  8
寸法
  6
Continuous
370
    -2
100
AcDbBlockReference
  2
_ORIGIN
 10
15456.65252121333
 20
11745.22071298736
 30
0.0
 41
50.0
 42
50.0
 43
50.0
 50
180.0
  0
POINT
  5
64B
330
551
100
AcDbEntity
  8
DEFPOINTS
  6
Continuous
 62
     0
100
AcDbPoint
 10
15342.35252121305
 20
11445.22071298736
 30
0.0
  0
POINT
  5
64C
330
551
100
AcDbEntity
  8
DEFPOINTS
  6
Continuous
 62
     0
100
AcDbPoint
 10
15456.65252121333
 20
11445.22071298736
 30
0.0
  0
POINT
  5
64D
330
551
100
AcDbEntity
  8
DEFPOINTS
  6
Continuous
 62
     0
100
AcDbPoint
 10
15456.65252121333
 20
11745.22071298736
 30
0.0
  0
ENDBLK
  5
55E
330
551
100
AcDbEntity
  8
0
100
AcDbBlockEnd
  0
BLOCK
  5
569
330
55F
100
AcDbEntity
  8
0
100
AcDbBlockBegin
  2
*D21
 70
     1
 10
0.0
 20
0.0
 30
0.0
  3
*D21
  1

  0
LINE
  5
64E
330
55F
100
AcDbEntity
  8
寸法
  6
Continuous
370
    -2
100
AcDbLine
 10
16299.50252121319
 20
9425.220712987361
 30
0.0
 11
16699.50252121319
 21
9425.220712987361
 31
0.0
  0
LINE
  5
64F
330
55F
100
AcDbEntity
  8
寸法
  6
Continuous
370
    -2
100
AcDbLine
 10
16299.50252121319
 20
11405.22071298736
 30
0.0
 11
16699.50252121319
 21
11405.22071298736
 31
0.0
  0
LINE
  5
650
330
55F
100
AcDbEntity
  8
寸法
  6
Continuous
370
    -2
100
AcDbLine
 10
16699.50252121319
 20
9475.220712987361
 30
0.0
 11
16699.50252121319
 21
11355.22071298736
 31
0.0
  0
INSERT
  5
651
330
55F
100
AcDbEntity
  8
寸法
  6
Continuous
370
    -2
100
AcDbBlockReference
  2
_ORIGIN
 10
16699.50252121319
 20
9425.220712987361
 30
0.0
 41
50.0
 42
50.0
 43
50.0
 50
270.0
  0
INSERT
  5
652
330
55F
100
AcDbEntity
  8
寸法
  6
Continuous
370
    -2
100
AcDbBlockReference
  2
_ORIGIN
 10
16699.50252121319
 20
11405.22071298736
 30
0.0
 41
50.0
 42
50.0
 43
50.0
 50
90.0
  0
MTEXT
  5
653
330
55F
100
AcDbEntity
  8
寸法
  6
Continuous
100
AcDbMText
 10
16560.21680692748
 20
10415.22071298736
 30
0.0
 40
150.0
 41
0.0
 71
     5
 72
     1
  1
\A1;1,980
  7
1_100
 11
0.0000000000000001
 21
1.0
 31
0.0
 73
     1
 44
1.0
1001
ACAD
1000
MTEXTBEGIN
1070
    73
1070
     1
1070
    44
1040
1.0
1070
    74
1070
     0
1000
MTEXTEND
  0
POINT
  5
654
330
55F
100
AcDbEntity
  8
DEFPOINTS
  6
Continuous
 62
     0
100
AcDbPoint
 10
16149.50252121319
 20
9425.220712987361
 30
0.0
  0
POINT
  5
655
330
55F
100
AcDbEntity
  8
DEFPOINTS
  6
Continuous
 62
     0
100
AcDbPoint
 10
16149.50252121319
 20
11405.22071298736
 30
0.0
  0
POINT
  5
656
330
55F
100
AcDbEntity
  8
DEFPOINTS
  6
Continuous
 62
     0
100
AcDbPoint
 10
16699.50252121319
 20
11405.22071298736
 30
0.0
  0
ENDBLK
  5
56A
330
55F
100
AcDbEntity
  8
0
100
AcDbBlockEnd
  0
BLOCK
  5
577
330
56B
100
AcDbEntity
  8
0
100
AcDbBlockBegin
  2
*D22
 70
     1
 10
0.0
 20
0.0
 30
0.0
  3
*D22
  1

  0
LINE
  5
657
330
56B
100
AcDbEntity
  8
寸法
  6
Continuous
370
    -2
100
AcDbLine
 10
16299.50252121319
 20
11405.22071298736
 30
0.0
 11
16699.50252121319
 21
11405.22071298736
 31
0.0
  0
LINE
  5
658
330
56B
100
AcDbEntity
  8
寸法
  6
Continuous
370
    -2
100
AcDbLine
 10
16299.50252121319
 20
11445.22071298736
 30
0.0
 11
16699.50252121319
 21
11445.22071298736
 31
0.0
  0
LINE
  5
659
330
56B
100
AcDbEntity
  8
寸法
  6
Continuous
370
    -2
100
AcDbLine
 10
16699.50252121319
 20
11355.22071298736
 30
0.0
 11
16699.50252121319
 21
11305.22071298736
 31
0.0
  0
LINE
  5
65A
330
56B
100
AcDbEntity
  8
寸法
  6
Continuous
370
    -2
100
AcDbLine
 10
16699.50252121319
 20
11495.22071298736
 30
0.0
 11
16699.50252121319
 21
11545.22071298736
 31
0.0
  0
MTEXT
  5
65B
330
56B
100
AcDbEntity
  8
寸法
  6
Continuous
100
AcDbMText
 10
16580.21714503114
 20
11571.37710567017
 30
0.0
 40
150.0
 41
0.0
 71
     5
 72
     1
  1
\A1;40
  7
1_100
 11
0.0000000000000001
 21
1.0
 31
0.0
 73
     1
 44
1.0
1001
ACAD
1000
MTEXTBEGIN
1070
    73
1070
     1
1070
    44
1040
1.0
1070
    74
1070
     0
1000
MTEXTEND
  0
LINE
  5
65C
330
56B
100
AcDbEntity
  8
寸法
  6
Continuous
370
    -2
100
AcDbLine
 10
16699.50252121319
 20
11405.22071298736
 30
0.0
 11
16699.50252121319
 21
11445.22071298736
 31
0.0
  0
INSERT
  5
65D
330
56B
100
AcDbEntity
  8
寸法
  6
Continuous
370
    -2
100
AcDbBlockReference
  2
_ORIGIN
 10
16699.50252121319
 20
11405.22071298736
 30
0.0
 41
50.0
 42
50.0
 43
50.0
 50
90.0
  0
INSERT
  5
65E
330
56B
100
AcDbEntity
  8
寸法
  6
Continuous
370
    -2
100
AcDbBlockReference
  2
_ORIGIN
 10
16699.50252121319
 20
11445.22071298736
 30
0.0
 41
50.0
 42
50.0
 43
50.0
 50
270.0
  0
POINT
  5
65F
330
56B
100
AcDbEntity
  8
DEFPOINTS
  6
Continuous
 62
     0
100
AcDbPoint
 10
16149.50252121319
 20
11405.22071298736
 30
0.0
  0
POINT
  5
660
330
56B
100
AcDbEntity
  8
DEFPOINTS
  6
Continuous
 62
     0
100
AcDbPoint
 10
16149.50252121319
 20
11445.22071298736
 30
0.0
  0
POINT
  5
661
330
56B
100
AcDbEntity
  8
DEFPOINTS
  6
Continuous
 62
     0
100
AcDbPoint
 10
16699.50252121319
 20
11445.22071298736
 30
0.0
  0
ENDBLK
  5
578
330
56B
100
AcDbEntity
  8
0
100
AcDbBlockEnd
  0
BLOCK
  5
583
330
579
100
AcDbEntity
  8
0
100
AcDbBlockBegin
  2
*D23
 70
     1
 10
0.0
 20
0.0
 30
0.0
  3
*D23
  1

  0
LINE
  5
662
330
579
100
AcDbEntity
  8
寸法
  6
Continuous
370
    -2
100
AcDbLine
 10
16299.50252121319
 20
11445.22071298736
 30
0.0
 11
17099.5025212132
 21
11445.22071298736
 31
0.0
  0
LINE
  5
663
330
579
100
AcDbEntity
  8
寸法
  6
Continuous
370
    -2
100
AcDbLine
 10
16299.50252121319
 20
7445.220712987303
 30
0.0
 11
17099.50252121319
 21
7445.220712987303
 31
0.0
  0
LINE
  5
664
330
579
100
AcDbEntity
  8
寸法
  6
Continuous
370
    -2
100
AcDbLine
 10
17099.5025212132
 20
11395.22071298736
 30
0.0
 11
17099.50252121319
 21
7495.220712987301
 31
0.0
  0
INSERT
  5
665
330
579
100
AcDbEntity
  8
寸法
  6
Continuous
370
    -2
100
AcDbBlockReference
  2
_ORIGIN
 10
17099.5025212132
 20
11445.22071298736
 30
0.0
 41
50.0
 42
50.0
 43
50.0
 50
90.0
  0
INSERT
  5
666
330
579
100
AcDbEntity
  8
寸法
  6
Continuous
370
    -2
100
AcDbBlockReference
  2
_ORIGIN
 10
17099.50252121319
 20
7445.220712987303
 30
0.0
 41
50.0
 42
50.0
 43
50.0
 50
270.0
  0
MTEXT
  5
667
330
579
100
AcDbEntity
  8
寸法
  6
Continuous
100
AcDbMText
 10
16960.21680692748
 20
9445.220712987334
 30
0.0
 40
150.0
 41
0.0
 71
     5
 72
     1
  1
\A1;4,000
  7
1_100
 11
0.0000000000000001
 21
1.0
 31
0.0
 73
     1
 44
1.0
1001
ACAD
1000
MTEXTBEGIN
1070
    73
1070
     1
1070
    44
1040
1.0
1070
    74
1070
     0
1000
MTEXTEND
  0
POINT
  5
668
330
579
100
AcDbEntity
  8
DEFPOINTS
  6
Continuous
 62
     0
100
AcDbPoint
 10
16149.50252121319
 20
11445.22071298736
 30
0.0
  0
POINT
  5
669
330
579
100
AcDbEntity
  8
DEFPOINTS
  6
Continuous
 62
     0
100
AcDbPoint
 10
16149.50252121319
 20
7445.220712987303
 30
0.0
  0
POINT
  5
66A
330
579
100
AcDbEntity
  8
DEFPOINTS
  6
Continuous
 62
     0
100
AcDbPoint
 10
17099.50252121319
 20
7445.220712987303
 30
0.0
  0
ENDBLK
  5
584
330
579
100
AcDbEntity
  8
0
100
AcDbBlockEnd
  0
BLOCK
  5
58F
330
585
100
AcDbEntity
  8
0
100
AcDbBlockBegin
  2
*D24
 70
     1
 10
0.0
 20
0.0
 30
0.0
  3
*D24
  1

  0
LINE
  5
66B
330
585
100
AcDbEntity
  8
寸法
  6
Continuous
370
    -2
100
AcDbLine
 10
16299.50252121319
 20
7445.220712987303
 30
0.0
 11
16699.50252121319
 21
7445.220712987303
 31
0.0
  0
LINE
  5
66C
330
585
100
AcDbEntity
  8
寸法
  6
Continuous
370
    -2
100
AcDbLine
 10
16299.50252121319
 20
9425.220712987361
 30
0.0
 11
16699.50252121319
 21
9425.220712987361
 31
0.0
  0
LINE
  5
66D
330
585
100
AcDbEntity
  8
寸法
  6
Continuous
370
    -2
100
AcDbLine
 10
16699.50252121319
 20
7495.220712987301
 30
0.0
 11
16699.50252121319
 21
9375.220712987362
 31
0.0
  0
INSERT
  5
66E
330
585
100
AcDbEntity
  8
寸法
  6
Continuous
370
    -2
100
AcDbBlockReference
  2
_ORIGIN
 10
16699.50252121319
 20
7445.220712987303
 30
0.0
 41
50.0
 42
50.0
 43
50.0
 50
270.0
  0
INSERT
  5
66F
330
585
100
AcDbEntity
  8
寸法
  6
Continuous
370
    -2
100
AcDbBlockReference
  2
_ORIGIN
 10
16699.50252121319
 20
9425.220712987361
 30
0.0
 41
50.0
 42
50.0
 43
50.0
 50
90.0
  0
MTEXT
  5
670
330
585
100
AcDbEntity
  8
寸法
  6
Continuous
100
AcDbMText
 10
16560.21680692748
 20
8435.220712987334
 30
0.0
 40
150.0
 41
0.0
 71
     5
 72
     1
  1
\A1;1,980
  7
1_100
 11
0.0000000000000001
 21
1.0
 31
0.0
 73
     1
 44
1.0
1001
ACAD
1000
MTEXTBEGIN
1070
    73
1070
     1
1070
    44
1040
1.0
1070
    74
1070
     0
1000
MTEXTEND
  0
POINT
  5
671
330
585
100
AcDbEntity
  8
DEFPOINTS
  6
Continuous
 62
     0
100
AcDbPoint
 10
16149.50252121319
 20
7445.220712987303
 30
0.0
  0
POINT
  5
672
330
585
100
AcDbEntity
  8
DEFPOINTS
  6
Continuous
 62
     0
100
AcDbPoint
 10
16149.50252121319
 20
9425.220712987361
 30
0.0
  0
POINT
  5
673
330
585
100
AcDbEntity
  8
DEFPOINTS
  6
Continuous
 62
     0
100
AcDbPoint
 10
16699.50252121319
 20
9425.220712987361
 30
0.0
  0
ENDBLK
  5
590
330
585
100
AcDbEntity
  8
0
100
AcDbBlockEnd
  0
ENDSEC
  0
SECTION
  2
ENTITIES
  0
LWPOLYLINE
  5
31F
330
1F
100
AcDbEntity
  8
図面枠
100
AcDbPolyline
 90
        4
 70
     1
 43
0.0
 10
-167.8464880985925
 20
1013.554038489618
 10
19332.15351190141
 20
1013.554038489618
 10
19332.15351190141
 20
13763.55403848962
 10
-167.8464880985925
 20
13763.55403848962
  0
LINE
  5
320
330
1F
100
AcDbEntity
  8
寸法
  6
Continuous
 62
     3
100
AcDbLine
 10
7418.773578600514
 20
12948.96753072206
 30
0.0
 11
11745.5334452023
 21
12948.96753072206
 31
0.0
  0
LINE
  5
321
330
1F
100
AcDbEntity
  8
寸法
  6
Continuous
 62
     3
100
AcDbLine
 10
7418.773578600514
 20
12978.9675307209
 30
0.0
 11
11745.5334452023
 21
12978.9675307209
 31
0.0
  0
MTEXT
  5
322
330
1F
100
AcDbEntity
  8
画層1-1
100
AcDbMText
 10
1240.452713139493
 20
3202.754236644047
 30
0.0
 40
150.0
 41
0.0
 71
     1
 72
     5
  1
・※印表記のネットを使用する場合標準柱スパンは変更になる場合があります
  7
1_100
 73
     1
 44
1.0
1001
AcDbBlockRepETag
1070
     1
1071
        0
1005
322
1001
ACAD
1000
MTEXTBEGIN
1070
    73
1070
     1
1070
    44
1040
1.0
1070
    74
1070
     0
1000
MTEXTEND
  0
MTEXT
  5
323
330
1F
100
AcDbEntity
  8
画層1-1
100
AcDbMText
 10
1240.452713139493
 20
1454.390163099265
 30
0.0
 40
150.0
 41
0.0
 71
     1
 72
     5
  1
・速度圧　q=0.6EVo （N/㎡）　・地表面粗度区分　　　・基礎　普通土質 [B] を選定
  7
1_100
 73
     1
 44
1.0
1001
AcDbBlockRepETag
1070
     1
1071
        1
1005
323
1001
ACAD
1000
MTEXTBEGIN
1070
    73
1070
     1
1070
    44
1040
1.0
1070
    74
1070
     0
1000
MTEXTEND
  0
MTEXT
  5
324
330
1F
100
AcDbEntity
  8
画層1-1
100
AcDbMText
 10
1240.452713139493
 20
4102.754236644044
 30
0.0
 40
150.0
 41
0.0
 71
     1
 72
     5
  1
・主柱．端末ポール．バンド金具．ボルトは溶融亜鉛メッキ仕上げとする
  7
1_100
 73
     1
 44
1.0
1001
AcDbBlockRepETag
1070
     1
1071
        2
1005
324
1001
ACAD
1000
MTEXTBEGIN
1070
    73
1070
     1
1070
    44
1040
1.0
1070
    74
1070
     0
1000
MTEXTEND
  0
MTEXT
  5
325
330
1F
100
AcDbEntity
  8
画層1-1
100
AcDbMText
 10
1240.452713139493
 20
3802.754236644047
 30
0.0
 40
150.0
 41
0.0
 71
     1
 72
     5
  1
・主柱ポール基礎部（ＧＬ）はＦＲＰ被覆補強とする
  7
1_100
 73
     1
 44
1.0
1001
AcDbBlockRepETag
1070
     1
1071
        3
1005
325
1001
ACAD
1000
MTEXTBEGIN
1070
    73
1070
     1
1070
    44
1040
1.0
1070
    74
1070
     0
1000
MTEXTEND
  0
MTEXT
  5
326
330
1F
100
AcDbEntity
  8
画層1-1
100
AcDbMText
 10
1240.452713139493
 20
2472.575275636357
 30
0.0
 40
150.0
 41
0.0
 71
     1
 72
     5
  1
・構造計算書．材料承認願いを提出後施工のこと
  7
1_100
 73
     1
 44
1.0
1001
AcDbBlockRepETag
1070
     1
1071
        4
1005
326
1001
ACAD
1000
MTEXTBEGIN
1070
    73
1070
     1
1070
    44
1040
1.0
1070
    74
1070
     0
1000
MTEXTEND
  0
MTEXT
  5
327
330
1F
100
AcDbEntity
  8
画層1-1
100
AcDbMText
 10
1240.452713139493
 20
3502.754236644046
 30
0.0
 40
150.0
 41
0.0
 71
     1
 72
     5
  1
・上部（補強ポール・ネット）下り防止金具付きとする
  7
1_100
 73
     1
 44
1.0
1001
AcDbBlockRepETag
1070
     1
1071
        5
1005
327
1001
ACAD
1000
MTEXTBEGIN
1070
    73
1070
     1
1070
    44
1040
1.0
1070
    74
1070
     0
1000
MTEXTEND
  0
POINT
  5
328
330
1F
100
AcDbEntity
  8
画層1-1
100
AcDbPoint
 10
-167.8464880985925
 20
1211.615929719631
 30
0.0
1001
AcDbBlockRepETag
1070
     1
1071
        6
1005
328
  0
MTEXT
  5
329
330
1F
100
AcDbEntity
  8
画層1-1
100
AcDbMText
 10
990.452713139493
 20
2103.914017953302
 30
0.0
 40
200.0
 41
0.0
 71
     1
 72
     5
  1
設計条件
  7
1_100
 73
     1
 44
1.0
1001
AcDbBlockRepETag
1070
     1
1071
        7
1005
329
1001
ACAD
1000
MTEXTBEGIN
1070
    73
1070
     1
1070
    44
1040
1.0
1070
    74
1070
     0
1000
MTEXTEND
  0
MTEXT
  5
32A
330
1F
100
AcDbEntity
  8
画層1-1
100
AcDbMText
 10
990.452713139493
 20
2798.086826310882
 30
0.0
 40
200.0
 41
0.0
 71
     1
 72
     5
  1
特記
  7
1_100
 73
     1
 44
1.0
1001
AcDbBlockRepETag
1070
     1
1071
        8
1005
32A
1001
ACAD
1000
MTEXTBEGIN
1070
    73
1070
     1
1070
    44
1040
1.0
1070
    74
1070
     0
1000
MTEXTEND
  0
MTEXT
  5
32B
330
1F
100
AcDbEntity
  8
画層1-1
100
AcDbMText
 10
990.452713139493
 20
4438.468720613432
 30
0.0
 40
200.0
 41
0.0
 71
     1
 72
     5
  1
仕様について
  7
1_100
 73
     1
 44
1.0
1001
AcDbBlockRepETag
1070
     1
1071
        9
1005
32B
1001
ACAD
1000
MTEXTBEGIN
1070
    73
1070
     1
1070
    44
1040
1.0
1070
    74
1070
     0
1000
MTEXTEND
  0
MTEXT
  5
32C
330
1F
100
AcDbEntity
  8
画層1-1
100
AcDbMText
 10
4688.815968491006
 20
1423.301922335347
 30
0.0
 40
150.0
 41
0.0
 71
     1
 72
     5
  1
Ⅲ
  7
STYLE1
 73
     1
 44
1.0
1001
AcDbBlockRepETag
1070
     1
1071
       10
1005
32C
1001
ACAD
1000
MTEXTBEGIN
1070
    73
1070
     1
1070
    44
1040
1.0
1070
    74
1070
     0
1000
MTEXTEND
  0
MTEXT
  5
32D
330
1F
100
AcDbEntity
  8
画層1-1
100
AcDbMText
 10
2732.191698145506
 20
1436.633375773693
 30
0.0
 40
60.0
 41
0.0
 71
     1
 72
     5
  1
2
  7
1_100
 73
     1
 44
1.0
1001
AcDbBlockRepETag
1070
     1
1071
       11
1005
32D
1001
ACAD
1000
MTEXTBEGIN
1070
    73
1070
     1
1070
    44
1040
1.0
1070
    74
1070
     0
1000
MTEXTEND
  0
MTEXT
  5
32E
330
1F
100
AcDbEntity
  8
画層1-1
100
AcDbMText
 10
1240.452713139493
 20
1725.114778073151
 30
0.0
 40
150.0
 41
0.0
 71
     1
 72
     5
  1
・設計荷重。建築基準法・同施工令（平成12年6月）に基づく風圧力に依る、基準風速。
  7
1_100
 73
     1
 44
1.0
1001
AcDbBlockRepETag
1070
     1
1071
       12
1005
32E
1001
ACAD
1000
ACAD_MTEXT_DEFINED_HEIGHT_BEGIN
1070
    46
1040
0.0
1000
ACAD_MTEXT_DEFINED_HEIGHT_END
1000
MTEXTBEGIN
1070
    73
1070
     1
1070
    44
1040
1.0
1070
    74
1070
     0
1000
MTEXTEND
  0
LEADER
  5
32F
330
1F
100
AcDbEntity
  8
寸法引出
  6
Continuous
100
AcDbLeader
  3
1_50
 71
     0
 73
     0
 75
     1
 40
150.0
 41
773.5714285714282
 76
     3
 10
3373.82016281486
 20
6906.411662209375
 30
0.0
 10
3099.690649073157
 20
6624.03609042842
 30
0.0
 10
3049.690649073156
 20
6624.03609042842
 30
0.0
340
330
1001
ACAD
1000
DSTYLE
1002
{
1002
}
  0
MTEXT
  5
330
102
{ACAD_REACTORS
330
32F
102
}
330
1F
100
AcDbEntity
  8
寸法文字
  6
Continuous
100
AcDbMText
 10
2999.690649073156
 20
6674.03609042842
 30
0.0
 40
150.0
 41
0.0
 71
     9
 72
     1
  1
コンクリート
  7
1_100
 73
     1
 44
1.0
1001
ACAD
1000
MTEXTBEGIN
1070
    73
1070
     1
1070
    44
1040
1.0
1070
    74
1070
     0
1000
MTEXTEND
  0
DIMENSION
  5
331
330
1F
100
AcDbEntity
  8
寸法
  6
Continuous
100
AcDbDimension
  2
*D2
 10
17099.50252121319
 20
6445.220712987302
 30
0.0
 11
16960.21680692748
 21
6845.220712987305
 31
0.0
 70
   160
 71
     5
 42
1000.0
  3
1_50
100
AcDbAlignedDimension
 13
16149.50252121319
 23
7445.220712987303
 33
0.0
 14
16149.50252121319
 24
6445.220712987302
 34
0.0
 50
90.0
100
AcDbRotatedDimension
  0
DIMENSION
  5
332
330
1F
100
AcDbEntity
  8
寸法
  6
Continuous
100
AcDbDimension
  2
*D3
 10
14249.50252121319
 20
6445.220712987302
 30
0.0
 11
14110.21680692748
 21
6845.220712987303
 31
0.0
 70
   160
 71
     5
 42
1000.0
  3
1_50
100
AcDbAlignedDimension
 13
13298.82016281463
 23
7445.220712987303
 33
0.0
 14
13298.82016281463
 24
6445.220712987302
 34
0.0
 50
90.0
100
AcDbRotatedDimension
  0
LINE
  5
333
102
{ACAD_REACTORS
330
788
102
}
330
1F
100
AcDbEntity
  8
通り芯
  6
DASHDOT
 48
50.0
100
AcDbLine
 10
15399.50252121319
 20
6202.753241193892
 30
0.0
 11
15399.50252121319
 21
11525.68337268988
 31
0.0
  0
LINE
  5
334
102
{ACAD_REACTORS
330
788
102
}
330
1F
100
AcDbEntity
  8
画層1
  6
Continuous
100
AcDbLine
 10
15342.35252121305
 20
11445.22071298736
 30
0.0
 11
15342.35252121305
 21
6445.220712987302
 31
0.0
  0
LINE
  5
335
102
{ACAD_REACTORS
330
788
102
}
330
1F
100
AcDbEntity
  8
画層1
  6
Continuous
100
AcDbLine
 10
15456.65252121333
 20
6445.220712987302
 30
0.0
 11
15456.65252121333
 21
11445.22071298736
 31
0.0
  0
DIMENSION
  5
336
330
1F
100
AcDbEntity
  8
寸法
  6
Continuous
100
AcDbDimension
  2
*D4
 10
16699.50252121319
 20
7245.220712987301
 30
0.0
 11
16574.50252121319
 21
6845.220712987305
 31
0.0
 70
    32
 71
     5
 42
800.0
  3
1_50
100
AcDbAlignedDimension
 13
16149.50252121319
 23
6445.220712987302
 33
0.0
 14
16149.50252121319
 24
7245.220712987301
 34
0.0
 50
90.0
100
AcDbRotatedDimension
  0
DIMENSION
  5
337
330
1F
100
AcDbEntity
  8
寸法
  6
Continuous
100
AcDbDimension
  2
*D5
 10
13849.50252121319
 20
7245.220712987301
 30
0.0
 11
13724.50252121319
 21
6845.220712987303
 31
0.0
 70
    32
 71
     5
 42
800.0
  3
1_50
100
AcDbAlignedDimension
 13
13298.82016281463
 23
6445.220712987302
 33
0.0
 14
13298.82016281463
 24
7245.220712987301
 34
0.0
 50
90.0
100
AcDbRotatedDimension
  0
LWPOLYLINE
  5
338
102
{ACAD_REACTORS
330
788
102
}
330
1F
100
AcDbEntity
  8
画層2
100
AcDbPolyline
 90
        8
 70
     0
 43
0.0
 10
15149.50252121319
 20
7445.22071298736
 10
15149.50252121319
 20
7245.22071298736
 10
15174.50252121319
 20
7245.22071298736
 10
15174.50252121319
 20
6345.22071298736
 10
15624.50252121319
 20
6345.22071298736
 10
15624.50252121319
 20
7245.22071298736
 10
15649.50252121319
 20
7245.22071298736
 10
15649.50252121319
 20
7445.22071298736
  0
LINE
  5
33A
330
1F
100
AcDbEntity
  8
画層1
  6
Continuous
100
AcDbLine
 10
9541.670162814954
 20
11445.22071298736
 30
0.0
 11
9541.670162814954
 21
6445.220712987302
 31
0.0
  0
LINE
  5
33B
330
1F
100
AcDbEntity
  8
画層1
  6
Continuous
100
AcDbLine
 10
3541.670162814952
 20
11445.22071298736
 30
0.0
 11
3541.670162814952
 21
6445.220712987302
 31
0.0
  0
LINE
  5
33C
102
{ACAD_REACTORS
330
79A
102
}
330
1F
100
AcDbEntity
  8
通り芯
  6
DASHDOT
 48
50.0
100
AcDbLine
 10
3598.82016281486
 20
6202.753241193892
 30
0.0
 11
3598.82016281486
 21
11525.68337268988
 31
0.0
  0
LINE
  5
33D
102
{ACAD_REACTORS
330
7AE
102
}
330
1F
100
AcDbEntity
  8
通り芯
  6
DASHDOT
 48
50.0
100
AcDbLine
 10
9598.82016281486
 20
6202.753241193892
 30
0.0
 11
9598.82016281486
 21
11525.68337268988
 31
0.0
  0
LINE
  5
33E
330
1F
100
AcDbEntity
  8
画層1
  6
Continuous
100
AcDbLine
 10
9655.970162814769
 20
6445.220712987302
 30
0.0
 11
9655.970162814769
 21
11445.22071298736
 31
0.0
  0
LINE
  5
33F
102
{ACAD_REACTORS
330
424
102
}
330
1F
100
AcDbEntity
  8
画層1
  6
Continuous
100
AcDbLine
 10
3655.970162814766
 20
6445.220712987302
 30
0.0
 11
3655.970162814766
 21
11445.22071298736
 31
0.0
  0
LWPOLYLINE
  5
340
102
{ACAD_REACTORS
330
79A
102
}
330
1F
100
AcDbEntity
  8
画層2
100
AcDbPolyline
 90
        8
 70
     0
 43
0.0
 10
3348.82016281486
 20
7445.220712987303
 10
3348.82016281486
 20
7245.220712987301
 10
3373.82016281486
 20
7245.220712987301
 10
3373.82016281486
 20
6345.220712987302
 10
3823.82016281486
 20
6345.220712987302
 10
3823.82016281486
 20
7245.220712987301
 10
3848.82016281486
 20
7245.220712987301
 10
3848.82016281486
 20
7445.220712987303
  0
LWPOLYLINE
  5
342
102
{ACAD_REACTORS
330
7AE
102
}
330
1F
100
AcDbEntity
  8
画層2
100
AcDbPolyline
 90
        8
 70
     0
 43
0.0
 10
9348.82016281486
 20
7445.220712987303
 10
9348.82016281486
 20
7245.220712987301
 10
9373.82016281486
 20
7245.220712987301
 10
9373.82016281486
 20
6345.220712987302
 10
9823.820162814861
 20
6345.220712987302
 10
9823.820162814861
 20
7245.220712987301
 10
9848.82016281486
 20
7245.220712987301
 10
9848.82016281486
 20
7445.220712987303
  0
MTEXT
  5
344
102
{ACAD_REACTORS
330
345
102
}
330
1F
100
AcDbEntity
  8
寸法文字
  6
Continuous
100
AcDbMText
 10
2964.502704242994
 20
6079.322424203217
 30
0.0
 40
150.0
 41
0.0
 71
     9
 72
     1
  1
砕石
  7
1_100
 73
     1
 44
1.0
1001
ACAD
1000
MTEXTBEGIN
1070
    73
1070
     1
1070
    44
1040
1.0
1070
    74
1070
     0
1000
MTEXTEND
  0
LEADER
  5
345
330
1F
100
AcDbEntity
  8
寸法引出
  6
Continuous
100
AcDbLeader
  3
1_50
 71
     0
 73
     0
 75
     1
 40
150.0
 41
247.5
 76
     3
 10
3373.82016281486
 20
6392.458769133376
 30
0.0
 10
3064.502704242994
 20
6029.322424203217
 30
0.0
 10
3014.502704242993
 20
6029.322424203217
 30
0.0
340
344
1001
ACAD
1000
DSTYLE
1002
{
1002
}
  0
DIMENSION
  5
346
330
1F
100
AcDbEntity
  8
寸法
  6
Continuous
100
AcDbDimension
  2
*D6
 10
13849.50252121319
 20
6445.220712987302
 30
0.0
 11
13691.56235354562
 21
6146.215260054571
 31
0.0
 70
   160
 71
     5
 42
100.0
  3
1_50
100
AcDbAlignedDimension
 13
13298.82016281463
 23
6345.220712987302
 33
0.0
 14
13298.82016281463
 24
6445.220712987302
 34
0.0
 50
90.0
100
AcDbRotatedDimension
  0
DIMENSION
  5
347
330
1F
100
AcDbEntity
  8
寸法
  6
Continuous
100
AcDbDimension
  2
*D7
 10
9598.82016281486
 20
4845.220712987361
 30
0.0
 11
6598.82016281486
 21
4984.506427273075
 31
0.0
 70
    32
 71
     5
 42
6000.0
  3
1_50
100
AcDbAlignedDimension
 13
3598.82016281486
 23
5628.473833550645
 33
0.0
 14
9598.82016281486
 24
6202.753241193892
 34
0.0
100
AcDbRotatedDimension
  0
DIMENSION
  5
348
330
1F
100
AcDbEntity
  8
寸法
  6
Continuous
100
AcDbDimension
  2
*D8
 10
3848.82016281486
 20
5745.220712987244
 30
0.0
 11
3598.82016281486
 21
5620.220712987244
 31
0.0
 70
    32
  1
□<>
 71
     5
 42
500.0
  3
1_50
100
AcDbAlignedDimension
 13
3348.82016281486
 23
6345.220712987302
 33
0.0
 14
3848.82016281486
 24
6345.220712987242
 34
0.0
100
AcDbRotatedDimension
1001
ACAD
1000
DSTYLE
1002
{
1070
    77
1070
     2
1070
   174
1070
     1
1002
}
  0
DIMENSION
  5
349
330
1F
100
AcDbEntity
  8
寸法
  6
Continuous
100
AcDbDimension
  2
*D9
 10
3823.82016281486
 20
6045.220712987301
 30
0.0
 11
3598.82016281486
 21
5920.220712987301
 31
0.0
 70
    32
  1
φ<>
 71
     5
 42
450.0
  3
1_50
100
AcDbAlignedDimension
 13
3373.82016281486
 23
6345.220712987302
 33
0.0
 14
3823.82016281486
 24
6345.220712987302
 34
0.0
100
AcDbRotatedDimension
1001
ACAD
1000
DSTYLE
1002
{
1070
    77
1070
     2
1070
   174
1070
     1
1002
}
  0
LINE
  5
34A
102
{ACAD_REACTORS
330
79A
102
}
330
1F
100
AcDbEntity
  8
画層2
  6
Continuous
100
AcDbLine
 10
3823.82016281486
 20
6445.220712987302
 30
0.0
 11
3373.82016281486
 21
6445.220712987302
 31
0.0
  0
LINE
  5
34B
330
1F
100
AcDbEntity
  8
ﾊｯﾁﾝｸﾞ
  6
Continuous
100
AcDbLine
 10
3479.954876931668
 20
6345.220712987302
 30
0.0
 11
3537.689903850485
 21
6445.220712987302
 31
0.0
  0
LINE
  5
34C
330
1F
100
AcDbEntity
  8
ﾊｯﾁﾝｸﾞ
  6
Continuous
100
AcDbLine
 10
3663.159957688586
 20
6345.220712987302
 30
0.0
 11
3720.894984607403
 21
6445.220712987302
 31
0.0
  0
LINE
  5
34D
330
1F
100
AcDbEntity
  8
ﾊｯﾁﾝｸﾞ
  6
Continuous
100
AcDbLine
 10
3571.557417310127
 20
6345.220712987302
 30
0.0
 11
3629.292444228944
 21
6445.220712987302
 31
0.0
  0
LINE
  5
34E
330
1F
100
AcDbEntity
  8
ﾊｯﾁﾝｸﾞ
  6
Continuous
100
AcDbLine
 10
3675.998241548244
 20
6367.457272914007
 30
0.0
 11
3688.836525407437
 21
6345.220712987302
 31
0.0
  0
LINE
  5
34F
330
1F
100
AcDbEntity
  8
ﾊｯﾁﾝｸﾞ
  6
Continuous
100
AcDbLine
 10
3492.793160791328
 20
6367.457272914007
 30
0.0
 11
3505.631444650754
 21
6345.220712987302
 31
0.0
  0
LINE
  5
350
330
1F
100
AcDbEntity
  8
ﾊｯﾁﾝｸﾞ
  6
Continuous
100
AcDbLine
 10
3584.395701169552
 20
6367.457272914007
 30
0.0
 11
3597.233985029212
 21
6345.220712987302
 31
0.0
  0
LINE
  5
351
330
1F
100
AcDbEntity
  8
ﾊｯﾁﾝｸﾞ
  6
Continuous
100
AcDbLine
 10
3508.971664949604
 20
6445.220712987302
 30
0.0
 11
3525.078798256632
 21
6423.377637358909
 31
0.0
  0
LINE
  5
352
102
{ACAD_REACTORS
330
79A
102
}
330
1F
100
AcDbEntity
  8
ﾊｯﾁﾝｸﾞ
  6
Continuous
100
AcDbLine
 10
3600.574205328063
 20
6445.220712987302
 30
0.0
 11
3616.681338635091
 21
6423.377637358909
 31
0.0
  0
LINE
  5
353
330
1F
100
AcDbEntity
  8
ﾊｯﾁﾝｸﾞ
  6
Continuous
100
AcDbLine
 10
3692.176745706522
 20
6445.220712987302
 30
0.0
 11
3708.28387901355
 21
6423.377637358909
 31
0.0
  0
TEXT
  5
354
330
1F
100
AcDbEntity
  8
寸法
  6
Continuous
100
AcDbText
 10
11264.95180642633
 20
4897.485518270816
 30
0.0
 40
150.0
  1
6,000
 41
0.75
  7
1_50
 72
     1
 11
11508.70180642633
 21
4972.485518270815
 31
0.0
100
AcDbText
 73
     2
  0
LINE
  5
355
330
1F
100
AcDbEntity
  8
ﾊｯﾁﾝｸﾞ
  6
Continuous
100
AcDbLine
 10
3783.779286084981
 20
6445.220712987302
 30
0.0
 11
3799.886419392008
 21
6423.377637358909
 31
0.0
  0
LINE
  5
356
330
1F
100
AcDbEntity
  8
ﾊｯﾁﾝｸﾞ
  6
Continuous
100
AcDbLine
 10
3767.600781926703
 20
6367.457272914007
 30
0.0
 11
3780.439065785896
 21
6345.220712987302
 31
0.0
  0
LINE
  5
357
330
1F
100
AcDbEntity
  8
ﾊｯﾁﾝｸﾞ
  6
Continuous
100
AcDbLine
 10
3754.762498067044
 20
6345.220712987302
 30
0.0
 11
3812.497524985861
 21
6445.220712987302
 31
0.0
  0
LINE
  5
358
330
1F
100
AcDbEntity
  8
ﾊｯﾁﾝｸﾞ
  6
Continuous
100
AcDbLine
 10
3417.369124571145
 20
6445.220712987302
 30
0.0
 11
3433.476257878175
 21
6423.377637358909
 31
0.0
  0
LINE
  5
359
330
1F
100
AcDbEntity
  8
ﾊｯﾁﾝｸﾞ
  6
Continuous
100
AcDbLine
 10
3401.190620412869
 20
6367.457272914007
 30
0.0
 11
3414.028904272294
 21
6345.220712987302
 31
0.0
  0
LINE
  5
35A
330
1F
100
AcDbEntity
  8
ﾊｯﾁﾝｸﾞ
  6
Continuous
100
AcDbLine
 10
3388.352336553209
 20
6345.220712987302
 30
0.0
 11
3446.087363472026
 21
6445.220712987302
 31
0.0
  0
LINE
  5
35B
330
1F
100
AcDbEntity
  8
ﾊｯﾁﾝｸﾞ
  6
Continuous
100
AcDbLine
 10
9600.574205328065
 20
6445.220712987302
 30
0.0
 11
9616.681338635091
 21
6423.377637358909
 31
0.0
  0
LINE
  5
35C
102
{ACAD_REACTORS
330
7AE
102
}
330
1F
100
AcDbEntity
  8
画層2
  6
Continuous
100
AcDbLine
 10
9823.820162814861
 20
6445.220712987302
 30
0.0
 11
9373.82016281486
 21
6445.220712987302
 31
0.0
  0
LINE
  5
35D
330
1F
100
AcDbEntity
  8
ﾊｯﾁﾝｸﾞ
  6
Continuous
100
AcDbLine
 10
9388.352336553207
 20
6345.220712987302
 30
0.0
 11
9446.087363472029
 21
6445.220712987302
 31
0.0
  0
LINE
  5
35E
330
1F
100
AcDbEntity
  8
ﾊｯﾁﾝｸﾞ
  6
Continuous
100
AcDbLine
 10
9401.190620412867
 20
6367.457272914007
 30
0.0
 11
9414.028904272294
 21
6345.220712987302
 31
0.0
  0
LINE
  5
35F
330
1F
100
AcDbEntity
  8
ﾊｯﾁﾝｸﾞ
  6
Continuous
100
AcDbLine
 10
9417.369124571143
 20
6445.220712987302
 30
0.0
 11
9433.476257878174
 21
6423.377637358909
 31
0.0
  0
LINE
  5
360
330
1F
100
AcDbEntity
  8
ﾊｯﾁﾝｸﾞ
  6
Continuous
100
AcDbLine
 10
9754.762498067044
 20
6345.220712987302
 30
0.0
 11
9812.497524985865
 21
6445.220712987302
 31
0.0
  0
LINE
  5
361
330
1F
100
AcDbEntity
  8
ﾊｯﾁﾝｸﾞ
  6
Continuous
100
AcDbLine
 10
9767.600781926704
 20
6367.457272914007
 30
0.0
 11
9780.439065785898
 21
6345.220712987302
 31
0.0
  0
LINE
  5
362
330
1F
100
AcDbEntity
  8
ﾊｯﾁﾝｸﾞ
  6
Continuous
100
AcDbLine
 10
9783.779286084978
 20
6445.220712987302
 30
0.0
 11
9799.886419392008
 21
6423.377637358909
 31
0.0
  0
LINE
  5
363
330
1F
100
AcDbEntity
  8
ﾊｯﾁﾝｸﾞ
  6
Continuous
100
AcDbLine
 10
9692.176745706522
 20
6445.220712987302
 30
0.0
 11
9708.283879013549
 21
6423.377637358909
 31
0.0
  0
LINE
  5
364
330
1F
100
AcDbEntity
  8
ﾊｯﾁﾝｸﾞ
  6
Continuous
100
AcDbLine
 10
9508.971664949603
 20
6445.220712987302
 30
0.0
 11
9525.078798256632
 21
6423.377637358909
 31
0.0
  0
LINE
  5
365
330
1F
100
AcDbEntity
  8
ﾊｯﾁﾝｸﾞ
  6
Continuous
100
AcDbLine
 10
9584.395701169551
 20
6367.457272914007
 30
0.0
 11
9597.233985029211
 21
6345.220712987302
 31
0.0
  0
LINE
  5
366
330
1F
100
AcDbEntity
  8
ﾊｯﾁﾝｸﾞ
  6
Continuous
100
AcDbLine
 10
9492.793160791329
 20
6367.457272914007
 30
0.0
 11
9505.631444650751
 21
6345.220712987302
 31
0.0
  0
LINE
  5
367
330
1F
100
AcDbEntity
  8
ﾊｯﾁﾝｸﾞ
  6
Continuous
100
AcDbLine
 10
9675.998241548247
 20
6367.457272914007
 30
0.0
 11
9688.836525407438
 21
6345.220712987302
 31
0.0
  0
LINE
  5
368
330
1F
100
AcDbEntity
  8
ﾊｯﾁﾝｸﾞ
  6
Continuous
100
AcDbLine
 10
9571.557417310129
 20
6345.220712987302
 30
0.0
 11
9629.292444228944
 21
6445.220712987302
 31
0.0
  0
LINE
  5
369
330
1F
100
AcDbEntity
  8
ﾊｯﾁﾝｸﾞ
  6
Continuous
100
AcDbLine
 10
9663.159957688586
 20
6345.220712987302
 30
0.0
 11
9720.894984607404
 21
6445.220712987302
 31
0.0
  0
LINE
  5
36A
330
1F
100
AcDbEntity
  8
ﾊｯﾁﾝｸﾞ
  6
Continuous
100
AcDbLine
 10
9479.954876931669
 20
6345.220712987302
 30
0.0
 11
9537.689903850486
 21
6445.220712987302
 31
0.0
  0
DIMENSION
  5
36B
330
1F
100
AcDbEntity
  8
寸法
  6
Continuous
100
AcDbDimension
  2
*D10
 10
16699.50252121319
 20
6445.220712987302
 30
0.0
 11
16567.29768158384
 21
6167.328846760621
 31
0.0
 70
   160
 71
     5
 42
100.0
  3
1_50
100
AcDbAlignedDimension
 13
16149.50252121319
 23
6345.220712987302
 33
0.0
 14
16149.50252121319
 24
6445.220712987302
 34
0.0
 50
90.0
100
AcDbRotatedDimension
  0
LINE
  5
36C
330
1F
100
AcDbEntity
  8
ﾊｯﾁﾝｸﾞ
  6
Continuous
100
AcDbLine
 10
15401.25656372616
 20
6445.22071298736
 30
0.0
 11
15417.36369703343
 21
6423.377637358967
 31
0.0
  0
LINE
  5
36D
102
{ACAD_REACTORS
330
788
102
}
330
1F
100
AcDbEntity
  8
画層2
  6
Continuous
100
AcDbLine
 10
15624.50252121319
 20
6445.22071298736
 30
0.0
 11
15174.50252121319
 21
6445.22071298736
 31
0.0
  0
LINE
  5
36E
330
1F
100
AcDbEntity
  8
ﾊｯﾁﾝｸﾞ
  6
Continuous
100
AcDbLine
 10
15189.03469495154
 20
6345.22071298736
 30
0.0
 11
15246.76972187059
 21
6445.22071298736
 31
0.0
  0
LINE
  5
36F
330
1F
100
AcDbEntity
  8
ﾊｯﾁﾝｸﾞ
  6
Continuous
100
AcDbLine
 10
15201.87297881097
 20
6367.457272914066
 30
0.0
 11
15214.71126267063
 21
6345.22071298736
 31
0.0
  0
LINE
  5
370
330
1F
100
AcDbEntity
  8
ﾊｯﾁﾝｸﾞ
  6
Continuous
100
AcDbLine
 10
15218.05148296925
 20
6445.22071298736
 30
0.0
 11
15234.15861627674
 21
6423.377637358967
 31
0.0
  0
LINE
  5
371
330
1F
100
AcDbEntity
  8
ﾊｯﾁﾝｸﾞ
  6
Continuous
100
AcDbLine
 10
15555.44485646538
 20
6345.22071298736
 30
0.0
 11
15613.17988338443
 21
6445.22071298736
 31
0.0
  0
LINE
  5
372
330
1F
100
AcDbEntity
  8
ﾊｯﾁﾝｸﾞ
  6
Continuous
100
AcDbLine
 10
15568.2831403248
 20
6367.457272914066
 30
0.0
 11
15581.12142418446
 21
6345.22071298736
 31
0.0
  0
LINE
  5
373
330
1F
100
AcDbEntity
  8
ﾊｯﾁﾝｸﾞ
  6
Continuous
100
AcDbLine
 10
15584.46164448308
 20
6445.22071298736
 30
0.0
 11
15600.56877779034
 21
6423.377637358967
 31
0.0
  0
LINE
  5
374
330
1F
100
AcDbEntity
  8
ﾊｯﾁﾝｸﾞ
  6
Continuous
100
AcDbLine
 10
15492.85910410462
 20
6445.22071298736
 30
0.0
 11
15508.96623741188
 21
6423.377637358967
 31
0.0
  0
LINE
  5
375
330
1F
100
AcDbEntity
  8
ﾊｯﾁﾝｸﾞ
  6
Continuous
100
AcDbLine
 10
15309.6540233477
 20
6445.22071298736
 30
0.0
 11
15325.7611566552
 21
6423.377637358967
 31
0.0
  0
LINE
  5
376
330
1F
100
AcDbEntity
  8
ﾊｯﾁﾝｸﾞ
  6
Continuous
100
AcDbLine
 10
15385.07805956789
 20
6367.457272914066
 30
0.0
 11
15397.91634342754
 21
6345.22071298736
 31
0.0
  0
LINE
  5
377
330
1F
100
AcDbEntity
  8
ﾊｯﾁﾝｸﾞ
  6
Continuous
100
AcDbLine
 10
15293.47551918943
 20
6367.457272914066
 30
0.0
 11
15306.31380304909
 21
6345.22071298736
 31
0.0
  0
LINE
  5
378
330
1F
100
AcDbEntity
  8
ﾊｯﾁﾝｸﾞ
  6
Continuous
100
AcDbLine
 10
15476.68059994635
 20
6367.457272914066
 30
0.0
 11
15489.518883806
 21
6345.22071298736
 31
0.0
  0
LINE
  5
379
330
1F
100
AcDbEntity
  8
ﾊｯﾁﾝｸﾞ
  6
Continuous
100
AcDbLine
 10
15372.23977570846
 20
6345.22071298736
 30
0.0
 11
15429.97480262751
 21
6445.22071298736
 31
0.0
  0
LINE
  5
37A
330
1F
100
AcDbEntity
  8
ﾊｯﾁﾝｸﾞ
  6
Continuous
100
AcDbLine
 10
15463.84231608692
 20
6345.22071298736
 30
0.0
 11
15521.57734300597
 21
6445.22071298736
 31
0.0
  0
LINE
  5
37B
330
1F
100
AcDbEntity
  8
ﾊｯﾁﾝｸﾞ
  6
Continuous
100
AcDbLine
 10
15280.63723533
 20
6345.22071298736
 30
0.0
 11
15338.37226224905
 21
6445.22071298736
 31
0.0
  0
DIMENSION
  5
37C
330
1F
100
AcDbEntity
  8
寸法
  6
Continuous
100
AcDbDimension
  2
*D11
 10
15624.50252121319
 20
6045.22071298736
 30
0.0
 11
15399.50252121319
 21
5920.22071298736
 31
0.0
 70
    32
  1
φ<>
 71
     5
 42
450.0
  3
1_50
100
AcDbAlignedDimension
 13
15174.50252121319
 23
6345.22071298736
 33
0.0
 14
15624.50252121319
 24
6345.22071298736
 34
0.0
100
AcDbRotatedDimension
1001
ACAD
1000
DSTYLE
1002
{
1070
    77
1070
     2
1070
   174
1070
     1
1002
}
  0
DIMENSION
  5
37D
330
1F
100
AcDbEntity
  8
寸法
  6
Continuous
100
AcDbDimension
  2
*D12
 10
15649.50252121319
 20
5745.220712987301
 30
0.0
 11
15399.50252121319
 21
5620.220712987301
 31
0.0
 70
    32
  1
□<>
 71
     5
 42
500.0
  3
1_50
100
AcDbAlignedDimension
 13
15149.50252121319
 23
6345.22071298736
 33
0.0
 14
15649.50252121319
 24
6345.220712987302
 34
0.0
100
AcDbRotatedDimension
1001
ACAD
1000
DSTYLE
1002
{
1070
    77
1070
     2
1070
   174
1070
     1
1002
}
  0
DIMENSION
  5
37E
330
1F
100
AcDbEntity
  8
寸法
  6
Continuous
100
AcDbDimension
  2
*D13
 10
13849.50252121319
 20
7445.220712987303
 30
0.0
 11
13972.05988570471
 21
7263.815728216783
 31
0.0
 70
   160
 71
     5
 42
200.0
  3
1_50
100
AcDbAlignedDimension
 13
13298.82016281463
 23
7245.220712987301
 33
0.0
 14
13298.82016281463
 24
7445.220712987303
 34
0.0
 50
90.0
100
AcDbRotatedDimension
  0
DIMENSION
  5
37F
330
1F
100
AcDbEntity
  8
寸法
  6
Continuous
100
AcDbDimension
  2
*D14
 10
14249.50252121319
 20
7445.220712987303
 30
0.0
 11
14110.21680692748
 21
9445.220712987337
 31
0.0
 70
    32
 71
     5
 42
4000.00000000006
  3
1_50
100
AcDbAlignedDimension
 13
13298.82016281463
 23
11445.22071298736
 33
0.0
 14
13298.82016281463
 24
7445.220712987303
 34
0.0
 50
90.0
100
AcDbRotatedDimension
  0
DIMENSION
  5
380
330
1F
100
AcDbEntity
  8
寸法
  6
Continuous
100
AcDbDimension
  2
*D15
 10
13849.50252121319
 20
11405.22071298736
 30
0.0
 11
13710.21680692748
 21
10415.22071298736
 31
0.0
 70
    32
 71
     5
 42
1980.0
  3
1_50
100
AcDbAlignedDimension
 13
13298.82016281463
 23
9425.220712987361
 33
0.0
 14
13298.82016281463
 24
11405.22071298736
 34
0.0
 50
90.0
100
AcDbRotatedDimension
  0
DIMENSION
  5
381
330
1F
100
AcDbEntity
  8
寸法
  6
Continuous
100
AcDbDimension
  2
*D16
 10
13849.50252121319
 20
11445.22071298736
 30
0.0
 11
13719.43148178635
 21
11583.05877157382
 31
0.0
 70
   160
 71
     5
 42
40.0
  3
1_50
100
AcDbAlignedDimension
 13
13298.82016281463
 23
11405.22071298736
 33
0.0
 14
13298.82016281463
 24
11445.22071298736
 34
0.0
 50
90.0
100
AcDbRotatedDimension
  0
DIMENSION
  5
382
330
1F
100
AcDbEntity
  8
寸法
  6
Continuous
100
AcDbDimension
  2
*D17
 10
13849.50252121319
 20
9425.220712987361
 30
0.0
 11
13710.21680692748
 21
8435.220712987336
 31
0.0
 70
    32
 71
     5
 42
1980.00000000006
  3
1_50
100
AcDbAlignedDimension
 13
13298.82016281463
 23
7445.220712987303
 33
0.0
 14
13298.82016281463
 24
9425.220712987361
 34
0.0
 50
90.0
100
AcDbRotatedDimension
  0
LINE
  5
383
330
1F
100
AcDbEntity
  8
画層1-1
  6
Continuous
100
AcDbLine
 10
3598.82016281486
 20
9425.220712987361
 30
0.0
 11
13049.50252121319
 21
9425.220712987361
 31
0.0
  0
LINE
  5
384
102
{ACAD_REACTORS
330
423
330
424
102
}
330
1F
100
AcDbEntity
  8
画層1
  6
Continuous
100
AcDbLine
 10
13049.50252121319
 20
11405.22071298736
 30
0.0
 11
3598.82016281486
 21
11405.22071298736
 31
0.0
  0
LINE
  5
385
102
{ACAD_REACTORS
330
79A
330
7AE
102
}
330
1F
100
AcDbEntity
  8
画層2
  6
Continuous
100
AcDbLine
 10
13049.50252121319
 20
7445.220712987303
 30
0.0
 11
1182.397657805406
 21
7445.220712987303
 31
0.0
  0
LINE
  5
386
102
{ACAD_REACTORS
330
423
330
424
102
}
330
1F
100
AcDbEntity
  8
画層1
  6
Continuous
100
AcDbLine
 10
3598.82016281486
 20
7470.220712987303
 30
0.0
 11
13049.50252121319
 21
7470.220712987303
 31
0.0
  0
LEADER
  5
387
330
1F
100
AcDbEntity
  8
寸法引出
  6
Continuous
100
AcDbLeader
  3
1_50
 71
     0
 73
     0
 74
     0
 75
     1
 40
150.0
 41
1194.642857142856
 76
     3
 10
3848.031438281111
 20
7558.747769679411
 30
0.0
 10
4142.576168043823
 20
6887.093510242822
 30
0.0
 10
4192.576168043824
 20
6887.093510242822
 30
0.0
340
388
  0
MTEXT
  5
388
102
{ACAD_REACTORS
330
387
102
}
330
1F
100
AcDbEntity
  8
寸法文字
  6
Continuous
100
AcDbMText
 10
4242.576168043822
 20
6937.093510242822
 30
0.0
 40
150.0
 41
0.0
 71
     7
 72
     1
  1
タンバックル9mm
  7
1_100
 73
     1
 44
1.0
1001
ACAD
1000
MTEXTBEGIN
1070
    73
1070
     1
1070
    44
1040
1.0
1070
    74
1070
     0
1000
MTEXTEND
  0
LINE
  5
389
330
1F
100
AcDbEntity
  8
画層2-1
  6
Continuous
100
AcDbLine
 10
3541.670162814952
 20
7295.220712987301
 30
0.0
 11
3655.970162814766
 21
7295.220712987301
 31
0.0
  0
LINE
  5
38A
330
1F
100
AcDbEntity
  8
画層2-1
  6
Continuous
100
AcDbLine
 10
9541.670162814954
 20
7295.220712987301
 30
0.0
 11
9655.970162814769
 21
7295.220712987301
 31
0.0
  0
LWPOLYLINE
  5
38B
330
1F
100
AcDbEntity
  8
画層1-1
  6
Continuous
100
AcDbPolyline
 90
        4
 70
     1
 43
0.0
 10
3745.970162814766
 20
11393.37071298726
 10
9451.670162814954
 20
11393.37071298726
 10
9451.670162814954
 20
11317.07071298734
 10
3745.970162814766
 20
11317.07071298734
  0
LINE
  5
38C
330
1F
100
AcDbEntity
  8
画層1-1
  6
Continuous
100
AcDbLine
 10
9516.670162814953
 20
7470.220712987303
 30
0.0
 11
3680.970162814766
 21
11355.22071298736
 31
0.0
  0
LINE
  5
38D
330
1F
100
AcDbEntity
  8
画層1-1
  6
Continuous
100
AcDbLine
 10
9516.670162814953
 20
11355.22071298736
 30
0.0
 11
3680.970162814766
 21
7470.220712987303
 31
0.0
  0
LINE
  5
38E
102
{ACAD_REACTORS
330
424
102
}
330
1F
100
AcDbEntity
  8
画層1
  6
Continuous
100
AcDbLine
 10
3705.970162814767
 20
11330.22071298736
 30
0.0
 11
3705.970162814767
 21
11380.22071298736
 31
0.0
  0
CIRCLE
  5
38F
330
1F
100
AcDbEntity
  8
画層1
  6
Continuous
100
AcDbCircle
 10
3680.970162814766
 20
11355.22071298736
 30
0.0
 40
10.9509940156
  0
LINE
  5
390
330
1F
100
AcDbEntity
  8
画層1
  6
Continuous
100
AcDbLine
 10
3623.82016281486
 20
11330.22071298736
 30
0.0
 11
3623.82016281486
 21
11380.22071298736
 31
0.0
  0
LINE
  5
391
330
1F
100
AcDbEntity
  8
画層1
  6
Continuous
100
AcDbLine
 10
3573.82016281486
 20
11380.22071298736
 30
0.0
 11
3573.82016281486
 21
11330.22071298736
 31
0.0
  0
CIRCLE
  5
392
330
1F
100
AcDbEntity
  8
画層1
  6
Continuous
100
AcDbCircle
 10
3516.670162814953
 20
11355.22071298736
 30
0.0
 40
10.9509940156
  0
LINE
  5
393
330
1F
100
AcDbEntity
  8
画層1
  6
Continuous
100
AcDbLine
 10
3491.670162814954
 20
11380.22071298736
 30
0.0
 11
3491.670162814954
 21
11330.22071298736
 31
0.0
  0
LINE
  5
394
102
{ACAD_REACTORS
330
424
102
}
330
1F
100
AcDbEntity
  8
画層1
  6
Continuous
100
AcDbLine
 10
3491.670162814954
 20
11330.22071298736
 30
0.0
 11
3705.970162814767
 21
11330.22071298736
 31
0.0
  0
LINE
  5
395
330
1F
100
AcDbEntity
  8
画層1
  6
Continuous
100
AcDbLine
 10
3705.970162814767
 20
11380.22071298736
 30
0.0
 11
3491.670162814954
 21
11380.22071298736
 31
0.0
  0
LEADER
  5
396
330
1F
100
AcDbEntity
  8
寸法引出
  6
Continuous
100
AcDbLeader
  3
1_50
 71
     0
 73
     0
 75
     1
 40
173.3333333333333
 41
1558.571428571429
 76
     3
 10
3598.82016281486
 20
8656.29781100003
 30
0.0
 10
3095.844753195815
 20
9012.156688453515
 30
0.0
 10
3045.844753195815
 20
9012.156688453515
 30
0.0
340
397
  0
MTEXT
  5
397
102
{ACAD_REACTORS
330
396
102
}
330
1F
100
AcDbEntity
  8
寸法文字
  6
Continuous
100
AcDbMText
 10
2995.844753195815
 20
9062.156688453518
 30
0.0
 40
150.0
 41
0.0
 71
     9
 72
     1
  1
メッセンワイヤー22m㎡
  7
1_100
 73
     1
 44
1.0
1001
ACAD
1000
MTEXTBEGIN
1070
    73
1070
     1
1070
    44
1040
1.0
1070
    74
1070
     0
1000
MTEXTEND
  0
LEADER
  5
398
330
1F
100
AcDbEntity
  8
寸法引出
  6
Continuous
100
AcDbLeader
  3
1_50
 71
     0
 73
     0
 75
     1
 40
150.0
 41
2349.642857142856
 76
     3
 10
3541.670162814952
 20
10476.92813637422
 30
0.0
 10
3007.462455435008
 20
10863.32187383075
 30
0.0
 10
2957.462455435008
 20
10863.32187383075
 30
0.0
340
399
  0
MTEXT
  5
399
102
{ACAD_REACTORS
330
398
102
}
330
1F
100
AcDbEntity
  8
寸法文字
  6
Continuous
100
AcDbMText
 10
2907.462455435008
 20
10913.32187383075
 30
0.0
 40
150.0
 41
0.0
 71
     9
 72
     1
  1
主柱KSポールφ114.3厚さ3.0mm
  7
1_100
 73
     1
 44
1.0
1001
ACAD
1000
ACAD_MTEXT_DEFINED_HEIGHT_BEGIN
1070
    46
1040
0.0
1000
ACAD_MTEXT_DEFINED_HEIGHT_END
1000
MTEXTBEGIN
1070
    73
1070
     1
1070
    44
1040
1.0
1070
    74
1070
     0
1000
MTEXTEND
  0
DIMENSION
  5
39A
330
1F
100
AcDbEntity
  8
寸法
  6
Continuous
100
AcDbDimension
  2
*D18
 10
3655.970162814766
 20
11745.22071298736
 30
0.0
 11
3598.82016281486
 21
11895.22071298736
 31
0.0
 70
    32
  1
φ<>
 71
     5
 42
114.2999999998137
  3
1_50
100
AcDbAlignedDimension
 13
3541.670162814952
 23
11430.22071298736
 33
0.0
 14
3655.970162814766
 24
11430.22071298736
 34
0.0
100
AcDbRotatedDimension
  0
MTEXT
  5
39B
330
1F
100
AcDbEntity
  8
寸法文字
  6
Continuous
100
AcDbMText
 10
2905.773037590602
 20
7818.990325861787
 30
0.0
 40
150.0
 41
0.0
 71
     3
 72
     1
  1
（250）
  7
1_100
 73
     1
 44
1.0
1001
ACAD
1000
MTEXTBEGIN
1070
    73
1070
     1
1070
    44
1040
1.0
1070
    74
1070
     0
1000
MTEXTEND
  0
MTEXT
  5
39C
330
1F
100
AcDbEntity
  8
寸法文字
  6
Continuous
100
AcDbMText
 10
2440.058866347936
 20
10758.4789153483
 30
0.0
 40
150.0
 41
0.0
 71
     3
 72
     1
  1
（STK-540鋼管）
  7
1_100
 73
     1
 44
1.0
1001
ACAD
1000
ACAD_MTEXT_DEFINED_HEIGHT_BEGIN
1070
    46
1040
0.0
1000
ACAD_MTEXT_DEFINED_HEIGHT_END
1000
MTEXTBEGIN
1070
    73
1070
     1
1070
    44
1040
1.0
1070
    74
1070
     0
1000
MTEXTEND
  0
LINE
  5
39D
330
1F
100
AcDbEntity
  8
画層2-1
  6
Continuous
100
AcDbLine
 10
3541.670162814952
 20
7545.220712987301
 30
0.0
 11
3655.970162814766
 21
7545.220712987301
 31
0.0
  0
LWPOLYLINE
  5
39E
330
1F
100
AcDbEntity
  8
画層1
100
AcDbPolyline
 90
        4
 70
     1
 43
0.0
 10
3579.939024355546
 20
7825.220712987301
 10
3619.939024355546
 20
7825.220712987301
 10
3619.939024355546
 20
7645.220712987303
 10
3579.939024355546
 20
7645.220712987303
  0
LWPOLYLINE
  5
39F
330
1F
100
AcDbEntity
  8
画層1-1
100
AcDbPolyline
 90
        4
 70
     1
 43
0.0
 10
3755.970162814767
 20
9445.221707301334
 10
3935.970162814766
 20
9445.221707301334
 10
3935.970162814766
 20
9405.221707301334
 10
3755.970162814767
 20
9405.221707301334
  0
CIRCLE
  5
3A0
330
1F
100
AcDbEntity
  8
画層1
  6
Continuous
100
AcDbCircle
 10
3680.970162814766
 20
9425.220712987361
 30
0.0
 40
10.9509940156
  0
LINE
  5
3A1
330
1F
100
AcDbEntity
  8
画層1
  6
Continuous
100
AcDbLine
 10
3491.670162814954
 20
9450.220712987361
 30
0.0
 11
3491.670162814954
 21
9400.22071298736
 31
0.0
  0
CIRCLE
  5
3A2
330
1F
100
AcDbEntity
  8
画層1
  6
Continuous
100
AcDbCircle
 10
3516.670162814953
 20
9425.220712987361
 30
0.0
 40
10.9509940156
  0
LINE
  5
3A3
330
1F
100
AcDbEntity
  8
画層1
  6
Continuous
100
AcDbLine
 10
3573.82016281486
 20
9450.220712987361
 30
0.0
 11
3573.82016281486
 21
9400.22071298736
 31
0.0
  0
LINE
  5
3A4
330
1F
100
AcDbEntity
  8
画層1
  6
Continuous
100
AcDbLine
 10
3623.82016281486
 20
9400.22071298736
 30
0.0
 11
3623.82016281486
 21
9450.220712987361
 31
0.0
  0
LEADER
  5
3A5
330
1F
100
AcDbEntity
  8
寸法引出
  6
Continuous
100
AcDbLeader
  3
1_50
 71
     0
 73
     0
 75
     1
 40
150.0
 41
1470.0
 76
     3
 10
3598.82016281486
 20
11445.22071298724
 30
0.0
 10
2995.184232355845
 20
11911.69182669569
 30
0.0
 10
2945.184232355845
 20
11911.69182669569
 30
0.0
340
3A6
  0
MTEXT
  5
3A6
102
{ACAD_REACTORS
330
3A5
102
}
330
1F
100
AcDbEntity
  8
寸法文字
  6
Continuous
100
AcDbMText
 10
2895.184232355845
 20
11961.69182669569
 30
0.0
 40
150.0
 41
0.0
 71
     9
 72
     1
  1
上部ネット下り防止付き
  7
1_100
 73
     1
 44
1.0
1001
ACAD
1000
MTEXTBEGIN
1070
    73
1070
     1
1070
    44
1040
1.0
1070
    74
1070
     0
1000
MTEXTEND
  0
LWPOLYLINE
  5
3A7
102
{ACAD_REACTORS
330
424
102
}
330
1F
100
AcDbEntity
  8
画層1
100
AcDbPolyline
 90
        4
 70
     1
 43
0.0
 10
3770.970162814766
 20
11424.99699232599
 10
3950.970162814767
 20
11424.99699232599
 10
3950.970162814767
 20
11384.99699232599
 10
3770.970162814766
 20
11384.99699232599
  0
LINE
  5
3A8
330
1F
100
AcDbEntity
  8
画層1
  6
Continuous
100
AcDbLine
 10
3705.970162814767
 20
11430.22071298736
 30
0.0
 11
3491.670162814954
 21
11430.22071298736
 31
0.0
  0
CIRCLE
  5
3A9
330
1F
100
AcDbEntity
  8
画層1
  6
Continuous
100
AcDbCircle
 10
3680.970162814766
 20
11405.22071298736
 30
0.0
 40
10.9509940156
  0
LINE
  5
3AA
330
1F
100
AcDbEntity
  8
画層1
  6
Continuous
100
AcDbLine
 10
3541.670162814952
 20
11445.22071298736
 30
0.0
 11
3655.970162814766
 21
11445.22071298736
 31
0.0
  0
LINE
  5
3AB
330
1F
100
AcDbEntity
  8
画層1
  6
Continuous
100
AcDbLine
 10
3491.670162814954
 20
11430.22071298736
 30
0.0
 11
3491.670162814954
 21
11380.22071298736
 31
0.0
  0
CIRCLE
  5
3AC
330
1F
100
AcDbEntity
  8
画層1
  6
Continuous
100
AcDbCircle
 10
3516.670162814953
 20
11405.22071298736
 30
0.0
 40
10.9509940156
  0
LINE
  5
3AD
330
1F
100
AcDbEntity
  8
画層1
  6
Continuous
100
AcDbLine
 10
3573.82016281486
 20
11430.22071298736
 30
0.0
 11
3573.82016281486
 21
11380.22071298736
 31
0.0
  0
LINE
  5
3AE
330
1F
100
AcDbEntity
  8
画層1
  6
Continuous
100
AcDbLine
 10
3623.82016281486
 20
11380.22071298736
 30
0.0
 11
3623.82016281486
 21
11430.22071298736
 31
0.0
  0
LINE
  5
3AF
102
{ACAD_REACTORS
330
424
102
}
330
1F
100
AcDbEntity
  8
画層1
  6
Continuous
100
AcDbLine
 10
3491.670162814954
 20
9400.22071298736
 30
0.0
 11
3705.970162814767
 21
9400.22071298736
 31
0.0
  0
LINE
  5
3B0
102
{ACAD_REACTORS
330
424
102
}
330
1F
100
AcDbEntity
  8
画層1
  6
Continuous
100
AcDbLine
 10
3705.970162814767
 20
9400.22071298736
 30
0.0
 11
3705.970162814767
 21
9450.220712987361
 31
0.0
  0
LINE
  5
3B1
102
{ACAD_REACTORS
330
424
102
}
330
1F
100
AcDbEntity
  8
画層1
  6
Continuous
100
AcDbLine
 10
3705.970162814767
 20
9450.220712987361
 30
0.0
 11
3491.670162814954
 21
9450.220712987361
 31
0.0
  0
LINE
  5
3B2
330
1F
100
AcDbEntity
  8
画層1
  6
Continuous
100
AcDbLine
 10
3491.670162814954
 20
11380.22071298736
 30
0.0
 11
3705.970162814767
 21
11380.22071298736
 31
0.0
  0
LINE
  5
3B3
102
{ACAD_REACTORS
330
424
102
}
330
1F
100
AcDbEntity
  8
画層1
  6
Continuous
100
AcDbLine
 10
3705.970162814767
 20
11380.22071298736
 30
0.0
 11
3705.970162814767
 21
11430.22071298736
 31
0.0
  0
CIRCLE
  5
3B4
330
1F
100
AcDbEntity
  8
画層1
  6
Continuous
100
AcDbCircle
 10
3680.970162814766
 20
7470.220712987303
 30
0.0
 40
10.9509940156
  0
CIRCLE
  5
3B5
330
1F
100
AcDbEntity
  8
画層1
  6
Continuous
100
AcDbCircle
 10
3516.670162814953
 20
7470.220712987303
 30
0.0
 40
10.9509940156
  0
LINE
  5
3B6
330
1F
100
AcDbEntity
  8
画層1
  6
Continuous
100
AcDbLine
 10
3573.82016281486
 20
7495.220712987301
 30
0.0
 11
3573.82016281486
 21
7445.220712987303
 31
0.0
  0
LINE
  5
3B7
330
1F
100
AcDbEntity
  8
画層1
  6
Continuous
100
AcDbLine
 10
3623.82016281486
 20
7445.220712987303
 30
0.0
 11
3623.82016281486
 21
7495.220712987301
 31
0.0
  0
LWPOLYLINE
  5
3B8
102
{ACAD_REACTORS
330
424
102
}
330
1F
100
AcDbEntity
  8
画層1
100
AcDbPolyline
 90
        4
 70
     1
 43
0.0
 10
3755.970162814767
 20
7490.221707301333
 10
3935.970162814766
 20
7490.221707301333
 10
3935.970162814766
 20
7450.221707301334
 10
3755.970162814767
 20
7450.221707301334
  0
LEADER
  5
3B9
330
1F
100
AcDbEntity
  8
寸法引出
  6
Continuous
100
AcDbLeader
  3
1_50
 71
     0
 73
     0
 75
     1
 40
150.0
 41
547.5000000000001
 76
     3
 10
3561.283249456719
 20
7523.877893078959
 30
0.0
 10
3067.358671303191
 20
7851.130340530655
 30
0.0
 10
3017.358671303191
 20
7851.130340530655
 30
0.0
340
3BA
  0
MTEXT
  5
3BA
102
{ACAD_REACTORS
330
3B9
102
}
330
1F
100
AcDbEntity
  8
寸法文字
  6
Continuous
100
AcDbMText
 10
2967.358671303191
 20
7901.130340530655
 30
0.0
 40
150.0
 41
0.0
 71
     9
 72
     1
  1
FRP被覆
  7
1_100
 73
     1
 44
1.0
1001
ACAD
1000
MTEXTBEGIN
1070
    73
1070
     1
1070
    44
1040
1.0
1070
    74
1070
     0
1000
MTEXTEND
  0
TEXT
  5
3BB
330
1F
100
AcDbEntity
  8
寸法
  6
Continuous
100
AcDbText
 10
1216.252186780879
 20
7480.069273012576
 30
0.0
 40
150.0
  1
▽GL
 41
0.75
  7
1_100
 72
     2
 11
1549.466472495165
 21
7630.069273012576
 31
0.0
100
AcDbText
 73
     3
  0
LINE
  5
3BC
330
1F
100
AcDbEntity
  8
画層1
  6
Continuous
 62
     7
100
AcDbLine
 10
3598.82016281486
 20
11430.22071298736
 30
0.0
 11
3598.82016281486
 21
7470.220712987303
 31
0.0
  0
LWPOLYLINE
  5
3BD
330
1F
100
AcDbEntity
  8
画層1-1
100
AcDbPolyline
 90
        4
 70
     1
 43
0.0
 10
3745.182247970536
 20
7537.641986823761
 10
3894.423584453579
 20
7638.275100085305
 10
3916.786498511726
 20
7605.110358644629
 10
3767.545162028451
 20
7504.477245383026
  0
LWPOLYLINE
  5
3BE
330
1F
100
AcDbEntity
  8
画層1-1
100
AcDbPolyline
 90
        4
 70
     1
 43
0.0
 10
9745.182247970539
 20
7537.641986823761
 10
9894.42358445358
 20
7638.275100085305
 10
9916.78649851196
 20
7605.110358644629
 10
9767.545162028683
 20
7504.477245383026
  0
LINE
  5
3BF
330
1F
100
AcDbEntity
  8
画層1-1
  6
Continuous
100
AcDbLine
 10
9451.670162814954
 20
11355.22071298736
 30
0.0
 11
9491.670162814953
 21
11355.22071298736
 31
0.0
  0
LINE
  5
3C0
330
1F
100
AcDbEntity
  8
画層1
  6
Continuous
100
AcDbLine
 10
9705.970162814764
 20
11330.22071298736
 30
0.0
 11
9705.970162814764
 21
11380.22071298736
 31
0.0
  0
LINE
  5
3C1
330
1F
100
AcDbEntity
  8
画層1
  6
Continuous
100
AcDbLine
 10
9623.82016281486
 20
11330.22071298736
 30
0.0
 11
9623.82016281486
 21
11380.22071298736
 31
0.0
  0
CIRCLE
  5
3C2
330
1F
100
AcDbEntity
  8
画層1
  6
Continuous
100
AcDbCircle
 10
9516.670162814953
 20
11355.22071298736
 30
0.0
 40
10.9509940156
  0
LINE
  5
3C3
330
1F
100
AcDbEntity
  8
画層1
  6
Continuous
100
AcDbLine
 10
9491.670162814953
 20
11380.22071298736
 30
0.0
 11
9491.670162814953
 21
11330.22071298736
 31
0.0
  0
LINE
  5
3C4
330
1F
100
AcDbEntity
  8
画層1
  6
Continuous
100
AcDbLine
 10
9573.820162814859
 20
11380.22071298736
 30
0.0
 11
9573.820162814859
 21
11330.22071298736
 31
0.0
  0
CIRCLE
  5
3C5
330
1F
100
AcDbEntity
  8
画層1
  6
Continuous
100
AcDbCircle
 10
9680.970162814766
 20
11355.22071298736
 30
0.0
 40
10.9509940156
  0
LINE
  5
3C6
330
1F
100
AcDbEntity
  8
画層1
  6
Continuous
100
AcDbLine
 10
9491.670162814953
 20
11330.22071298736
 30
0.0
 11
9705.970162814764
 21
11330.22071298736
 31
0.0
  0
LINE
  5
3C7
330
1F
100
AcDbEntity
  8
画層1
  6
Continuous
100
AcDbLine
 10
9705.970162814764
 20
11380.22071298736
 30
0.0
 11
9491.670162814953
 21
11380.22071298736
 31
0.0
  0
LINE
  5
3C8
330
1F
100
AcDbEntity
  8
画層1
  6
Continuous
100
AcDbLine
 10
9541.670162814954
 20
11445.22071298736
 30
0.0
 11
9655.970162814769
 21
11445.22071298736
 31
0.0
  0
LINE
  5
3C9
330
1F
100
AcDbEntity
  8
画層2-1
  6
Continuous
100
AcDbLine
 10
9541.670162814954
 20
7545.220712987301
 30
0.0
 11
9655.970162814769
 21
7545.220712987301
 31
0.0
  0
LINE
  5
3CA
330
1F
100
AcDbEntity
  8
画層1
  6
Continuous
100
AcDbLine
 10
9705.970162814764
 20
9450.220712987361
 30
0.0
 11
9491.670162814953
 21
9450.220712987361
 31
0.0
  0
LINE
  5
3CB
330
1F
100
AcDbEntity
  8
画層1
  6
Continuous
100
AcDbLine
 10
9705.970162814764
 20
11430.22071298736
 30
0.0
 11
9491.670162814953
 21
11430.22071298736
 31
0.0
  0
LINE
  5
3CC
330
1F
100
AcDbEntity
  8
画層1
  6
Continuous
100
AcDbLine
 10
9491.670162814953
 20
11380.22071298736
 30
0.0
 11
9705.970162814764
 21
11380.22071298736
 31
0.0
  0
LEADER
  5
3CD
330
1F
100
AcDbEntity
  8
寸法引出
  6
Continuous
100
AcDbLeader
  3
1_50
 71
     0
 73
     0
 75
     1
 40
150.0
 41
659.9999999999994
 76
     3
 10
9510.417729322616
 20
9400.22071298736
 30
0.0
 10
9311.436081051384
 20
9006.949854413596
 30
0.0
 10
9261.436081051384
 20
9006.949854413596
 30
0.0
340
3CE
213
-0.8483761584211606
223
-9.232755690152773
233
0.0
  0
MTEXT
  5
3CE
102
{ACAD_REACTORS
330
3CD
102
}
330
1F
100
AcDbEntity
  8
寸法文字
  6
Continuous
100
AcDbMText
 10
9212.284457209804
 20
9066.182610103748
 30
0.0
 40
150.0
 41
0.0
 71
     9
 72
     1
  1
バンド金具
  7
1_100
 73
     1
 44
1.0
1001
ACAD
1000
MTEXTBEGIN
1070
    73
1070
     1
1070
    44
1040
1.0
1070
    74
1070
     0
1000
MTEXTEND
  0
LEADER
  5
3CF
330
1F
100
AcDbEntity
  8
寸法引出
  6
Continuous
100
AcDbLeader
  3
1_50
 71
     0
 73
     0
 74
     0
 75
     1
 40
173.3333333333333
 41
1843.571428571429
 76
     3
 10
7224.959199368305
 20
9829.560193599672
 30
0.0
 10
7413.899637645627
 20
9684.371296864123
 30
0.0
 10
7463.899637645628
 20
9684.371296864123
 30
0.0
340
3D0
  0
MTEXT
  5
3D0
102
{ACAD_REACTORS
330
3CF
102
}
330
1F
100
AcDbEntity
  8
寸法文字
  6
Continuous
100
AcDbMText
 10
7513.899637645628
 20
9734.371296864123
 30
0.0
 40
150.0
 41
0.0
 71
     7
 72
     1
  1
筋違メッセンワイヤー22m㎡
  7
1_100
 73
     1
 44
1.0
1001
ACAD
1000
MTEXTBEGIN
1070
    73
1070
     1
1070
    44
1040
1.0
1070
    74
1070
     0
1000
MTEXTEND
  0
LINE
  5
3D1
330
1F
100
AcDbEntity
  8
画層1
  6
Continuous
100
AcDbLine
 10
9573.820162814859
 20
9450.220712987361
 30
0.0
 11
9573.820162814859
 21
9400.22071298736
 31
0.0
  0
LINE
  5
3D2
330
1F
100
AcDbEntity
  8
画層1
  6
Continuous
100
AcDbLine
 10
9491.670162814953
 20
9450.220712987361
 30
0.0
 11
9491.670162814953
 21
9400.22071298736
 31
0.0
  0
CIRCLE
  5
3D3
330
1F
100
AcDbEntity
  8
画層1
  6
Continuous
100
AcDbCircle
 10
9516.670162814953
 20
9425.220712987361
 30
0.0
 40
10.9509940156
  0
LINE
  5
3D4
330
1F
100
AcDbEntity
  8
画層1
  6
Continuous
100
AcDbLine
 10
9573.820162814859
 20
11430.22071298736
 30
0.0
 11
9573.820162814859
 21
11380.22071298736
 31
0.0
  0
LINE
  5
3D5
330
1F
100
AcDbEntity
  8
画層1
  6
Continuous
100
AcDbLine
 10
9491.670162814953
 20
11430.22071298736
 30
0.0
 11
9491.670162814953
 21
11380.22071298736
 31
0.0
  0
CIRCLE
  5
3D6
330
1F
100
AcDbEntity
  8
画層1
  6
Continuous
100
AcDbCircle
 10
9516.670162814953
 20
11405.22071298736
 30
0.0
 40
10.9509940156
  0
LINE
  5
3D7
330
1F
100
AcDbEntity
  8
画層1
  6
Continuous
100
AcDbLine
 10
9623.82016281486
 20
9400.22071298736
 30
0.0
 11
9623.82016281486
 21
9450.220712987361
 31
0.0
  0
CIRCLE
  5
3D8
330
1F
100
AcDbEntity
  8
画層1
  6
Continuous
100
AcDbCircle
 10
9680.970162814766
 20
9425.220712987361
 30
0.0
 40
10.9509940156
  0
LINE
  5
3D9
330
1F
100
AcDbEntity
  8
画層1
  6
Continuous
100
AcDbLine
 10
9623.82016281486
 20
11380.22071298736
 30
0.0
 11
9623.82016281486
 21
11430.22071298736
 31
0.0
  0
CIRCLE
  5
3DA
330
1F
100
AcDbEntity
  8
画層1
  6
Continuous
100
AcDbCircle
 10
9680.970162814766
 20
11405.22071298736
 30
0.0
 40
10.9509940156
  0
LINE
  5
3DB
330
1F
100
AcDbEntity
  8
画層1
  6
Continuous
100
AcDbLine
 10
9705.970162814764
 20
11380.22071298736
 30
0.0
 11
9705.970162814764
 21
11430.22071298736
 31
0.0
  0
LINE
  5
3DC
330
1F
100
AcDbEntity
  8
画層1
  6
Continuous
100
AcDbLine
 10
9491.670162814953
 20
9400.22071298736
 30
0.0
 11
9705.970162814764
 21
9400.22071298736
 31
0.0
  0
LINE
  5
3DD
330
1F
100
AcDbEntity
  8
画層1
  6
Continuous
100
AcDbLine
 10
9705.970162814764
 20
9400.22071298736
 30
0.0
 11
9705.970162814764
 21
9450.220712987361
 31
0.0
  0
MTEXT
  5
3DE
330
1F
100
AcDbEntity
  8
寸法文字
  6
Continuous
100
AcDbMText
 10
5619.487850038603
 20
10764.63742708985
 30
0.0
 40
100.0
 41
0.0
 71
     1
 72
     1
  1
※KRP-40　1100D18本40mm目（再生ポリエステル100%）\P※KSP-24　37.5mm目（ｽｰﾊﾟｰﾎﾟﾘｴﾁﾚﾝ）
  7
1_100
 73
     1
 44
1.0
1001
ACAD
1000
MTEXTBEGIN
1070
    73
1070
     1
1070
    44
1040
1.0
1070
    74
1070
     0
1000
MTEXTEND
  0
MTEXT
  5
3E0
102
{ACAD_REACTORS
330
3DF
102
}
330
1F
100
AcDbEntity
  8
寸法文字
  6
Continuous
100
AcDbMText
 10
5607.203423887309
 20
10855.5238861572
 30
0.0
 40
150.0
 41
0.0
 71
     7
 72
     1
  1
ネット\Pクレモナ250D/80本×37.5mm目
  7
1_100
 73
     1
 44
0.6
1001
ACAD
1000
MTEXTBEGIN
1070
    73
1070
     1
1070
    44
1040
0.6
1070
    74
1070
     0
1000
MTEXTEND
  0
LINE
  5
3E1
330
1F
100
AcDbEntity
  8
寸法引出
  6
Continuous
100
AcDbLine
 10
6933.83510903018
 20
9189.691245049209
 30
0.0
 11
7413.899637645627
 21
9684.371296864123
 31
0.0
  0
LEADER
  5
3E2
330
1F
100
AcDbEntity
  8
寸法引出
  6
Continuous
100
AcDbLeader
  3
1_50
 71
     0
 73
     0
 74
     0
 75
     1
 40
150.0
 41
2832.857142857145
 76
     3
 10
5942.653150616963
 20
11358.05387665855
 30
0.0
 10
6211.37061270215
 20
11924.97413788468
 30
0.0
 10
6261.370612702151
 20
11924.97413788468
 30
0.0
340
3E3
  0
MTEXT
  5
3E3
102
{ACAD_REACTORS
330
3E2
102
}
330
1F
100
AcDbEntity
  8
寸法文字
  6
Continuous
100
AcDbMText
 10
6311.370612702151
 20
11974.97413788468
 30
0.0
 40
150.0
 41
0.0
 71
     7
 72
     1
  1
端末・コーナー補強ポールφ76.3×2.8mm
  7
1_100
 73
     1
 44
1.0
1001
ACAD
1000
MTEXTBEGIN
1070
    73
1070
     1
1070
    44
1040
1.0
1070
    74
1070
     0
1000
MTEXTEND
  0
MTEXT
  5
3E4
330
1F
100
AcDbEntity
  8
寸法文字
  6
Continuous
100
AcDbMText
 10
6933.178180430369
 20
11844.5700583529
 30
0.0
 40
150.0
 41
0.0
 71
     1
 72
     1
  1
（STK-400鋼管）
  7
1_100
 73
     1
 44
1.0
1001
ACAD
1000
MTEXTBEGIN
1070
    73
1070
     1
1070
    44
1040
1.0
1070
    74
1070
     0
1000
MTEXTEND
  0
LINE
  5
3E5
330
1F
100
AcDbEntity
  8
画層1
  6
Continuous
100
AcDbLine
 10
9573.820162814859
 20
7495.220712987301
 30
0.0
 11
9573.820162814859
 21
7445.220712987303
 31
0.0
  0
CIRCLE
  5
3E6
330
1F
100
AcDbEntity
  8
画層1
  6
Continuous
100
AcDbCircle
 10
9516.670162814953
 20
7470.220712987303
 30
0.0
 40
10.9509940156
  0
LINE
  5
3E7
330
1F
100
AcDbEntity
  8
画層1
  6
Continuous
100
AcDbLine
 10
9623.82016281486
 20
7445.220712987303
 30
0.0
 11
9623.82016281486
 21
7495.220712987301
 31
0.0
  0
CIRCLE
  5
3E8
330
1F
100
AcDbEntity
  8
画層1
  6
Continuous
100
AcDbCircle
 10
9680.970162814766
 20
7470.220712987303
 30
0.0
 40
10.9509940156
  0
LWPOLYLINE
  5
3E9
330
1F
100
AcDbEntity
  8
画層1-1
100
AcDbPolyline
 90
        4
 70
     1
 43
0.0
 10
9452.458077659185
 20
7537.641986823761
 10
9303.216741176141
 20
7638.275100085305
 10
9280.853827117761
 20
7605.110358644629
 10
9430.095163601036
 20
7504.477245383026
  0
LINE
  5
3EA
102
{ACAD_REACTORS
330
423
102
}
330
1F
100
AcDbEntity
  8
DEFPOINTS
100
AcDbLine
 10
11400.46806743769
 20
7445.22071298736
 30
0.0
 11
10503.50654775328
 21
11405.22071298736
 31
0.0
  0
LINE
  5
3EB
102
{ACAD_REACTORS
330
424
102
}
330
1F
100
AcDbEntity
  8
DEFPOINTS
100
AcDbLine
 10
6032.674956366705
 20
7445.220712987303
 30
0.0
 11
5135.713436682294
 21
11405.22071298736
 31
0.0
  0
LINE
  5
3EC
330
1F
100
AcDbEntity
  8
寸法
  6
Continuous
 62
     3
100
AcDbLine
 10
7418.773562847455
 20
12978.96753855178
 30
0.0
 11
11745.53342944924
 21
12978.96753855178
 31
0.0
  0
LINE
  5
3ED
330
1F
100
AcDbEntity
  8
寸法
  6
Continuous
 62
     3
100
AcDbLine
 10
7418.773562847455
 20
12948.96753855294
 30
0.0
 11
11745.53342944924
 21
12948.96753855294
 31
0.0
  0
MTEXT
  5
3EE
330
1F
100
AcDbEntity
  8
寸法
  6
Continuous
 62
     3
100
AcDbMText
 10
9582.153496147885
 20
13027.74235198728
 30
0.0
 40
250.0
 41
0.0
 71
     8
 72
     1
  1
防球ネット　ＫＳ－Ⅰ型　Ｈ＝４,０００
  7
MSP明朝
 73
     1
 44
1.0
1001
ACAD
1000
ACAD_MTEXT_DEFINED_HEIGHT_BEGIN
1070
    46
1040
0.0
1000
ACAD_MTEXT_DEFINED_HEIGHT_END
1000
MTEXTBEGIN
1070
    73
1070
     1
1070
    44
1040
1.0
1070
    74
1070
     0
1000
MTEXTEND
  0
LINE
  5
3EF
102
{ACAD_REACTORS
330
423
102
}
330
1F
100
AcDbEntity
  8
DEFPOINTS
100
AcDbLine
 10
13049.50252121319
 20
11405.22071298736
 30
0.0
 11
13049.50252121319
 21
7445.220712987303
 31
0.0
  0
LINE
  5
3F0
330
1F
100
AcDbEntity
  8
画層1-1
  6
Continuous
100
AcDbLine
 10
3705.970162814767
 20
11355.22071298736
 30
0.0
 11
3745.970162814766
 21
11355.22071298736
 31
0.0
  0
LWPOLYLINE
  5
3F1
102
{ACAD_REACTORS
330
424
102
}
330
1F
100
AcDbEntity
  8
画層1
  6
Continuous
100
AcDbPolyline
 90
        4
 70
     1
 43
0.0
 10
3491.670162814954
 20
7495.220712987301
 10
3705.970162814767
 20
7495.220712987301
 10
3705.970162814767
 20
7445.220712987303
 10
3491.670162814954
 20
7445.220712987303
  0
LWPOLYLINE
  5
3F2
330
1F
100
AcDbEntity
  8
画層1
  6
Continuous
100
AcDbPolyline
 90
        4
 70
     1
 43
0.0
 10
9491.670162814953
 20
7495.220712987301
 10
9705.970162814764
 20
7495.220712987301
 10
9705.970162814764
 20
7445.220712987303
 10
9491.670162814953
 20
7445.220712987303
  0
LINE
  5
3F3
330
1F
100
AcDbEntity
  8
ﾊｯﾁﾝｸﾞ
  6
Continuous
100
AcDbLine
 10
10288.18135846202
 20
7432.746410953175
 30
0.0
 11
10341.94420744507
 21
7378.983561970239
 31
0.0
  0
LINE
  5
3F4
330
1F
100
AcDbEntity
  8
ﾊｯﾁﾝｸﾞ
  6
Continuous
100
AcDbLine
 10
10300.65566049638
 20
7445.220712987303
 30
0.0
 11
10180.65566049544
 21
7325.220712987301
 31
0.0
  0
LINE
  5
3F5
330
1F
100
AcDbEntity
  8
ﾊｯﾁﾝｸﾞ
  6
Continuous
100
AcDbLine
 10
10221.45970100332
 20
7445.220712987303
 30
0.0
 11
10129.78943947568
 21
7353.55045146024
 31
0.0
  0
LINE
  5
3F6
330
1F
100
AcDbEntity
  8
ﾊｯﾁﾝｸﾞ
  6
Continuous
100
AcDbLine
 10
10142.26374151004
 20
7445.220712987418
 30
0.0
 11
10090.19145972915
 21
7393.148431206765
 31
0.0
  0
LINE
  5
3F7
330
1F
100
AcDbEntity
  8
ﾊｯﾁﾝｸﾞ
  6
Continuous
100
AcDbLine
 10
10248.58337871549
 20
7393.148431206765
 30
0.0
 11
10316.51109693507
 21
7325.220712987301
 31
0.0
  0
LINE
  5
3F8
330
1F
100
AcDbEntity
  8
ﾊｯﾁﾝｸﾞ
  6
Continuous
100
AcDbLine
 10
10208.98539896896
 20
7353.550451460296
 30
0.0
 11
10237.31513744178
 21
7325.220712987242
 31
0.0
  0
LINE
  5
3F9
330
1F
100
AcDbEntity
  8
ﾊｯﾁﾝｸﾞ
  6
Continuous
100
AcDbLine
 10
10050.59347998286
 20
7432.746410953175
 30
0.0
 11
10158.1191779485
 21
7325.220712987301
 31
0.0
  0
LINE
  5
3FA
330
1F
100
AcDbEntity
  8
ﾊｯﾁﾝｸﾞ
  6
Continuous
100
AcDbLine
 10
10010.99550023633
 20
7393.148431206765
 30
0.0
 11
10078.92321845568
 21
7325.220712987301
 31
0.0
  0
LINE
  5
3FB
330
1F
100
AcDbEntity
  8
ﾊｯﾁﾝｸﾞ
  6
Continuous
100
AcDbLine
 10
9971.397520489809
 20
7353.550451460296
 30
0.0
 11
9999.727258962398
 21
7325.220712987242
 31
0.0
  0
LINE
  5
3FC
330
1F
100
AcDbEntity
  8
ﾊｯﾁﾝｸﾞ
  6
Continuous
100
AcDbLine
 10
10063.06778201699
 20
7445.22071298736
 30
0.0
 11
9943.067782016292
 21
7325.220712987242
 31
0.0
  0
LINE
  5
3FD
330
1F
100
AcDbEntity
  8
ﾊｯﾁﾝｸﾞ
  6
Continuous
100
AcDbLine
 10
9983.871822523937
 20
7445.22071298736
 30
0.0
 11
9863.871822523236
 21
7325.220712987242
 31
0.0
  0
LINE
  5
3FE
330
1F
100
AcDbEntity
  8
ﾊｯﾁﾝｸﾞ
  6
Continuous
100
AcDbLine
 10
9904.675863030648
 20
7445.220712987242
 30
0.0
 11
9848.82016281486
 21
7389.365012771685
 31
0.0
  0
LINE
  5
3FF
330
1F
100
AcDbEntity
  8
ﾊｯﾁﾝｸﾞ
  6
Continuous
100
AcDbLine
 10
9292.964462599067
 20
7445.220712987242
 30
0.0
 11
9348.82016281486
 21
7389.365012771685
 31
0.0
  0
LINE
  5
400
330
1F
100
AcDbEntity
  8
ﾊｯﾁﾝｸﾞ
  6
Continuous
100
AcDbLine
 10
9213.768503105784
 20
7445.22071298736
 30
0.0
 11
9333.768503106485
 21
7325.220712987242
 31
0.0
  0
LINE
  5
401
330
1F
100
AcDbEntity
  8
ﾊｯﾁﾝｸﾞ
  6
Continuous
100
AcDbLine
 10
9134.572543612732
 20
7445.22071298736
 30
0.0
 11
9254.572543613431
 21
7325.220712987242
 31
0.0
  0
LINE
  5
402
330
1F
100
AcDbEntity
  8
ﾊｯﾁﾝｸﾞ
  6
Continuous
100
AcDbLine
 10
9226.242805139913
 20
7353.550451460296
 30
0.0
 11
9197.913066667323
 21
7325.220712987242
 31
0.0
  0
LINE
  5
403
330
1F
100
AcDbEntity
  8
ﾊｯﾁﾝｸﾞ
  6
Continuous
100
AcDbLine
 10
9186.644825393385
 20
7393.148431206765
 30
0.0
 11
9118.717107174038
 21
7325.220712987301
 31
0.0
  0
LINE
  5
404
330
1F
100
AcDbEntity
  8
ﾊｯﾁﾝｸﾞ
  6
Continuous
100
AcDbLine
 10
9147.04684564686
 20
7432.746410953175
 30
0.0
 11
9039.521147681218
 21
7325.220712987301
 31
0.0
  0
LINE
  5
405
330
1F
100
AcDbEntity
  8
ﾊｯﾁﾝｸﾞ
  6
Continuous
100
AcDbLine
 10
8988.654926660755
 20
7353.550451460296
 30
0.0
 11
8960.325188187933
 21
7325.220712987242
 31
0.0
  0
LINE
  5
406
330
1F
100
AcDbEntity
  8
ﾊｯﾁﾝｸﾞ
  6
Continuous
100
AcDbLine
 10
8949.056946914229
 20
7393.148431206765
 30
0.0
 11
8881.129228694648
 21
7325.220712987301
 31
0.0
  0
LINE
  5
407
330
1F
100
AcDbEntity
  8
ﾊｯﾁﾝｸﾞ
  6
Continuous
100
AcDbLine
 10
9055.376584119681
 20
7445.220712987418
 30
0.0
 11
9107.448865900563
 21
7393.148431206765
 31
0.0
  0
LINE
  5
408
330
1F
100
AcDbEntity
  8
ﾊｯﾁﾝｸﾞ
  6
Continuous
100
AcDbLine
 10
8976.180624626397
 20
7445.220712987303
 30
0.0
 11
9067.85088615404
 21
7353.55045146024
 31
0.0
  0
LINE
  5
409
330
1F
100
AcDbEntity
  8
ﾊｯﾁﾝｸﾞ
  6
Continuous
100
AcDbLine
 10
8896.984665133343
 20
7445.220712987303
 30
0.0
 11
9016.984665134271
 21
7325.220712987301
 31
0.0
  0
LINE
  5
40A
330
1F
100
AcDbEntity
  8
ﾊｯﾁﾝｸﾞ
  6
Continuous
100
AcDbLine
 10
8909.458967167703
 20
7432.746410953175
 30
0.0
 11
8855.696118184649
 21
7378.983561970239
 31
0.0
  0
LINE
  5
40B
330
1F
100
AcDbEntity
  8
ﾊｯﾁﾝｸﾞ
  6
Continuous
100
AcDbLine
 10
2909.458967167703
 20
7432.746410953175
 30
0.0
 11
2855.696118184649
 21
7378.983561970239
 31
0.0
  0
LINE
  5
40C
330
1F
100
AcDbEntity
  8
ﾊｯﾁﾝｸﾞ
  6
Continuous
100
AcDbLine
 10
2896.984665133342
 20
7445.220712987303
 30
0.0
 11
3016.984665134274
 21
7325.220712987301
 31
0.0
  0
LINE
  5
40D
330
1F
100
AcDbEntity
  8
ﾊｯﾁﾝｸﾞ
  6
Continuous
100
AcDbLine
 10
2976.180624626394
 20
7445.220712987303
 30
0.0
 11
3067.850886154039
 21
7353.55045146024
 31
0.0
  0
LINE
  5
40E
330
1F
100
AcDbEntity
  8
ﾊｯﾁﾝｸﾞ
  6
Continuous
100
AcDbLine
 10
3055.37658411968
 20
7445.220712987418
 30
0.0
 11
3107.448865900565
 21
7393.148431206765
 31
0.0
  0
LINE
  5
40F
330
1F
100
AcDbEntity
  8
ﾊｯﾁﾝｸﾞ
  6
Continuous
100
AcDbLine
 10
2949.056946914228
 20
7393.148431206765
 30
0.0
 11
2881.129228694648
 21
7325.220712987301
 31
0.0
  0
LINE
  5
410
330
1F
100
AcDbEntity
  8
ﾊｯﾁﾝｸﾞ
  6
Continuous
100
AcDbLine
 10
2988.654926660754
 20
7353.550451460296
 30
0.0
 11
2960.325188187933
 21
7325.220712987242
 31
0.0
  0
LINE
  5
411
330
1F
100
AcDbEntity
  8
ﾊｯﾁﾝｸﾞ
  6
Continuous
100
AcDbLine
 10
3147.04684564686
 20
7432.746410953175
 30
0.0
 11
3039.521147681218
 21
7325.220712987301
 31
0.0
  0
LINE
  5
412
330
1F
100
AcDbEntity
  8
ﾊｯﾁﾝｸﾞ
  6
Continuous
100
AcDbLine
 10
3186.644825393385
 20
7393.148431206765
 30
0.0
 11
3118.717107174037
 21
7325.220712987301
 31
0.0
  0
LINE
  5
413
330
1F
100
AcDbEntity
  8
ﾊｯﾁﾝｸﾞ
  6
Continuous
100
AcDbLine
 10
3226.242805139911
 20
7353.550451460296
 30
0.0
 11
3197.913066667323
 21
7325.220712987242
 31
0.0
  0
LINE
  5
414
330
1F
100
AcDbEntity
  8
ﾊｯﾁﾝｸﾞ
  6
Continuous
100
AcDbLine
 10
3134.572543612732
 20
7445.22071298736
 30
0.0
 11
3254.572543613431
 21
7325.220712987242
 31
0.0
  0
LINE
  5
415
330
1F
100
AcDbEntity
  8
ﾊｯﾁﾝｸﾞ
  6
Continuous
100
AcDbLine
 10
3213.768503105784
 20
7445.22071298736
 30
0.0
 11
3333.768503106482
 21
7325.220712987242
 31
0.0
  0
LINE
  5
416
330
1F
100
AcDbEntity
  8
ﾊｯﾁﾝｸﾞ
  6
Continuous
100
AcDbLine
 10
3292.964462599069
 20
7445.220712987242
 30
0.0
 11
3348.82016281486
 21
7389.365012771685
 31
0.0
  0
LINE
  5
417
330
1F
100
AcDbEntity
  8
ﾊｯﾁﾝｸﾞ
  6
Continuous
100
AcDbLine
 10
3904.67586303065
 20
7445.220712987242
 30
0.0
 11
3848.82016281486
 21
7389.365012771685
 31
0.0
  0
LINE
  5
418
330
1F
100
AcDbEntity
  8
ﾊｯﾁﾝｸﾞ
  6
Continuous
100
AcDbLine
 10
3983.871822523935
 20
7445.22071298736
 30
0.0
 11
3863.871822523238
 21
7325.220712987242
 31
0.0
  0
LINE
  5
419
330
1F
100
AcDbEntity
  8
ﾊｯﾁﾝｸﾞ
  6
Continuous
100
AcDbLine
 10
4063.067782016987
 20
7445.22071298736
 30
0.0
 11
3943.067782016289
 21
7325.220712987242
 31
0.0
  0
LINE
  5
41A
330
1F
100
AcDbEntity
  8
ﾊｯﾁﾝｸﾞ
  6
Continuous
100
AcDbLine
 10
3971.397520489809
 20
7353.550451460296
 30
0.0
 11
3999.727258962397
 21
7325.220712987242
 31
0.0
  0
LINE
  5
41B
330
1F
100
AcDbEntity
  8
ﾊｯﾁﾝｸﾞ
  6
Continuous
100
AcDbLine
 10
4010.995500236334
 20
7393.148431206765
 30
0.0
 11
4078.923218455681
 21
7325.220712987301
 31
0.0
  0
LINE
  5
41C
330
1F
100
AcDbEntity
  8
ﾊｯﾁﾝｸﾞ
  6
Continuous
100
AcDbLine
 10
4050.59347998286
 20
7432.746410953175
 30
0.0
 11
4158.119177948502
 21
7325.220712987301
 31
0.0
  0
LINE
  5
41D
330
1F
100
AcDbEntity
  8
ﾊｯﾁﾝｸﾞ
  6
Continuous
100
AcDbLine
 10
4208.985398968964
 20
7353.550451460296
 30
0.0
 11
4237.315137441785
 21
7325.220712987242
 31
0.0
  0
LINE
  5
41E
330
1F
100
AcDbEntity
  8
ﾊｯﾁﾝｸﾞ
  6
Continuous
100
AcDbLine
 10
4248.58337871549
 20
7393.148431206765
 30
0.0
 11
4316.511096935072
 21
7325.220712987301
 31
0.0
  0
LINE
  5
41F
330
1F
100
AcDbEntity
  8
ﾊｯﾁﾝｸﾞ
  6
Continuous
100
AcDbLine
 10
4142.263741510038
 20
7445.220712987418
 30
0.0
 11
4090.191459729154
 21
7393.148431206765
 31
0.0
  0
LINE
  5
420
330
1F
100
AcDbEntity
  8
ﾊｯﾁﾝｸﾞ
  6
Continuous
100
AcDbLine
 10
4221.459701003325
 20
7445.220712987303
 30
0.0
 11
4129.789439475679
 21
7353.55045146024
 31
0.0
  0
LINE
  5
421
330
1F
100
AcDbEntity
  8
ﾊｯﾁﾝｸﾞ
  6
Continuous
100
AcDbLine
 10
4300.655660496377
 20
7445.220712987303
 30
0.0
 11
4180.655660495445
 21
7325.220712987301
 31
0.0
  0
LINE
  5
422
330
1F
100
AcDbEntity
  8
ﾊｯﾁﾝｸﾞ
  6
Continuous
100
AcDbLine
 10
4288.181358462018
 20
7432.746410953175
 30
0.0
 11
4341.944207445069
 21
7378.983561970239
 31
0.0
  0
HATCH
  5
423
330
1F
100
AcDbEntity
  8
ﾈｯﾄ
 62
   230
370
    13
100
AcDbHatch
 10
0.0
 20
0.0
 30
0.0
210
0.0
220
0.0
230
1.0
  2
NET
 70
     0
 71
     1
 91
        1
 92
        7
 72
     0
 73
     1
 93
        4
 10
11394.8054315811
 20
7470.220712987303
 10
13049.50252121319
 20
7470.220712987303
 10
13049.50252121319
 20
11405.22071298736
 10
10503.50654775328
 20
11405.22071298736
 97
        4
330
384
330
3EA
330
386
330
3EF
 75
     0
 76
     1
 52
0.0
 41
500.0
 77
     0
 78
     2
 53
0.0
 43
-614880.9469752696
 44
-336374.5886344738
 45
0.0
 46
62.5
 79
     0
 53
90.0
 43
-614880.9469752696
 44
-336374.5886344738
 45
-62.5
 46
0.0000000000000038
 79
     0
 47
26.20195185706617
 98
        1
 10
11991.47276932635
 20
9438.175855684214
  0
HATCH
  5
424
330
1F
100
AcDbEntity
  8
ﾈｯﾄ
 62
   230
370
    13
100
AcDbHatch
 10
0.0
 20
0.0
 30
0.0
210
0.0
220
0.0
230
1.0
  2
NET
 70
     0
 71
     1
 91
        1
 92
        7
 72
     0
 73
     1
 93
       21
 10
5135.713436682293
 20
11405.22071298736
 10
3950.970162814767
 20
11405.22071298736
 10
3950.970162814768
 20
11384.99699232599
 10
3770.970162814766
 20
11384.99699232599
 10
3770.970162814766
 20
11405.22071298736
 10
3705.970162814767
 20
11405.22071298736
 10
3705.970162814767
 20
11380.22071298736
 10
3705.970162814767
 20
11330.22071298736
 10
3655.970162814766
 20
11330.22071298736
 10
3655.970162814766
 20
9450.220712987357
 10
3705.970162814767
 20
9450.220712987361
 10
3705.970162814767
 20
9400.22071298736
 10
3655.970162814766
 20
9400.22071298736
 10
3655.970162814766
 20
7495.2207129873
 10
3705.970162814767
 20
7495.220712987301
 10
3705.970162814767
 20
7470.220712987303
 10
3755.970162814767
 20
7470.220712987303
 10
3755.970162814767
 20
7490.221707301333
 10
3935.970162814766
 20
7490.221707301333
 10
3935.970162814766
 20
7470.220712987303
 10
6027.01232051011
 20
7470.2207129873
 97
       13
330
384
330
3A7
330
3B3
330
38E
330
394
330
33F
330
3B1
330
3B0
330
3AF
330
3F1
330
386
330
3B8
330
3EB
 75
     0
 76
     1
 52
0.0
 41
500.0
 77
     0
 78
     2
 53
0.0
 43
-614880.9469752696
 44
-336374.5886344738
 45
0.0
 46
62.5
 79
     0
 53
90.0
 43
-614880.9469752696
 44
-336374.5886344738
 45
-62.5
 46
0.0000000000000038
 79
     0
 47
26.20195185706617
 98
        1
 10
5252.362901517474
 20
8966.540937006826
  0
MTEXT
  5
425
102
{ACAD_REACTORS
330
426
102
}
330
1F
100
AcDbEntity
  8
寸法文字
  6
Continuous
100
AcDbMText
 10
10591.9249548561
 20
11984.34860756283
 30
0.0
 40
150.0
 41
0.0
 71
     7
 72
     1
  1
ネット上下6mm合繊ロープに4mm合繊\Pロープにて22m㎡ワイヤーに巻付
  7
1_100
 73
     1
 44
1.0
1001
ACAD
1000
MTEXTBEGIN
1070
    73
1070
     1
1070
    44
1040
1.0
1070
    74
1070
     0
1000
MTEXTEND
  0
LEADER
  5
426
330
1F
100
AcDbEntity
  8
寸法引出
  6
Continuous
100
AcDbLeader
  3
1_50
 71
     0
 73
     0
 74
     0
 75
     1
 40
423.3333333333332
 41
2581.071428571427
 76
     3
 10
10268.70269480213
 20
11405.22071298736
 30
0.0
 10
10491.9249548561
 20
11934.34860756283
 30
0.0
 10
10541.9249548561
 20
11934.34860756283
 30
0.0
340
425
  0
DIMENSION
  5
427
330
1F
100
AcDbEntity
  8
寸法
  6
Continuous
100
AcDbDimension
  2
*D19
 10
16699.50252121319
 20
7445.220712987303
 30
0.0
 11
16814.00119454768
 21
7276.458371194954
 31
0.0
 70
   160
 71
     5
 42
200.0
  3
1_50
100
AcDbAlignedDimension
 13
16149.50252121319
 23
7245.220712987301
 33
0.0
 14
16149.50252121319
 24
7445.220712987303
 34
0.0
 50
90.0
100
AcDbRotatedDimension
  0
LINE
  5
428
102
{ACAD_REACTORS
330
788
102
}
330
1F
100
AcDbEntity
  8
画層2-1
  6
Continuous
100
AcDbLine
 10
15342.35252121305
 20
7295.220712987301
 30
0.0
 11
15456.65252121333
 21
7295.220712987301
 31
0.0
  0
DIMENSION
  5
429
330
1F
100
AcDbEntity
  8
寸法
  6
Continuous
100
AcDbDimension
  2
*D20
 10
15456.65252121333
 20
11745.22071298736
 30
0.0
 11
15399.50252121319
 21
11895.22071298736
 31
0.0
 70
    32
  1
φ<>
 71
     5
 42
114.3000000002794
  3
1_50
100
AcDbAlignedDimension
 13
15342.35252121305
 23
11445.22071298736
 33
0.0
 14
15456.65252121333
 24
11445.22071298736
 34
0.0
100
AcDbRotatedDimension
  0
LEADER
  5
42A
330
1F
100
AcDbEntity
  8
寸法引出
  6
Continuous
100
AcDbLeader
  3
1_50
 71
     0
 73
     0
 74
     0
 75
     1
 40
150.0
 41
2349.642857142856
 76
     3
 10
15456.65252121333
 20
11116.19057158835
 30
0.0
 10
16099.18543114588
 20
12186.28927776229
 30
0.0
 10
16149.18543114588
 20
12186.28927776229
 30
0.0
340
42B
  0
MTEXT
  5
42B
102
{ACAD_REACTORS
330
42A
102
}
330
1F
100
AcDbEntity
  8
寸法文字
  6
Continuous
100
AcDbMText
 10
16199.18543114588
 20
12236.28927776229
 30
0.0
 40
150.0
 41
0.0
 71
     7
 72
     1
  1
主柱KSポールφ114.3厚さ3.0mm
  7
1_100
 73
     1
 44
1.0
1001
ACAD
1000
ACAD_MTEXT_DEFINED_HEIGHT_BEGIN
1070
    46
1040
0.0
1000
ACAD_MTEXT_DEFINED_HEIGHT_END
1000
MTEXTBEGIN
1070
    73
1070
     1
1070
    44
1040
1.0
1070
    74
1070
     0
1000
MTEXTEND
  0
LINE
  5
42C
330
1F
100
AcDbEntity
  8
画層2-1
  6
Continuous
100
AcDbLine
 10
15342.35252121305
 20
7545.220712987301
 30
0.0
 11
15456.65252121333
 21
7545.220712987301
 31
0.0
  0
LWPOLYLINE
  5
42D
330
1F
100
AcDbEntity
  8
画層1
100
AcDbPolyline
 90
        4
 70
     1
 43
0.0
 10
15379.50252121319
 20
7825.445427962115
 10
15419.50252121319
 20
7825.445427962115
 10
15419.50252121319
 20
7645.445427962116
 10
15379.50252121319
 20
7645.445427962116
  0
LINE
  5
42E
330
1F
100
AcDbEntity
  8
画層1
  6
Continuous
100
AcDbLine
 10
15292.35252121305
 20
9425.220712987361
 30
0.0
 11
15342.35252121305
 21
9425.220712987361
 31
0.0
  0
LINE
  5
42F
330
1F
100
AcDbEntity
  8
画層1
  6
Continuous
100
AcDbLine
 10
15292.35252121305
 20
9450.220712987361
 30
0.0
 11
15292.35252121305
 21
9400.22071298736
 31
0.0
  0
CIRCLE
  5
430
330
1F
100
AcDbEntity
  8
画層1
  6
Continuous
100
AcDbCircle
 10
15399.50252121319
 20
9425.220712987361
 30
0.0
 40
10.9509940156
  0
LINE
  5
431
330
1F
100
AcDbEntity
  8
画層1
  6
Continuous
100
AcDbLine
 10
15382.35252121305
 20
9450.220712987361
 30
0.0
 11
15382.35252121305
 21
9400.22071298736
 31
0.0
  0
LINE
  5
432
330
1F
100
AcDbEntity
  8
画層1
  6
Continuous
100
AcDbLine
 10
15416.65252121333
 20
9450.220712987361
 30
0.0
 11
15416.65252121333
 21
9400.22071298736
 31
0.0
  0
LINE
  5
433
330
1F
100
AcDbEntity
  8
画層1
  6
Continuous
100
AcDbLine
 10
15416.65252121333
 20
9400.22071298736
 30
0.0
 11
15456.65252121333
 21
9400.22071298736
 31
0.0
  0
LINE
  5
434
330
1F
100
AcDbEntity
  8
画層1
  6
Continuous
100
AcDbLine
 10
15416.65252121333
 20
9450.220712987361
 30
0.0
 11
15456.65252121333
 21
9450.220712987361
 31
0.0
  0
LINE
  5
435
330
1F
100
AcDbEntity
  8
画層1
  6
Continuous
100
AcDbLine
 10
15382.35252121305
 20
9450.220712987361
 30
0.0
 11
15342.35252121305
 21
9450.220712987361
 31
0.0
  0
LINE
  5
436
330
1F
100
AcDbEntity
  8
画層1
  6
Continuous
100
AcDbLine
 10
15382.35252121305
 20
9400.22071298736
 30
0.0
 11
15342.35252121305
 21
9400.22071298736
 31
0.0
  0
LINE
  5
437
330
1F
100
AcDbEntity
  8
画層1
  6
Continuous
100
AcDbLine
 10
15292.35252121305
 20
11405.22071298736
 30
0.0
 11
15342.35252121305
 21
11405.22071298736
 31
0.0
  0
LINE
  5
438
330
1F
100
AcDbEntity
  8
画層1
  6
Continuous
100
AcDbLine
 10
15292.35252121305
 20
11430.22071298736
 30
0.0
 11
15292.35252121305
 21
11380.22071298736
 31
0.0
  0
CIRCLE
  5
439
330
1F
100
AcDbEntity
  8
画層1
  6
Continuous
100
AcDbCircle
 10
15399.50252121319
 20
11405.22071298736
 30
0.0
 40
10.9509940156
  0
LINE
  5
43A
330
1F
100
AcDbEntity
  8
画層1
  6
Continuous
100
AcDbLine
 10
15382.35252121305
 20
11430.22071298736
 30
0.0
 11
15382.35252121305
 21
11380.22071298736
 31
0.0
  0
LINE
  5
43B
330
1F
100
AcDbEntity
  8
画層1
  6
Continuous
100
AcDbLine
 10
15416.65252121333
 20
11430.22071298736
 30
0.0
 11
15416.65252121333
 21
11380.22071298736
 31
0.0
  0
LINE
  5
43C
330
1F
100
AcDbEntity
  8
画層1
  6
Continuous
100
AcDbLine
 10
15416.65252121333
 20
11430.22071298736
 30
0.0
 11
15456.65252121333
 21
11430.22071298736
 31
0.0
  0
LINE
  5
43D
330
1F
100
AcDbEntity
  8
画層1
  6
Continuous
100
AcDbLine
 10
15416.65252121333
 20
11380.22071298736
 30
0.0
 11
15456.65252121333
 21
11380.22071298736
 31
0.0
  0
LINE
  5
43E
330
1F
100
AcDbEntity
  8
画層1
  6
Continuous
100
AcDbLine
 10
15342.35252121305
 20
11445.22071298736
 30
0.0
 11
15456.65252121333
 21
11445.22071298736
 31
0.0
  0
LINE
  5
43F
330
1F
100
AcDbEntity
  8
画層1
  6
Continuous
100
AcDbLine
 10
15382.35252121305
 20
11430.22071298736
 30
0.0
 11
15342.35252121305
 21
11430.22071298736
 31
0.0
  0
LINE
  5
440
330
1F
100
AcDbEntity
  8
画層1
  6
Continuous
100
AcDbLine
 10
15382.35252121305
 20
11380.22071298736
 30
0.0
 11
15342.35252121305
 21
11380.22071298736
 31
0.0
  0
DIMENSION
  5
441
330
1F
100
AcDbEntity
  8
寸法
  6
Continuous
100
AcDbDimension
  2
*D21
 10
16699.50252121319
 20
11405.22071298736
 30
0.0
 11
16560.21680692748
 21
10415.22071298736
 31
0.0
 70
    32
 71
     5
 42
1980.0
  3
1_50
100
AcDbAlignedDimension
 13
16149.50252121319
 23
9425.220712987361
 33
0.0
 14
16149.50252121319
 24
11405.22071298736
 34
0.0
 50
90.0
100
AcDbRotatedDimension
  0
DIMENSION
  5
442
330
1F
100
AcDbEntity
  8
寸法
  6
Continuous
100
AcDbDimension
  2
*D22
 10
16699.50252121319
 20
11445.22071298736
 30
0.0
 11
16580.21714503114
 21
11571.37710567017
 31
0.0
 70
   160
 71
     5
 42
40.0
  3
1_50
100
AcDbAlignedDimension
 13
16149.50252121319
 23
11405.22071298736
 33
0.0
 14
16149.50252121319
 24
11445.22071298736
 34
0.0
 50
90.0
100
AcDbRotatedDimension
  0
MTEXT
  5
443
330
1F
100
AcDbEntity
  8
寸法文字
  6
Continuous
100
AcDbMText
 10
16328.89921185985
 20
12122.61097994517
 30
0.0
 40
150.0
 41
0.0
 71
     1
 72
     1
  1
（溶融亜鉛メッキ450g/㎡）
  7
1_100
 73
     1
 44
1.0
1001
ACAD
1000
MTEXTBEGIN
1070
    73
1070
     1
1070
    44
1040
1.0
1070
    74
1070
     0
1000
MTEXTEND
  0
LINE
  5
444
102
{ACAD_REACTORS
330
788
102
}
330
1F
100
AcDbEntity
  8
画層2
  6
Continuous
100
AcDbLine
 10
14654.12780903867
 20
7445.220712987303
 30
0.0
 11
16069.98874275415
 21
7445.22071298736
 31
0.0
  0
LINE
  5
445
330
1F
100
AcDbEntity
  8
画層1
  6
Continuous
100
AcDbLine
 10
15292.35252121305
 20
7470.220712986893
 30
0.0
 11
15342.35252121305
 21
7470.220712986893
 31
0.0
  0
LINE
  5
446
330
1F
100
AcDbEntity
  8
画層1
  6
Continuous
100
AcDbLine
 10
15292.35252121305
 20
7495.220712986895
 30
0.0
 11
15292.35252121305
 21
7445.220712986895
 31
0.0
  0
CIRCLE
  5
447
330
1F
100
AcDbEntity
  8
画層1
  6
Continuous
100
AcDbCircle
 10
15399.50252121319
 20
7470.220712986893
 30
0.0
 40
10.9509940156
  0
LINE
  5
448
330
1F
100
AcDbEntity
  8
画層1
  6
Continuous
100
AcDbLine
 10
15382.35252121305
 20
7495.220712986895
 30
0.0
 11
15382.35252121305
 21
7445.220712986895
 31
0.0
  0
LINE
  5
449
330
1F
100
AcDbEntity
  8
画層1
  6
Continuous
100
AcDbLine
 10
15416.65252121333
 20
7495.220712986895
 30
0.0
 11
15456.65252121333
 21
7495.220712986895
 31
0.0
  0
LINE
  5
44A
102
{ACAD_REACTORS
330
788
102
}
330
1F
100
AcDbEntity
  8
画層1
  6
Continuous
100
AcDbLine
 10
15416.65252121333
 20
7445.220712986895
 30
0.0
 11
15456.65252121333
 21
7445.220712986895
 31
0.0
  0
LINE
  5
44B
330
1F
100
AcDbEntity
  8
画層1
  6
Continuous
100
AcDbLine
 10
15416.65252121333
 20
7495.220712986895
 30
0.0
 11
15416.65252121333
 21
7445.220712986895
 31
0.0
  0
LINE
  5
44C
330
1F
100
AcDbEntity
  8
画層1
  6
Continuous
100
AcDbLine
 10
15382.35252121305
 20
7495.220712986895
 30
0.0
 11
15342.35252121305
 21
7495.220712986895
 31
0.0
  0
LINE
  5
44D
330
1F
100
AcDbEntity
  8
画層1
  6
Continuous
100
AcDbLine
 10
15382.35252121305
 20
7445.220712986895
 30
0.0
 11
15342.35252121305
 21
7445.220712986895
 31
0.0
  0
LINE
  5
44E
330
1F
100
AcDbEntity
  8
画層1-1
  6
DASHED
 48
50.0
100
AcDbLine
 10
15317.35252121305
 20
11405.22071298736
 30
0.0
 11
15317.35252121305
 21
7470.220712986893
 31
0.0
  0
LINE
  5
44F
330
1F
100
AcDbEntity
  8
画層1
  6
Continuous
 62
     7
100
AcDbLine
 10
15399.50252121319
 20
11445.22071298736
 30
0.0
 11
15399.50252121319
 21
7470.220712986893
 31
0.0
  0
TEXT
  5
450
330
1F
100
AcDbEntity
  8
寸法
  6
Continuous
100
AcDbText
 10
14533.90481886741
 20
7475.213081943398
 30
0.0
 40
150.0
  1
▽GL
 41
0.75
  7
1_100
 72
     2
 11
14867.1191045817
 21
7625.213081943399
 31
0.0
100
AcDbText
 73
     3
  0
DIMENSION
  5
451
330
1F
100
AcDbEntity
  8
寸法
  6
Continuous
100
AcDbDimension
  2
*D23
 10
17099.50252121319
 20
7445.220712987303
 30
0.0
 11
16960.21680692748
 21
9445.220712987334
 31
0.0
 70
    32
 71
     5
 42
4000.000000000059
  3
1_50
100
AcDbAlignedDimension
 13
16149.50252121319
 23
11445.22071298736
 33
0.0
 14
16149.50252121319
 24
7445.220712987303
 34
0.0
 50
90.0
100
AcDbRotatedDimension
  0
DIMENSION
  5
452
330
1F
100
AcDbEntity
  8
寸法
  6
Continuous
100
AcDbDimension
  2
*D24
 10
16699.50252121319
 20
9425.220712987361
 30
0.0
 11
16560.21680692748
 21
8435.220712987334
 31
0.0
 70
    32
 71
     5
 42
1980.000000000059
  3
1_50
100
AcDbAlignedDimension
 13
16149.50252121319
 23
7445.220712987303
 33
0.0
 14
16149.50252121319
 24
9425.220712987361
 34
0.0
 50
90.0
100
AcDbRotatedDimension
  0
LINE
  5
453
330
1F
100
AcDbEntity
  8
ﾊｯﾁﾝｸﾞ
  6
Continuous
100
AcDbLine
 10
15705.35822142922
 20
7445.220712987242
 30
0.0
 11
15649.50252121319
 21
7389.365012771685
 31
0.0
  0
LINE
  5
454
330
1F
100
AcDbEntity
  8
ﾊｯﾁﾝｸﾞ
  6
Continuous
100
AcDbLine
 10
15784.55418092227
 20
7445.22071298736
 30
0.0
 11
15664.55418092134
 21
7325.220712987242
 31
0.0
  0
LINE
  5
455
330
1F
100
AcDbEntity
  8
ﾊｯﾁﾝｸﾞ
  6
Continuous
100
AcDbLine
 10
15863.75014041532
 20
7445.22071298736
 30
0.0
 11
15743.75014041462
 21
7325.220712987242
 31
0.0
  0
LINE
  5
456
330
1F
100
AcDbEntity
  8
ﾊｯﾁﾝｸﾞ
  6
Continuous
100
AcDbLine
 10
15772.07987888814
 20
7353.550451460296
 30
0.0
 11
15800.40961736096
 21
7325.220712987242
 31
0.0
  0
LINE
  5
457
330
1F
100
AcDbEntity
  8
ﾊｯﾁﾝｸﾞ
  6
Continuous
100
AcDbLine
 10
15811.67785863467
 20
7393.148431206765
 30
0.0
 11
15879.60557685402
 21
7325.220712987301
 31
0.0
  0
LINE
  5
458
330
1F
100
AcDbEntity
  8
ﾊｯﾁﾝｸﾞ
  6
Continuous
100
AcDbLine
 10
15851.27583838096
 20
7432.746410953175
 30
0.0
 11
15958.80153634707
 21
7325.220712987301
 31
0.0
  0
LINE
  5
459
330
1F
100
AcDbEntity
  8
ﾊｯﾁﾝｸﾞ
  6
Continuous
100
AcDbLine
 10
15942.94609990837
 20
7445.220712987418
 30
0.0
 11
15890.87381812749
 21
7393.148431206765
 31
0.0
  0
LINE
  5
45A
330
1F
100
AcDbEntity
  8
ﾊｯﾁﾝｸﾞ
  6
Continuous
100
AcDbLine
 10
15976.30692863772
 20
7399.385582223771
 30
0.0
 11
15930.47179787401
 21
7353.550451460296
 31
0.0
  0
LINE
  5
45B
330
1F
100
AcDbEntity
  8
ﾊｯﾁﾝｸﾞ
  6
Continuous
100
AcDbLine
 10
14822.69811378867
 20
7399.385582223771
 30
0.0
 11
14868.53324455237
 21
7353.55045146024
 31
0.0
  0
LINE
  5
45C
330
1F
100
AcDbEntity
  8
ﾊｯﾁﾝｸﾞ
  6
Continuous
100
AcDbLine
 10
14856.05894251801
 20
7445.220712987418
 30
0.0
 11
14908.1312242989
 21
7393.148431206765
 31
0.0
  0
LINE
  5
45D
330
1F
100
AcDbEntity
  8
ﾊｯﾁﾝｸﾞ
  6
Continuous
100
AcDbLine
 10
14947.72920404543
 20
7432.746410953175
 30
0.0
 11
14840.20350607932
 21
7325.220712987301
 31
0.0
  0
LINE
  5
45E
330
1F
100
AcDbEntity
  8
ﾊｯﾁﾝｸﾞ
  6
Continuous
100
AcDbLine
 10
14987.32718379172
 20
7393.148431206765
 30
0.0
 11
14919.39946557236
 21
7325.220712987301
 31
0.0
  0
LINE
  5
45F
330
1F
100
AcDbEntity
  8
ﾊｯﾁﾝｸﾞ
  6
Continuous
100
AcDbLine
 10
15026.92516353824
 20
7353.550451460296
 30
0.0
 11
14998.59542506542
 21
7325.220712987242
 31
0.0
  0
LINE
  5
460
330
1F
100
AcDbEntity
  8
ﾊｯﾁﾝｸﾞ
  6
Continuous
100
AcDbLine
 10
14935.25490201107
 20
7445.22071298736
 30
0.0
 11
15055.25490201176
 21
7325.220712987242
 31
0.0
  0
LINE
  5
461
330
1F
100
AcDbEntity
  8
ﾊｯﾁﾝｸﾞ
  6
Continuous
100
AcDbLine
 10
15014.45086150412
 20
7445.22071298736
 30
0.0
 11
15134.45086150505
 21
7325.220712987242
 31
0.0
  0
LINE
  5
462
330
1F
100
AcDbEntity
  8
ﾊｯﾁﾝｸﾞ
  6
Continuous
100
AcDbLine
 10
15093.64682099717
 20
7445.220712987242
 30
0.0
 11
15149.50252121319
 21
7389.365012771685
 31
0.0
  0
TEXT
  5
463
330
1F
100
AcDbEntity
  8
図面枠
 62
     3
100
AcDbText
 10
863.856991620341
 20
742.9414158408647
 30
0.0
 40
150.0
  1
KS1-H04
 41
0.75
  7
1_100
 11
863.856991620341
 21
742.9414158408647
 31
0.0
100
AcDbText
 73
     1
  0
TEXT
  5
464
330
1F
100
AcDbEntity
  8
図面枠
 62
     3
100
AcDbText
 10
2.670742070607501
 20
742.8317920951407
 30
0.0
 40
150.0
  1
1/50
 41
0.75
  7
1_100
 11
2.670742070607501
 21
742.8317920951407
 31
0.0
100
AcDbText
 73
     1
  0
LINE
  5
465
330
1F
100
AcDbEntity
  8
画層1-1
  6
Continuous
100
AcDbLine
 10
9680.970162814766
 20
7470.220712987303
 30
0.0
 11
13049.50252121319
 21
9712.75343611866
 31
0.0
  0
LINE
  5
466
330
1F
100
AcDbEntity
  8
画層1-1
  6
Continuous
100
AcDbLine
 10
9680.970162814766
 20
11355.22071298736
 30
0.0
 11
13049.50252121319
 21
9112.687989856004
 31
0.0
  0
LINE
  5
467
330
1F
100
AcDbEntity
  8
寸法引出
100
AcDbLine
 10
13049.50252121319
 20
4845.220712987302
 30
0.0
 11
9598.82016281486
 21
4845.220712987361
 31
0.0
1001
ACAD
1000
DSTYLE
1002
{
1070
    41
1040
3.0
1070
   341
1005
0
1002
}
  0
LWPOLYLINE
  5
468
330
1F
100
AcDbEntity
  8
寸法引出
  6
Continuous
100
AcDbPolyline
 90
        3
 70
     0
 43
0.0
 10
12899.50252121319
 20
4885.413091487304
 10
13049.50252121319
 20
4845.220712987302
 10
12899.50252121319
 20
4805.028334487304
  0
HATCH
  5
788
330
1F
100
AcDbEntity
  8
ﾊｯﾁﾝｸﾞ
100
AcDbHatch
 10
0.0
 20
0.0
 30
0.0
210
0.0
220
0.0
230
1.0
  2
PLAST
 70
     0
 71
     1
 91
        6
 92
        7
 72
     0
 73
     1
 93
        6
 10
15624.5025212132
 20
7245.220712987358
 10
15649.50252121319
 20
7245.22071298736
 10
15649.50252121319
 20
7445.220712987342
 10
15456.65252121333
 20
7445.220712987334
 10
15456.65252121333
 20
6445.22071298736
 10
15624.50252121319
 20
6445.22071298736
 97
        4
330
338
330
444
330
335
330
36D
 92
        7
 72
     0
 73
     1
 93
        4
 10
15456.65252121333
 20
7295.220712987303
 10
15399.50252121319
 20
7295.220712987301
 10
15399.50252121319
 20
6445.22071298736
 10
15456.65252121333
 20
6445.22071298736
 97
        4
330
428
330
333
330
36D
330
335
 92
        7
 72
     0
 73
     1
 93
        4
 10
15399.50252121319
 20
7295.220712987303
 10
15342.35252121305
 20
7295.220712987301
 10
15342.35252121305
 20
6445.22071298736
 10
15399.50252121319
 20
6445.22071298736
 97
        4
330
428
330
334
330
36D
330
333
 92
        7
 72
     0
 73
     1
 93
        6
 10
15342.35252121305
 20
7445.22071298733
 10
15149.50252121319
 20
7445.220712987323
 10
15149.5025212132
 20
7245.22071298736
 10
15174.5025212132
 20
7245.22071298736
 10
15174.50252121319
 20
6445.22071298736
 10
15342.35252121305
 20
6445.22071298736
 97
        4
330
444
330
338
330
36D
330
334
 92
        7
 72
     0
 73
     1
 93
        4
 10
15399.50252121319
 20
7445.220712987333
 10
15342.35252121305
 20
7445.22071298733
 10
15342.35252121305
 20
7295.220712987303
 10
15399.50252121319
 20
7295.220712987303
 97
        4
330
444
330
334
330
428
330
333
 92
        7
 72
     0
 73
     1
 93
        5
 10
15456.65252121333
 20
7445.220712986895
 10
15416.65252121333
 20
7445.220712986895
 10
15399.50252121319
 20
7445.220712986904
 10
15399.50252121319
 20
7295.220712987301
 10
15456.65252121333
 20
7295.220712987303
 97
        5
330
44A
330
444
330
333
330
428
330
335
 75
     0
 76
     1
 52
45.0
 41
80.0
 77
     0
 78
     3
 53
45.0
 43
0.0
 44
0.0
 45
-359.2102448427661
 46
359.2102448427661
 79
     0
 53
45.0
 43
-44.90128060534575
 44
44.90128060534575
 45
-359.2102448427661
 46
359.2102448427661
 79
     0
 53
45.0
 43
-89.80256121069151
 44
89.80256121069151
 45
-359.2102448427661
 46
359.2102448427661
 79
     0
 47
5.089439604596456
 98
        6
 10
15517.99562516913
 20
6859.285797283354
 10
15421.21758356852
 20
6833.838610466123
 10
15375.3753777636
 20
6818.570305888567
 10
15293.87802723014
 20
6798.212541409211
 10
15375.3753777636
 20
7358.050914335819
 10
15441.59190462644
 20
7368.229796575495
  0
HATCH
  5
79A
330
1F
100
AcDbEntity
  8
ﾊｯﾁﾝｸﾞ
100
AcDbHatch
 10
0.0
 20
0.0
 30
0.0
210
0.0
220
0.0
230
1.0
  2
PLAST
 70
     0
 71
     1
 91
        2
 92
        7
 72
     0
 73
     1
 93
        6
 10
3598.82016281486
 20
7445.220712987303
 10
3348.82016281486
 20
7445.220712987303
 10
3348.82016281486
 20
7245.220712987301
 10
3373.82016281486
 20
7245.2207129873
 10
3373.82016281486
 20
6445.220712987302
 10
3598.82016281486
 20
6445.220712987302
 97
        4
330
385
330
340
330
34A
330
33C
 92
        7
 72
     0
 73
     1
 93
        7
 10
3823.82016281486
 20
7245.2207129873
 10
3848.82016281486
 20
7245.220712987303
 10
3848.82016281486
 20
7445.220712987303
 10
3598.82016281486
 20
7445.220712987303
 10
3598.82016281486
 20
6447.599390964382
 10
3600.574205328063
 20
6445.220712987302
 10
3823.82016281486
 20
6445.2207129873
 97
        5
330
340
330
385
330
33C
330
352
330
34A
 75
     0
 76
     1
 52
45.0
 41
80.0
 77
     0
 78
     3
 53
45.0
 43
0.0
 44
0.0
 45
-359.2102448427661
 46
359.2102448427661
 79
     0
 53
45.0
 43
-44.90128060534575
 44
44.90128060534575
 45
-359.2102448427661
 46
359.2102448427661
 79
     0
 53
45.0
 43
-89.80256121069151
 44
89.80256121069151
 45
-359.2102448427661
 46
359.2102448427661
 79
     0
 47
12.91384883075446
 98
        2
 10
3508.564286185225
 20
6975.925589146766
 10
3754.127110637551
 20
6988.839462573782
  0
HATCH
  5
7AE
330
1F
100
AcDbEntity
  8
ﾊｯﾁﾝｸﾞ
100
AcDbHatch
 10
0.0
 20
0.0
 30
0.0
210
0.0
220
0.0
230
1.0
  2
PLAST
 70
     0
 71
     1
 91
        2
 92
        7
 72
     0
 73
     1
 93
        6
 10
9823.820162814861
 20
7245.220712987301
 10
9848.82016281486
 20
7245.220712987301
 10
9848.82016281486
 20
7445.220712987303
 10
9598.82016281486
 20
7445.220712987303
 10
9598.82016281486
 20
6445.220712987302
 10
9823.820162814861
 20
6445.2207129873
 97
        4
330
342
330
385
330
33D
330
35C
 92
        7
 72
     0
 73
     1
 93
        6
 10
9598.82016281486
 20
7445.220712987303
 10
9348.82016281486
 20
7445.220712987303
 10
9348.82016281486
 20
7245.220712987301
 10
9373.82016281486
 20
7245.220712987301
 10
9373.82016281486
 20
6445.220712987302
 10
9598.82016281486
 20
6445.220712987302
 97
        4
330
385
330
342
330
35C
330
33D
 75
     0
 76
     1
 52
45.0
 41
80.0
 77
     0
 78
     3
 53
45.0
 43
0.0
 44
0.0
 45
-359.2102448427661
 46
359.2102448427661
 79
     0
 53
45.0
 43
-44.90128060534575
 44
44.90128060534575
 45
-359.2102448427661
 46
359.2102448427661
 79
     0
 53
45.0
 43
-89.80256121069151
 44
89.80256121069151
 45
-359.2102448427661
 46
359.2102448427661
 79
     0
 47
5.042090887055262
 98
        2
 10
9773.499107856304
 20
7095.759252999949
 10
9516.143129351389
 20
6999.959546302149
  0
LEADER
  5
B76
330
1F
100
AcDbEntity
  8
寸法引出
100
AcDbLeader
  3
1_50
 71
     0
 76
     3
 10
5344.197725046477
 20
10484.78236217366
 30
0.0
 10
5507.203423887309
 20
10805.5238861572
 30
0.0
 10
8466.757213944497
 20
10805.5238861572
 30
0.0
1001
ACAD
1000
DSTYLE
1002
{
1070
    41
1040
1.0
1070
   341
1005
87
1070
   147
1040
0.625
1070
    77
1070
     0
1002
}
  0
VIEWPORT
  5
67D
102
{ACAD_XDICTIONARY
360
BA8
102
}
330
55
100
AcDbEntity
 67
     1
  8
0
100
AcDbViewport
 10
133.3499908447265
 20
101.5999970436096
 30
0.0
 40
492.3034279597864
 41
228.4221935424805
 68
     1
 69
     1
 12
133.3499908447265
 22
101.5999970436096
 13
0.0
 23
0.0
 14
10.0
 24
10.0
 15
10.0
 25
10.0
 16
0.0
 26
0.0
 36
1.0
 17
0.0
 27
0.0
 37
0.0
 42
50.0
 43
0.0
 44
0.0
 45
228.4221935424805
 50
0.0
 51
0.0
 72
  1000
 90
    32800
  1

281
     0
 71
     1
 74
     0
110
0.0
120
0.0
130
0.0
111
1.0
121
0.0
131
0.0
112
0.0
122
1.0
132
0.0
 79
     0
146
0.0
  0
VIEWPORT
  5
67F
102
{ACAD_XDICTIONARY
360
BAA
102
}
330
55
100
AcDbEntity
 67
     1
  8
0
100
AcDbViewport
 10
133.3499939441681
 20
101.5999939441681
 30
0.0
 40
213.3599903106689
 41
162.5599903106689
 68
     2
 69
     2
 12
9582.153511901408
 22
7228.192915292379
 13
0.0
 23
0.0
 14
10.0
 24
10.0
 15
10.0
 25
10.0
 16
0.0
 26
0.0
 36
1.0
 17
0.0
 27
0.0
 37
0.0
 42
50.0
 43
0.0
 44
0.0
 45
15029.56596520901
 50
0.0
 51
0.0
 72
  1000
 90
    32864
  1

281
     0
 71
     1
 74
     0
110
0.0
120
0.0
130
0.0
111
1.0
121
0.0
131
0.0
112
0.0
122
1.0
132
0.0
 79
     0
146
0.0
  0
ENDSEC
  0
SECTION
  2
OBJECTS
  0
DICTIONARY
  5
C
330
0
100
AcDbDictionary
281
     1
  3
ACAD_COLOR
350
6B
  3
ACAD_GROUP
350
D
  3
ACAD_LAYOUT
350
1A
  3
ACAD_MATERIAL
350
6A
  3
ACAD_MLINESTYLE
350
17
  3
ACAD_PLOTSETTINGS
350
19
  3
ACAD_PLOTSTYLENAME
350
E
  3
ACAD_TABLESTYLE
350
84E
  3
ACDBHEADERROUNDTRIPXREC
350
B9D
  3
AcDbVariableDictionary
350
5E
  3
ADE_QUERY_LIBRARY
350
B3C
  3
AEC_VARS
350
884
  3
ASE_INDEX_DICTIONARY
350
B38
  3
Autodesk_MAP
350
856
  3
DWGPROPS
350
B9C
  3
Root
350
85F
1001
ADE
1000
ADE02C004
1000
[Query]
1000
CaseSensitiveMatch=0
1000
SaveCurrQueryInSession=1
1000
MkSelSetWithQryObj=0
1000
ShowBlockAsInsPt=0
1000
CreateAssociativeHatchObjects=0
1000
ReferenceBoundaryForAreaLocation=1
1000
ShowImageAsBoundary=1
1000
DefaultJoinOperator=2
1000
ColorForAdd=red
1000
ColorForRemove=red
1000
BlockLocnForQuery=1
1000
TextLocnForQuery=1
1000
IncludeAllObjectsInGroups=0
1000
AlwaysUseLibraryDefinitions=0
1000
PreviewDefinitionsFrom=2
1000
[Save Back]
1000
RedefineBlockDefinitions=1
1000
RedefineLayerDefinitions=1
1000
RedefineTextStyleDefinitions=1
1000
RemoveUnusedGroups=1
1000
EraseSavedBackObjects=1
1000
RemoveLockAfterSave=1
1000
CreateHistoryFileOfChanges=0
1000
CreateBackupFileOfSourceDwg=1
1000
DontAddObjectsToSaveSet=0
1000
MarkObjectsForEditingWithoutPrompting=0
1000
[Coordinate Transformation]
1000
RestoreLastActiveDwgsOnStartup=1
1000
ActivateDwgsOnAttach=1
1000
AdjustSizesAndScalesForChangesInUnits=1
1000
AdjustRotationsForMapDistortions=1
1000
AdjustSizesAndScalesForMapDistortions=1
1000
AdjustElevations=1
1000
AdjustZeroRotationObjects=1
1000
ReconnectDbOnWSOpen=1
1000
NoOfSQLConditionsInHistory=10
  0
DICTIONARY
  5
BA4
330
677
100
AcDbDictionary
280
     1
281
     1
  3
ACAD_XREC_ROUNDTRIP
360
BA5
  0
DICTIONARY
  5
BA6
330
679
100
AcDbDictionary
280
     1
281
     1
  3
ACAD_XREC_ROUNDTRIP
360
BA7
  0
DICTIONARY
  5
BA8
330
67D
100
AcDbDictionary
280
     1
281
     1
  3
ACAD_XREC_ROUNDTRIP
360
BA9
  0
DICTIONARY
  5
BAA
330
67F
100
AcDbDictionary
280
     1
281
     1
  3
ACAD_XREC_ROUNDTRIP
360
BAB
  0
DICTIONARY
  5
6B
102
{ACAD_REACTORS
330
C
102
}
330
C
100
AcDbDictionary
281
     1
  0
DICTIONARY
  5
D
102
{ACAD_REACTORS
330
C
102
}
330
C
100
AcDbDictionary
281
     1
  0
DICTIONARY
  5
1A
102
{ACAD_REACTORS
330
C
102
}
330
C
100
AcDbDictionary
281
     1
  3
Model
350
22
  3
レイアウト1
350
51
  3
レイアウト2
350
56
  0
DICTIONARY
  5
6A
102
{ACAD_REACTORS
330
C
102
}
330
C
100
AcDbDictionary
281
     1
  0
DICTIONARY
  5
17
102
{ACAD_REACTORS
330
C
102
}
330
C
100
AcDbDictionary
281
     1
  3
Standard
350
18
  0
DICTIONARY
  5
19
102
{ACAD_REACTORS
330
C
102
}
330
C
100
AcDbDictionary
281
     1
  0
ACDBDICTIONARYWDFLT
  5
E
102
{ACAD_REACTORS
330
C
102
}
330
C
100
AcDbDictionary
281
     1
  3
Normal
350
F
100
AcDbDictionaryWithDefault
340
F
  0
DICTIONARY
  5
84E
102
{ACAD_REACTORS
330
C
102
}
330
C
100
AcDbDictionary
281
     1
  3
Legend
350
85A
  3
Standard
350
84F
  0
DICTIONARY
  5
B9D
102
{ACAD_REACTORS
330
C
102
}
330
C
100
AcDbDictionary
281
     1
  0
DICTIONARY
  5
5E
102
{ACAD_REACTORS
330
C
102
}
330
C
100
AcDbDictionary
281
     1
  3
CTABLESTYLE
350
B3E
  3
DIMASSOC
350
5F
  3
HIDETEXT
350
63
  3
PROJECTNAME
350
7E0
  0
DICTIONARY
  5
B3C
102
{ACAD_REACTORS
330
C
102
}
330
C
100
AcDbDictionary
281
     1
  3
_CurrQry
350
B9A
  0
DICTIONARY
  5
884
102
{ACAD_REACTORS
330
C
102
}
330
C
100
AcDbDictionary
281
     1
  3
AEC_VARS_DWG_SETUP
350
885
  0
DICTIONARY
  5
B38
102
{ACAD_REACTORS
330
C
102
}
330
C
100
AcDbDictionary
281
     1
  3
ASEBlockHierarchyIndexRecord
350
B3A
1001
DCO15
1040
1621324834.859
  0
DICTIONARY
  5
856
102
{ACAD_REACTORS
330
C
102
}
330
C
100
AcDbDictionary
281
     1
  3
MAP_DISPLAY_MANAGEMENT_DICTIONARY
350
857
  3
MAP_DISPLAY_STYLELIBRARY_DICTIONARY
350
858
  0
XRECORD
  5
B9C
102
{ACAD_REACTORS
330
C
102
}
330
C
100
AcDbXrecord
280
     1
  1
DWGPROPS COOKIE
  2

  3

  4

  6

  7

  8

  9

300
=
301
=
302
=
303
=
304
=
305
=
306
=
307
=
308
=
309
=
 40
0.1010176736111111
 41
2454357.823627743
 42
2454568.545588646
  1

 90
        0
  0
XRECORD
  5
BA5
102
{ACAD_REACTORS
330
BA4
102
}
330
BA4
100
AcDbXrecord
280
     1
102
SHADEPLOT
 70
     0
  0
XRECORD
  5
BA7
102
{ACAD_REACTORS
330
BA6
102
}
330
BA6
100
AcDbXrecord
280
     1
102
SHADEPLOT
 70
     0
  0
XRECORD
  5
BA9
102
{ACAD_REACTORS
330
BA8
102
}
330
BA8
100
AcDbXrecord
280
     1
102
SHADEPLOT
 70
     0
  0
XRECORD
  5
BAB
102
{ACAD_REACTORS
330
BAA
102
}
330
BAA
100
AcDbXrecord
280
     1
102
SHADEPLOT
 70
     0
  0
LAYOUT
  5
22
102
{ACAD_XDICTIONARY
360
B9E
102
}
102
{ACAD_REACTORS
330
1A
102
}
330
1A
100
AcDbPlotSettings
  1

  2
EPSON PM-3000C
  4
A4
  6

 40
3.757083177566528
 41
14.7637300491333
 42
3.757080078125
 43
3.757080078125
 44
209.9733276367186
 45
296.9683227539062
 46
0.0
 47
0.0
 48
0.0
 49
0.0
140
0.0
141
0.0
142
1.0
143
71.81462543252852
 70
 11952
 72
     1
 73
     1
 74
     0
  7
monochrome.ctb
 75
     0
147
0.0139247401762128
148
252.5766224742965
149
41.46244910011683
100
AcDbLayout
  1
Model
 70
     1
 71
     0
 10
0.0
 20
0.0
 11
12.0
 21
9.0
 12
0.0
 22
0.0
 32
0.0
 14
0.0
 24
0.0
 34
0.0
 15
0.0
 25
0.0
 35
0.0
146
0.0
 13
0.0
 23
0.0
 33
0.0
 16
1.0
 26
0.0
 36
0.0
 17
0.0
 27
1.0
 37
0.0
 76
     0
330
1F
  0
LAYOUT
  5
51
102
{ACAD_XDICTIONARY
360
BA0
102
}
102
{ACAD_REACTORS
330
1A
102
}
330
1A
100
AcDbPlotSettings
  1

  2
none_device
  4
Letter_(8.50_x_11.00_Inches)
  6

 40
6.349999904632567
 41
6.349999904632567
 42
6.350006103515625
 43
6.350006103515625
 44
215.8999938964844
 45
279.3999938964844
 46
0.0
 47
0.0
 48
0.0
 49
0.0
140
0.0
141
0.0
142
1.0
143
1.0
 70
   688
 72
     1
 73
     1
 74
     5
  7
monochrome.ctb
 75
    16
147
1.0
148
0.0
149
0.0
100
AcDbLayout
  1
レイアウト1
 70
     1
 71
     1
 10
-6.350006103515625
 20
-6.349999904632567
 11
273.0499877929688
 21
209.5499939918518
 12
0.0
 22
0.0
 32
0.0
 14
26.66999878883363
 24
20.31999878883363
 34
0.0
 15
240.0299890995026
 25
182.8799890995025
 35
0.0
146
0.0
 13
0.0
 23
0.0
 33
0.0
 16
1.0
 26
0.0
 36
0.0
 17
0.0
 27
1.0
 37
0.0
 76
     0
330
50
331
677
  0
LAYOUT
  5
56
102
{ACAD_XDICTIONARY
360
BA2
102
}
102
{ACAD_REACTORS
330
1A
102
}
330
1A
100
AcDbPlotSettings
  1

  2
none_device
  4
Letter_(8.50_x_11.00_Inches)
  6

 40
6.349999904632567
 41
6.349999904632567
 42
6.350006103515625
 43
6.350006103515625
 44
215.8999938964844
 45
279.3999938964844
 46
0.0
 47
0.0
 48
0.0
 49
0.0
140
0.0
141
0.0
142
1.0
143
1.0
 70
   688
 72
     1
 73
     1
 74
     5
  7
monochrome.ctb
 75
    16
147
1.0
148
0.0
149
0.0
100
AcDbLayout
  1
レイアウト2
 70
     1
 71
     2
 10
-6.350006103515625
 20
-6.349999904632567
 11
273.0499877929688
 21
209.5499939918518
 12
0.0
 22
0.0
 32
0.0
 14
26.66999878883363
 24
20.31999878883363
 34
0.0
 15
240.0299890995026
 25
182.8799890995025
 35
0.0
146
0.0
 13
0.0
 23
0.0
 33
0.0
 16
1.0
 26
0.0
 36
0.0
 17
0.0
 27
1.0
 37
0.0
 76
     0
330
55
331
67D
  0
MLINESTYLE
  5
18
102
{ACAD_REACTORS
330
17
102
}
330
17
100
AcDbMlineStyle
  2
STANDARD
 70
     0
  3

 62
   256
 51
90.0
 52
90.0
 71
     2
 49
0.5
 62
   256
  6
BYLAYER
 49
-0.5
 62
   256
  6
BYLAYER
  0
ACDBPLACEHOLDER
  5
F
102
{ACAD_REACTORS
330
E
102
}
330
E
  0
TABLESTYLE
  5
85A
102
{ACAD_REACTORS
330
84E
102
}
330
84E
100
AcDbTableStyle
  3

 70
     0
 71
     1
 40
0.06
 41
0.06
280
     0
281
     0
  7
Standard
140
0.4
170
     4
 62
     0
 63
     7
283
     0
274
    -2
284
     0
 64
     0
275
    -2
285
     0
 65
     0
276
    -2
286
     1
 66
     0
277
    -2
287
     1
 67
     0
278
    -2
288
     0
 68
     0
279
    -2
289
     1
 69
     0
  7
Standard
140
0.5
170
     5
 62
     0
 63
     7
283
     0
274
    -2
284
     1
 64
     0
275
    -2
285
     0
 65
     0
276
    -2
286
     1
 66
     0
277
    -2
287
     1
 67
     0
278
    -2
288
     0
 68
     0
279
    -2
289
     1
 69
     0
  7
Standard
140
0.4
170
     4
 62
     0
 63
     7
283
     0
274
    -2
284
     1
 64
     0
275
    -2
285
     0
 65
     0
276
    -2
286
     1
 66
     0
277
    -2
287
     1
 67
     0
278
    -2
288
     0
 68
     0
279
    -2
289
     1
 69
     0
  0
TABLESTYLE
  5
84F
102
{ACAD_REACTORS
330
84E
102
}
330
84E
100
AcDbTableStyle
  3
Standard
 70
     0
 71
     0
 40
1.5
 41
1.5
280
     0
281
     0
  7
Standard
140
4.5
170
     2
 62
     0
 63
     7
283
     0
274
    -2
284
     1
 64
     0
275
    -2
285
     1
 65
     0
276
    -2
286
     1
 66
     0
277
    -2
287
     1
 67
     0
278
    -2
288
     1
 68
     0
279
    -2
289
     1
 69
     0
  7
Standard
140
6.0
170
     5
 62
     0
 63
     7
283
     0
274
    -2
284
     1
 64
     0
275
    -2
285
     1
 65
     0
276
    -2
286
     1
 66
     0
277
    -2
287
     1
 67
     0
278
    -2
288
     1
 68
     0
279
    -2
289
     1
 69
     0
  7
Standard
140
4.5
170
     5
 62
     0
 63
     7
283
     0
274
    -2
284
     1
 64
     0
275
    -2
285
     1
 65
     0
276
    -2
286
     1
 66
     0
277
    -2
287
     1
 67
     0
278
    -2
288
     1
 68
     0
279
    -2
289
     1
 69
     0
  0
DICTIONARYVAR
  5
B3E
102
{ACAD_REACTORS
330
5E
102
}
330
5E
100
DictionaryVariables
280
     0
  1
STANDARD
  0
DICTIONARYVAR
  5
5F
102
{ACAD_REACTORS
330
5E
102
}
330
5E
100
DictionaryVariables
280
     0
  1
2
  0
DICTIONARYVAR
  5
63
102
{ACAD_REACTORS
330
5E
102
}
330
5E
100
DictionaryVariables
280
     0
  1
1
  0
DICTIONARYVAR
  5
7E0
102
{ACAD_REACTORS
330
5E
102
}
330
5E
100
DictionaryVariables
280
     0
  1

  0
XRECORD
  5
B9A
102
{ACAD_REACTORS
330
B3C
102
}
330
B3C
100
AcDbXrecord
280
     1
1000
ADE02C001
1070
     1
1070
     0
1002
{
1002
}
1002
{
1002
}
1002
{
1002
}
1000

  0
XRECORD
  5
B3A
102
{ACAD_REACTORS
330
B38
102
}
330
B38
100
AcDbXrecord
280
     1
330
723
330
724
330
72C
330
72D
330
6CB
330
6CC
330
707
330
708
330
6FF
330
700
330
6F3
330
6F4
330
6EA
330
6EB
330
6DF
330
6E0
330
6C3
330
6C4
330
6B7
330
6B8
330
6AC
330
6AD
330
604
330
605
330
60C
330
60D
330
615
330
616
330
621
330
622
330
629
330
62A
330
635
330
636
330
63E
330
63F
330
649
330
64A
330
651
330
652
330
65D
330
65E
330
665
330
666
330
66E
330
66F
  0
DMMAPMANAGER
  5
857
102
{ACAD_REACTORS
330
856
102
}
330
856
100
AcDbDictionary
281
     1
  3
DisplayMap1
350
859
100
AcDbDictionaryWithDefault
340
859
100
AcMapDMMapManager
 70
     1
340
859
  0
DMSTYLELIBRARY
  5
858
102
{ACAD_REACTORS
330
856
102
}
330
856
100
AcMapDMStyleLibrary
 70
     1
 70
     1
360
85E
  0
DICTIONARY
  5
B9E
330
22
100
AcDbDictionary
280
     1
281
     1
  3
ACAD_XREC_ROUNDTRIP
360
B9F
  0
DICTIONARY
  5
BA0
330
51
100
AcDbDictionary
280
     1
281
     1
  3
ACAD_XREC_ROUNDTRIP
360
BA1
  0
DICTIONARY
  5
BA2
330
56
100
AcDbDictionary
280
     1
281
     1
  3
ACAD_XREC_ROUNDTRIP
360
BA3
  0
DMMAP
  5
859
102
{ACAD_REACTORS
330
857
330
85B
102
}
330
857
100
AcMapDMMap
 70
     1
  1
既定値
 70
     1
330
0
100
AcMapDMMap
 70
     1
 90
        1
360
85B
 90
        1
 40
1.797693134862314E+99
 70
     1
100
AcMapDMMap
 70
     2
 70
     0
 40
1.797693134862314E+99
290
     0
290
     1
 40
1.0
 40
3.0
  1
Legend
 90
        1
 40
1.797693134862314E+99
  1

 70
     0
 40
1.0
 70
     1
 90
        0
 90
        1
360
85C
  0
DMSTYLECATEGORY
  5
85E
102
{ACAD_REACTORS
330
858
102
}
330
858
100
AcMapDMStyleCategory
 70
     1
  1
スタイルを表示
 70
     0
  0
XRECORD
  5
B9F
102
{ACAD_REACTORS
330
B9E
102
}
330
B9E
100
AcDbXrecord
280
     1
102
SHADEPLOT
 70
     0
102
SHADEPLOTRESLEVEL
 70
     2
102
SHADEPLOTCUSTOMDPI
 70
   300
  0
XRECORD
  5
BA1
102
{ACAD_REACTORS
330
BA0
102
}
330
BA0
100
AcDbXrecord
280
     1
102
SHADEPLOT
 70
     0
102
SHADEPLOTRESLEVEL
 70
     2
102
SHADEPLOTCUSTOMDPI
 70
   300
  0
XRECORD
  5
BA3
102
{ACAD_REACTORS
330
BA2
102
}
330
BA2
100
AcDbXrecord
280
     1
102
SHADEPLOT
 70
     0
102
SHADEPLOTRESLEVEL
 70
     2
102
SHADEPLOTCUSTOMDPI
 70
   300
  0
DMBASEELEMENT
  5
85B
102
{ACAD_REACTORS
330
859
102
}
330
859
100
AcMapDMBaseElement
 70
     1
  1
マップ ベース
 70
     1
330
859
100
AcMapDMBaseElement
 70
     1
  1

 70
     2
  1

 70
     1
 40
1.797693134862314E+99
 70
     1
 70
     1
 70
     1
 70
     1
360
85D
100
AcMapDMBaseElement
 70
     1
  0
DMDEFAULTSTYLE
  5
85C
102
{ACAD_REACTORS
330
859
102
}
330
859
100
AcMapDMDefaultStyle
 70
     1
 90
        1
  1
既定値
100
AcMapDMDefaultStyle
 70
     1
280
   100
 90
     0
  0
DMSTYLEREFERENCE
  5
85D
330
85B
100
AcMapDMStyleReference
 70
     1
 70
     0
340
85C
330
859
  0
ENDSEC
  0
EOF
