  0
SECTION
  2
HEADER
  9
$ACADVER
  1
AC1015
  9
$ACADMAINTVER
 70
    20
  9
$DWGCODEPAGE
  3
ANSI_932
  9
$INSBASE
 10
0.0
 20
0.0
 30
0.0
  9
$EXTMIN
 10
1020.279853025997
 20
315.7041520228049
 30
-0.0000000349181948
  9
$EXTMAX
 10
24421.87631810686
 20
16002.02343205115
 30
0.0000000814935747
  9
$LIMMIN
 10
0.0
 20
0.0
  9
$LIMMAX
 10
420.0
 20
297.0
  9
$ORTHOMODE
 70
     1
  9
$REGENMODE
 70
     1
  9
$FILLMODE
 70
     1
  9
$QTEXTMODE
 70
     0
  9
$MIRRTEXT
 70
     0
  9
$LTSCALE
 40
1.0
  9
$ATTMODE
 70
     1
  9
$TEXTSIZE
 40
2.5
  9
$TRACEWID
 40
1.0
  9
$TEXTSTYLE
  7
Standard
  9
$CLAYER
  8
0
  9
$CELTYPE
  6
ByLayer
  9
$CECOLOR
 62
   256
  9
$CELTSCALE
 40
1.0
  9
$DISPSILH
 70
     0
  9
$DIMSCALE
 40
500.0
  9
$DIMASZ
 40
2.5
  9
$DIMEXO
 40
0.625
  9
$DIMDLI
 40
3.75
  9
$DIMRND
 40
0.0
  9
$DIMDLE
 40
0.0
  9
$DIMEXE
 40
1.25
  9
$DIMTP
 40
0.0
  9
$DIMTM
 40
0.0
  9
$DIMTXT
 40
2.5
  9
$DIMCEN
 40
2.5
  9
$DIMTSZ
 40
0.0
  9
$DIMTOL
 70
     0
  9
$DIMLIM
 70
     0
  9
$DIMTIH
 70
     0
  9
$DIMTOH
 70
     0
  9
$DIMSE1
 70
     0
  9
$DIMSE2
 70
     0
  9
$DIMTAD
 70
     1
  9
$DIMZIN
 70
     8
  9
$DIMBLK
  1

  9
$DIMASO
 70
     1
  9
$DIMSHO
 70
     1
  9
$DIMPOST
  1

  9
$DIMAPOST
  1

  9
$DIMALT
 70
     0
  9
$DIMALTD
 70
     3
  9
$DIMALTF
 40
0.03937007874016
  9
$DIMLFAC
 40
1.0
  9
$DIMTOFL
 70
     1
  9
$DIMTVP
 40
0.0
  9
$DIMTIX
 70
     0
  9
$DIMSOXD
 70
     0
  9
$DIMSAH
 70
     0
  9
$DIMBLK1
  1

  9
$DIMBLK2
  1

  9
$DIMSTYLE
  2
ISO-25
  9
$DIMCLRD
 70
     0
  9
$DIMCLRE
 70
     0
  9
$DIMCLRT
 70
     0
  9
$DIMTFAC
 40
1.0
  9
$DIMGAP
 40
0.625
  9
$DIMJUST
 70
     0
  9
$DIMSD1
 70
     0
  9
$DIMSD2
 70
     0
  9
$DIMTOLJ
 70
     0
  9
$DIMTZIN
 70
     8
  9
$DIMALTZ
 70
     0
  9
$DIMALTTZ
 70
     0
  9
$DIMUPT
 70
     0
  9
$DIMDEC
 70
     2
  9
$DIMTDEC
 70
     2
  9
$DIMALTU
 70
     2
  9
$DIMALTTD
 70
     3
  9
$DIMTXSTY
  7
Standard
  9
$DIMAUNIT
 70
     0
  9
$DIMADEC
 70
     0
  9
$DIMALTRND
 40
0.0
  9
$DIMAZIN
 70
     0
  9
$DIMDSEP
 70
    44
  9
$DIMATFIT
 70
     3
  9
$DIMFRAC
 70
     0
  9
$DIMLDRBLK
  1

  9
$DIMLUNIT
 70
     2
  9
$DIMLWD
 70
    -2
  9
$DIMLWE
 70
    -2
  9
$DIMTMOVE
 70
     0
  9
$LUNITS
 70
     2
  9
$LUPREC
 70
     4
  9
$SKETCHINC
 40
1.0
  9
$FILLETRAD
 40
0.0
  9
$AUNITS
 70
     0
  9
$AUPREC
 70
     0
  9
$MENU
  1
.
  9
$ELEVATION
 40
0.0
  9
$PELEVATION
 40
0.0
  9
$THICKNESS
 40
0.0
  9
$LIMCHECK
 70
     0
  9
$CHAMFERA
 40
0.0
  9
$CHAMFERB
 40
0.0
  9
$CHAMFERC
 40
0.0
  9
$CHAMFERD
 40
0.0
  9
$SKPOLY
 70
     0
  9
$TDCREATE
 40
2454357.826297014
  9
$TDUCREATE
 40
2454357.451297014
  9
$TDUPDATE
 40
2454568.694481192
  9
$TDUUPDATE
 40
2454568.319481192
  9
$TDINDWG
 40
0.0603807176
  9
$TDUSRTIMER
 40
0.0603754745
  9
$USRTIMER
 70
     1
  9
$ANGBASE
 50
0.0
  9
$ANGDIR
 70
     0
  9
$PDMODE
 70
     0
  9
$PDSIZE
 40
0.0
  9
$PLINEWID
 40
0.0
  9
$SPLFRAME
 70
     0
  9
$SPLINETYPE
 70
     6
  9
$SPLINESEGS
 70
     8
  9
$HANDSEED
  5
1C55
  9
$SURFTAB1
 70
     6
  9
$SURFTAB2
 70
     6
  9
$SURFTYPE
 70
     6
  9
$SURFU
 70
     6
  9
$SURFV
 70
     6
  9
$UCSBASE
  2

  9
$UCSNAME
  2

  9
$UCSORG
 10
0.0
 20
0.0
 30
0.0
  9
$UCSXDIR
 10
1.0
 20
0.0
 30
0.0
  9
$UCSYDIR
 10
0.0
 20
1.0
 30
0.0
  9
$UCSORTHOREF
  2

  9
$UCSORTHOVIEW
 70
     0
  9
$UCSORGTOP
 10
0.0
 20
0.0
 30
0.0
  9
$UCSORGBOTTOM
 10
0.0
 20
0.0
 30
0.0
  9
$UCSORGLEFT
 10
0.0
 20
0.0
 30
0.0
  9
$UCSORGRIGHT
 10
0.0
 20
0.0
 30
0.0
  9
$UCSORGFRONT
 10
0.0
 20
0.0
 30
0.0
  9
$UCSORGBACK
 10
0.0
 20
0.0
 30
0.0
  9
$PUCSBASE
  2

  9
$PUCSNAME
  2

  9
$PUCSORG
 10
0.0
 20
0.0
 30
0.0
  9
$PUCSXDIR
 10
1.0
 20
0.0
 30
0.0
  9
$PUCSYDIR
 10
0.0
 20
1.0
 30
0.0
  9
$PUCSORTHOREF
  2

  9
$PUCSORTHOVIEW
 70
     0
  9
$PUCSORGTOP
 10
0.0
 20
0.0
 30
0.0
  9
$PUCSORGBOTTOM
 10
0.0
 20
0.0
 30
0.0
  9
$PUCSORGLEFT
 10
0.0
 20
0.0
 30
0.0
  9
$PUCSORGRIGHT
 10
0.0
 20
0.0
 30
0.0
  9
$PUCSORGFRONT
 10
0.0
 20
0.0
 30
0.0
  9
$PUCSORGBACK
 10
0.0
 20
0.0
 30
0.0
  9
$USERI1
 70
     0
  9
$USERI2
 70
     0
  9
$USERI3
 70
     0
  9
$USERI4
 70
     0
  9
$USERI5
 70
     0
  9
$USERR1
 40
0.0
  9
$USERR2
 40
0.0
  9
$USERR3
 40
0.0
  9
$USERR4
 40
0.0
  9
$USERR5
 40
0.0
  9
$WORLDVIEW
 70
     1
  9
$SHADEDGE
 70
     3
  9
$SHADEDIF
 70
    70
  9
$TILEMODE
 70
     1
  9
$MAXACTVP
 70
    64
  9
$PINSBASE
 10
0.0
 20
0.0
 30
0.0
  9
$PLIMCHECK
 70
     0
  9
$PEXTMIN
 10
0.0
 20
0.0
 30
0.0
  9
$PEXTMAX
 10
0.0
 20
0.0
 30
0.0
  9
$PLIMMIN
 10
0.0
 20
0.0
  9
$PLIMMAX
 10
12.0
 20
9.0
  9
$UNITMODE
 70
     0
  9
$VISRETAIN
 70
     1
  9
$PLINEGEN
 70
     0
  9
$PSLTSCALE
 70
     1
  9
$TREEDEPTH
 70
  3020
  9
$CMLSTYLE
  2
Standard
  9
$CMLJUST
 70
     0
  9
$CMLSCALE
 40
20.0
  9
$PROXYGRAPHICS
 70
     1
  9
$MEASUREMENT
 70
     1
  9
$CELWEIGHT
370
    -1
  9
$ENDCAPS
280
     0
  9
$JOINSTYLE
280
     0
  9
$LWDISPLAY
290
     0
  9
$INSUNITS
 70
     6
  9
$HYPERLINKBASE
  1

  9
$STYLESHEET
  1
2.CTB
  9
$XEDIT
290
     1
  9
$CEPSNTYPE
380
     0
  9
$PSTYLEMODE
290
     1
  9
$FINGERPRINTGUID
  2
{FDEAD578-A652-11D2-9A35-0060089B3A3F}
  9
$VERSIONGUID
  2
{A2A9D33B-20D1-47CB-B2F5-6AD543283DE2}
  9
$EXTNAMES
290
     1
  9
$PSVPSCALE
 40
0.0
  9
$OLESTARTUP
290
     0
  0
ENDSEC
  0
SECTION
  2
CLASSES
  0
CLASS
  1
ACDBDICTIONARYWDFLT
  2
AcDbDictionaryWithDefault
  3
ObjectDBX Classes
 90
        0
280
     0
281
     0
  0
CLASS
  1
ACDBPLACEHOLDER
  2
AcDbPlaceHolder
  3
ObjectDBX Classes
 90
        0
280
     0
281
     0
  0
CLASS
  1
LAYOUT
  2
AcDbLayout
  3
ObjectDBX Classes
 90
        0
280
     0
281
     0
  0
CLASS
  1
DICTIONARYVAR
  2
AcDbDictionaryVar
  3
ObjectDBX Classes
 90
        0
280
     0
281
     0
  0
CLASS
  1
SORTENTSTABLE
  2
AcDbSortentsTable
  3
ObjectDBX Classes
 90
    32768
280
     0
281
     0
  0
CLASS
  1
TABLESTYLE
  2
AcDbTableStyle
  3
ObjectDBX Classes
 90
     2047
280
     0
281
     0
  0
CLASS
  1
DMMAPMANAGER
  2
AcMapDMMapManager
  3
AcMapDisplayManagement
 90
     1024
280
     0
281
     0
  0
CLASS
  1
DMSTYLELIBRARY
  2
AcMapDMStyleLibrary
  3
AcMapDisplayManagement
 90
     1024
280
     0
281
     0
  0
CLASS
  1
DMMAP
  2
AcMapDMMap
  3
AcMapDisplayManagement
 90
     1024
280
     0
281
     0
  0
CLASS
  1
DMBASEELEMENT
  2
AcMapDMBaseElement
  3
AcMapDisplayManagement
 90
     1024
280
     0
281
     0
  0
CLASS
  1
DMDEFAULTSTYLE
  2
AcMapDMDefaultStyle
  3
AcMapDisplayManagement
 90
     1024
280
     0
281
     0
  0
CLASS
  1
DMSTYLEREFERENCE
  2
AcMapDMStyleReference
  3
AcMapDisplayManagement
 90
     1024
280
     0
281
     0
  0
CLASS
  1
DMSTYLECATEGORY
  2
AcMapDMStyleCategory
  3
AcMapDisplayManagement
 90
     1024
280
     0
281
     0
  0
CLASS
  1
AECC_TREE_NODE
  2
AeccDbTreeNode
  3
AeccvBase10|Product Desc: Autodesk Civil 3D |Company: Autodesk,Inc. |WEB Address: www.autodesk.com
 90
     1023
280
     0
281
     0
  0
CLASS
  1
AECC_CLASS_NODE
  2
AeccDbClassNode
  3
AeccLand10|Product Desc: Autodesk Civil 3D |Company: Autodesk,Inc. |WEB Address: www.autodesk.com
 90
     1023
280
     0
281
     0
  0
CLASS
  1
AECC_ROOT_SETTINGS_NODE
  2
AeccDbRootSettingsNode
  3
AeccvBase10|Product Desc: Autodesk Civil 3D |Company: Autodesk,Inc. |WEB Address: www.autodesk.com
 90
     1023
280
     0
281
     0
  0
CLASS
  1
AEC_VARS_DWG_SETUP
  2
AecDbVarsDwgSetup
  3
AecBase40|Product Desc: Autodesk Architectural Desktop 2005 |Company: Autodesk,Inc. |WEB Address: www.autodesk.com
 90
      129
280
     0
281
     0
  0
CLASS
  1
AECC_SETTINGS_NODE
  2
AeccDbSettingsNode
  3
AeccvBase10|Product Desc: Autodesk Civil 3D |Company: Autodesk,Inc. |WEB Address: www.autodesk.com
 90
     1023
280
     0
281
     0
  0
CLASS
  1
AECC_PROFILE_VIEW_STYLE
  2
AeccDbGraphStyleProfile
  3
AeccLand10|Product Desc: Autodesk Civil 3D |Company: Autodesk,Inc. |WEB Address: www.autodesk.com
 90
      129
280
     0
281
     0
  0
CLASS
  1
AECC_PROFILE_VIEW_BAND_STYLE_SET
  2
AeccDbGraphProfileBandStyleSet
  3
AeccLand10|Product Desc: Autodesk Civil 3D |Company: Autodesk,Inc. |WEB Address: www.autodesk.com
 90
      129
280
     0
281
     0
  0
CLASS
  1
AECC_PROFILE_VIEW_DATA_BAND_STYLE
  2
AeccDbGraphStyleProfileDataBands
  3
AeccLand10|Product Desc: Autodesk Civil 3D |Company: Autodesk,Inc. |WEB Address: www.autodesk.com
 90
      129
280
     0
281
     0
  0
CLASS
  1
AECC_LABEL_NODE
  2
AeccDbLabelNode
  3
AeccLand10|Product Desc: Autodesk Civil 3D |Company: Autodesk,Inc. |WEB Address: www.autodesk.com
 90
     1023
280
     0
281
     0
  0
CLASS
  1
AECC_LABEL_COLLECTOR_STYLE
  2
AeccDbLabelStyleCollector
  3
AeccLand10|Product Desc: Autodesk Civil 3D |Company: Autodesk,Inc. |WEB Address: www.autodesk.com
 90
     1023
280
     0
281
     0
  0
CLASS
  1
AECC_LABEL_TEXT_STYLE
  2
AeccDbLabelStyleText
  3
AeccLand10|Product Desc: Autodesk Civil 3D |Company: Autodesk,Inc. |WEB Address: www.autodesk.com
 90
     1023
280
     0
281
     0
  0
CLASS
  1
AECC_PROFILE_VIEW_HORIZONTAL_GEOMETRY_BAND_STYLE
  2
AeccDbGraphStyleHorGeometryBands
  3
AeccLand10|Product Desc: Autodesk Civil 3D |Company: Autodesk,Inc. |WEB Address: www.autodesk.com
 90
      129
280
     0
281
     0
  0
CLASS
  1
AECC_PROFILE_VIEW_VERTICAL_GEOMETRY_BAND_STYLE
  2
AeccDbGraphStyleVertGeometryBands
  3
AeccLand10|Product Desc: Autodesk Civil 3D |Company: Autodesk,Inc. |WEB Address: www.autodesk.com
 90
      129
280
     0
281
     0
  0
CLASS
  1
AECC_LABEL_RADIAL_LINE_STYLE
  2
AeccDbLabelStyleRadialLine
  3
AeccLand10|Product Desc: Autodesk Civil 3D |Company: Autodesk,Inc. |WEB Address: www.autodesk.com
 90
     1023
280
     0
281
     0
  0
CLASS
  1
AECC_POINT_STYLE
  2
AeccDbPointStyle
  3
AeccLand10|Product Desc: Autodesk Civil 3D |Company: Autodesk,Inc. |WEB Address: www.autodesk.com
 90
      895
280
     0
281
     0
  0
CLASS
  1
AECC_PROFILE_LABEL_SET
  2
AeccDbVAlignStnLabelsDlgTemplate
  3
AeccLand10|Product Desc: Autodesk Civil 3D |Company: Autodesk,Inc. |WEB Address: www.autodesk.com
 90
     1023
280
     0
281
     0
  0
CLASS
  1
AECC_SECTION_VIEW_STYLE
  2
AeccDbGraphStyleCrossSection
  3
AeccLand10|Product Desc: Autodesk Civil 3D |Company: Autodesk,Inc. |WEB Address: www.autodesk.com
 90
      129
280
     0
281
     0
  0
CLASS
  1
AECC_SECTION_VIEW_BAND_STYLE_SET
  2
AeccDbGraphSectionBandStyleSet
  3
AeccLand10|Product Desc: Autodesk Civil 3D |Company: Autodesk,Inc. |WEB Address: www.autodesk.com
 90
      129
280
     0
281
     0
  0
CLASS
  1
AECC_SECTION_VIEW_DATA_BAND_STYLE
  2
AeccDbGraphStyleSectionDataBands
  3
AeccLand10|Product Desc: Autodesk Civil 3D |Company: Autodesk,Inc. |WEB Address: www.autodesk.com
 90
      129
280
     0
281
     0
  0
CLASS
  1
AECC_SECTION_LABEL_SET
  2
AeccDbSectionLabelsDlgTemplate
  3
AeccLand10|Product Desc: Autodesk Civil 3D |Company: Autodesk,Inc. |WEB Address: www.autodesk.com
 90
     1023
280
     0
281
     0
  0
CLASS
  1
AECC_ALIGNMENT_STYLE
  2
AeccDbAlignmentStyle
  3
AeccLand10|Product Desc: Autodesk Civil 3D |Company: Autodesk,Inc. |WEB Address: www.autodesk.com
 90
     1023
280
     0
281
     0
  0
CLASS
  1
AECC_LABEL_VECTOR_ARROW_STYLE
  2
AeccDbLabelStyleVectorArrow
  3
AeccLand10|Product Desc: Autodesk Civil 3D |Company: Autodesk,Inc. |WEB Address: www.autodesk.com
 90
     1023
280
     0
281
     0
  0
CLASS
  1
AECC_ALIGNMENT_LABEL_SET
  2
AeccDbAlignStnLabelsDlgTemplate
  3
AeccLand10|Product Desc: Autodesk Civil 3D |Company: Autodesk,Inc. |WEB Address: www.autodesk.com
 90
     1023
280
     0
281
     0
  0
CLASS
  1
AECC_SURFACE_STYLE
  2
AeccDbSurfaceStyle
  3
AeccLand10|Product Desc: Autodesk Civil 3D |Company: Autodesk,Inc. |WEB Address: www.autodesk.com
 90
      129
280
     0
281
     0
  0
CLASS
  1
AECC_LEGEND_TABLE_STYLE
  2
AeccDbLegendScheduleTableStyle
  3
AeccLand10|Product Desc: Autodesk Civil 3D |Company: Autodesk,Inc. |WEB Address: www.autodesk.com
 90
     1023
280
     0
281
     0
  0
CLASS
  1
AECC_SECTION_STYLE
  2
AeccDbSectionStyle
  3
AeccLand10|Product Desc: Autodesk Civil 3D |Company: Autodesk,Inc. |WEB Address: www.autodesk.com
 90
     1023
280
     0
281
     0
  0
CLASS
  1
AECC_GRADING_STYLE
  2
AeccDbGradingStyle
  3
AeccLand10|Product Desc: Autodesk Civil 3D |Company: Autodesk,Inc. |WEB Address: www.autodesk.com
 90
     1023
280
     0
281
     0
  0
CLASS
  1
AECC_GRADING_CRITERIA
  2
AeccDbGradingCriteria
  3
AeccLand10|Product Desc: Autodesk Civil 3D |Company: Autodesk,Inc. |WEB Address: www.autodesk.com
 90
     1023
280
     0
281
     0
  0
CLASS
  1
AECC_PARCEL_STYLE
  2
AeccDbParcelStyle
  3
AeccLand10|Product Desc: Autodesk Civil 3D |Company: Autodesk,Inc. |WEB Address: www.autodesk.com
 90
      129
280
     0
281
     0
  0
CLASS
  1
AECC_SAMPLE_LINE_GROUP_STYLE
  2
AeccDbSampleLineGroupStyle
  3
AeccLand10|Product Desc: Autodesk Civil 3D |Company: Autodesk,Inc. |WEB Address: www.autodesk.com
 90
      129
280
     0
281
     0
  0
CLASS
  1
AECC_SHEET_STYLE
  2
AeccDbSheetStyle
  3
AeccLand10|Product Desc: Autodesk Civil 3D |Company: Autodesk,Inc. |WEB Address: www.autodesk.com
 90
      129
280
     0
281
     0
  0
CLASS
  1
AECC_SAMPLE_LINE_STYLE
  2
AeccDbSampleLineStyle
  3
AeccLand10|Product Desc: Autodesk Civil 3D |Company: Autodesk,Inc. |WEB Address: www.autodesk.com
 90
     1023
280
     0
281
     0
  0
CLASS
  1
AECC_PROFILE_STYLE
  2
AeccDbVAlignmentStyle
  3
AeccLand10|Product Desc: Autodesk Civil 3D |Company: Autodesk,Inc. |WEB Address: www.autodesk.com
 90
     1023
280
     0
281
     0
  0
CLASS
  1
AECC_STATION_FORMAT_STYLE
  2
AeccDbStationFormatStyle
  3
AeccLand10|Product Desc: Autodesk Civil 3D |Company: Autodesk,Inc. |WEB Address: www.autodesk.com
 90
     1023
280
     0
281
     0
  0
CLASS
  1
AECC_TABLE_STYLE
  2
AeccDbScheduleTableStyle
  3
AeccLand10|Product Desc: Autodesk Civil 3D |Company: Autodesk,Inc. |WEB Address: www.autodesk.com
 90
     1023
280
     0
281
     0
  0
CLASS
  1
AECC_GRADING_CRITERIA_SET
  2
AeccDbGradingCriteriaSet
  3
AeccLand10|Product Desc: Autodesk Civil 3D |Company: Autodesk,Inc. |WEB Address: www.autodesk.com
 90
     1023
280
     0
281
     0
  0
CLASS
  1
AECC_FORMAT_MANAGER_OBJECT
  2
AeccDbFormatManagerObject
  3
AeccLand10|Product Desc: Autodesk Civil 3D |Company: Autodesk,Inc. |WEB Address: www.autodesk.com
 90
     1023
280
     0
281
     0
  0
CLASS
  1
AECC_POINT_DESCRIPTION_KEY_SET_NODE
  2
AeccDbPointDescKeySetsNode
  3
AeccvBase10|Product Desc: Autodesk Civil 3D |Company: Autodesk,Inc. |WEB Address: www.autodesk.com
 90
     1023
280
     0
281
     0
  0
ENDSEC
  0
SECTION
  2
TABLES
  0
TABLE
  2
VPORT
  5
8
330
0
100
AcDbSymbolTable
 70
     2
  0
VPORT
  5
1C4C
330
8
100
AcDbSymbolTableRecord
100
AcDbViewportTableRecord
  2
*Active
 70
     0
 10
0.0
 20
0.0
 11
1.0
 21
1.0
 12
12210.93815905343
 22
8001.011716025576
 13
0.0
 23
0.0
 14
10.0
 24
10.0
 15
10.0
 25
10.0
 16
0.0
 26
0.0
 36
1.0
 17
0.0
 27
0.0
 37
0.0
 40
16135.74507633013
 41
1.683403068340306
 42
50.0
 43
0.0
 44
0.0
 50
0.0
 51
0.0
 71
     0
 72
  1000
 73
     1
 74
     1
 75
     0
 76
     0
 77
     0
 78
     0
281
     0
 65
     1
110
0.0
120
0.0
130
0.0
111
1.0
121
0.0
131
0.0
112
0.0
122
1.0
132
0.0
 79
     0
146
0.0
  0
ENDTAB
  0
TABLE
  2
LTYPE
  5
5
330
0
100
AcDbSymbolTable
 70
     3
  0
LTYPE
  5
14
330
5
100
AcDbSymbolTableRecord
100
AcDbLinetypeTableRecord
  2
ByBlock
 70
     0
  3

 72
    65
 73
     0
 40
0.0
  0
LTYPE
  5
15
330
5
100
AcDbSymbolTableRecord
100
AcDbLinetypeTableRecord
  2
ByLayer
 70
     0
  3

 72
    65
 73
     0
 40
0.0
  0
LTYPE
  5
16
330
5
100
AcDbSymbolTableRecord
100
AcDbLinetypeTableRecord
  2
Continuous
 70
     0
  3
Solid line
 72
    65
 73
     0
 40
0.0
  0
LTYPE
  5
1B0
330
5
100
AcDbSymbolTableRecord
100
AcDbLinetypeTableRecord
  2
DASHED
 70
     0
  3
__ __ __ __ __ __ __ __ __ __ __ __ __ __ __
 72
    65
 73
     2
 40
3.0
 49
2.0
 74
     0
 49
-1.0
 74
     0
  0
LTYPE
  5
1B1
330
5
100
AcDbSymbolTableRecord
100
AcDbLinetypeTableRecord
  2
DASHDOT
 70
     0
  3
__ . __ . __ . __ . __ . __ . __ . __ . __ . __
 72
    65
 73
     4
 40
8.5
 49
6.0
 74
     0
 49
-1.0
 74
     0
 49
0.5
 74
     0
 49
-1.0
 74
     0
  0
ENDTAB
  0
TABLE
  2
LAYER
  5
2
330
0
100
AcDbSymbolTable
 70
    13
  0
LAYER
  5
10
330
2
100
AcDbSymbolTableRecord
100
AcDbLayerTableRecord
  2
0
 70
     0
 62
     7
  6
Continuous
370
    -3
390
F
  0
LAYER
  5
1B2
330
2
100
AcDbSymbolTableRecord
100
AcDbLayerTableRecord
  2
DEFPOINTS
 70
     0
 62
     4
  6
Continuous
290
     0
370
    -3
390
F
  0
LAYER
  5
1B3
330
2
100
AcDbSymbolTableRecord
100
AcDbLayerTableRecord
  2
寸法
 70
     0
 62
     6
  6
Continuous
370
    -3
390
F
  0
LAYER
  5
1B4
330
2
100
AcDbSymbolTableRecord
100
AcDbLayerTableRecord
  2
画層1-1
 70
     0
 62
    82
  6
Continuous
370
    -3
390
F
  0
LAYER
  5
1B5
330
2
100
AcDbSymbolTableRecord
100
AcDbLayerTableRecord
  2
図面枠
 70
     0
 62
     7
  6
Continuous
370
    -3
390
F
  0
LAYER
  5
1B6
330
2
100
AcDbSymbolTableRecord
100
AcDbLayerTableRecord
  2
ﾊｯﾁﾝｸﾞ
 70
     0
 62
     1
  6
Continuous
370
    -3
390
F
  0
LAYER
  5
1B7
330
2
100
AcDbSymbolTableRecord
100
AcDbLayerTableRecord
  2
画層2
 70
     0
 62
    40
  6
Continuous
370
    -3
390
F
  0
LAYER
  5
1B8
330
2
100
AcDbSymbolTableRecord
100
AcDbLayerTableRecord
  2
通り芯
 70
     0
 62
     4
  6
Continuous
370
    13
390
F
  0
LAYER
  5
1B9
330
2
100
AcDbSymbolTableRecord
100
AcDbLayerTableRecord
  2
画層1
 70
     0
 62
     7
  6
Continuous
370
    -3
390
F
  0
LAYER
  5
1BA
330
2
100
AcDbSymbolTableRecord
100
AcDbLayerTableRecord
  2
ﾈｯﾄ
 70
     0
 62
   230
  6
Continuous
370
    13
390
F
  0
LAYER
  5
1BB
330
2
100
AcDbSymbolTableRecord
100
AcDbLayerTableRecord
  2
画層2-1
 70
     0
 62
     7
  6
Continuous
370
    -3
390
F
  0
LAYER
  5
1BC
330
2
100
AcDbSymbolTableRecord
100
AcDbLayerTableRecord
  2
寸法文字
 70
     0
 62
     6
  6
Continuous
370
    -3
390
F
  0
LAYER
  5
1BD
330
2
100
AcDbSymbolTableRecord
100
AcDbLayerTableRecord
  2
寸法引出
 70
     0
 62
     3
  6
Continuous
370
    -3
390
F
  0
ENDTAB
  0
TABLE
  2
STYLE
  5
3
330
0
100
AcDbSymbolTable
 70
     6
  0
STYLE
  5
11
330
3
100
AcDbSymbolTableRecord
100
AcDbTextStyleTableRecord
  2
Standard
 70
     0
 40
0.0
 41
1.0
 50
0.0
 71
     0
 42
2.5
  3
txt
  4

  0
STYLE
  5
1BE
330
3
100
AcDbSymbolTableRecord
100
AcDbTextStyleTableRecord
  2
1_100
 70
     0
 40
0.0
 41
0.75
 50
0.0
 71
     0
 42
2.5
  3
romans.shx
  4
extfont2.shx
  0
STYLE
  5
1BF
330
3
100
AcDbSymbolTableRecord
100
AcDbTextStyleTableRecord
  2
STYLE1
 70
     0
 40
0.0
 41
0.75
 50
0.0
 71
     0
 42
0.2
  3
HGRSKP.TTF
  4

1001
ACAD
1000
HGSeikaishotaiPRO
1071
    32833
  0
STYLE
  5
1C0
330
3
100
AcDbSymbolTableRecord
100
AcDbTextStyleTableRecord
  2
1_60
 70
     0
 40
0.0
 41
0.75
 50
0.0
 71
     0
 42
2.5
  3
romans.shx
  4
EXTFONT.shx
  0
STYLE
  5
1C1
330
3
100
AcDbSymbolTableRecord
100
AcDbTextStyleTableRecord
  2
MSP明朝
 70
     0
 40
0.0
 41
0.75
 50
0.0
 71
     0
 42
0.2
  3
MS PMincho.ttf
  4

1001
ACAD
1000
MS PMincho
1071
    32786
  0
STYLE
  5
E7B
330
3
100
AcDbSymbolTableRecord
100
AcDbTextStyleTableRecord
  2
1_50
 70
     0
 40
0.0
 41
0.75
 50
0.0
 71
     0
 42
175.0
  3
romans.shx
  4
EXTFONT.shx
  0
ENDTAB
  0
TABLE
  2
VIEW
  5
6
330
0
100
AcDbSymbolTable
 70
     0
  0
ENDTAB
  0
TABLE
  2
UCS
  5
7
330
0
100
AcDbSymbolTable
 70
     0
  0
ENDTAB
  0
TABLE
  2
APPID
  5
9
330
0
100
AcDbSymbolTable
 70
     4
  0
APPID
  5
12
330
9
100
AcDbSymbolTableRecord
100
AcDbRegAppTableRecord
  2
ACAD
 70
     0
  0
APPID
  5
1C5
330
9
100
AcDbSymbolTableRecord
100
AcDbRegAppTableRecord
  2
AcDbBlockRepETag
 70
     0
  0
APPID
  5
193F
330
9
100
AcDbSymbolTableRecord
100
AcDbRegAppTableRecord
  2
DCO15
 70
     0
  0
APPID
  5
1941
330
9
100
AcDbSymbolTableRecord
100
AcDbRegAppTableRecord
  2
ADE
 70
     0
  0
ENDTAB
  0
TABLE
  2
DIMSTYLE
  5
A
330
0
100
AcDbSymbolTable
 70
     5
100
AcDbDimStyleTable
 71
     0
  0
DIMSTYLE
105
27
330
A
100
AcDbSymbolTableRecord
100
AcDbDimStyleTableRecord
  2
ISO-25
 70
     0
 41
2.5
 42
0.625
 43
3.75
 44
1.25
 73
     0
 74
     0
 77
     1
 78
     8
140
2.5
141
2.5
143
0.03937007874016
147
0.625
171
     3
172
     1
271
     2
272
     2
274
     3
278
    44
283
     0
284
     8
340
11
  0
DIMSTYLE
105
1C2
330
A
100
AcDbSymbolTableRecord
100
AcDbDimStyleTableRecord
  2
STANDARD
 70
     0
340
11
  0
DIMSTYLE
105
1C3
330
A
100
AcDbSymbolTableRecord
100
AcDbDimStyleTableRecord
  2
1_100
 70
     0
 40
100.0
 41
0.6
 42
3.0
 43
10.0
 44
0.0
 73
     0
 74
     0
 77
     1
 78
     8
140
3.0
141
0.0
147
1.0
172
     1
173
     1
176
   256
177
   256
178
   256
271
     1
272
     1
277
     6
279
     2
284
     8
340
1BE
341
87
343
87
344
87
  0
DIMSTYLE
105
1C4
102
{ACAD_REACTORS
330
334
330
335
330
349
330
34F
330
36B
330
36C
330
36D
330
36E
330
370
330
371
330
3BD
330
3BE
330
3FC
330
3FD
330
3FE
330
3FF
330
400
330
40A
330
42B
330
464
330
465
330
466
330
467
102
}
330
A
100
AcDbSymbolTableRecord
100
AcDbDimStyleTableRecord
  2
1_60
 70
     0
 40
60.0
 41
0.6
 42
3.0
 43
10.0
 44
0.0
 73
     0
 74
     0
 77
     1
 78
     8
140
3.0
141
0.0
147
1.0
172
     1
173
     1
176
   256
177
   256
178
   256
271
     1
272
     1
277
     6
279
     2
284
     8
340
1BE
341
87
343
87
344
87
  0
DIMSTYLE
105
E7C
330
A
100
AcDbSymbolTableRecord
100
AcDbDimStyleTableRecord
  2
1_50
 70
     0
 40
50.0
 41
1.0
 42
3.0
 43
10.0
 44
0.0
 73
     0
 74
     0
 77
     1
 78
    12
140
3.0
141
0.0
147
1.0
172
     1
173
     1
176
   256
177
   256
178
   256
271
     1
272
     1
277
     6
279
     2
340
1BE
341
87
343
87
344
87
  0
ENDTAB
  0
TABLE
  2
BLOCK_RECORD
  5
1
330
0
100
AcDbSymbolTable
 70
    26
  0
BLOCK_RECORD
  5
1F
330
1
100
AcDbSymbolTableRecord
100
AcDbBlockTableRecord
  2
*Model_Space
340
22
  0
BLOCK_RECORD
  5
50
330
1
100
AcDbSymbolTableRecord
100
AcDbBlockTableRecord
  2
*Paper_Space
340
51
  0
BLOCK_RECORD
  5
55
330
1
100
AcDbSymbolTableRecord
100
AcDbBlockTableRecord
  2
*Paper_Space0
340
56
  0
BLOCK_RECORD
  5
87
330
1
100
AcDbSymbolTableRecord
100
AcDbBlockTableRecord
  2
_ORIGIN
340
0
102
{BLKREFS
331
651
331
652
331
6D0
331
6D1
331
6DA
331
6DB
331
14DB
331
14DC
331
14E5
331
14E6
331
14ED
331
14EE
331
14F9
331
14FA
331
1502
331
1503
331
150C
331
150D
331
1515
331
1516
331
1521
331
1522
331
1529
331
152A
331
1532
331
1533
331
153E
331
153F
331
1592
331
1593
331
159C
331
159D
331
15A5
331
15A6
331
15AF
331
15B0
331
15BA
331
15BB
331
15C2
331
15C3
331
15CB
331
15CC
331
15D4
331
15D5
331
15E0
331
15E1
102
}
  0
BLOCK_RECORD
  5
47B
330
1
100
AcDbSymbolTableRecord
100
AcDbBlockTableRecord
  2
*D2
340
0
  0
BLOCK_RECORD
  5
487
330
1
100
AcDbSymbolTableRecord
100
AcDbBlockTableRecord
  2
*D3
340
0
  0
BLOCK_RECORD
  5
493
330
1
100
AcDbSymbolTableRecord
100
AcDbBlockTableRecord
  2
*D4
340
0
  0
BLOCK_RECORD
  5
49F
330
1
100
AcDbSymbolTableRecord
100
AcDbBlockTableRecord
  2
*D5
340
0
  0
BLOCK_RECORD
  5
4AB
330
1
100
AcDbSymbolTableRecord
100
AcDbBlockTableRecord
  2
*D6
340
0
  0
BLOCK_RECORD
  5
4B7
330
1
100
AcDbSymbolTableRecord
100
AcDbBlockTableRecord
  2
*D7
340
0
  0
BLOCK_RECORD
  5
4C5
330
1
100
AcDbSymbolTableRecord
100
AcDbBlockTableRecord
  2
*D8
340
0
  0
BLOCK_RECORD
  5
4D1
330
1
100
AcDbSymbolTableRecord
100
AcDbBlockTableRecord
  2
*D9
340
0
  0
BLOCK_RECORD
  5
4DD
330
1
100
AcDbSymbolTableRecord
100
AcDbBlockTableRecord
  2
*D10
340
0
  0
BLOCK_RECORD
  5
4EB
330
1
100
AcDbSymbolTableRecord
100
AcDbBlockTableRecord
  2
*D11
340
0
  0
BLOCK_RECORD
  5
4F7
330
1
100
AcDbSymbolTableRecord
100
AcDbBlockTableRecord
  2
*D12
340
0
  0
BLOCK_RECORD
  5
505
330
1
100
AcDbSymbolTableRecord
100
AcDbBlockTableRecord
  2
*D13
340
0
  0
BLOCK_RECORD
  5
511
330
1
100
AcDbSymbolTableRecord
100
AcDbBlockTableRecord
  2
*D14
340
0
  0
BLOCK_RECORD
  5
51D
330
1
100
AcDbSymbolTableRecord
100
AcDbBlockTableRecord
  2
*D15
340
0
  0
BLOCK_RECORD
  5
529
330
1
100
AcDbSymbolTableRecord
100
AcDbBlockTableRecord
  2
*D16
340
0
  0
BLOCK_RECORD
  5
535
330
1
100
AcDbSymbolTableRecord
100
AcDbBlockTableRecord
  2
*D17
340
0
  0
BLOCK_RECORD
  5
543
330
1
100
AcDbSymbolTableRecord
100
AcDbBlockTableRecord
  2
*D18
340
0
  0
BLOCK_RECORD
  5
54F
330
1
100
AcDbSymbolTableRecord
100
AcDbBlockTableRecord
  2
*D19
340
0
  0
BLOCK_RECORD
  5
55D
330
1
100
AcDbSymbolTableRecord
100
AcDbBlockTableRecord
  2
*D20
340
0
  0
BLOCK_RECORD
  5
56B
330
1
100
AcDbSymbolTableRecord
100
AcDbBlockTableRecord
  2
*D21
340
0
  0
BLOCK_RECORD
  5
579
330
1
100
AcDbSymbolTableRecord
100
AcDbBlockTableRecord
  2
*D22
340
0
  0
BLOCK_RECORD
  5
585
330
1
100
AcDbSymbolTableRecord
100
AcDbBlockTableRecord
  2
*D23
340
0
  0
BLOCK_RECORD
  5
593
330
1
100
AcDbSymbolTableRecord
100
AcDbBlockTableRecord
  2
*D24
340
0
  0
BLOCK_RECORD
  5
79D
330
1
100
AcDbSymbolTableRecord
100
AcDbBlockTableRecord
  2
sai450
340
0
310
28000000200000002000000001000800000000000004000000000000000000000000000000000000000000004000000080000000FF000000002000004020000080200000FF200000004000004040000080400000FF400000006000004060000080600000FF600000008000004080000080800000FF80000000A0000040A000
310
0080A00000FFA0000000C0000040C0000080C00000FFC0000000FF000040FF000080FF0000FFFF0000000020004000200080002000FF002000002020004020200080202000FF202000004020004040200080402000FF402000006020004060200080602000FF602000008020004080200080802000FF80200000A0200040A0
310
200080A02000FFA0200000C0200040C0200080C02000FFC0200000FF200040FF200080FF2000FFFF2000000040004000400080004000FF004000002040004020400080204000FF204000004040004040400080404000FF404000006040004060400080604000FF604000008040004080400080804000FF80400000A0400040
310
A0400080A04000FFA0400000C0400040C0400080C04000FFC0400000FF400040FF400080FF4000FFFF4000000060004000600080006000FF006000002060004020600080206000FF206000004060004040600080406000FF406000006060004060600080606000FF606000008060004080600080806000FF80600000A06000
310
40A0600080A06000FFA0600000C0600040C0600080C06000FFC0600000FF600040FF600080FF6000FFFF6000000080004000800080008000FF008000002080004020800080208000FF208000004080004040800080408000FF408000006080004060800080608000FF608000008080004080800080808000FF80800000A080
310
0040A0800080A08000FFA0800000C0800040C0800080C08000FFC0800000FF800040FF800080FF8000FFFF80000000A0004000A0008000A000FF00A0000020A0004020A0008020A000FF20A0000040A0004040A0008040A000FF40A0000060A0004060A0008060A000FF60A0000080A0004080A0008080A000FF80A00000A0
310
A00040A0A00080A0A000FFA0A00000C0A00040C0A00080C0A000FFC0A00000FFA00040FFA00080FFA000FFFFA0000000C0004000C0008000C000FF00C0000020C0004020C0008020C000FF20C0000040C0004040C0008040C000FF40C0000060C0004060C0008060C000FF60C0000080C0004080C0008080C000FF80C00000
310
A0C00040A0C00080A0C000FFA0C00000C0C00040C0C00080C0C000FFC0C00000FFC00040FFC00080FFC000FFFFC0000000FF004000FF008000FF00FF00FF000020FF004020FF008020FF00FF20FF000040FF004040FF008040FF00FF40FF000060FF004060FF008060FF00FF60FF000080FF004080FF008080FF00FF80FF00
310
00A0FF0040A0FF0080A0FF00FFA0FF0000C0FF0040C0FF0080C0FF00FFC0FF0000FFFF0040FFFF0080FFFF00FFFFFF00FFFFFFFFFFFFFFFFFFFFFFFFFFFFFFFFFFFFFFFFFFFFFFFFFFFFFFFFFFFFFFFFFFFFFFFFFFFFFFFFFFFFFFFFFFFFFFFFFFFFFFFFFFFFFFFFFFFFFFFFFFFFFFFFFFFFFFFFFFFFFFFFFFFFFFFFFFFFFF
310
FFFFFFFFFFFFFFFFFFFFFFFFFFFFFFFFFFFFFFFFFFFFFFFFFFFFFFFFFFFFFFFFFFFFFFFFFFFFFFFFFFFFFFFFFFFFFFFFFFFFFFFFFFFFFFFFFFFFFFFFFFFFFFFFFFFFFFFFFFFFFFFFFFFFFFFFFFFFFFFFFFFFFFFFFFFFFFFFFFFFFFFFFFFFFFFFFFFFFFFFFFFFFFFFFFFFFFFFFFFFFFFFFFFFFFFFFFFFFFFFFFFFFFFFFFFFFF
310
FFFFFFFFFFFFFFFFFFFFFFFFFFFFFFFFFFFFFFFFFFFFFFFFFFFFFFFFFFFFFFFFFFFFFFFFFFFFFFFFFFFFFFFFFFFFFFFFFFFFFFFFFFFFFFFFFFFFFFFFFFFFFFFFFFFFFFFFFFFFFFFFFFFFFFFFFFFFFFFFFFFFFFFFFFFFFFFFFFFFFFFFFFFFFFFFFFFFFFFFFFFFFFFFFFFFFFFFFFFFFFFFFFFFFFFFFFFFFFFFFFFFFFFFFFFFFF
310
FFFFFFFFFFFFFFFFFFFFFFFFFFFFFFFFFFFFFFFFFFFFFFFFFFFFFFFFFFFFFFFFFFFFFFFFFFFFFFFFFFFFFFFFFFFFFFFFFFFFFFFFE0FFE0FFFFFFE0FFE0FFFFFFFFE0E0FFFFFFFFE0E0FFFFFFFFE0E0FFFFFFFFFFFFE0E0FFFFFFFFE0E0FFFFFFFFE0E0FFFFFFFFFFE0FFFFFFFFFFE0FFFFFFFFFFFFE0FFFFFFFFFFE0FFFFFF
310
FFFFE0E0FFFFFFFFFFE0FFFFFFFFFFE0FFFFFFFFFFFFFFE0FFFFFFFFFFE0FFFFFFFFFFE0FFFFFFFFFFFFE0FFFFFFFFFFE0FFFFFFFFFFFFE0FFFFFFFFFFE0FFFFFFFFFFFFE0FFFFFFFFFFE0FFFFFFFFFFE0FFFFFFFFFFFFFFE0FFFFFFFFFFE0FFFFFFFFFFE0E0FFFFFFFFFFE0FFFFFFFFFFE0FFFFFFFFFFFFE0FFFFFFFFFFE0
310
FFFFFFFFFFFFE0FFFFFFFFFFE0FFFFFFFFFFE0FFFFFFFFFFE0FFE0FFFFFFE0FFE0FFFFFFFFE0E0FFFFFFFFE0FFE0FFFFFFE0FFE0FFFFFFFFFFFFFFFFFFFFFFFFFFFFFFFFFFFFFFFFFFFFFFFFFFFFFFFFFFFFFFFFFFFFFFFFFFFFFFFFFFFFFFFFFFFFFFFFFFFFFFFFFFFFFFFFFFFFFFFFFFFFFFFFFFFFFFFFFFFFFFFFFFFFFF
310
FFFFFFFFFFFFFFFFFFFFFFFFFFFFFFFFFFFFFFFFFFFFFFFFFFFFFFFFFFFFFFFFFFFFFFFFFFFFFFFFFFFFFFFFFFFFFFFFFFFFFFFFFFFFFFFFFFFFFFFFFFFFFFFFFFFFFFFFFFFFFFFFFFFFFFFFFFFFFFFFFFFFFFFFFFFFFFFFFFFFFFFFFFFFFFFFFFFFFFFFFFFFFFFFFFFFFFFFFFFFFFFFFFFFFFFFFFFFFFFFFFFFFFFFFFFFFF
310
FFFFFFFFFFFFFFFFFFFFFFFFFFFFFFFFFFFFFFFFFFFFFFFFFFFFFFFFFFFFFFFFFFFFFFFFFFFFFFFFFFFFFFFFFFFFFFFFFFFFFFFFFFFFFFFFFFFFFFFFFFFFFFFFFFFFFFFFFFFFFFFFFFFFFFFFFFFFFFFFFFFFFFFFFFFFFFFFFFFFFFFFFFFFFFFFFFFFFFFFFFFFFFFFFFFFFFFFFFFFFFFFFFFFFFFFFFFFFFFFFFFFFFFFFFFFFF
310
FFFFFFFFFFFFFFFFFFFFFFFFFFFFFFFFFFFFFFFFFFFFFFFFFFFFFFFFFFFFFFFFFFFFFFFFFFFFFFFFFFFFFFFFFFFFFFFFFFFFFFFFFFFFFFFF
  0
ENDTAB
  0
ENDSEC
  0
SECTION
  2
BLOCKS
  0
BLOCK
  5
20
330
1F
100
AcDbEntity
  8
0
100
AcDbBlockBegin
  2
*Model_Space
 70
     0
 10
0.0
 20
0.0
 30
0.0
  3
*Model_Space
  1

  0
ENDBLK
  5
21
330
1F
100
AcDbEntity
  8
0
100
AcDbBlockEnd
  0
BLOCK
  5
52
330
50
100
AcDbEntity
 67
     1
  8
0
100
AcDbBlockBegin
  2
*Paper_Space
 70
     0
 10
0.0
 20
0.0
 30
0.0
  3
*Paper_Space
  1

  0
ENDBLK
  5
53
330
50
100
AcDbEntity
 67
     1
  8
0
100
AcDbBlockEnd
  0
BLOCK
  5
57
330
55
100
AcDbEntity
  8
0
100
AcDbBlockBegin
  2
*Paper_Space0
 70
     0
 10
0.0
 20
0.0
 30
0.0
  3
*Paper_Space0
  1

  0
ENDBLK
  5
58
330
55
100
AcDbEntity
  8
0
100
AcDbBlockEnd
  0
BLOCK
  5
88
330
87
100
AcDbEntity
  8
0
100
AcDbBlockBegin
  2
_ORIGIN
 70
     0
 10
0.0
 20
0.0
 30
0.0
  3
_ORIGIN
  1

  0
CIRCLE
  5
89
330
87
100
AcDbEntity
  8
0
  6
ByBlock
 62
     0
100
AcDbCircle
 10
0.0
 20
0.0
 30
0.0
 40
0.5
  0
LINE
  5
8A
330
87
100
AcDbEntity
  8
0
  6
ByBlock
 62
     0
100
AcDbLine
 10
0.0
 20
0.0
 30
0.0
 11
-1.0
 21
0.0
 31
0.0
  0
ENDBLK
  5
8B
330
87
100
AcDbEntity
  8
0
100
AcDbBlockEnd
  0
BLOCK
  5
485
330
47B
100
AcDbEntity
  8
0
100
AcDbBlockBegin
  2
*D2
 70
     1
 10
0.0
 20
0.0
 30
0.0
  3
*D2
  1

  0
LINE
  5
152F
330
47B
100
AcDbEntity
  8
寸法
  6
Continuous
370
    -2
100
AcDbLine
 10
20651.06804447182
 20
8271.046730143273
 30
0.0
 11
21251.06804447182
 21
8271.046730143273
 31
0.0
  0
LINE
  5
1530
330
47B
100
AcDbEntity
  8
寸法
  6
Continuous
370
    -2
100
AcDbLine
 10
20651.06804447182
 20
10751.04673014327
 30
0.0
 11
21251.06804447182
 21
10751.04673014327
 31
0.0
  0
LINE
  5
1531
330
47B
100
AcDbEntity
  8
寸法
  6
Continuous
370
    -2
100
AcDbLine
 10
21251.06804447182
 20
8307.046730143273
 30
0.0
 11
21251.06804447182
 21
10715.04673014327
 31
0.0
  0
INSERT
  5
1532
330
47B
100
AcDbEntity
  8
寸法
  6
Continuous
370
    -2
100
AcDbBlockReference
  2
_ORIGIN
 10
21251.06804447182
 20
8271.046730143273
 30
0.0
 41
36.0
 42
36.0
 43
36.0
 50
270.0
  0
INSERT
  5
1533
330
47B
100
AcDbEntity
  8
寸法
  6
Continuous
370
    -2
100
AcDbBlockReference
  2
_ORIGIN
 10
21251.06804447182
 20
10751.04673014327
 30
0.0
 41
36.0
 42
36.0
 43
36.0
 50
90.0
  0
MTEXT
  5
1534
330
47B
100
AcDbEntity
  8
寸法
  6
Continuous
100
AcDbMText
 10
21083.92518732896
 20
9511.046730143275
 30
0.0
 40
180.0
 41
0.0
 71
     5
 72
     1
  1
\A1;2,480
  7
1_100
 11
0.0000000000000001
 21
1.0
 31
0.0
 73
     1
 44
1.0
1001
ACAD
1000
MTEXTBEGIN
1070
    73
1070
     1
1070
    44
1040
1.0
1070
    74
1070
     0
1000
MTEXTEND
  0
POINT
  5
1535
330
47B
100
AcDbEntity
  8
DEFPOINTS
  6
Continuous
 62
     0
100
AcDbPoint
 10
20471.06804447182
 20
8271.046730143273
 30
0.0
  0
POINT
  5
1536
330
47B
100
AcDbEntity
  8
DEFPOINTS
  6
Continuous
 62
     0
100
AcDbPoint
 10
20471.06804447182
 20
10751.04673014327
 30
0.0
  0
POINT
  5
1537
330
47B
100
AcDbEntity
  8
DEFPOINTS
  6
Continuous
 62
     0
100
AcDbPoint
 10
21251.06804447182
 20
10751.04673014327
 30
0.0
  0
ENDBLK
  5
486
330
47B
100
AcDbEntity
  8
0
100
AcDbBlockEnd
  0
BLOCK
  5
491
330
487
100
AcDbEntity
  8
0
100
AcDbBlockBegin
  2
*D3
 70
     1
 10
0.0
 20
0.0
 30
0.0
  3
*D3
  1

  0
LINE
  5
15D1
330
487
100
AcDbEntity
  8
寸法
  6
Continuous
370
    -2
100
AcDbLine
 10
16871.06804447182
 20
8271.046730143273
 30
0.0
 11
17471.06804447182
 21
8271.046730143273
 31
0.0
  0
LINE
  5
15D2
330
487
100
AcDbEntity
  8
寸法
  6
Continuous
370
    -2
100
AcDbLine
 10
16871.06804447182
 20
10751.04673014322
 30
0.0
 11
17471.06804447182
 21
10751.04673014322
 31
0.0
  0
LINE
  5
15D3
330
487
100
AcDbEntity
  8
寸法
  6
Continuous
370
    -2
100
AcDbLine
 10
17471.06804447182
 20
8307.046730143275
 30
0.0
 11
17471.06804447182
 21
10715.04673014322
 31
0.0
  0
INSERT
  5
15D4
330
487
100
AcDbEntity
  8
寸法
  6
Continuous
370
    -2
100
AcDbBlockReference
  2
_ORIGIN
 10
17471.06804447182
 20
8271.046730143273
 30
0.0
 41
36.0
 42
36.0
 43
36.0
 50
270.0
  0
INSERT
  5
15D5
330
487
100
AcDbEntity
  8
寸法
  6
Continuous
370
    -2
100
AcDbBlockReference
  2
_ORIGIN
 10
17471.06804447182
 20
10751.04673014322
 30
0.0
 41
36.0
 42
36.0
 43
36.0
 50
90.0
  0
MTEXT
  5
15D6
330
487
100
AcDbEntity
  8
寸法
  6
Continuous
100
AcDbMText
 10
17303.92518732896
 20
9511.046730143249
 30
0.0
 40
180.0
 41
0.0
 71
     5
 72
     1
  1
\A1;2,480
  7
1_100
 11
0.0000000000000001
 21
1.0
 31
0.0
 73
     1
 44
1.0
1001
ACAD
1000
MTEXTBEGIN
1070
    73
1070
     1
1070
    44
1040
1.0
1070
    74
1070
     0
1000
MTEXTEND
  0
POINT
  5
15D7
330
487
100
AcDbEntity
  8
DEFPOINTS
  6
Continuous
 62
     0
100
AcDbPoint
 10
16691.06804447182
 20
8271.046730143273
 30
0.0
  0
POINT
  5
15D8
330
487
100
AcDbEntity
  8
DEFPOINTS
  6
Continuous
 62
     0
100
AcDbPoint
 10
16691.06804447182
 20
10751.04673014322
 30
0.0
  0
POINT
  5
15D9
330
487
100
AcDbEntity
  8
DEFPOINTS
  6
Continuous
 62
     0
100
AcDbPoint
 10
17471.06804447182
 20
10751.04673014322
 30
0.0
  0
ENDBLK
  5
492
330
487
100
AcDbEntity
  8
0
100
AcDbBlockEnd
  0
BLOCK
  5
49D
330
493
100
AcDbEntity
  8
0
100
AcDbBlockBegin
  2
*D4
 70
     1
 10
0.0
 20
0.0
 30
0.0
  3
*D4
  1

  0
LINE
  5
1526
330
493
100
AcDbEntity
  8
寸法
  6
Continuous
370
    -2
100
AcDbLine
 10
20651.06804447182
 20
13271.04673014327
 30
0.0
 11
21851.06804447182
 21
13271.04673014327
 31
0.0
  0
LINE
  5
1527
330
493
100
AcDbEntity
  8
寸法
  6
Continuous
370
    -2
100
AcDbLine
 10
20651.06804447182
 20
8271.046730143273
 30
0.0
 11
21851.06804447182
 21
8271.046730143273
 31
0.0
  0
LINE
  5
1528
330
493
100
AcDbEntity
  8
寸法
  6
Continuous
370
    -2
100
AcDbLine
 10
21851.06804447182
 20
13235.04673014327
 30
0.0
 11
21851.06804447182
 21
8307.046730143273
 31
0.0
  0
INSERT
  5
1529
330
493
100
AcDbEntity
  8
寸法
  6
Continuous
370
    -2
100
AcDbBlockReference
  2
_ORIGIN
 10
21851.06804447182
 20
13271.04673014327
 30
0.0
 41
36.0
 42
36.0
 43
36.0
 50
90.0
  0
INSERT
  5
152A
330
493
100
AcDbEntity
  8
寸法
  6
Continuous
370
    -2
100
AcDbBlockReference
  2
_ORIGIN
 10
21851.06804447182
 20
8271.046730143273
 30
0.0
 41
36.0
 42
36.0
 43
36.0
 50
270.0
  0
MTEXT
  5
152B
330
493
100
AcDbEntity
  8
寸法
  6
Continuous
100
AcDbMText
 10
21683.92518732896
 20
10771.04673014328
 30
0.0
 40
180.0
 41
0.0
 71
     5
 72
     1
  1
\A1;5,000
  7
1_100
 11
0.0000000000000001
 21
1.0
 31
0.0
 73
     1
 44
1.0
1001
ACAD
1000
MTEXTBEGIN
1070
    73
1070
     1
1070
    44
1040
1.0
1070
    74
1070
     0
1000
MTEXTEND
  0
POINT
  5
152C
330
493
100
AcDbEntity
  8
DEFPOINTS
  6
Continuous
 62
     0
100
AcDbPoint
 10
20471.06804447182
 20
13271.04673014327
 30
0.0
  0
POINT
  5
152D
330
493
100
AcDbEntity
  8
DEFPOINTS
  6
Continuous
 62
     0
100
AcDbPoint
 10
20471.06804447182
 20
8271.046730143273
 30
0.0
  0
POINT
  5
152E
330
493
100
AcDbEntity
  8
DEFPOINTS
  6
Continuous
 62
     0
100
AcDbPoint
 10
21851.06804447182
 20
8271.046730143273
 30
0.0
  0
ENDBLK
  5
49E
330
493
100
AcDbEntity
  8
0
100
AcDbBlockEnd
  0
BLOCK
  5
4A9
330
49F
100
AcDbEntity
  8
0
100
AcDbBlockBegin
  2
*D5
 70
     1
 10
0.0
 20
0.0
 30
0.0
  3
*D5
  1

  0
LINE
  5
15C8
330
49F
100
AcDbEntity
  8
寸法
  6
Continuous
370
    -2
100
AcDbLine
 10
16871.06804447182
 20
13271.04673014327
 30
0.0
 11
18071.06804447182
 21
13271.04673014327
 31
0.0
  0
LINE
  5
15C9
330
49F
100
AcDbEntity
  8
寸法
  6
Continuous
370
    -2
100
AcDbLine
 10
16871.06804447182
 20
8271.046730143273
 30
0.0
 11
18071.06804447182
 21
8271.046730143273
 31
0.0
  0
LINE
  5
15CA
330
49F
100
AcDbEntity
  8
寸法
  6
Continuous
370
    -2
100
AcDbLine
 10
18071.06804447182
 20
13235.04673014327
 30
0.0
 11
18071.06804447182
 21
8307.046730143275
 31
0.0
  0
INSERT
  5
15CB
330
49F
100
AcDbEntity
  8
寸法
  6
Continuous
370
    -2
100
AcDbBlockReference
  2
_ORIGIN
 10
18071.06804447182
 20
13271.04673014327
 30
0.0
 41
36.0
 42
36.0
 43
36.0
 50
90.0
  0
INSERT
  5
15CC
330
49F
100
AcDbEntity
  8
寸法
  6
Continuous
370
    -2
100
AcDbBlockReference
  2
_ORIGIN
 10
18071.06804447182
 20
8271.046730143273
 30
0.0
 41
36.0
 42
36.0
 43
36.0
 50
270.0
  0
MTEXT
  5
15CD
330
49F
100
AcDbEntity
  8
寸法
  6
Continuous
100
AcDbMText
 10
17903.92518732896
 20
10771.04673014328
 30
0.0
 40
180.0
 41
0.0
 71
     5
 72
     1
  1
\A1;5,000
  7
1_100
 11
0.0000000000000001
 21
1.0
 31
0.0
 73
     1
 44
1.0
1001
ACAD
1000
MTEXTBEGIN
1070
    73
1070
     1
1070
    44
1040
1.0
1070
    74
1070
     0
1000
MTEXTEND
  0
POINT
  5
15CE
330
49F
100
AcDbEntity
  8
DEFPOINTS
  6
Continuous
 62
     0
100
AcDbPoint
 10
16691.06804447182
 20
13271.04673014327
 30
0.0
  0
POINT
  5
15CF
330
49F
100
AcDbEntity
  8
DEFPOINTS
  6
Continuous
 62
     0
100
AcDbPoint
 10
16691.06804447182
 20
8271.046730143273
 30
0.0
  0
POINT
  5
15D0
330
49F
100
AcDbEntity
  8
DEFPOINTS
  6
Continuous
 62
     0
100
AcDbPoint
 10
18071.06804447182
 20
8271.046730143273
 30
0.0
  0
ENDBLK
  5
4AA
330
49F
100
AcDbEntity
  8
0
100
AcDbBlockEnd
  0
BLOCK
  5
4B5
330
4AB
100
AcDbEntity
  8
0
100
AcDbBlockBegin
  2
*D6
 70
     1
 10
0.0
 20
0.0
 30
0.0
  3
*D6
  1

  0
LINE
  5
15AB
330
4AB
100
AcDbEntity
  8
寸法
  6
Continuous
370
    -2
100
AcDbLine
 10
16871.06804447182
 20
8071.046730143274
 30
0.0
 11
17471.06804447182
 21
8071.046730143274
 31
0.0
  0
LINE
  5
15AC
330
4AB
100
AcDbEntity
  8
寸法
  6
Continuous
370
    -2
100
AcDbLine
 10
16871.06804447182
 20
8271.046730143273
 30
0.0
 11
17471.06804447182
 21
8271.046730143273
 31
0.0
  0
LINE
  5
15AD
330
4AB
100
AcDbEntity
  8
寸法
  6
Continuous
370
    -2
100
AcDbLine
 10
17471.06804447182
 20
8107.046730143274
 30
0.0
 11
17471.06804447182
 21
8235.046730143274
 31
0.0
  0
MTEXT
  5
15AE
330
4AB
100
AcDbEntity
  8
寸法
  6
Continuous
100
AcDbMText
 10
17615.79167238929
 20
8042.810470750755
 30
0.0
 40
180.0
 41
0.0
 71
     5
 72
     1
  1
\A1;200
  7
1_100
 11
0.0000000000000001
 21
1.0
 31
0.0
 73
     1
 44
1.0
1001
ACAD
1000
MTEXTBEGIN
1070
    73
1070
     1
1070
    44
1040
1.0
1070
    74
1070
     0
1000
MTEXTEND
  0
INSERT
  5
15AF
330
4AB
100
AcDbEntity
  8
寸法
  6
Continuous
370
    -2
100
AcDbBlockReference
  2
_ORIGIN
 10
17471.06804447182
 20
8071.046730143274
 30
0.0
 41
36.0
 42
36.0
 43
36.0
 50
270.0
  0
INSERT
  5
15B0
330
4AB
100
AcDbEntity
  8
寸法
  6
Continuous
370
    -2
100
AcDbBlockReference
  2
_ORIGIN
 10
17471.06804447182
 20
8271.046730143273
 30
0.0
 41
36.0
 42
36.0
 43
36.0
 50
90.0
  0
POINT
  5
15B1
330
4AB
100
AcDbEntity
  8
DEFPOINTS
  6
Continuous
 62
     0
100
AcDbPoint
 10
16691.06804447182
 20
8071.046730143274
 30
0.0
  0
POINT
  5
15B2
330
4AB
100
AcDbEntity
  8
DEFPOINTS
  6
Continuous
 62
     0
100
AcDbPoint
 10
16691.06804447182
 20
8271.046730143273
 30
0.0
  0
POINT
  5
15B3
330
4AB
100
AcDbEntity
  8
DEFPOINTS
  6
Continuous
 62
     0
100
AcDbPoint
 10
17471.06804447182
 20
8271.046730143273
 30
0.0
  0
ENDBLK
  5
4B6
330
4AB
100
AcDbEntity
  8
0
100
AcDbBlockEnd
  0
BLOCK
  5
4C3
330
4B7
100
AcDbEntity
  8
0
100
AcDbBlockBegin
  2
*D7
 70
     1
 10
0.0
 20
0.0
 30
0.0
  3
*D7
  1

  0
LINE
  5
15B4
330
4B7
100
AcDbEntity
  8
寸法
  6
Continuous
370
    -2
100
AcDbLine
 10
16871.06804447182
 20
6921.046730143274
 30
0.0
 11
17471.06804447182
 21
6921.046730143274
 31
0.0
  0
LINE
  5
15B5
330
4B7
100
AcDbEntity
  8
寸法
  6
Continuous
370
    -2
100
AcDbLine
 10
16871.06804447182
 20
7021.046730143274
 30
0.0
 11
17471.06804447182
 21
7021.046730143274
 31
0.0
  0
LINE
  5
15B6
330
4B7
100
AcDbEntity
  8
寸法
  6
Continuous
370
    -2
100
AcDbLine
 10
17471.06804447182
 20
6885.046730143274
 30
0.0
 11
17471.06804447182
 21
6849.046730143276
 31
0.0
  0
LINE
  5
15B7
330
4B7
100
AcDbEntity
  8
寸法
  6
Continuous
370
    -2
100
AcDbLine
 10
17471.06804447182
 20
7057.046730143274
 30
0.0
 11
17471.06804447182
 21
7093.046730143274
 31
0.0
  0
MTEXT
  5
15B8
330
4B7
100
AcDbEntity
  8
寸法
  6
Continuous
100
AcDbMText
 10
17324.52841331696
 20
6699.628277567703
 30
0.0
 40
180.0
 41
0.0
 71
     5
 72
     1
  1
\A1;100
  7
1_100
 11
0.0000000000000001
 21
1.0
 31
0.0
 73
     1
 44
1.0
1001
ACAD
1000
MTEXTBEGIN
1070
    73
1070
     1
1070
    44
1040
1.0
1070
    74
1070
     0
1000
MTEXTEND
  0
LINE
  5
15B9
330
4B7
100
AcDbEntity
  8
寸法
  6
Continuous
370
    -2
100
AcDbLine
 10
17471.06804447182
 20
6921.046730143274
 30
0.0
 11
17471.06804447182
 21
7021.046730143274
 31
0.0
  0
INSERT
  5
15BA
330
4B7
100
AcDbEntity
  8
寸法
  6
Continuous
370
    -2
100
AcDbBlockReference
  2
_ORIGIN
 10
17471.06804447182
 20
6921.046730143274
 30
0.0
 41
36.0
 42
36.0
 43
36.0
 50
90.0
  0
INSERT
  5
15BB
330
4B7
100
AcDbEntity
  8
寸法
  6
Continuous
370
    -2
100
AcDbBlockReference
  2
_ORIGIN
 10
17471.06804447182
 20
7021.046730143274
 30
0.0
 41
36.0
 42
36.0
 43
36.0
 50
270.0
  0
POINT
  5
15BC
330
4B7
100
AcDbEntity
  8
DEFPOINTS
  6
Continuous
 62
     0
100
AcDbPoint
 10
16691.06804447182
 20
6921.046730143274
 30
0.0
  0
POINT
  5
15BD
330
4B7
100
AcDbEntity
  8
DEFPOINTS
  6
Continuous
 62
     0
100
AcDbPoint
 10
16691.06804447182
 20
7021.046730143274
 30
0.0
  0
POINT
  5
15BE
330
4B7
100
AcDbEntity
  8
DEFPOINTS
  6
Continuous
 62
     0
100
AcDbPoint
 10
17471.06804447182
 20
7021.046730143274
 30
0.0
  0
ENDBLK
  5
4C4
330
4B7
100
AcDbEntity
  8
0
100
AcDbBlockEnd
  0
BLOCK
  5
4CF
330
4C5
100
AcDbEntity
  8
0
100
AcDbBlockBegin
  2
*D8
 70
     1
 10
0.0
 20
0.0
 30
0.0
  3
*D8
  1

  0
LINE
  5
15A2
330
4C5
100
AcDbEntity
  8
寸法
  6
Continuous
370
    -2
100
AcDbLine
 10
16871.06804447182
 20
7021.046730143274
 30
0.0
 11
17471.06804447182
 21
7021.046730143274
 31
0.0
  0
LINE
  5
15A3
330
4C5
100
AcDbEntity
  8
寸法
  6
Continuous
370
    -2
100
AcDbLine
 10
16871.06804447182
 20
8071.046730143274
 30
0.0
 11
17471.06804447182
 21
8071.046730143274
 31
0.0
  0
LINE
  5
15A4
330
4C5
100
AcDbEntity
  8
寸法
  6
Continuous
370
    -2
100
AcDbLine
 10
17471.06804447182
 20
7057.046730143274
 30
0.0
 11
17471.06804447182
 21
8035.046730143276
 31
0.0
  0
INSERT
  5
15A5
330
4C5
100
AcDbEntity
  8
寸法
  6
Continuous
370
    -2
100
AcDbBlockReference
  2
_ORIGIN
 10
17471.06804447182
 20
7021.046730143274
 30
0.0
 41
36.0
 42
36.0
 43
36.0
 50
270.0
  0
INSERT
  5
15A6
330
4C5
100
AcDbEntity
  8
寸法
  6
Continuous
370
    -2
100
AcDbBlockReference
  2
_ORIGIN
 10
17471.06804447182
 20
8071.046730143274
 30
0.0
 41
36.0
 42
36.0
 43
36.0
 50
90.0
  0
MTEXT
  5
15A7
330
4C5
100
AcDbEntity
  8
寸法
  6
Continuous
100
AcDbMText
 10
17303.92518732896
 20
7546.046730143277
 30
0.0
 40
180.0
 41
0.0
 71
     5
 72
     1
  1
\A1;1,050
  7
1_100
 11
0.0000000000000001
 21
1.0
 31
0.0
 73
     1
 44
1.0
1001
ACAD
1000
MTEXTBEGIN
1070
    73
1070
     1
1070
    44
1040
1.0
1070
    74
1070
     0
1000
MTEXTEND
  0
POINT
  5
15A8
330
4C5
100
AcDbEntity
  8
DEFPOINTS
  6
Continuous
 62
     0
100
AcDbPoint
 10
16691.06804447182
 20
7021.046730143274
 30
0.0
  0
POINT
  5
15A9
330
4C5
100
AcDbEntity
  8
DEFPOINTS
  6
Continuous
 62
     0
100
AcDbPoint
 10
16691.06804447182
 20
8071.046730143274
 30
0.0
  0
POINT
  5
15AA
330
4C5
100
AcDbEntity
  8
DEFPOINTS
  6
Continuous
 62
     0
100
AcDbPoint
 10
17471.06804447182
 20
8071.046730143274
 30
0.0
  0
ENDBLK
  5
4D0
330
4C5
100
AcDbEntity
  8
0
100
AcDbBlockEnd
  0
BLOCK
  5
4DB
330
4D1
100
AcDbEntity
  8
0
100
AcDbBlockBegin
  2
*D9
 70
     1
 10
0.0
 20
0.0
 30
0.0
  3
*D9
  1

  0
LINE
  5
1599
330
4D1
100
AcDbEntity
  8
寸法
  6
Continuous
370
    -2
100
AcDbLine
 10
16871.06804447182
 20
8271.046730143273
 30
0.0
 11
18071.06804447182
 21
8271.046730143273
 31
0.0
  0
LINE
  5
159A
330
4D1
100
AcDbEntity
  8
寸法
  6
Continuous
370
    -2
100
AcDbLine
 10
16871.06804447182
 20
7021.046730143274
 30
0.0
 11
18071.06804447182
 21
7021.046730143274
 31
0.0
  0
LINE
  5
159B
330
4D1
100
AcDbEntity
  8
寸法
  6
Continuous
370
    -2
100
AcDbLine
 10
18071.06804447182
 20
8235.046730143274
 30
0.0
 11
18071.06804447182
 21
7057.046730143274
 31
0.0
  0
INSERT
  5
159C
330
4D1
100
AcDbEntity
  8
寸法
  6
Continuous
370
    -2
100
AcDbBlockReference
  2
_ORIGIN
 10
18071.06804447182
 20
8271.046730143273
 30
0.0
 41
36.0
 42
36.0
 43
36.0
 50
90.0
  0
INSERT
  5
159D
330
4D1
100
AcDbEntity
  8
寸法
  6
Continuous
370
    -2
100
AcDbBlockReference
  2
_ORIGIN
 10
18071.06804447182
 20
7021.046730143274
 30
0.0
 41
36.0
 42
36.0
 43
36.0
 50
270.0
  0
MTEXT
  5
159E
330
4D1
100
AcDbEntity
  8
寸法
  6
Continuous
100
AcDbMText
 10
17903.92518732896
 20
7646.046730143277
 30
0.0
 40
180.0
 41
0.0
 71
     5
 72
     1
  1
\A1;1,250
  7
1_100
 11
0.0000000000000001
 21
1.0
 31
0.0
 73
     1
 44
1.0
1001
ACAD
1000
MTEXTBEGIN
1070
    73
1070
     1
1070
    44
1040
1.0
1070
    74
1070
     0
1000
MTEXTEND
  0
POINT
  5
159F
330
4D1
100
AcDbEntity
  8
DEFPOINTS
  6
Continuous
 62
     0
100
AcDbPoint
 10
16691.06804447182
 20
8271.046730143273
 30
0.0
  0
POINT
  5
15A0
330
4D1
100
AcDbEntity
  8
DEFPOINTS
  6
Continuous
 62
     0
100
AcDbPoint
 10
16691.06804447182
 20
7021.046730143274
 30
0.0
  0
POINT
  5
15A1
330
4D1
100
AcDbEntity
  8
DEFPOINTS
  6
Continuous
 62
     0
100
AcDbPoint
 10
18071.06804447182
 20
7021.046730143274
 30
0.0
  0
ENDBLK
  5
4DC
330
4D1
100
AcDbEntity
  8
0
100
AcDbBlockEnd
  0
BLOCK
  5
4E9
330
4DD
100
AcDbEntity
  8
0
100
AcDbBlockBegin
  2
*D10
 70
     1
 10
0.0
 20
0.0
 30
0.0
  3
*D10
  1

  0
LINE
  5
1507
330
4DD
100
AcDbEntity
  8
寸法
  6
Continuous
370
    -2
100
AcDbLine
 10
19321.06804447182
 20
6741.046730143273
 30
0.0
 11
19321.06804447182
 21
6201.046730143275
 31
0.0
  0
LINE
  5
1508
330
4DD
100
AcDbEntity
  8
寸法
  6
Continuous
370
    -2
100
AcDbLine
 10
19821.06804447182
 20
6741.046730143158
 30
0.0
 11
19821.06804447182
 21
6201.046730143275
 31
0.0
  0
LINE
  5
1509
330
4DD
100
AcDbEntity
  8
寸法
  6
Continuous
370
    -2
100
AcDbLine
 10
19285.06804447182
 20
6201.046730143275
 30
0.0
 11
19249.06804447182
 21
6201.046730143275
 31
0.0
  0
LINE
  5
150A
330
4DD
100
AcDbEntity
  8
寸法
  6
Continuous
370
    -2
100
AcDbLine
 10
19857.06804447182
 20
6201.046730143275
 30
0.0
 11
19893.06804447182
 21
6201.046730143275
 31
0.0
  0
LINE
  5
150B
330
4DD
100
AcDbEntity
  8
寸法
  6
Continuous
370
    -2
100
AcDbLine
 10
19321.06804447182
 20
6201.046730143275
 30
0.0
 11
19821.06804447182
 21
6201.046730143275
 31
0.0
  0
INSERT
  5
150C
330
4DD
100
AcDbEntity
  8
寸法
  6
Continuous
370
    -2
100
AcDbBlockReference
  2
_ORIGIN
 10
19321.06804447182
 20
6201.046730143275
 30
0.0
 41
36.0
 42
36.0
 43
36.0
  0
INSERT
  5
150D
330
4DD
100
AcDbEntity
  8
寸法
  6
Continuous
370
    -2
100
AcDbBlockReference
  2
_ORIGIN
 10
19821.06804447182
 20
6201.046730143275
 30
0.0
 41
36.0
 42
36.0
 43
36.0
 50
180.0
  0
MTEXT
  5
150E
330
4DD
100
AcDbEntity
  8
寸法
  6
Continuous
100
AcDbMText
 10
19571.06804447182
 20
6051.046730143275
 30
0.0
 40
180.0
 41
0.0
 71
     5
 72
     1
  1
\A1;□500
  7
1_100
 73
     1
 44
1.0
1001
ACAD
1000
MTEXTBEGIN
1070
    73
1070
     1
1070
    44
1040
1.0
1070
    74
1070
     0
1000
MTEXTEND
  0
POINT
  5
150F
330
4DD
100
AcDbEntity
  8
DEFPOINTS
  6
Continuous
 62
     0
100
AcDbPoint
 10
19321.06804447182
 20
6921.046730143274
 30
0.0
  0
POINT
  5
1510
330
4DD
100
AcDbEntity
  8
DEFPOINTS
  6
Continuous
 62
     0
100
AcDbPoint
 10
19821.06804447182
 20
6921.046730143157
 30
0.0
  0
POINT
  5
1511
330
4DD
100
AcDbEntity
  8
DEFPOINTS
  6
Continuous
 62
     0
100
AcDbPoint
 10
19821.06804447182
 20
6201.046730143275
 30
0.0
  0
ENDBLK
  5
4EA
330
4DD
100
AcDbEntity
  8
0
100
AcDbBlockEnd
  0
BLOCK
  5
4F5
330
4EB
100
AcDbEntity
  8
0
100
AcDbBlockBegin
  2
*D11
 70
     1
 10
0.0
 20
0.0
 30
0.0
  3
*D11
  1

  0
LINE
  5
14FE
330
4EB
100
AcDbEntity
  8
寸法
  6
Continuous
370
    -2
100
AcDbLine
 10
19346.06804447182
 20
6741.046730143273
 30
0.0
 11
19346.06804447182
 21
6501.046730143274
 31
0.0
  0
LINE
  5
14FF
330
4EB
100
AcDbEntity
  8
寸法
  6
Continuous
370
    -2
100
AcDbLine
 10
19796.06804447182
 20
6741.046730143273
 30
0.0
 11
19796.06804447182
 21
6501.046730143274
 31
0.0
  0
LINE
  5
1500
330
4EB
100
AcDbEntity
  8
寸法
  6
Continuous
370
    -2
100
AcDbLine
 10
19382.06804447182
 20
6501.046730143274
 30
0.0
 11
19760.06804447182
 21
6501.046730143274
 31
0.0
  0
MTEXT
  5
1501
330
4EB
100
AcDbEntity
  8
寸法
  6
Continuous
100
AcDbMText
 10
18958.89294858047
 20
6561.046730143273
 30
0.0
 40
180.0
 41
0.0
 71
     5
 72
     1
  1
\A1;φ450
  7
1_100
 73
     1
 44
1.0
1001
ACAD
1000
MTEXTBEGIN
1070
    73
1070
     1
1070
    44
1040
1.0
1070
    74
1070
     0
1000
MTEXTEND
  0
INSERT
  5
1502
330
4EB
100
AcDbEntity
  8
寸法
  6
Continuous
370
    -2
100
AcDbBlockReference
  2
_ORIGIN
 10
19346.06804447182
 20
6501.046730143274
 30
0.0
 41
36.0
 42
36.0
 43
36.0
 50
180.0
  0
INSERT
  5
1503
330
4EB
100
AcDbEntity
  8
寸法
  6
Continuous
370
    -2
100
AcDbBlockReference
  2
_ORIGIN
 10
19796.06804447182
 20
6501.046730143274
 30
0.0
 41
36.0
 42
36.0
 43
36.0
  0
POINT
  5
1504
330
4EB
100
AcDbEntity
  8
DEFPOINTS
  6
Continuous
 62
     0
100
AcDbPoint
 10
19346.06804447182
 20
6921.046730143274
 30
0.0
  0
POINT
  5
1505
330
4EB
100
AcDbEntity
  8
DEFPOINTS
  6
Continuous
 62
     0
100
AcDbPoint
 10
19796.06804447182
 20
6921.046730143274
 30
0.0
  0
POINT
  5
1506
330
4EB
100
AcDbEntity
  8
DEFPOINTS
  6
Continuous
 62
     0
100
AcDbPoint
 10
19796.06804447182
 20
6501.046730143274
 30
0.0
  0
ENDBLK
  5
4F6
330
4EB
100
AcDbEntity
  8
0
100
AcDbBlockEnd
  0
BLOCK
  5
503
330
4F7
100
AcDbEntity
  8
0
100
AcDbBlockBegin
  2
*D12
 70
     1
 10
0.0
 20
0.0
 30
0.0
  3
*D12
  1

  0
LINE
  5
6D5
330
4F7
100
AcDbEntity
  8
寸法
  6
Continuous
370
    -2
100
AcDbLine
 10
5290.385686073484
 20
6741.046730143216
 30
0.0
 11
5290.385686073484
 21
6201.046730143216
 31
0.0
  0
LINE
  5
6D6
330
4F7
100
AcDbEntity
  8
寸法
  6
Continuous
370
    -2
100
AcDbLine
 10
5790.385686073484
 20
6741.046730143101
 30
0.0
 11
5790.385686073484
 21
6201.046730143216
 31
0.0
  0
LINE
  5
6D7
330
4F7
100
AcDbEntity
  8
寸法
  6
Continuous
370
    -2
100
AcDbLine
 10
5254.385686073485
 20
6201.046730143216
 30
0.0
 11
5218.385686073485
 21
6201.046730143216
 31
0.0
  0
LINE
  5
6D8
330
4F7
100
AcDbEntity
  8
寸法
  6
Continuous
370
    -2
100
AcDbLine
 10
5826.385686073485
 20
6201.046730143216
 30
0.0
 11
5862.385686073485
 21
6201.046730143216
 31
0.0
  0
LINE
  5
6D9
330
4F7
100
AcDbEntity
  8
寸法
  6
Continuous
370
    -2
100
AcDbLine
 10
5290.385686073484
 20
6201.046730143216
 30
0.0
 11
5790.385686073484
 21
6201.046730143216
 31
0.0
  0
INSERT
  5
6DA
330
4F7
100
AcDbEntity
  8
寸法
  6
Continuous
370
    -2
100
AcDbBlockReference
  2
_ORIGIN
 10
5290.385686073484
 20
6201.046730143216
 30
0.0
 41
36.0
 42
36.0
 43
36.0
  0
INSERT
  5
6DB
330
4F7
100
AcDbEntity
  8
寸法
  6
Continuous
370
    -2
100
AcDbBlockReference
  2
_ORIGIN
 10
5790.385686073484
 20
6201.046730143216
 30
0.0
 41
36.0
 42
36.0
 43
36.0
 50
180.0
  0
MTEXT
  5
6DC
330
4F7
100
AcDbEntity
  8
寸法
  6
Continuous
100
AcDbMText
 10
5540.385686073484
 20
6051.046730143216
 30
0.0
 40
180.0
 41
0.0
 71
     5
 72
     1
  1
\A1;□500
  7
1_100
 73
     1
 44
1.0
1001
ACAD
1000
MTEXTBEGIN
1070
    73
1070
     1
1070
    44
1040
1.0
1070
    74
1070
     0
1000
MTEXTEND
  0
POINT
  5
6DD
330
4F7
100
AcDbEntity
  8
DEFPOINTS
  6
Continuous
 62
     0
100
AcDbPoint
 10
5290.385686073484
 20
6921.046730143216
 30
0.0
  0
POINT
  5
6DE
330
4F7
100
AcDbEntity
  8
DEFPOINTS
  6
Continuous
 62
     0
100
AcDbPoint
 10
5790.385686073484
 20
6921.046730143101
 30
0.0
  0
POINT
  5
6DF
330
4F7
100
AcDbEntity
  8
DEFPOINTS
  6
Continuous
 62
     0
100
AcDbPoint
 10
5790.385686073484
 20
6201.046730143216
 30
0.0
  0
ENDBLK
  5
504
330
4F7
100
AcDbEntity
  8
0
100
AcDbBlockEnd
  0
BLOCK
  5
50F
330
505
100
AcDbEntity
  8
0
100
AcDbBlockBegin
  2
*D13
 70
     1
 10
0.0
 20
0.0
 30
0.0
  3
*D13
  1

  0
LINE
  5
6CC
330
505
100
AcDbEntity
  8
寸法
  6
Continuous
370
    -2
100
AcDbLine
 10
5315.385686073485
 20
6741.046730143216
 30
0.0
 11
5315.385686073485
 21
6501.046730143215
 31
0.0
  0
LINE
  5
6CD
330
505
100
AcDbEntity
  8
寸法
  6
Continuous
370
    -2
100
AcDbLine
 10
5765.385686073485
 20
6741.046730143216
 30
0.0
 11
5765.385686073485
 21
6501.046730143215
 31
0.0
  0
LINE
  5
6CE
330
505
100
AcDbEntity
  8
寸法
  6
Continuous
370
    -2
100
AcDbLine
 10
5351.385686073484
 20
6501.046730143215
 30
0.0
 11
5729.385686073484
 21
6501.046730143215
 31
0.0
  0
MTEXT
  5
6CF
330
505
100
AcDbEntity
  8
寸法
  6
Continuous
100
AcDbMText
 10
4930.67175711066
 20
6561.046730143217
 30
0.0
 40
180.0
 41
0.0
 71
     5
 72
     1
  1
\A1;φ450
  7
1_100
 73
     1
 44
1.0
1001
ACAD
1000
MTEXTBEGIN
1070
    73
1070
     1
1070
    44
1040
1.0
1070
    74
1070
     0
1000
MTEXTEND
  0
INSERT
  5
6D0
330
505
100
AcDbEntity
  8
寸法
  6
Continuous
370
    -2
100
AcDbBlockReference
  2
_ORIGIN
 10
5315.385686073485
 20
6501.046730143215
 30
0.0
 41
36.0
 42
36.0
 43
36.0
 50
180.0
  0
INSERT
  5
6D1
330
505
100
AcDbEntity
  8
寸法
  6
Continuous
370
    -2
100
AcDbBlockReference
  2
_ORIGIN
 10
5765.385686073485
 20
6501.046730143215
 30
0.0
 41
36.0
 42
36.0
 43
36.0
  0
POINT
  5
6D2
330
505
100
AcDbEntity
  8
DEFPOINTS
  6
Continuous
 62
     0
100
AcDbPoint
 10
5315.385686073485
 20
6921.046730143216
 30
0.0
  0
POINT
  5
6D3
330
505
100
AcDbEntity
  8
DEFPOINTS
  6
Continuous
 62
     0
100
AcDbPoint
 10
5765.385686073485
 20
6921.046730143216
 30
0.0
  0
POINT
  5
6D4
330
505
100
AcDbEntity
  8
DEFPOINTS
  6
Continuous
 62
     0
100
AcDbPoint
 10
5765.385686073485
 20
6501.046730143215
 30
0.0
  0
ENDBLK
  5
510
330
505
100
AcDbEntity
  8
0
100
AcDbBlockEnd
  0
BLOCK
  5
51B
330
511
100
AcDbEntity
  8
0
100
AcDbBlockBegin
  2
*D14
 70
     1
 10
0.0
 20
0.0
 30
0.0
  3
*D14
  1

  0
LINE
  5
158F
330
511
100
AcDbEntity
  8
寸法
  6
Continuous
370
    -2
100
AcDbLine
 10
5540.385686073484
 20
5950.938008390682
 30
0.0
 11
5540.385686073484
 21
5221.046721978032
 31
0.0
  0
LINE
  5
1590
330
511
100
AcDbEntity
  8
寸法
  6
Continuous
370
    -2
100
AcDbLine
 10
13540.38568607348
 20
6598.579258349807
 30
0.0
 11
13540.38568607348
 21
5221.046721978032
 31
0.0
  0
LINE
  5
1591
330
511
100
AcDbEntity
  8
寸法
  6
Continuous
370
    -2
100
AcDbLine
 10
5576.385686073485
 20
5221.046721978032
 30
0.0
 11
13504.38568607348
 21
5221.046721978032
 31
0.0
  0
INSERT
  5
1592
330
511
100
AcDbEntity
  8
寸法
  6
Continuous
370
    -2
100
AcDbBlockReference
  2
_ORIGIN
 10
5540.385686073484
 20
5221.046721978032
 30
0.0
 41
36.0
 42
36.0
 43
36.0
 50
180.0
  0
INSERT
  5
1593
330
511
100
AcDbEntity
  8
寸法
  6
Continuous
370
    -2
100
AcDbBlockReference
  2
_ORIGIN
 10
13540.38568607348
 20
5221.046721978032
 30
0.0
 41
36.0
 42
36.0
 43
36.0
  0
MTEXT
  5
1594
330
511
100
AcDbEntity
  8
寸法
  6
Continuous
100
AcDbMText
 10
9540.385686073483
 20
5388.189579120889
 30
0.0
 40
180.0
 41
0.0
 71
     5
 72
     1
  1
\A1;8,000
  7
1_100
 73
     1
 44
1.0
1001
ACAD
1000
MTEXTBEGIN
1070
    73
1070
     1
1070
    44
1040
1.0
1070
    74
1070
     0
1000
MTEXTEND
  0
POINT
  5
1595
330
511
100
AcDbEntity
  8
DEFPOINTS
  6
Continuous
 62
     0
100
AcDbPoint
 10
5540.385686073484
 20
6130.938008390684
 30
0.0
  0
POINT
  5
1596
330
511
100
AcDbEntity
  8
DEFPOINTS
  6
Continuous
 62
     0
100
AcDbPoint
 10
13540.38568607348
 20
6778.579258349807
 30
0.0
  0
POINT
  5
1597
330
511
100
AcDbEntity
  8
DEFPOINTS
  6
Continuous
 62
     0
100
AcDbPoint
 10
13540.38568607348
 20
5221.046721978032
 30
0.0
  0
ENDBLK
  5
51C
330
511
100
AcDbEntity
  8
0
100
AcDbBlockEnd
  0
BLOCK
  5
527
330
51D
100
AcDbEntity
  8
0
100
AcDbBlockBegin
  2
*D15
 70
     1
 10
0.0
 20
0.0
 30
0.0
  3
*D15
  1

  0
LINE
  5
14EA
330
51D
100
AcDbEntity
  8
寸法
  6
Continuous
370
    -2
100
AcDbLine
 10
20651.06804447182
 20
8271.046730143273
 30
0.0
 11
21851.06804447182
 21
8271.046730143273
 31
0.0
  0
LINE
  5
14EB
330
51D
100
AcDbEntity
  8
寸法
  6
Continuous
370
    -2
100
AcDbLine
 10
20651.06804447182
 20
7021.046730143274
 30
0.0
 11
21851.06804447182
 21
7021.046730143274
 31
0.0
  0
LINE
  5
14EC
330
51D
100
AcDbEntity
  8
寸法
  6
Continuous
370
    -2
100
AcDbLine
 10
21851.06804447182
 20
8235.046730143272
 30
0.0
 11
21851.06804447182
 21
7057.046730143274
 31
0.0
  0
INSERT
  5
14ED
330
51D
100
AcDbEntity
  8
寸法
  6
Continuous
370
    -2
100
AcDbBlockReference
  2
_ORIGIN
 10
21851.06804447182
 20
8271.046730143273
 30
0.0
 41
36.0
 42
36.0
 43
36.0
 50
90.0
  0
INSERT
  5
14EE
330
51D
100
AcDbEntity
  8
寸法
  6
Continuous
370
    -2
100
AcDbBlockReference
  2
_ORIGIN
 10
21851.06804447182
 20
7021.046730143274
 30
0.0
 41
36.0
 42
36.0
 43
36.0
 50
270.0
  0
MTEXT
  5
14EF
330
51D
100
AcDbEntity
  8
寸法
  6
Continuous
100
AcDbMText
 10
21683.92518732896
 20
7646.046730143277
 30
0.0
 40
180.0
 41
0.0
 71
     5
 72
     1
  1
\A1;1,250
  7
1_100
 11
0.0000000000000001
 21
1.0
 31
0.0
 73
     1
 44
1.0
1001
ACAD
1000
MTEXTBEGIN
1070
    73
1070
     1
1070
    44
1040
1.0
1070
    74
1070
     0
1000
MTEXTEND
  0
POINT
  5
14F0
330
51D
100
AcDbEntity
  8
DEFPOINTS
  6
Continuous
 62
     0
100
AcDbPoint
 10
20471.06804447182
 20
8271.046730143273
 30
0.0
  0
POINT
  5
14F1
330
51D
100
AcDbEntity
  8
DEFPOINTS
  6
Continuous
 62
     0
100
AcDbPoint
 10
20471.06804447182
 20
7021.046730143274
 30
0.0
  0
POINT
  5
14F2
330
51D
100
AcDbEntity
  8
DEFPOINTS
  6
Continuous
 62
     0
100
AcDbPoint
 10
21851.06804447182
 20
7021.046730143274
 30
0.0
  0
ENDBLK
  5
528
330
51D
100
AcDbEntity
  8
0
100
AcDbBlockEnd
  0
BLOCK
  5
533
330
529
100
AcDbEntity
  8
0
100
AcDbBlockBegin
  2
*D16
 70
     1
 10
0.0
 20
0.0
 30
0.0
  3
*D16
  1

  0
LINE
  5
14E1
330
529
100
AcDbEntity
  8
寸法
  6
Continuous
370
    -2
100
AcDbLine
 10
20651.06804447182
 20
8071.046730143274
 30
0.0
 11
21251.06804447182
 21
8071.046730143274
 31
0.0
  0
LINE
  5
14E2
330
529
100
AcDbEntity
  8
寸法
  6
Continuous
370
    -2
100
AcDbLine
 10
20651.06804447182
 20
8271.046730143273
 30
0.0
 11
21251.06804447182
 21
8271.046730143273
 31
0.0
  0
LINE
  5
14E3
330
529
100
AcDbEntity
  8
寸法
  6
Continuous
370
    -2
100
AcDbLine
 10
21251.06804447182
 20
8107.046730143274
 30
0.0
 11
21251.06804447182
 21
8235.046730143272
 31
0.0
  0
MTEXT
  5
14E4
330
529
100
AcDbEntity
  8
寸法
  6
Continuous
100
AcDbMText
 10
21417.98515283226
 20
8042.261178861862
 30
0.0
 40
180.0
 41
0.0
 71
     5
 72
     1
  1
\A1;200
  7
1_100
 11
0.0000000000000001
 21
1.0
 31
0.0
 73
     1
 44
1.0
1001
ACAD
1000
MTEXTBEGIN
1070
    73
1070
     1
1070
    44
1040
1.0
1070
    74
1070
     0
1000
MTEXTEND
  0
INSERT
  5
14E5
330
529
100
AcDbEntity
  8
寸法
  6
Continuous
370
    -2
100
AcDbBlockReference
  2
_ORIGIN
 10
21251.06804447182
 20
8071.046730143274
 30
0.0
 41
36.0
 42
36.0
 43
36.0
 50
270.0
  0
INSERT
  5
14E6
330
529
100
AcDbEntity
  8
寸法
  6
Continuous
370
    -2
100
AcDbBlockReference
  2
_ORIGIN
 10
21251.06804447182
 20
8271.046730143273
 30
0.0
 41
36.0
 42
36.0
 43
36.0
 50
90.0
  0
POINT
  5
14E7
330
529
100
AcDbEntity
  8
DEFPOINTS
  6
Continuous
 62
     0
100
AcDbPoint
 10
20471.06804447182
 20
8071.046730143274
 30
0.0
  0
POINT
  5
14E8
330
529
100
AcDbEntity
  8
DEFPOINTS
  6
Continuous
 62
     0
100
AcDbPoint
 10
20471.06804447182
 20
8271.046730143273
 30
0.0
  0
POINT
  5
14E9
330
529
100
AcDbEntity
  8
DEFPOINTS
  6
Continuous
 62
     0
100
AcDbPoint
 10
21251.06804447182
 20
8271.046730143273
 30
0.0
  0
ENDBLK
  5
534
330
529
100
AcDbEntity
  8
0
100
AcDbBlockEnd
  0
BLOCK
  5
541
330
535
100
AcDbEntity
  8
0
100
AcDbBlockBegin
  2
*D17
 70
     1
 10
0.0
 20
0.0
 30
0.0
  3
*D17
  1

  0
LINE
  5
14F3
330
535
100
AcDbEntity
  8
寸法
  6
Continuous
370
    -2
100
AcDbLine
 10
20651.06804447182
 20
6921.046730143274
 30
0.0
 11
21251.06804447182
 21
6921.046730143274
 31
0.0
  0
LINE
  5
14F4
330
535
100
AcDbEntity
  8
寸法
  6
Continuous
370
    -2
100
AcDbLine
 10
20651.06804447182
 20
7021.046730143274
 30
0.0
 11
21251.06804447182
 21
7021.046730143274
 31
0.0
  0
LINE
  5
14F5
330
535
100
AcDbEntity
  8
寸法
  6
Continuous
370
    -2
100
AcDbLine
 10
21251.06804447182
 20
6885.046730143274
 30
0.0
 11
21251.06804447182
 21
6849.046730143276
 31
0.0
  0
LINE
  5
14F6
330
535
100
AcDbEntity
  8
寸法
  6
Continuous
370
    -2
100
AcDbLine
 10
21251.06804447182
 20
7057.046730143274
 30
0.0
 11
21251.06804447182
 21
7093.046730143274
 31
0.0
  0
MTEXT
  5
14F7
330
535
100
AcDbEntity
  8
寸法
  6
Continuous
100
AcDbMText
 10
21097.39163193529
 20
6676.21884382728
 30
0.0
 40
180.0
 41
0.0
 71
     5
 72
     1
  1
\A1;100
  7
1_100
 11
0.0000000000000001
 21
1.0
 31
0.0
 73
     1
 44
1.0
1001
ACAD
1000
MTEXTBEGIN
1070
    73
1070
     1
1070
    44
1040
1.0
1070
    74
1070
     0
1000
MTEXTEND
  0
LINE
  5
14F8
330
535
100
AcDbEntity
  8
寸法
  6
Continuous
370
    -2
100
AcDbLine
 10
21251.06804447182
 20
6921.046730143274
 30
0.0
 11
21251.06804447182
 21
7021.046730143274
 31
0.0
  0
INSERT
  5
14F9
330
535
100
AcDbEntity
  8
寸法
  6
Continuous
370
    -2
100
AcDbBlockReference
  2
_ORIGIN
 10
21251.06804447182
 20
6921.046730143274
 30
0.0
 41
36.0
 42
36.0
 43
36.0
 50
90.0
  0
INSERT
  5
14FA
330
535
100
AcDbEntity
  8
寸法
  6
Continuous
370
    -2
100
AcDbBlockReference
  2
_ORIGIN
 10
21251.06804447182
 20
7021.046730143274
 30
0.0
 41
36.0
 42
36.0
 43
36.0
 50
270.0
  0
POINT
  5
14FB
330
535
100
AcDbEntity
  8
DEFPOINTS
  6
Continuous
 62
     0
100
AcDbPoint
 10
20471.06804447182
 20
6921.046730143274
 30
0.0
  0
POINT
  5
14FC
330
535
100
AcDbEntity
  8
DEFPOINTS
  6
Continuous
 62
     0
100
AcDbPoint
 10
20471.06804447182
 20
7021.046730143274
 30
0.0
  0
POINT
  5
14FD
330
535
100
AcDbEntity
  8
DEFPOINTS
  6
Continuous
 62
     0
100
AcDbPoint
 10
21251.06804447182
 20
7021.046730143274
 30
0.0
  0
ENDBLK
  5
542
330
535
100
AcDbEntity
  8
0
100
AcDbBlockEnd
  0
BLOCK
  5
54D
330
543
100
AcDbEntity
  8
0
100
AcDbBlockBegin
  2
*D18
 70
     1
 10
0.0
 20
0.0
 30
0.0
  3
*D18
  1

  0
LINE
  5
14D8
330
543
100
AcDbEntity
  8
寸法
  6
Continuous
370
    -2
100
AcDbLine
 10
20651.06804447182
 20
7021.046730143274
 30
0.0
 11
21251.06804447182
 21
7021.046730143274
 31
0.0
  0
LINE
  5
14D9
330
543
100
AcDbEntity
  8
寸法
  6
Continuous
370
    -2
100
AcDbLine
 10
20651.06804447182
 20
8071.046730143274
 30
0.0
 11
21251.06804447182
 21
8071.046730143274
 31
0.0
  0
LINE
  5
14DA
330
543
100
AcDbEntity
  8
寸法
  6
Continuous
370
    -2
100
AcDbLine
 10
21251.06804447182
 20
7057.046730143274
 30
0.0
 11
21251.06804447182
 21
8035.046730143276
 31
0.0
  0
INSERT
  5
14DB
330
543
100
AcDbEntity
  8
寸法
  6
Continuous
370
    -2
100
AcDbBlockReference
  2
_ORIGIN
 10
21251.06804447182
 20
7021.046730143274
 30
0.0
 41
36.0
 42
36.0
 43
36.0
 50
270.0
  0
INSERT
  5
14DC
330
543
100
AcDbEntity
  8
寸法
  6
Continuous
370
    -2
100
AcDbBlockReference
  2
_ORIGIN
 10
21251.06804447182
 20
8071.046730143274
 30
0.0
 41
36.0
 42
36.0
 43
36.0
 50
90.0
  0
MTEXT
  5
14DD
330
543
100
AcDbEntity
  8
寸法
  6
Continuous
100
AcDbMText
 10
21083.92518732896
 20
7546.046730143277
 30
0.0
 40
180.0
 41
0.0
 71
     5
 72
     1
  1
\A1;1,050
  7
1_100
 11
0.0000000000000001
 21
1.0
 31
0.0
 73
     1
 44
1.0
1001
ACAD
1000
MTEXTBEGIN
1070
    73
1070
     1
1070
    44
1040
1.0
1070
    74
1070
     0
1000
MTEXTEND
  0
POINT
  5
14DE
330
543
100
AcDbEntity
  8
DEFPOINTS
  6
Continuous
 62
     0
100
AcDbPoint
 10
20471.06804447182
 20
7021.046730143274
 30
0.0
  0
POINT
  5
14DF
330
543
100
AcDbEntity
  8
DEFPOINTS
  6
Continuous
 62
     0
100
AcDbPoint
 10
20471.06804447182
 20
8071.046730143274
 30
0.0
  0
POINT
  5
14E0
330
543
100
AcDbEntity
  8
DEFPOINTS
  6
Continuous
 62
     0
100
AcDbPoint
 10
21251.06804447182
 20
8071.046730143274
 30
0.0
  0
ENDBLK
  5
54E
330
543
100
AcDbEntity
  8
0
100
AcDbBlockEnd
  0
BLOCK
  5
55B
330
54F
100
AcDbEntity
  8
0
100
AcDbBlockBegin
  2
*D19
 70
     1
 10
0.0
 20
0.0
 30
0.0
  3
*D19
  1

  0
LINE
  5
1538
330
54F
100
AcDbEntity
  8
寸法
  6
Continuous
370
    -2
100
AcDbLine
 10
19501.16804447168
 20
13451.04673014368
 30
0.0
 11
19501.16804447168
 21
13631.04673014333
 31
0.0
  0
LINE
  5
1539
330
54F
100
AcDbEntity
  8
寸法
  6
Continuous
370
    -2
100
AcDbLine
 10
19640.96804447196
 20
13451.04673014368
 30
0.0
 11
19640.96804447196
 21
13631.04673014333
 31
0.0
  0
LINE
  5
153A
330
54F
100
AcDbEntity
  8
寸法
  6
Continuous
370
    -2
100
AcDbLine
 10
19465.16804447168
 20
13631.04673014333
 30
0.0
 11
19429.16804447168
 21
13631.04673014333
 31
0.0
  0
LINE
  5
153B
330
54F
100
AcDbEntity
  8
寸法
  6
Continuous
370
    -2
100
AcDbLine
 10
19676.96804447196
 20
13631.04673014333
 30
0.0
 11
19712.96804447196
 21
13631.04673014333
 31
0.0
  0
MTEXT
  5
153C
330
54F
100
AcDbEntity
  8
寸法
  6
Continuous
100
AcDbMText
 10
19571.06804447182
 20
13811.04673014333
 30
0.0
 40
180.0
 41
0.0
 71
     5
 72
     1
  1
\A1;φ139.8
  7
1_100
 73
     1
 44
1.0
1001
ACAD
1000
MTEXTBEGIN
1070
    73
1070
     1
1070
    44
1040
1.0
1070
    74
1070
     0
1000
MTEXTEND
  0
LINE
  5
153D
330
54F
100
AcDbEntity
  8
寸法
  6
Continuous
370
    -2
100
AcDbLine
 10
19501.16804447168
 20
13631.04673014333
 30
0.0
 11
19640.96804447196
 21
13631.04673014333
 31
0.0
  0
INSERT
  5
153E
330
54F
100
AcDbEntity
  8
寸法
  6
Continuous
370
    -2
100
AcDbBlockReference
  2
_ORIGIN
 10
19501.16804447168
 20
13631.04673014333
 30
0.0
 41
36.0
 42
36.0
 43
36.0
  0
INSERT
  5
153F
330
54F
100
AcDbEntity
  8
寸法
  6
Continuous
370
    -2
100
AcDbBlockReference
  2
_ORIGIN
 10
19640.96804447196
 20
13631.04673014333
 30
0.0
 41
36.0
 42
36.0
 43
36.0
 50
180.0
  0
POINT
  5
1540
330
54F
100
AcDbEntity
  8
DEFPOINTS
  6
Continuous
 62
     0
100
AcDbPoint
 10
19501.16804447168
 20
13271.04673014368
 30
0.0
  0
POINT
  5
1541
330
54F
100
AcDbEntity
  8
DEFPOINTS
  6
Continuous
 62
     0
100
AcDbPoint
 10
19640.96804447196
 20
13271.04673014368
 30
0.0
  0
POINT
  5
1542
330
54F
100
AcDbEntity
  8
DEFPOINTS
  6
Continuous
 62
     0
100
AcDbPoint
 10
19640.96804447196
 20
13631.04673014333
 30
0.0
  0
ENDBLK
  5
55C
330
54F
100
AcDbEntity
  8
0
100
AcDbBlockEnd
  0
BLOCK
  5
569
330
55D
100
AcDbEntity
  8
0
100
AcDbBlockBegin
  2
*D20
 70
     1
 10
0.0
 20
0.0
 30
0.0
  3
*D20
  1

  0
LINE
  5
64B
330
55D
100
AcDbEntity
  8
寸法
  6
Continuous
370
    -2
100
AcDbLine
 10
5470.485686073578
 20
13436.04673014322
 30
0.0
 11
5470.485686073578
 21
13631.04673014327
 31
0.0
  0
LINE
  5
64C
330
55D
100
AcDbEntity
  8
寸法
  6
Continuous
370
    -2
100
AcDbLine
 10
5610.285686073392
 20
13436.04673014322
 30
0.0
 11
5610.285686073392
 21
13631.04673014327
 31
0.0
  0
LINE
  5
64D
330
55D
100
AcDbEntity
  8
寸法
  6
Continuous
370
    -2
100
AcDbLine
 10
5434.485686073578
 20
13631.04673014327
 30
0.0
 11
5398.485686073578
 21
13631.04673014327
 31
0.0
  0
LINE
  5
64E
330
55D
100
AcDbEntity
  8
寸法
  6
Continuous
370
    -2
100
AcDbLine
 10
5646.285686073394
 20
13631.04673014327
 30
0.0
 11
5682.285686073393
 21
13631.04673014327
 31
0.0
  0
MTEXT
  5
64F
330
55D
100
AcDbEntity
  8
寸法
  6
Continuous
100
AcDbMText
 10
5540.385686073484
 20
13811.04673014327
 30
0.0
 40
180.0
 41
0.0
 71
     5
 72
     1
  1
\A1;φ139.8
  7
1_100
 73
     1
 44
1.0
1001
ACAD
1000
MTEXTBEGIN
1070
    73
1070
     1
1070
    44
1040
1.0
1070
    74
1070
     0
1000
MTEXTEND
  0
LINE
  5
650
330
55D
100
AcDbEntity
  8
寸法
  6
Continuous
370
    -2
100
AcDbLine
 10
5470.485686073578
 20
13631.04673014327
 30
0.0
 11
5610.285686073392
 21
13631.04673014327
 31
0.0
  0
INSERT
  5
651
330
55D
100
AcDbEntity
  8
寸法
  6
Continuous
370
    -2
100
AcDbBlockReference
  2
_ORIGIN
 10
5470.485686073578
 20
13631.04673014327
 30
0.0
 41
36.0
 42
36.0
 43
36.0
  0
INSERT
  5
652
330
55D
100
AcDbEntity
  8
寸法
  6
Continuous
370
    -2
100
AcDbBlockReference
  2
_ORIGIN
 10
5610.285686073392
 20
13631.04673014327
 30
0.0
 41
36.0
 42
36.0
 43
36.0
 50
180.0
  0
POINT
  5
653
330
55D
100
AcDbEntity
  8
DEFPOINTS
  6
Continuous
 62
     0
100
AcDbPoint
 10
5470.485686073578
 20
13256.04673014322
 30
0.0
  0
POINT
  5
654
330
55D
100
AcDbEntity
  8
DEFPOINTS
  6
Continuous
 62
     0
100
AcDbPoint
 10
5610.285686073392
 20
13256.04673014322
 30
0.0
  0
POINT
  5
655
330
55D
100
AcDbEntity
  8
DEFPOINTS
  6
Continuous
 62
     0
100
AcDbPoint
 10
5610.285686073392
 20
13631.04673014327
 30
0.0
  0
ENDBLK
  5
56A
330
55D
100
AcDbEntity
  8
0
100
AcDbBlockEnd
  0
BLOCK
  5
577
330
56B
100
AcDbEntity
  8
0
100
AcDbBlockBegin
  2
*D21
 70
     1
 10
0.0
 20
0.0
 30
0.0
  3
*D21
  1

  0
LINE
  5
15DA
330
56B
100
AcDbEntity
  8
寸法
  6
Continuous
370
    -2
100
AcDbLine
 10
16871.06804447182
 20
13231.04673014327
 30
0.0
 11
17471.06804447182
 21
13231.04673014327
 31
0.0
  0
LINE
  5
15DB
330
56B
100
AcDbEntity
  8
寸法
  6
Continuous
370
    -2
100
AcDbLine
 10
16871.06804447182
 20
13271.04673014327
 30
0.0
 11
17471.06804447182
 21
13271.04673014327
 31
0.0
  0
LINE
  5
15DC
330
56B
100
AcDbEntity
  8
寸法
  6
Continuous
370
    -2
100
AcDbLine
 10
17471.06804447182
 20
13195.04673014327
 30
0.0
 11
17471.06804447182
 21
13159.04673014328
 31
0.0
  0
LINE
  5
15DD
330
56B
100
AcDbEntity
  8
寸法
  6
Continuous
370
    -2
100
AcDbLine
 10
17471.06804447182
 20
13307.04673014327
 30
0.0
 11
17471.06804447182
 21
13343.04673014327
 31
0.0
  0
MTEXT
  5
15DE
330
56B
100
AcDbEntity
  8
寸法
  6
Continuous
100
AcDbMText
 10
17299.07094478913
 20
13454.22510870409
 30
0.0
 40
180.0
 41
0.0
 71
     5
 72
     1
  1
\A1;40
  7
1_100
 11
0.0000000000000001
 21
1.0
 31
0.0
 73
     1
 44
1.0
1001
ACAD
1000
MTEXTBEGIN
1070
    73
1070
     1
1070
    44
1040
1.0
1070
    74
1070
     0
1000
MTEXTEND
  0
LINE
  5
15DF
330
56B
100
AcDbEntity
  8
寸法
  6
Continuous
370
    -2
100
AcDbLine
 10
17471.06804447182
 20
13231.04673014327
 30
0.0
 11
17471.06804447182
 21
13271.04673014327
 31
0.0
  0
INSERT
  5
15E0
330
56B
100
AcDbEntity
  8
寸法
  6
Continuous
370
    -2
100
AcDbBlockReference
  2
_ORIGIN
 10
17471.06804447182
 20
13231.04673014327
 30
0.0
 41
36.0
 42
36.0
 43
36.0
 50
90.0
  0
INSERT
  5
15E1
330
56B
100
AcDbEntity
  8
寸法
  6
Continuous
370
    -2
100
AcDbBlockReference
  2
_ORIGIN
 10
17471.06804447182
 20
13271.04673014327
 30
0.0
 41
36.0
 42
36.0
 43
36.0
 50
270.0
  0
POINT
  5
15E2
330
56B
100
AcDbEntity
  8
DEFPOINTS
  6
Continuous
 62
     0
100
AcDbPoint
 10
16691.06804447182
 20
13231.04673014327
 30
0.0
  0
POINT
  5
15E3
330
56B
100
AcDbEntity
  8
DEFPOINTS
  6
Continuous
 62
     0
100
AcDbPoint
 10
16691.06804447182
 20
13271.04673014327
 30
0.0
  0
POINT
  5
15E4
330
56B
100
AcDbEntity
  8
DEFPOINTS
  6
Continuous
 62
     0
100
AcDbPoint
 10
17471.06804447182
 20
13271.04673014327
 30
0.0
  0
ENDBLK
  5
578
330
56B
100
AcDbEntity
  8
0
100
AcDbBlockEnd
  0
BLOCK
  5
583
330
579
100
AcDbEntity
  8
0
100
AcDbBlockBegin
  2
*D22
 70
     1
 10
0.0
 20
0.0
 30
0.0
  3
*D22
  1

  0
LINE
  5
15BF
330
579
100
AcDbEntity
  8
寸法
  6
Continuous
370
    -2
100
AcDbLine
 10
16871.06804447182
 20
10751.04673014322
 30
0.0
 11
17471.06804447182
 21
10751.04673014322
 31
0.0
  0
LINE
  5
15C0
330
579
100
AcDbEntity
  8
寸法
  6
Continuous
370
    -2
100
AcDbLine
 10
16871.06804447182
 20
13231.04673014327
 30
0.0
 11
17471.06804447182
 21
13231.04673014327
 31
0.0
  0
LINE
  5
15C1
330
579
100
AcDbEntity
  8
寸法
  6
Continuous
370
    -2
100
AcDbLine
 10
17471.06804447182
 20
10787.04673014322
 30
0.0
 11
17471.06804447182
 21
13195.04673014327
 31
0.0
  0
INSERT
  5
15C2
330
579
100
AcDbEntity
  8
寸法
  6
Continuous
370
    -2
100
AcDbBlockReference
  2
_ORIGIN
 10
17471.06804447182
 20
10751.04673014322
 30
0.0
 41
36.0
 42
36.0
 43
36.0
 50
270.0
  0
INSERT
  5
15C3
330
579
100
AcDbEntity
  8
寸法
  6
Continuous
370
    -2
100
AcDbBlockReference
  2
_ORIGIN
 10
17471.06804447182
 20
13231.04673014327
 30
0.0
 41
36.0
 42
36.0
 43
36.0
 50
90.0
  0
MTEXT
  5
15C4
330
579
100
AcDbEntity
  8
寸法
  6
Continuous
100
AcDbMText
 10
17303.92518732896
 20
11991.04673014325
 30
0.0
 40
180.0
 41
0.0
 71
     5
 72
     1
  1
\A1;2,480
  7
1_100
 11
0.0000000000000001
 21
1.0
 31
0.0
 73
     1
 44
1.0
1001
ACAD
1000
MTEXTBEGIN
1070
    73
1070
     1
1070
    44
1040
1.0
1070
    74
1070
     0
1000
MTEXTEND
  0
POINT
  5
15C5
330
579
100
AcDbEntity
  8
DEFPOINTS
  6
Continuous
 62
     0
100
AcDbPoint
 10
16691.06804447182
 20
10751.04673014322
 30
0.0
  0
POINT
  5
15C6
330
579
100
AcDbEntity
  8
DEFPOINTS
  6
Continuous
 62
     0
100
AcDbPoint
 10
16691.06804447182
 20
13231.04673014327
 30
0.0
  0
POINT
  5
15C7
330
579
100
AcDbEntity
  8
DEFPOINTS
  6
Continuous
 62
     0
100
AcDbPoint
 10
17471.06804447182
 20
13231.04673014327
 30
0.0
  0
ENDBLK
  5
584
330
579
100
AcDbEntity
  8
0
100
AcDbBlockEnd
  0
BLOCK
  5
591
330
585
100
AcDbEntity
  8
0
100
AcDbBlockBegin
  2
*D23
 70
     1
 10
0.0
 20
0.0
 30
0.0
  3
*D23
  1

  0
LINE
  5
151B
330
585
100
AcDbEntity
  8
寸法
  6
Continuous
370
    -2
100
AcDbLine
 10
20651.06804447182
 20
13231.04673014327
 30
0.0
 11
21251.06804447182
 21
13231.04673014327
 31
0.0
  0
LINE
  5
151C
330
585
100
AcDbEntity
  8
寸法
  6
Continuous
370
    -2
100
AcDbLine
 10
20651.06804447182
 20
13271.04673014327
 30
0.0
 11
21251.06804447182
 21
13271.04673014327
 31
0.0
  0
LINE
  5
151D
330
585
100
AcDbEntity
  8
寸法
  6
Continuous
370
    -2
100
AcDbLine
 10
21251.06804447182
 20
13195.04673014327
 30
0.0
 11
21251.06804447182
 21
13159.04673014327
 31
0.0
  0
LINE
  5
151E
330
585
100
AcDbEntity
  8
寸法
  6
Continuous
370
    -2
100
AcDbLine
 10
21251.06804447182
 20
13307.04673014327
 30
0.0
 11
21251.06804447182
 21
13343.04673014327
 31
0.0
  0
MTEXT
  5
151F
330
585
100
AcDbEntity
  8
寸法
  6
Continuous
100
AcDbMText
 10
21110.89325953744
 20
13452.32765186883
 30
0.0
 40
180.0
 41
0.0
 71
     5
 72
     1
  1
\A1;40
  7
1_100
 11
0.0000000000000001
 21
1.0
 31
0.0
 73
     1
 44
1.0
1001
ACAD
1000
MTEXTBEGIN
1070
    73
1070
     1
1070
    44
1040
1.0
1070
    74
1070
     0
1000
MTEXTEND
  0
LINE
  5
1520
330
585
100
AcDbEntity
  8
寸法
  6
Continuous
370
    -2
100
AcDbLine
 10
21251.06804447182
 20
13231.04673014327
 30
0.0
 11
21251.06804447182
 21
13271.04673014327
 31
0.0
  0
INSERT
  5
1521
330
585
100
AcDbEntity
  8
寸法
  6
Continuous
370
    -2
100
AcDbBlockReference
  2
_ORIGIN
 10
21251.06804447182
 20
13231.04673014327
 30
0.0
 41
36.0
 42
36.0
 43
36.0
 50
90.0
  0
INSERT
  5
1522
330
585
100
AcDbEntity
  8
寸法
  6
Continuous
370
    -2
100
AcDbBlockReference
  2
_ORIGIN
 10
21251.06804447182
 20
13271.04673014327
 30
0.0
 41
36.0
 42
36.0
 43
36.0
 50
270.0
  0
POINT
  5
1523
330
585
100
AcDbEntity
  8
DEFPOINTS
  6
Continuous
 62
     0
100
AcDbPoint
 10
20471.06804447182
 20
13231.04673014327
 30
0.0
  0
POINT
  5
1524
330
585
100
AcDbEntity
  8
DEFPOINTS
  6
Continuous
 62
     0
100
AcDbPoint
 10
20471.06804447182
 20
13271.04673014327
 30
0.0
  0
POINT
  5
1525
330
585
100
AcDbEntity
  8
DEFPOINTS
  6
Continuous
 62
     0
100
AcDbPoint
 10
21251.06804447182
 20
13271.04673014327
 30
0.0
  0
ENDBLK
  5
592
330
585
100
AcDbEntity
  8
0
100
AcDbBlockEnd
  0
BLOCK
  5
59D
330
593
100
AcDbEntity
  8
0
100
AcDbBlockBegin
  2
*D24
 70
     1
 10
0.0
 20
0.0
 30
0.0
  3
*D24
  1

  0
LINE
  5
1512
330
593
100
AcDbEntity
  8
寸法
  6
Continuous
370
    -2
100
AcDbLine
 10
20651.06804447182
 20
10751.04673014327
 30
0.0
 11
21251.06804447182
 21
10751.04673014327
 31
0.0
  0
LINE
  5
1513
330
593
100
AcDbEntity
  8
寸法
  6
Continuous
370
    -2
100
AcDbLine
 10
20651.06804447182
 20
13231.04673014327
 30
0.0
 11
21251.06804447182
 21
13231.04673014327
 31
0.0
  0
LINE
  5
1514
330
593
100
AcDbEntity
  8
寸法
  6
Continuous
370
    -2
100
AcDbLine
 10
21251.06804447182
 20
10787.04673014327
 30
0.0
 11
21251.06804447182
 21
13195.04673014327
 31
0.0
  0
INSERT
  5
1515
330
593
100
AcDbEntity
  8
寸法
  6
Continuous
370
    -2
100
AcDbBlockReference
  2
_ORIGIN
 10
21251.06804447182
 20
10751.04673014327
 30
0.0
 41
36.0
 42
36.0
 43
36.0
 50
270.0
  0
INSERT
  5
1516
330
593
100
AcDbEntity
  8
寸法
  6
Continuous
370
    -2
100
AcDbBlockReference
  2
_ORIGIN
 10
21251.06804447182
 20
13231.04673014327
 30
0.0
 41
36.0
 42
36.0
 43
36.0
 50
90.0
  0
MTEXT
  5
1517
330
593
100
AcDbEntity
  8
寸法
  6
Continuous
100
AcDbMText
 10
21083.92518732896
 20
11991.04673014327
 30
0.0
 40
180.0
 41
0.0
 71
     5
 72
     1
  1
\A1;2,480
  7
1_100
 11
0.0000000000000001
 21
1.0
 31
0.0
 73
     1
 44
1.0
1001
ACAD
1000
MTEXTBEGIN
1070
    73
1070
     1
1070
    44
1040
1.0
1070
    74
1070
     0
1000
MTEXTEND
  0
POINT
  5
1518
330
593
100
AcDbEntity
  8
DEFPOINTS
  6
Continuous
 62
     0
100
AcDbPoint
 10
20471.06804447182
 20
10751.04673014327
 30
0.0
  0
POINT
  5
1519
330
593
100
AcDbEntity
  8
DEFPOINTS
  6
Continuous
 62
     0
100
AcDbPoint
 10
20471.06804447182
 20
13231.04673014327
 30
0.0
  0
POINT
  5
151A
330
593
100
AcDbEntity
  8
DEFPOINTS
  6
Continuous
 62
     0
100
AcDbPoint
 10
21251.06804447182
 20
13231.04673014327
 30
0.0
  0
ENDBLK
  5
59E
330
593
100
AcDbEntity
  8
0
100
AcDbBlockEnd
  0
BLOCK
  5
7AD
330
79D
100
AcDbEntity
  8
0
100
AcDbBlockBegin
  2
sai450
 70
     0
 10
0.0
 20
0.0
 30
0.0
  3
sai450
  1

  0
LINE
  5
79E
330
79D
100
AcDbEntity
  8
ﾊｯﾁﾝｸﾞ
  6
Continuous
100
AcDbLine
 10
184.9591232701205
 20
0.0
 30
0.0
 11
201.0662565772654
 21
-21.8430756283924
 31
0.0
  0
LINE
  5
79F
330
79D
100
AcDbEntity
  8
ﾊｯﾁﾝｸﾞ
  6
Continuous
100
AcDbLine
 10
168.7806191118434
 20
-77.76344007329317
 30
0.0
 11
181.6189029712695
 21
-100.0
 31
0.0
  0
LINE
  5
7A0
330
79D
100
AcDbEntity
  8
ﾊｯﾁﾝｸﾞ
  6
Continuous
100
AcDbLine
 10
155.9423352523008
 20
-100.0
 30
0.0
 11
213.6773621712346
 21
0.0
 31
0.0
  0
LINE
  5
7A1
330
79D
100
AcDbEntity
  8
ﾊｯﾁﾝｸﾞ
  6
Continuous
100
AcDbLine
 10
64.33979487384203
 20
-100.0
 30
0.0
 11
122.0748217927758
 21
0.0
 31
0.0
  0
LINE
  5
7A2
330
79D
100
AcDbEntity
  8
ﾊｯﾁﾝｸﾞ
  6
Continuous
100
AcDbLine
 10
-27.26274550461676
 20
-100.0
 30
0.0
 11
30.47228141431697
 21
0.0
 31
0.0
  0
LINE
  5
7A3
330
79D
100
AcDbEntity
  8
ﾊｯﾁﾝｸﾞ
  6
Continuous
100
AcDbLine
 10
77.17807873338461
 20
-77.76344007329317
 30
0.0
 11
90.01636259281076
 21
-100.0
 31
0.0
  0
LINE
  5
7A4
330
79D
100
AcDbEntity
  8
ﾊｯﾁﾝｸﾞ
  6
Continuous
100
AcDbLine
 10
-14.4244616451906
 20
-77.76344007329317
 30
0.0
 11
-1.586177785531615
 21
-100.0
 31
0.0
  0
LINE
  5
7A5
330
79D
100
AcDbEntity
  8
ﾊｯﾁﾝｸﾞ
  6
Continuous
100
AcDbLine
 10
1.754042513202874
 20
0.0
 30
0.0
 11
17.86117582034785
 21
-21.8430756283924
 31
0.0
  0
LINE
  5
7A6
330
79D
100
AcDbEntity
  8
ﾊｯﾁﾝｸﾞ
  6
Continuous
100
AcDbLine
 10
93.35658289166168
 20
0.0
 30
0.0
 11
109.4637161988066
 21
-21.8430756283924
 31
0.0
  0
LINE
  5
7A7
330
79D
100
AcDbEntity
  8
ﾊｯﾁﾝｸﾞ
  6
Continuous
100
AcDbLine
 10
-181.4510382437146
 20
0.0
 30
0.0
 11
-165.3439049364533
 21
-21.8430756283924
 31
0.0
  0
LINE
  5
7A8
330
79D
100
AcDbEntity
  8
ﾊｯﾁﾝｸﾞ
  6
Continuous
100
AcDbLine
 10
-197.6295424019918
 20
-77.76344007329317
 30
0.0
 11
-184.7912585424492
 21
-100.0
 31
0.0
  0
LINE
  5
7A9
330
79D
100
AcDbEntity
  8
ﾊｯﾁﾝｸﾞ
  6
Continuous
100
AcDbLine
 10
-210.4678262615343
 20
-100.0
 30
0.0
 11
-152.7327993426006
 21
0.0
 31
0.0
  0
LINE
  5
7AA
330
79D
100
AcDbEntity
  8
ﾊｯﾁﾝｸﾞ
  6
Continuous
100
AcDbLine
 10
-118.8652858830755
 20
-100.0
 30
0.0
 11
-61.13025896414182
 21
0.0
 31
0.0
  0
LINE
  5
7AB
330
79D
100
AcDbEntity
  8
ﾊｯﾁﾝｸﾞ
  6
Continuous
100
AcDbLine
 10
-106.027002023533
 20
-77.76344007329317
 30
0.0
 11
-93.18871816399042
 21
-100.0
 31
0.0
  0
LINE
  5
7AC
330
79D
100
AcDbEntity
  8
ﾊｯﾁﾝｸﾞ
  6
Continuous
100
AcDbLine
 10
-89.84849786525591
 20
0.0
 30
0.0
 11
-73.74136455799453
 21
-21.8430756283924
 31
0.0
  0
ENDBLK
  5
7AE
330
79D
100
AcDbEntity
  8
0
100
AcDbBlockEnd
  0
ENDSEC
  0
SECTION
  2
ENTITIES
  0
LWPOLYLINE
  5
326
330
1F
100
AcDbEntity
  8
図面枠
100
AcDbPolyline
 90
        4
 70
     1
 43
0.0
 10
1020.385679586467
 20
701.0467162484448
 10
24420.38567958647
 20
701.0467162484448
 10
24420.38567958647
 20
16001.04671624844
 10
1020.385679586467
 20
16001.04671624844
  0
LWPOLYLINE
  5
327
330
1F
100
AcDbEntity
  8
図面枠
100
AcDbPolyline
 90
        4
 70
     1
 43
0.0
 10
1020.385679585908
 20
701.0467162484448
 10
24420.38567958591
 20
701.0467162484448
 10
24420.38567958591
 20
16001.04671624844
 10
1020.385679585908
 20
16001.04671624844
  0
MTEXT
  5
328
330
1F
100
AcDbEntity
  8
寸法
  6
Continuous
 62
     3
100
AcDbMText
 10
12720.38567958577
 20
15118.87143429591
 30
0.0
 40
300.0
 41
0.0
 71
     8
 72
     1
  1
防球ネット　ＫＳ－Ⅰ型　Ｈ＝５,０００
  7
MSP明朝
 73
     1
 44
1.0
1001
ACAD
1000
ACAD_MTEXT_DEFINED_HEIGHT_BEGIN
1070
    46
1040
0.0
1000
ACAD_MTEXT_DEFINED_HEIGHT_END
1000
MTEXTBEGIN
1070
    73
1070
     1
1070
    44
1040
1.0
1070
    74
1070
     0
1000
MTEXTEND
  0
LINE
  5
329
330
1F
100
AcDbEntity
  8
寸法
  6
Continuous
 62
     3
100
AcDbLine
 10
10124.32975962539
 20
15024.34165817463
 30
0.0
 11
15316.44159954754
 21
15024.34165817463
 31
0.0
  0
LINE
  5
32A
330
1F
100
AcDbEntity
  8
寸法
  6
Continuous
 62
     3
100
AcDbLine
 10
10124.32975962539
 20
15060.34165817323
 30
0.0
 11
15316.44159954754
 21
15060.34165817323
 31
0.0
  0
LEADER
  5
32B
330
1F
100
AcDbEntity
  8
寸法引出
  6
Continuous
100
AcDbLeader
  3
1_60
 71
     0
 73
     0
 75
     1
 40
180.0
 41
1764.0
 76
     3
 10
5540.385686073484
 20
13271.04673014327
 30
0.0
 10
4937.827473782034
 20
13692.67386418653
 30
0.0
 10
4901.827473782034
 20
13692.67386418653
 30
0.0
340
32C
1001
ACAD
1000
DSTYLE
1002
{
1002
}
  0
MTEXT
  5
32C
102
{ACAD_REACTORS
330
32B
102
}
330
1F
100
AcDbEntity
  8
寸法文字
  6
Continuous
100
AcDbMText
 10
4841.827473782037
 20
13752.67386418653
 30
0.0
 40
180.0
 41
0.0
 71
     9
 72
     1
  1
上部ネット下り防止付き
  7
1_100
 73
     1
 44
1.0
1001
ACAD
1000
MTEXTBEGIN
1070
    73
1070
     1
1070
    44
1040
1.0
1070
    74
1070
     0
1000
MTEXTEND
  0
LEADER
  5
32D
330
1F
100
AcDbEntity
  8
寸法引出
  6
Continuous
100
AcDbLeader
  3
1_60
 71
     0
 73
     0
 75
     1
 40
207.9999999999999
 41
1870.285714285715
 76
     3
 10
5540.385686073484
 20
10967.25983247903
 30
0.0
 10
4954.108267505453
 20
11350.45504139209
 30
0.0
 10
4918.108267505453
 20
11350.45504139209
 30
0.0
340
32E
1001
ACAD
1000
DSTYLE
1002
{
1002
}
  0
MTEXT
  5
32E
102
{ACAD_REACTORS
330
32D
102
}
330
1F
100
AcDbEntity
  8
寸法文字
  6
Continuous
100
AcDbMText
 10
4858.108267505453
 20
11410.45504139209
 30
0.0
 40
180.0
 41
0.0
 71
     9
 72
     1
  1
メッセンワイヤー22m㎡
  7
1_100
 73
     1
 44
1.0
1001
ACAD
1000
MTEXTBEGIN
1070
    73
1070
     1
1070
    44
1040
1.0
1070
    74
1070
     0
1000
MTEXTEND
  0
TEXT
  5
32F
330
1F
100
AcDbEntity
  8
寸法
  6
Continuous
100
AcDbText
 10
3564.175442310084
 20
8351.046730143274
 30
0.0
 40
180.0
  1
▽GL
 41
0.75
  7
1_100
 11
3564.175442310084
 21
8351.046730143274
 31
0.0
100
AcDbText
 73
     1
  0
LEADER
  5
330
330
1F
100
AcDbEntity
  8
寸法引出
  6
Continuous
100
AcDbLeader
  3
1_60
 71
     0
 73
     0
 75
     1
 40
180.0
 41
2819.571428571427
 76
     3
 10
5470.485686073578
 20
12315.74104704681
 30
0.0
 10
4932.793144811908
 20
12682.00171304479
 30
0.0
 10
4896.793144811908
 20
12682.00171304479
 30
0.0
340
331
1001
ACAD
1000
DSTYLE
1002
{
1002
}
  0
MTEXT
  5
331
102
{ACAD_REACTORS
330
330
102
}
330
1F
100
AcDbEntity
  8
寸法文字
  6
Continuous
100
AcDbMText
 10
4836.793144811909
 20
12742.00171304479
 30
0.0
 40
180.0
 41
0.0
 71
     9
 72
     1
  1
主柱KSポールφ139.8厚さ3.0mm
  7
1_100
 73
     1
 44
1.0
1001
ACAD
1000
ACAD_MTEXT_DEFINED_HEIGHT_BEGIN
1070
    46
1040
0.0
1000
ACAD_MTEXT_DEFINED_HEIGHT_END
1000
MTEXTBEGIN
1070
    73
1070
     1
1070
    44
1040
1.0
1070
    74
1070
     0
1000
MTEXTEND
  0
MTEXT
  5
332
330
1F
100
AcDbEntity
  8
寸法文字
  6
Continuous
100
AcDbMText
 10
4375.153441676903
 20
12620.99216055186
 30
0.0
 40
180.0
 41
0.0
 71
     3
 72
     1
  1
（STK-540鋼管）
  7
1_100
 73
     1
 44
1.0
1001
ACAD
1000
ACAD_MTEXT_DEFINED_HEIGHT_BEGIN
1070
    46
1040
0.0
1000
ACAD_MTEXT_DEFINED_HEIGHT_END
1000
MTEXTBEGIN
1070
    73
1070
     1
1070
    44
1040
1.0
1070
    74
1070
     0
1000
MTEXTEND
  0
LINE
  5
333
330
1F
100
AcDbEntity
  8
画層2
  6
Continuous
100
AcDbLine
 10
16391.06804447182
 20
8271.046730143217
 30
0.0
 11
3577.457357149139
 21
8271.046730143217
 31
0.0
  0
DIMENSION
  5
334
330
1F
100
AcDbEntity
  8
寸法
  6
Continuous
100
AcDbDimension
  2
*D2
 10
21251.06804447182
 20
10751.04673014327
 30
0.0
 11
21083.92518732896
 21
9511.046730143275
 31
0.0
 70
    32
 71
     5
 42
2480.000000000002
  3
1_60
100
AcDbAlignedDimension
 13
20471.06804447182
 23
8271.046730143273
 33
0.0
 14
20471.06804447182
 24
10751.04673014327
 34
0.0
 50
90.0
100
AcDbRotatedDimension
  0
DIMENSION
  5
335
330
1F
100
AcDbEntity
  8
寸法
  6
Continuous
100
AcDbDimension
  2
*D3
 10
17471.06804447182
 20
10751.04673014322
 30
0.0
 11
17303.92518732896
 21
9511.046730143249
 31
0.0
 70
    32
 71
     5
 42
2479.999999999944
  3
1_60
100
AcDbAlignedDimension
 13
16691.06804447182
 23
8271.046730143273
 33
0.0
 14
16691.06804447182
 24
10751.04673014322
 34
0.0
 50
90.0
100
AcDbRotatedDimension
  0
LEADER
  5
337
330
1F
100
AcDbEntity
  8
寸法引出
  6
Continuous
100
AcDbLeader
  3
1_60
 71
     0
 73
     0
 74
     0
 75
     1
 40
208.0
 41
1870.285714285715
 76
     3
 10
8039.493632040018
 20
10751.04673014368
 30
0.0
 10
8395.463268522396
 20
9363.656382023364
 30
0.0
 10
8431.463268522398
 20
9363.656382023364
 30
0.0
340
338
1001
ACAD
1000
DSTYLE
1002
{
1002
}
  0
MTEXT
  5
338
102
{ACAD_REACTORS
330
337
102
}
330
1F
100
AcDbEntity
  8
寸法文字
  6
Continuous
100
AcDbMText
 10
8491.4632685224
 20
9423.656382023365
 30
0.0
 40
180.0
 41
0.0
 71
     7
 72
     1
  1
メッセンワイヤー22m㎡
  7
1_100
 73
     1
 44
1.0
1001
ACAD
1000
MTEXTBEGIN
1070
    73
1070
     1
1070
    44
1040
1.0
1070
    74
1070
     0
1000
MTEXTEND
  0
LEADER
  5
339
330
1F
100
AcDbEntity
  8
寸法引出
  6
Continuous
100
AcDbLeader
  3
1_60
 71
     0
 73
     0
 74
     0
 75
     1
 40
180.0
 41
791.9999999999991
 76
     3
 10
13637.18578469896
 20
10726.04673014362
 30
0.0
 10
13824.85065011124
 20
10269.25514301776
 30
0.0
 10
13860.85065011124
 20
10269.25514301776
 30
0.0
340
33A
1001
ACAD
1000
DSTYLE
1002
{
1002
}
  0
MTEXT
  5
33A
102
{ACAD_REACTORS
330
339
102
}
330
1F
100
AcDbEntity
  8
寸法文字
  6
Continuous
100
AcDbMText
 10
13920.85065011124
 20
10329.25514301776
 30
0.0
 40
180.0
 41
0.0
 71
     7
 72
     1
  1
バンド金具
  7
1_100
 73
     1
 44
1.0
1001
ACAD
1000
MTEXTBEGIN
1070
    73
1070
     1
1070
    44
1040
1.0
1070
    74
1070
     0
1000
MTEXTEND
  0
LINE
  5
33B
330
1F
100
AcDbEntity
  8
寸法引出
  6
Continuous
100
AcDbLine
 10
10108.17235986456
 20
10383.41652842375
 30
0.0
 11
10937.73195260912
 21
11033.00190352581
 31
0.0
  0
LINE
  5
33C
330
1F
100
AcDbEntity
  8
画層1
  6
Continuous
100
AcDbLine
 10
5470.485686073578
 20
13271.04673014322
 30
0.0
 11
5470.485686073578
 21
7021.046730143216
 31
0.0
  0
LINE
  5
33E
102
{ACAD_REACTORS
330
351
102
}
330
1F
100
AcDbEntity
  8
画層1
  6
Continuous
100
AcDbLine
 10
5610.285686073392
 20
7021.046730143216
 30
0.0
 11
5610.285686073392
 21
13271.02318529665
 31
0.0
  0
LINE
  5
33F
102
{ACAD_REACTORS
330
351
102
}
330
1F
100
AcDbEntity
  8
DEFPOINTS
100
AcDbLine
 10
6973.596186474697
 20
13271.04673014322
 30
0.0
 11
8047.640909503478
 21
8271.046730143332
 31
0.0
  0
LINE
  5
340
330
1F
100
AcDbEntity
  8
画層1
  6
Continuous
100
AcDbLine
 10
13610.28568607339
 20
7021.046730143216
 30
0.0
 11
13610.28568607339
 21
13271.04673014322
 31
0.0
  0
LINE
  5
341
330
1F
100
AcDbEntity
  8
通り芯
  6
DASHDOT
 48
60.0
100
AcDbLine
 10
13540.38568607348
 20
6778.579258349807
 30
0.0
 11
13540.38568607348
 21
13351.50938984579
 31
0.0
  0
LINE
  5
343
330
1F
100
AcDbEntity
  8
画層1-1
  6
Continuous
100
AcDbLine
 10
13445.48568607358
 20
13181.04673014321
 30
0.0
 11
5635.285686073394
 21
8296.046730143215
 31
0.0
  0
LINE
  5
344
330
1F
100
AcDbEntity
  8
通り芯
  6
DASHDOT
 48
60.0
100
AcDbLine
 10
5540.385686073484
 20
6778.579258349807
 30
0.0
 11
5540.385686073484
 21
13351.50938984579
 31
0.0
  0
LINE
  5
345
330
1F
100
AcDbEntity
  8
画層1
  6
Continuous
100
AcDbLine
 10
5540.385686073484
 20
13256.04673014322
 30
0.0
 11
5540.385686073484
 21
8296.046730143215
 31
0.0
  0
LINE
  5
346
330
1F
100
AcDbEntity
  8
画層1
  6
Continuous
100
AcDbLine
 10
13470.48568607358
 20
13271.04673014322
 30
0.0
 11
13470.48568607358
 21
7021.046730143216
 31
0.0
  0
LINE
  5
347
102
{ACAD_REACTORS
330
1613
102
}
330
1F
100
AcDbEntity
  8
DEFPOINTS
100
AcDbLine
 10
14455.57754941387
 20
13231.04673014322
 30
0.0
 11
15521.02991465837
 21
8271.046730143332
 31
0.0
  0
LINE
  5
348
102
{ACAD_REACTORS
330
1613
102
}
330
1F
100
AcDbEntity
  8
DEFPOINTS
100
AcDbLine
 10
16391.06804447182
 20
13231.04673014322
 30
0.0
 11
16391.06804447182
 21
8271.046730143217
 31
0.0
  0
DIMENSION
  5
349
330
1F
100
AcDbEntity
  8
寸法
  6
Continuous
100
AcDbDimension
  2
*D4
 10
21851.06804447182
 20
8271.046730143273
 30
0.0
 11
21683.92518732896
 21
10771.04673014328
 31
0.0
 70
    32
 71
     5
 42
5000.000000000002
  3
1_60
100
AcDbAlignedDimension
 13
20471.06804447182
 23
13271.04673014327
 33
0.0
 14
20471.06804447182
 24
8271.046730143273
 34
0.0
 50
90.0
100
AcDbRotatedDimension
  0
LINE
  5
34A
330
1F
100
AcDbEntity
  8
画層1
  6
Continuous
100
AcDbLine
 10
19640.96804447196
 20
7021.046730143682
 30
0.0
 11
19640.96804447196
 21
13271.04673014368
 31
0.0
  0
LINE
  5
34B
330
1F
100
AcDbEntity
  8
画層1
  6
Continuous
100
AcDbLine
 10
19571.06804447182
 20
13271.04673014368
 30
0.0
 11
19571.06804447182
 21
8296.046730143274
 31
0.0
  0
LINE
  5
34C
330
1F
100
AcDbEntity
  8
画層1
  6
Continuous
100
AcDbLine
 10
19501.16804447168
 20
13271.04673014368
 30
0.0
 11
19501.16804447168
 21
7021.046730143682
 31
0.0
  0
LINE
  5
34D
330
1F
100
AcDbEntity
  8
画層1-1
  6
DASHED
 48
60.0
100
AcDbLine
 10
19476.16804447168
 20
13231.04673014368
 30
0.0
 11
19476.16804447168
 21
8296.046730143274
 31
0.0
  0
LINE
  5
34E
330
1F
100
AcDbEntity
  8
通り芯
  6
DASHDOT
 48
60.0
100
AcDbLine
 10
19571.06804447182
 20
6778.579258350271
 30
0.0
 11
19571.06804447182
 21
13351.50938984626
 31
0.0
  0
DIMENSION
  5
34F
330
1F
100
AcDbEntity
  8
寸法
  6
Continuous
100
AcDbDimension
  2
*D5
 10
18071.06804447182
 20
8271.046730143273
 30
0.0
 11
17903.92518732896
 21
10771.04673014328
 31
0.0
 70
    32
 71
     5
 42
5000.000000000002
  3
1_60
100
AcDbAlignedDimension
 13
16691.06804447182
 23
13271.04673014327
 33
0.0
 14
16691.06804447182
 24
8271.046730143273
 34
0.0
 50
90.0
100
AcDbRotatedDimension
  0
HATCH
  5
351
330
1F
100
AcDbEntity
  8
ﾈｯﾄ
 62
   230
370
    13
100
AcDbHatch
 10
0.0
 20
0.0
 30
0.0
210
0.0
220
0.0
230
1.0
  2
NET
 70
     0
 71
     1
 91
        1
 92
        7
 72
     0
 73
     1
 93
       21
 10
6982.188544258926
 20
13231.04673014322
 10
5905.285686073391
 20
13231.04673014322
 10
5905.285686073391
 20
13210.82300948191
 10
5725.285686073394
 20
13210.82300948191
 10
5725.285686073394
 20
13231.04673014322
 10
5660.285686073394
 20
13231.04673014321
 10
5660.285686073393
 20
13206.04673014322
 10
5660.285686073394
 20
13156.04673014322
 10
5610.285686073393
 20
13156.04673014322
 10
5610.285686073392
 20
10776.04673014362
 10
5660.285686073393
 20
10776.04673014362
 10
5660.285686073393
 20
10726.04673014362
 10
5610.285686073393
 20
10726.04673014362
 10
5610.285686073392
 20
8321.046730143216
 10
5660.285686073393
 20
8321.046730143216
 10
5660.285686073393
 20
8296.046730143215
 10
5710.285686073394
 20
8296.046730143215
 10
5710.285686073394
 20
8316.047724457247
 10
5890.285686073394
 20
8316.047724457249
 10
5890.285686073394
 20
8296.046730143215
 10
8042.270685888359
 20
8296.046730143215
 97
       13
330
438
330
435
330
431
330
462
330
450
330
33E
330
451
330
455
330
452
330
3F1
330
3FB
330
3C9
330
33F
 75
     0
 76
     1
 52
0.0
 41
25.0
 77
     0
 78
     2
 53
0.0
 43
0.0
 44
0.0
 45
0.0
 46
79.375
 79
     0
 53
90.0
 43
0.0
 44
0.0
 45
-79.375
 46
0.0000000000000049
 79
     0
 47
20.14309947669346
 98
        1
 10
6755.64126853974
 20
10266.33444730573
  0
LINE
  5
352
330
1F
100
AcDbEntity
  8
画層2
  6
Continuous
100
AcDbLine
 10
18661.97728030852
 20
8271.046730143273
 30
0.0
 11
20480.15880863511
 21
8271.046730143273
 31
0.0
  0
LINE
  5
353
330
1F
100
AcDbEntity
  8
ﾊｯﾁﾝｸﾞ
  6
Continuous
100
AcDbLine
 10
20035.31566367395
 20
8271.046730143332
 30
0.0
 11
19915.31566367325
 21
8151.046730143217
 31
0.0
  0
LINE
  5
354
330
1F
100
AcDbEntity
  8
ﾊｯﾁﾝｸﾞ
  6
Continuous
100
AcDbLine
 10
19956.11970418089
 20
8271.046730143332
 30
0.0
 11
19836.11970417996
 21
8151.046730143217
 31
0.0
  0
TEXT
  5
357
330
1F
100
AcDbEntity
  8
寸法
  6
Continuous
100
AcDbText
 10
18730.84562083989
 20
8351.046730143274
 30
0.0
 40
180.0
  1
▽GL
 41
0.75
  7
1_100
 11
18730.84562083989
 21
8351.046730143274
 31
0.0
100
AcDbText
 73
     1
  0
LINE
  5
358
330
1F
100
AcDbEntity
  8
画層1
  6
Continuous
 62
     7
100
AcDbLine
 10
19571.06804447182
 20
8471.271445120301
 30
0.0
 11
19571.06804447182
 21
8271.046730143273
 31
0.0
  0
LWPOLYLINE
  5
359
330
1F
100
AcDbEntity
  8
画層1-1
100
AcDbPolyline
 90
        4
 70
     1
 43
0.0
 10
13378.99668835324
 20
8361.22366799624
 10
13226.38830897694
 20
8456.673563460563
 10
13205.17722109577
 20
8422.760590265841
 10
13357.78560047206
 20
8327.31069480152
  0
CIRCLE
  5
35B
330
1F
100
AcDbEntity
  8
画層1
  6
Continuous
100
AcDbCircle
 10
13635.28568607339
 20
8296.046730143215
 30
0.0
 40
10.9509940156
  0
LINE
  5
35C
330
1F
100
AcDbEntity
  8
画層1
  6
Continuous
100
AcDbLine
 10
13565.38568607348
 20
8271.046730143217
 30
0.0
 11
13565.38568607348
 21
8321.046730143216
 31
0.0
  0
LINE
  5
35D
330
1F
100
AcDbEntity
  8
画層1
  6
Continuous
100
AcDbLine
 10
13515.38568607348
 20
8321.046730143216
 30
0.0
 11
13515.38568607348
 21
8271.046730143217
 31
0.0
  0
CIRCLE
  5
35E
330
1F
100
AcDbEntity
  8
画層1
  6
Continuous
100
AcDbCircle
 10
13445.48568607358
 20
8296.046730143215
 30
0.0
 40
10.9509940156
  0
LINE
  5
35F
330
1F
100
AcDbEntity
  8
画層2-1
  6
Continuous
100
AcDbLine
 10
13470.48568607358
 20
8121.046730143216
 30
0.0
 11
13610.28568607339
 21
8121.046730143216
 31
0.0
  0
LINE
  5
360
330
1F
100
AcDbEntity
  8
画層2-1
  6
Continuous
100
AcDbLine
 10
13470.48568607358
 20
8371.046730143216
 30
0.0
 11
13610.28568607339
 21
8371.046730143216
 31
0.0
  0
LINE
  5
361
330
1F
100
AcDbEntity
  8
画層1
  6
Continuous
100
AcDbLine
 10
19553.91804447168
 20
8321.046730143274
 30
0.0
 11
19501.16804447168
 21
8321.046730143274
 31
0.0
  0
LINE
  5
362
330
1F
100
AcDbEntity
  8
画層1
  6
Continuous
100
AcDbLine
 10
19553.91804447168
 20
8271.046730143273
 30
0.0
 11
19501.16804447168
 21
8271.046730143273
 31
0.0
  0
CIRCLE
  5
363
330
1F
100
AcDbEntity
  8
画層1
  6
Continuous
100
AcDbCircle
 10
19571.06804447182
 20
8296.046730143274
 30
0.0
 40
10.9509940156
  0
LINE
  5
364
330
1F
100
AcDbEntity
  8
画層1
  6
Continuous
100
AcDbLine
 10
19553.91804447168
 20
8321.046730143274
 30
0.0
 11
19553.91804447168
 21
8271.046730143273
 31
0.0
  0
LINE
  5
365
330
1F
100
AcDbEntity
  8
画層1
  6
Continuous
100
AcDbLine
 10
19588.21804447196
 20
8321.046730143274
 30
0.0
 11
19588.21804447196
 21
8271.046730143273
 31
0.0
  0
LINE
  5
366
330
1F
100
AcDbEntity
  8
画層1
  6
Continuous
100
AcDbLine
 10
19588.21804447196
 20
8271.046730143273
 30
0.0
 11
19640.96804447196
 21
8271.046730143273
 31
0.0
  0
LINE
  5
367
330
1F
100
AcDbEntity
  8
画層1
  6
Continuous
100
AcDbLine
 10
19588.21804447196
 20
8321.046730143274
 30
0.0
 11
19640.96804447196
 21
8321.046730143274
 31
0.0
  0
LINE
  5
368
330
1F
100
AcDbEntity
  8
画層2-1
  6
Continuous
100
AcDbLine
 10
19501.16804447168
 20
8121.046730143682
 30
0.0
 11
19640.96804447196
 21
8121.046730143682
 31
0.0
  0
LINE
  5
369
330
1F
100
AcDbEntity
  8
画層1
  6
Continuous
100
AcDbLine
 10
19451.16804447168
 20
8321.046730143274
 30
0.0
 11
19451.16804447168
 21
8271.046730143273
 31
0.0
  0
LINE
  5
36A
330
1F
100
AcDbEntity
  8
画層1
  6
Continuous
100
AcDbLine
 10
19451.16804447168
 20
8296.046730143274
 30
0.0
 11
19501.16804447168
 21
8296.046730143274
 31
0.0
  0
DIMENSION
  5
36B
330
1F
100
AcDbEntity
  8
寸法
  6
Continuous
100
AcDbDimension
  2
*D6
 10
17471.06804447182
 20
8271.046730143273
 30
0.0
 11
17615.79167238929
 21
8042.810470750755
 31
0.0
 70
   160
 71
     5
 42
200.0
  3
1_60
100
AcDbAlignedDimension
 13
16691.06804447182
 23
8071.046730143274
 33
0.0
 14
16691.06804447182
 24
8271.046730143273
 34
0.0
 50
90.0
100
AcDbRotatedDimension
  0
DIMENSION
  5
36C
330
1F
100
AcDbEntity
  8
寸法
  6
Continuous
100
AcDbDimension
  2
*D7
 10
17471.06804447182
 20
7021.046730143274
 30
0.0
 11
17324.52841331696
 21
6699.628277567703
 31
0.0
 70
   160
 71
     5
 42
100.0
  3
1_60
100
AcDbAlignedDimension
 13
16691.06804447182
 23
6921.046730143274
 33
0.0
 14
16691.06804447182
 24
7021.046730143274
 34
0.0
 50
90.0
100
AcDbRotatedDimension
  0
DIMENSION
  5
36D
330
1F
100
AcDbEntity
  8
寸法
  6
Continuous
100
AcDbDimension
  2
*D8
 10
17471.06804447182
 20
8071.046730143274
 30
0.0
 11
17303.92518732896
 21
7546.046730143277
 31
0.0
 70
    32
 71
     5
 42
1050.0
  3
1_60
100
AcDbAlignedDimension
 13
16691.06804447182
 23
7021.046730143274
 33
0.0
 14
16691.06804447182
 24
8071.046730143274
 34
0.0
 50
90.0
100
AcDbRotatedDimension
  0
DIMENSION
  5
36E
330
1F
100
AcDbEntity
  8
寸法
  6
Continuous
100
AcDbDimension
  2
*D9
 10
18071.06804447182
 20
7021.046730143274
 30
0.0
 11
17903.92518732896
 21
7646.046730143277
 31
0.0
 70
    32
 71
     5
 42
1250.0
  3
1_60
100
AcDbAlignedDimension
 13
16691.06804447182
 23
8271.046730143273
 33
0.0
 14
16691.06804447182
 24
7021.046730143274
 34
0.0
 50
90.0
100
AcDbRotatedDimension
  0
LINE
  5
36F
330
1F
100
AcDbEntity
  8
画層2-1
  6
Continuous
100
AcDbLine
 10
19501.16804447168
 20
8371.046730143682
 30
0.0
 11
19640.96804447196
 21
8371.046730143682
 31
0.0
  0
DIMENSION
  5
370
330
1F
100
AcDbEntity
  8
寸法
  6
Continuous
100
AcDbDimension
  2
*D10
 10
19821.06804447182
 20
6201.046730143275
 30
0.0
 11
19571.06804447182
 21
6051.046730143275
 31
0.0
 70
    32
  1
□<>
 71
     5
 42
500.0
  3
1_60
100
AcDbAlignedDimension
 13
19321.06804447182
 23
6921.046730143274
 33
0.0
 14
19821.06804447182
 24
6921.046730143157
 34
0.0
100
AcDbRotatedDimension
1001
ACAD
1000
DSTYLE
1002
{
1070
    77
1070
     2
1070
   174
1070
     1
1002
}
  0
DIMENSION
  5
371
330
1F
100
AcDbEntity
  8
寸法
  6
Continuous
100
AcDbDimension
  2
*D11
 10
19796.06804447182
 20
6501.046730143274
 30
0.0
 11
18958.89294858047
 21
6561.046730143273
 31
0.0
 70
   160
  1
φ<>
 71
     5
 42
450.0
  3
1_60
100
AcDbAlignedDimension
 13
19346.06804447182
 23
6921.046730143274
 33
0.0
 14
19796.06804447182
 24
6921.046730143274
 34
0.0
100
AcDbRotatedDimension
  0
TEXT
  5
372
330
1F
100
AcDbEntity
  8
寸法
  6
Continuous
100
AcDbText
 10
14801.42613614342
 20
5316.731088464067
 30
0.0
 40
180.0
  1
8,000
 41
0.75
  7
1_60
 11
14801.42613614342
 21
5316.731088464067
 31
0.0
100
AcDbText
 73
     1
  0
LWPOLYLINE
  5
373
330
1F
100
AcDbEntity
  8
画層1
100
AcDbPolyline
 90
        4
 70
     1
 43
0.0
 10
19551.06804447182
 20
8651.271445118499
 10
19591.06804447182
 20
8651.271445118499
 10
19591.06804447182
 20
8471.271445118496
 10
19551.06804447182
 20
8471.271445118496
  0
LINE
  5
374
330
1F
100
AcDbEntity
  8
ﾊｯﾁﾝｸﾞ
  6
Continuous
100
AcDbLine
 10
14229.74688172064
 20
8258.57242810915
 30
0.0
 11
14283.50973070369
 21
8204.809579126211
 31
0.0
  0
LINE
  5
375
330
1F
100
AcDbEntity
  8
ﾊｯﾁﾝｸﾞ
  6
Continuous
100
AcDbLine
 10
14242.221183755
 20
8271.046730143273
 30
0.0
 11
14122.22118375407
 21
8151.046730143274
 31
0.0
  0
LINE
  5
376
330
1F
100
AcDbEntity
  8
ﾊｯﾁﾝｸﾞ
  6
Continuous
100
AcDbLine
 10
14163.02522426195
 20
8271.046730143273
 30
0.0
 11
14071.3549627343
 21
8179.37646861627
 31
0.0
  0
LINE
  5
377
330
1F
100
AcDbEntity
  8
ﾊｯﾁﾝｸﾞ
  6
Continuous
100
AcDbLine
 10
14083.82926476866
 20
8271.046730143391
 30
0.0
 11
14031.75698298778
 21
8218.974448362738
 31
0.0
  0
LINE
  5
378
330
1F
100
AcDbEntity
  8
ﾊｯﾁﾝｸﾞ
  6
Continuous
100
AcDbLine
 10
14190.14890197412
 20
8218.974448362738
 30
0.0
 11
14258.07662019369
 21
8151.046730143274
 31
0.0
  0
LINE
  5
379
330
1F
100
AcDbEntity
  8
ﾊｯﾁﾝｸﾞ
  6
Continuous
100
AcDbLine
 10
14150.55092222759
 20
8179.37646861627
 30
0.0
 11
14178.88066070041
 21
8151.046730143217
 31
0.0
  0
LINE
  5
37A
330
1F
100
AcDbEntity
  8
ﾊｯﾁﾝｸﾞ
  6
Continuous
100
AcDbLine
 10
13992.15900324148
 20
8258.57242810915
 30
0.0
 11
14099.68470120712
 21
8151.046730143274
 31
0.0
  0
LINE
  5
37B
330
1F
100
AcDbEntity
  8
ﾊｯﾁﾝｸﾞ
  6
Continuous
100
AcDbLine
 10
13952.56102349496
 20
8218.974448362738
 30
0.0
 11
14020.4887417143
 21
8151.046730143274
 31
0.0
  0
LINE
  5
37C
330
1F
100
AcDbEntity
  8
ﾊｯﾁﾝｸﾞ
  6
Continuous
100
AcDbLine
 10
13912.96304374843
 20
8179.37646861627
 30
0.0
 11
13941.29278222102
 21
8151.046730143217
 31
0.0
  0
LINE
  5
37D
330
1F
100
AcDbEntity
  8
ﾊｯﾁﾝｸﾞ
  6
Continuous
100
AcDbLine
 10
14004.63330527561
 20
8271.046730143332
 30
0.0
 11
13884.63330527491
 21
8151.046730143217
 31
0.0
  0
LINE
  5
37E
330
1F
100
AcDbEntity
  8
ﾊｯﾁﾝｸﾞ
  6
Continuous
100
AcDbLine
 10
13925.43734578256
 20
8271.046730143332
 30
0.0
 11
13805.43734578186
 21
8151.046730143217
 31
0.0
  0
LINE
  5
37F
330
1F
100
AcDbEntity
  8
ﾊｯﾁﾝｸﾞ
  6
Continuous
100
AcDbLine
 10
13846.24138628927
 20
8271.046730143217
 30
0.0
 11
13790.38568607348
 21
8215.191029927659
 31
0.0
  0
LINE
  5
380
330
1F
100
AcDbEntity
  8
ﾊｯﾁﾝｸﾞ
  6
Continuous
100
AcDbLine
 10
13234.52998585769
 20
8271.046730143217
 30
0.0
 11
13290.38568607348
 21
8215.191029927659
 31
0.0
  0
LINE
  5
381
330
1F
100
AcDbEntity
  8
ﾊｯﾁﾝｸﾞ
  6
Continuous
100
AcDbLine
 10
13155.33402636441
 20
8271.046730143332
 30
0.0
 11
13275.33402636511
 21
8151.046730143217
 31
0.0
  0
LINE
  5
382
330
1F
100
AcDbEntity
  8
ﾊｯﾁﾝｸﾞ
  6
Continuous
100
AcDbLine
 10
13076.13806687136
 20
8271.046730143332
 30
0.0
 11
13196.13806687205
 21
8151.046730143217
 31
0.0
  0
LINE
  5
383
330
1F
100
AcDbEntity
  8
ﾊｯﾁﾝｸﾞ
  6
Continuous
100
AcDbLine
 10
13167.80832839853
 20
8179.37646861627
 30
0.0
 11
13139.47858992595
 21
8151.046730143217
 31
0.0
  0
LINE
  5
384
330
1F
100
AcDbEntity
  8
ﾊｯﾁﾝｸﾞ
  6
Continuous
100
AcDbLine
 10
13128.21034865201
 20
8218.974448362738
 30
0.0
 11
13060.28263043266
 21
8151.046730143274
 31
0.0
  0
LINE
  5
385
330
1F
100
AcDbEntity
  8
ﾊｯﾁﾝｸﾞ
  6
Continuous
100
AcDbLine
 10
13088.61236890548
 20
8258.57242810915
 30
0.0
 11
12981.08667093984
 21
8151.046730143274
 31
0.0
  0
LINE
  5
386
330
1F
100
AcDbEntity
  8
ﾊｯﾁﾝｸﾞ
  6
Continuous
100
AcDbLine
 10
12930.22044991938
 20
8179.37646861627
 30
0.0
 11
12901.89071144656
 21
8151.046730143217
 31
0.0
  0
LINE
  5
387
330
1F
100
AcDbEntity
  8
ﾊｯﾁﾝｸﾞ
  6
Continuous
100
AcDbLine
 10
12890.62247017285
 20
8218.974448362738
 30
0.0
 11
12822.69475195327
 21
8151.046730143274
 31
0.0
  0
LINE
  5
388
330
1F
100
AcDbEntity
  8
ﾊｯﾁﾝｸﾞ
  6
Continuous
100
AcDbLine
 10
12996.9421073783
 20
8271.046730143391
 30
0.0
 11
13049.01438915919
 21
8218.974448362738
 31
0.0
  0
LINE
  5
389
330
1F
100
AcDbEntity
  8
ﾊｯﾁﾝｸﾞ
  6
Continuous
100
AcDbLine
 10
12917.74614788502
 20
8271.046730143273
 30
0.0
 11
13009.41640941266
 21
8179.376468616212
 31
0.0
  0
LINE
  5
38A
330
1F
100
AcDbEntity
  8
ﾊｯﾁﾝｸﾞ
  6
Continuous
100
AcDbLine
 10
12838.55018839197
 20
8271.046730143273
 30
0.0
 11
12958.5501883929
 21
8151.046730143274
 31
0.0
  0
LINE
  5
38B
330
1F
100
AcDbEntity
  8
ﾊｯﾁﾝｸﾞ
  6
Continuous
100
AcDbLine
 10
12851.02449042633
 20
8258.57242810915
 30
0.0
 11
12797.26164144327
 21
8204.809579126211
 31
0.0
  0
LINE
  5
38C
330
1F
100
AcDbEntity
  8
ﾊｯﾁﾝｸﾞ
  6
Continuous
100
AcDbLine
 10
19265.2123442558
 20
8271.046730143217
 30
0.0
 11
19321.06804447182
 21
8215.191029927659
 31
0.0
  0
LINE
  5
38D
330
1F
100
AcDbEntity
  8
ﾊｯﾁﾝｸﾞ
  6
Continuous
100
AcDbLine
 10
19186.01638476274
 20
8271.046730143332
 30
0.0
 11
19306.01638476368
 21
8151.046730143217
 31
0.0
  0
LINE
  5
38E
330
1F
100
AcDbEntity
  8
ﾊｯﾁﾝｸﾞ
  6
Continuous
100
AcDbLine
 10
19106.82042526969
 20
8271.046730143332
 30
0.0
 11
19226.82042527039
 21
8151.046730143217
 31
0.0
  0
LINE
  5
38F
330
1F
100
AcDbEntity
  8
ﾊｯﾁﾝｸﾞ
  6
Continuous
100
AcDbLine
 10
19198.49068679686
 20
8179.37646861627
 30
0.0
 11
19170.16094832405
 21
8151.046730143217
 31
0.0
  0
LINE
  5
390
330
1F
100
AcDbEntity
  8
ﾊｯﾁﾝｸﾞ
  6
Continuous
100
AcDbLine
 10
19158.89270705034
 20
8218.974448362738
 30
0.0
 11
19090.964988831
 21
8151.046730143274
 31
0.0
  0
LINE
  5
391
330
1F
100
AcDbEntity
  8
ﾊｯﾁﾝｸﾞ
  6
Continuous
100
AcDbLine
 10
19119.29472730405
 20
8258.57242810915
 30
0.0
 11
19011.76902933794
 21
8151.046730143274
 31
0.0
  0
LINE
  5
392
330
1F
100
AcDbEntity
  8
ﾊｯﾁﾝｸﾞ
  6
Continuous
100
AcDbLine
 10
18960.90280831748
 20
8179.37646861627
 30
0.0
 11
18932.57306984489
 21
8151.046730143217
 31
0.0
  0
LINE
  5
393
330
1F
100
AcDbEntity
  8
ﾊｯﾁﾝｸﾞ
  6
Continuous
100
AcDbLine
 10
18921.30482857119
 20
8218.974448362738
 30
0.0
 11
18853.37711035184
 21
8151.046730143274
 31
0.0
  0
LINE
  5
394
330
1F
100
AcDbEntity
  8
ﾊｯﾁﾝｸﾞ
  6
Continuous
100
AcDbLine
 10
19027.62446577664
 20
8271.046730143391
 30
0.0
 11
19079.69674755752
 21
8218.974448362738
 31
0.0
  0
LINE
  5
395
330
1F
100
AcDbEntity
  8
ﾊｯﾁﾝｸﾞ
  6
Continuous
100
AcDbLine
 10
18948.42850628359
 20
8271.046730143273
 30
0.0
 11
19040.098767811
 21
8179.376468616212
 31
0.0
  0
LINE
  5
396
330
1F
100
AcDbEntity
  8
ﾊｯﾁﾝｸﾞ
  6
Continuous
100
AcDbLine
 10
18869.23254679054
 20
8271.046730143273
 30
0.0
 11
18989.23254679147
 21
8151.046730143274
 31
0.0
  0
LINE
  5
397
330
1F
100
AcDbEntity
  8
ﾊｯﾁﾝｸﾞ
  6
Continuous
100
AcDbLine
 10
18881.70684882466
 20
8258.57242810915
 30
0.0
 11
18827.94399984184
 21
8204.809579126211
 31
0.0
  0
LINE
  5
398
330
1F
100
AcDbEntity
  8
ﾊｯﾁﾝｸﾞ
  6
Continuous
100
AcDbLine
 10
19876.92374468784
 20
8271.046730143217
 30
0.0
 11
19821.06804447182
 21
8215.191029927659
 31
0.0
  0
LWPOLYLINE
  5
399
330
1F
100
AcDbEntity
  8
画層1
  6
Continuous
100
AcDbPolyline
 90
        4
 70
     1
 43
0.0
 10
13420.48568607357
 20
8321.046730143216
 10
13660.28568607339
 20
8321.046730143216
 10
13660.28568607339
 20
8271.046730143217
 10
13420.48568607357
 20
8271.046730143217
  0
LINE
  5
39A
330
1F
100
AcDbEntity
  8
ﾊｯﾁﾝｸﾞ
  6
Continuous
100
AcDbLine
 10
13358.93464782977
 20
7021.046730143274
 30
0.0
 11
13375.0417811368
 21
6999.203654514882
 31
0.0
  0
LINE
  5
39B
330
1F
100
AcDbEntity
  8
ﾊｯﾁﾝｸﾞ
  6
Continuous
100
AcDbLine
 10
13342.75614367149
 20
6943.283290069982
 30
0.0
 11
13355.59442753092
 21
6921.046730143274
 31
0.0
  0
LINE
  5
39C
330
1F
100
AcDbEntity
  8
ﾊｯﾁﾝｸﾞ
  6
Continuous
100
AcDbLine
 10
13329.91785981183
 20
6921.046730143274
 30
0.0
 11
13387.65288673088
 21
7021.046730143274
 31
0.0
  0
LINE
  5
39D
330
1F
100
AcDbEntity
  8
ﾊｯﾁﾝｸﾞ
  6
Continuous
100
AcDbLine
 10
13725.3448093436
 20
7021.046730143274
 30
0.0
 11
13741.45194265063
 21
6999.203654514882
 31
0.0
  0
LINE
  5
39E
330
1F
100
AcDbEntity
  8
ﾊｯﾁﾝｸﾞ
  6
Continuous
100
AcDbLine
 10
13709.16630518533
 20
6943.283290069982
 30
0.0
 11
13722.00458904475
 21
6921.046730143274
 31
0.0
  0
LINE
  5
39F
330
1F
100
AcDbEntity
  8
ﾊｯﾁﾝｸﾞ
  6
Continuous
100
AcDbLine
 10
13696.32802132567
 20
6921.046730143274
 30
0.0
 11
13754.06304824472
 21
7021.046730143274
 31
0.0
  0
LINE
  5
3A0
330
1F
100
AcDbEntity
  8
画層2
  6
Continuous
100
AcDbLine
 10
13765.38568607348
 20
7021.046730143274
 30
0.0
 11
13315.38568607348
 21
7021.046730143274
 31
0.0
  0
LINE
  5
3A1
330
1F
100
AcDbEntity
  8
ﾊｯﾁﾝｸﾞ
  6
Continuous
100
AcDbLine
 10
13421.52040019029
 20
6921.046730143274
 30
0.0
 11
13479.25542710934
 21
7021.046730143274
 31
0.0
  0
LINE
  5
3A2
330
1F
100
AcDbEntity
  8
ﾊｯﾁﾝｸﾞ
  6
Continuous
100
AcDbLine
 10
13434.35868404995
 20
6943.283290069982
 30
0.0
 11
13447.19696790938
 21
6921.046730143274
 31
0.0
  0
LINE
  5
3A3
330
1F
100
AcDbEntity
  8
ﾊｯﾁﾝｸﾞ
  6
Continuous
100
AcDbLine
 10
13450.53718820823
 20
7021.046730143274
 30
0.0
 11
13466.64432151525
 21
6999.203654514882
 31
0.0
  0
LINE
  5
3A4
330
1F
100
AcDbEntity
  8
ﾊｯﾁﾝｸﾞ
  6
Continuous
100
AcDbLine
 10
13604.72548094721
 20
6921.046730143274
 30
0.0
 11
13662.46050786626
 21
7021.046730143274
 31
0.0
  0
LINE
  5
3A5
330
1F
100
AcDbEntity
  8
ﾊｯﾁﾝｸﾞ
  6
Continuous
100
AcDbLine
 10
13513.12294056875
 20
6921.046730143274
 30
0.0
 11
13570.8579674878
 21
7021.046730143274
 31
0.0
  0
LINE
  5
3A6
330
1F
100
AcDbEntity
  8
ﾊｯﾁﾝｸﾞ
  6
Continuous
100
AcDbLine
 10
13617.56376480687
 20
6943.283290069982
 30
0.0
 11
13630.40204866629
 21
6921.046730143274
 31
0.0
  0
LINE
  5
3A7
330
1F
100
AcDbEntity
  8
ﾊｯﾁﾝｸﾞ
  6
Continuous
100
AcDbLine
 10
13525.96122442841
 20
6943.283290069982
 30
0.0
 11
13538.79950828807
 21
6921.046730143274
 31
0.0
  0
LINE
  5
3A8
330
1F
100
AcDbEntity
  8
ﾊｯﾁﾝｸﾞ
  6
Continuous
100
AcDbLine
 10
13542.13972858669
 20
7021.046730143274
 30
0.0
 11
13558.24686189371
 21
6999.203654514882
 31
0.0
  0
LINE
  5
3A9
330
1F
100
AcDbEntity
  8
ﾊｯﾁﾝｸﾞ
  6
Continuous
100
AcDbLine
 10
13633.74226896514
 20
7021.046730143274
 30
0.0
 11
13649.84940227217
 21
6999.203654514882
 31
0.0
  0
LWPOLYLINE
  5
3AA
330
1F
100
AcDbEntity
  8
画層2
100
AcDbPolyline
 90
        8
 70
     0
 43
0.0
 10
13290.38568607348
 20
8271.046730143273
 10
13290.38568607348
 20
8071.046730143274
 10
13315.38568607348
 20
8071.046730143274
 10
13315.38568607348
 20
6921.046730143274
 10
13765.38568607348
 20
6921.046730143274
 10
13765.38568607348
 20
8071.046730143274
 10
13790.38568607348
 20
8071.046730143274
 10
13790.38568607348
 20
8271.046730143332
  0
LINE
  5
3AB
330
1F
100
AcDbEntity
  8
ﾊｯﾁﾝｸﾞ
  6
Continuous
100
AcDbLine
 10
19664.42462736348
 20
7021.046730143274
 30
0.0
 11
19680.53176067074
 21
6999.203654514882
 31
0.0
  0
LINE
  5
3AC
330
1F
100
AcDbEntity
  8
ﾊｯﾁﾝｸﾞ
  6
Continuous
100
AcDbLine
 10
19572.82208698479
 20
7021.046730143274
 30
0.0
 11
19588.92922029228
 21
6999.203654514882
 31
0.0
  0
LINE
  5
3AD
330
1F
100
AcDbEntity
  8
ﾊｯﾁﾝｸﾞ
  6
Continuous
100
AcDbLine
 10
19556.64358282651
 20
6943.283290069982
 30
0.0
 11
19569.48186668617
 21
6921.046730143274
 31
0.0
  0
LINE
  5
3AE
330
1F
100
AcDbEntity
  8
ﾊｯﾁﾝｸﾞ
  6
Continuous
100
AcDbLine
 10
19648.24612320497
 20
6943.283290069982
 30
0.0
 11
19661.08440706463
 21
6921.046730143274
 31
0.0
  0
LINE
  5
3AF
330
1F
100
AcDbEntity
  8
ﾊｯﾁﾝｸﾞ
  6
Continuous
100
AcDbLine
 10
19543.80529896709
 20
6921.046730143274
 30
0.0
 11
19601.54032588613
 21
7021.046730143274
 31
0.0
  0
LINE
  5
3B0
330
1F
100
AcDbEntity
  8
ﾊｯﾁﾝｸﾞ
  6
Continuous
100
AcDbLine
 10
19635.40783934578
 20
6921.046730143274
 30
0.0
 11
19693.14286626459
 21
7021.046730143274
 31
0.0
  0
LINE
  5
3B1
330
1F
100
AcDbEntity
  8
ﾊｯﾁﾝｸﾞ
  6
Continuous
100
AcDbLine
 10
19481.21954660656
 20
7021.046730143274
 30
0.0
 11
19497.32667991382
 21
6999.203654514882
 31
0.0
  0
LINE
  5
3B2
330
1F
100
AcDbEntity
  8
ﾊｯﾁﾝｸﾞ
  6
Continuous
100
AcDbLine
 10
19465.04104244828
 20
6943.283290069982
 30
0.0
 11
19477.87932630771
 21
6921.046730143274
 31
0.0
  0
LINE
  5
3B3
330
1F
100
AcDbEntity
  8
ﾊｯﾁﾝｸﾞ
  6
Continuous
100
AcDbLine
 10
19452.20275858886
 20
6921.046730143274
 30
0.0
 11
19509.93778550768
 21
7021.046730143274
 31
0.0
  0
LINE
  5
3B4
330
1F
100
AcDbEntity
  8
画層2
  6
Continuous
100
AcDbLine
 10
19796.06804447182
 20
7021.046730143274
 30
0.0
 11
19346.06804447182
 21
7021.046730143274
 31
0.0
  0
LINE
  5
3B5
330
1F
100
AcDbEntity
  8
ﾊｯﾁﾝｸﾞ
  6
Continuous
100
AcDbLine
 10
19727.01037972424
 20
6921.046730143274
 30
0.0
 11
19784.74540664305
 21
7021.046730143274
 31
0.0
  0
LINE
  5
3B6
330
1F
100
AcDbEntity
  8
ﾊｯﾁﾝｸﾞ
  6
Continuous
100
AcDbLine
 10
19739.84866358343
 20
6943.283290069982
 30
0.0
 11
19752.68694744309
 21
6921.046730143274
 31
0.0
  0
LINE
  5
3B7
330
1F
100
AcDbEntity
  8
ﾊｯﾁﾝｸﾞ
  6
Continuous
100
AcDbLine
 10
19756.02716774194
 20
7021.046730143274
 30
0.0
 11
19772.1343010492
 21
6999.203654514882
 31
0.0
  0
LINE
  5
3B8
330
1F
100
AcDbEntity
  8
ﾊｯﾁﾝｸﾞ
  6
Continuous
100
AcDbLine
 10
19360.6002182104
 20
6921.046730143274
 30
0.0
 11
19418.33524512922
 21
7021.046730143274
 31
0.0
  0
LINE
  5
3B9
330
1F
100
AcDbEntity
  8
ﾊｯﾁﾝｸﾞ
  6
Continuous
100
AcDbLine
 10
19373.43850206983
 20
6943.283290069982
 30
0.0
 11
19386.27678592925
 21
6921.046730143274
 31
0.0
  0
LINE
  5
3BA
330
1F
100
AcDbEntity
  8
ﾊｯﾁﾝｸﾞ
  6
Continuous
100
AcDbLine
 10
19389.6170062281
 20
7021.046730143274
 30
0.0
 11
19405.72413953536
 21
6999.203654514882
 31
0.0
  0
LWPOLYLINE
  5
3BB
330
1F
100
AcDbEntity
  8
画層2
100
AcDbPolyline
 90
        8
 70
     0
 43
0.0
 10
19321.06804447182
 20
8271.046730143273
 10
19321.06804447182
 20
8071.046730143274
 10
19346.06804447182
 20
8071.046730143274
 10
19346.06804447182
 20
6921.046730143274
 10
19796.06804447182
 20
6921.046730143274
 10
19796.06804447182
 20
8071.046730143274
 10
19821.06804447182
 20
8071.046730143274
 10
19821.06804447182
 20
8271.046730143332
  0
LINE
  5
3BC
330
1F
100
AcDbEntity
  8
画層2-1
  6
Continuous
100
AcDbLine
 10
5470.485686073578
 20
8121.046730143216
 30
0.0
 11
5610.316924042567
 21
8121.047024445573
 31
0.0
  0
DIMENSION
  5
3BD
330
1F
100
AcDbEntity
  8
寸法
  6
Continuous
100
AcDbDimension
  2
*D12
 10
5790.385686073484
 20
6201.046730143216
 30
0.0
 11
5540.385686073484
 21
6051.046730143216
 31
0.0
 70
    32
  1
□<>
 71
     5
 42
500.0
  3
1_60
100
AcDbAlignedDimension
 13
5290.385686073484
 23
6921.046730143216
 33
0.0
 14
5790.385686073484
 24
6921.046730143101
 34
0.0
100
AcDbRotatedDimension
1001
ACAD
1000
DSTYLE
1002
{
1070
    77
1070
     2
1070
   174
1070
     1
1002
}
  0
DIMENSION
  5
3BE
330
1F
100
AcDbEntity
  8
寸法
  6
Continuous
100
AcDbDimension
  2
*D13
 10
5765.385686073485
 20
6501.046730143215
 30
0.0
 11
4930.67175711066
 21
6561.046730143217
 31
0.0
 70
   160
  1
φ<>
 71
     5
 42
450.0
  3
1_60
100
AcDbAlignedDimension
 13
5315.385686073485
 23
6921.046730143216
 33
0.0
 14
5765.385686073485
 24
6921.046730143216
 34
0.0
100
AcDbRotatedDimension
  0
LINE
  5
3BF
330
1F
100
AcDbEntity
  8
画層2-1
  6
Continuous
100
AcDbLine
 10
5470.485686073578
 20
8371.046730143216
 30
0.0
 11
5610.285686073392
 21
8371.046730143216
 31
0.0
  0
LEADER
  5
3C0
330
1F
100
AcDbEntity
  8
寸法引出
  6
Continuous
100
AcDbLeader
  3
1_60
 71
     0
 73
     0
 75
     1
 40
180.0
 41
657.0000000000002
 76
     3
 10
5485.097250880706
 20
8344.616887466306
 30
0.0
 10
4995.075702769713
 20
8703.230254141232
 30
0.0
 10
4959.075702769712
 20
8703.230254141232
 30
0.0
340
3C1
1001
ACAD
1000
DSTYLE
1002
{
1002
}
  0
MTEXT
  5
3C1
102
{ACAD_REACTORS
330
3C0
102
}
330
1F
100
AcDbEntity
  8
寸法文字
  6
Continuous
100
AcDbMText
 10
4899.075702769715
 20
8763.230254141232
 30
0.0
 40
180.0
 41
0.0
 71
     9
 72
     1
  1
FRP被覆
  7
1_100
 73
     1
 44
1.0
1001
ACAD
1000
MTEXTBEGIN
1070
    73
1070
     1
1070
    44
1040
1.0
1070
    74
1070
     0
1000
MTEXTEND
  0
CIRCLE
  5
3C2
330
1F
100
AcDbEntity
  8
画層1
  6
Continuous
100
AcDbCircle
 10
5445.485686073578
 20
8296.046730143215
 30
0.0
 40
10.9509940156
  0
MTEXT
  5
3C3
330
1F
100
AcDbEntity
  8
寸法文字
  6
Continuous
100
AcDbMText
 10
4855.343244241583
 20
8658.491642353441
 30
0.0
 40
180.0
 41
0.0
 71
     3
 72
     1
  1
（250）
  7
1_100
 73
     1
 44
1.0
1001
ACAD
1000
MTEXTBEGIN
1070
    73
1070
     1
1070
    44
1040
1.0
1070
    74
1070
     0
1000
MTEXTEND
  0
LWPOLYLINE
  5
3C4
330
1F
100
AcDbEntity
  8
画層1-1
100
AcDbPolyline
 90
        4
 70
     1
 43
0.0
 10
5701.77468379401
 20
8361.223667996052
 10
5854.383063170674
 20
8456.673563459917
 10
5875.59415105145
 20
8422.760590265163
 10
5722.985771674786
 20
8327.310694801296
  0
LEADER
  5
3C5
330
1F
100
AcDbEntity
  8
寸法引出
  6
Continuous
100
AcDbLeader
  3
1_60
 71
     0
 73
     0
 74
     0
 75
     1
 40
180.0
 41
297.0
 76
     3
 10
5765.385686073485
 20
6970.352077253943
 30
0.0
 10
6081.956488813772
 20
7200.503167723154
 30
0.0
 10
6117.956488813772
 20
7200.503167723154
 30
0.0
340
3C6
1001
ACAD
1000
DSTYLE
1002
{
1002
}
  0
MTEXT
  5
3C6
102
{ACAD_REACTORS
330
3C5
102
}
330
1F
100
AcDbEntity
  8
寸法文字
  6
Continuous
100
AcDbMText
 10
6177.956488813772
 20
7260.503167723155
 30
0.0
 40
180.0
 41
0.0
 71
     7
 72
     1
  1
砕石
  7
1_100
 73
     1
 44
1.0
1001
ACAD
1000
MTEXTBEGIN
1070
    73
1070
     1
1070
    44
1040
1.0
1070
    74
1070
     0
1000
MTEXTEND
  0
LEADER
  5
3C7
330
1F
100
AcDbEntity
  8
寸法引出
  6
Continuous
100
AcDbLeader
  3
1_60
 71
     0
 73
     0
 74
     0
 75
     1
 40
180.0
 41
928.2857142857139
 76
     3
 10
5765.385686073485
 20
7428.187159651158
 30
0.0
 10
6050.87766527481
 20
7641.486211643345
 30
0.0
 10
6086.877665274809
 20
7641.486211643345
 30
0.0
340
3C8
1001
ACAD
1000
DSTYLE
1002
{
1002
}
  0
MTEXT
  5
3C8
102
{ACAD_REACTORS
330
3C7
102
}
330
1F
100
AcDbEntity
  8
寸法文字
  6
Continuous
100
AcDbMText
 10
6146.87766527481
 20
7701.486211643345
 30
0.0
 40
180.0
 41
0.0
 71
     7
 72
     1
  1
コンクリート
  7
1_100
 73
     1
 44
1.0
1001
ACAD
1000
MTEXTBEGIN
1070
    73
1070
     1
1070
    44
1040
1.0
1070
    74
1070
     0
1000
MTEXTEND
  0
LWPOLYLINE
  5
3C9
102
{ACAD_REACTORS
330
351
102
}
330
1F
100
AcDbEntity
  8
画層1
100
AcDbPolyline
 90
        4
 70
     1
 43
0.0
 10
5710.285686073394
 20
8316.047724457249
 10
5890.285686073394
 20
8316.047724457249
 10
5890.285686073394
 20
8276.047724457248
 10
5710.285686073394
 20
8276.047724457248
  0
CIRCLE
  5
3CA
330
1F
100
AcDbEntity
  8
画層1
  6
Continuous
100
AcDbCircle
 10
5635.285686073394
 20
8296.046730143215
 30
0.0
 40
10.9509940156
  0
LINE
  5
3CB
330
1F
100
AcDbEntity
  8
画層1
  6
Continuous
100
AcDbLine
 10
5515.385686073485
 20
8321.046730143216
 30
0.0
 11
5515.385686073485
 21
8271.046730143217
 31
0.0
  0
LINE
  5
3CC
330
1F
100
AcDbEntity
  8
画層1
  6
Continuous
100
AcDbLine
 10
5565.385686073485
 20
8271.046730143217
 30
0.0
 11
5565.385686073485
 21
8321.046730143216
 31
0.0
  0
LWPOLYLINE
  5
3CD
330
1F
100
AcDbEntity
  8
画層1
100
AcDbPolyline
 90
        4
 70
     1
 43
0.0
 10
5521.504547614171
 20
8651.046730143219
 10
5561.504547614172
 20
8651.046730143219
 10
5561.504547614172
 20
8471.046730143216
 10
5521.504547614171
 20
8471.046730143216
  0
LINE
  5
3CE
330
1F
100
AcDbEntity
  8
ﾊｯﾁﾝｸﾞ
  6
Continuous
100
AcDbLine
 10
6229.746881720643
 20
8258.57242810909
 30
0.0
 11
6283.509730703698
 21
8204.809579126154
 31
0.0
  0
LINE
  5
3CF
330
1F
100
AcDbEntity
  8
ﾊｯﾁﾝｸﾞ
  6
Continuous
100
AcDbLine
 10
6242.221183755003
 20
8271.046730143217
 30
0.0
 11
6122.221183754071
 21
8151.046730143217
 31
0.0
  0
LINE
  5
3D0
330
1F
100
AcDbEntity
  8
ﾊｯﾁﾝｸﾞ
  6
Continuous
100
AcDbLine
 10
6163.02522426195
 20
8271.046730143217
 30
0.0
 11
6071.354962734305
 21
8179.376468616212
 31
0.0
  0
LINE
  5
3D1
330
1F
100
AcDbEntity
  8
ﾊｯﾁﾝｸﾞ
  6
Continuous
100
AcDbLine
 10
6083.829264768665
 20
8271.046730143332
 30
0.0
 11
6031.756982987779
 21
8218.974448362679
 31
0.0
  0
LINE
  5
3D2
330
1F
100
AcDbEntity
  8
ﾊｯﾁﾝｸﾞ
  6
Continuous
100
AcDbLine
 10
6190.148901974118
 20
8218.974448362679
 30
0.0
 11
6258.076620193698
 21
8151.046730143217
 31
0.0
  0
LINE
  5
3D3
330
1F
100
AcDbEntity
  8
ﾊｯﾁﾝｸﾞ
  6
Continuous
100
AcDbLine
 10
6150.550922227592
 20
8179.376468616212
 30
0.0
 11
6178.880660700412
 21
8151.046730143159
 31
0.0
  0
LINE
  5
3D4
330
1F
100
AcDbEntity
  8
ﾊｯﾁﾝｸﾞ
  6
Continuous
100
AcDbLine
 10
5992.159003241486
 20
8258.57242810909
 30
0.0
 11
6099.684701207127
 21
8151.046730143217
 31
0.0
  0
LINE
  5
3D5
330
1F
100
AcDbEntity
  8
ﾊｯﾁﾝｸﾞ
  6
Continuous
100
AcDbLine
 10
5952.56102349496
 20
8218.974448362679
 30
0.0
 11
6020.488741714308
 21
8151.046730143217
 31
0.0
  0
LINE
  5
3D6
330
1F
100
AcDbEntity
  8
ﾊｯﾁﾝｸﾞ
  6
Continuous
100
AcDbLine
 10
5912.963043748433
 20
8179.376468616212
 30
0.0
 11
5941.292782221021
 21
8151.046730143159
 31
0.0
  0
LINE
  5
3D7
330
1F
100
AcDbEntity
  8
ﾊｯﾁﾝｸﾞ
  6
Continuous
100
AcDbLine
 10
6004.633305275612
 20
8271.046730143273
 30
0.0
 11
5884.633305274914
 21
8151.046730143159
 31
0.0
  0
LINE
  5
3D8
330
1F
100
AcDbEntity
  8
ﾊｯﾁﾝｸﾞ
  6
Continuous
100
AcDbLine
 10
5925.437345782562
 20
8271.046730143273
 30
0.0
 11
5805.437345781862
 21
8151.046730143159
 31
0.0
  0
LINE
  5
3D9
330
1F
100
AcDbEntity
  8
ﾊｯﾁﾝｸﾞ
  6
Continuous
100
AcDbLine
 10
5846.241386289275
 20
8271.046730143158
 30
0.0
 11
5790.385686073484
 21
8215.1910299276
 31
0.0
  0
LINE
  5
3DA
330
1F
100
AcDbEntity
  8
ﾊｯﾁﾝｸﾞ
  6
Continuous
100
AcDbLine
 10
5234.529985857694
 20
8271.046730143158
 30
0.0
 11
5290.385686073484
 21
8215.1910299276
 31
0.0
  0
LINE
  5
3DB
330
1F
100
AcDbEntity
  8
ﾊｯﾁﾝｸﾞ
  6
Continuous
100
AcDbLine
 10
5155.33402636441
 20
8271.046730143273
 30
0.0
 11
5275.334026365108
 21
8151.046730143159
 31
0.0
  0
LINE
  5
3DC
330
1F
100
AcDbEntity
  8
ﾊｯﾁﾝｸﾞ
  6
Continuous
100
AcDbLine
 10
5076.138066871356
 20
8271.046730143273
 30
0.0
 11
5196.138066872055
 21
8151.046730143159
 31
0.0
  0
LINE
  5
3DD
330
1F
100
AcDbEntity
  8
ﾊｯﾁﾝｸﾞ
  6
Continuous
100
AcDbLine
 10
5167.808328398535
 20
8179.376468616212
 30
0.0
 11
5139.478589925948
 21
8151.046730143159
 31
0.0
  0
LINE
  5
3DE
330
1F
100
AcDbEntity
  8
ﾊｯﾁﾝｸﾞ
  6
Continuous
100
AcDbLine
 10
5128.21034865201
 20
8218.974448362679
 30
0.0
 11
5060.282630432663
 21
8151.046730143217
 31
0.0
  0
LINE
  5
3DF
330
1F
100
AcDbEntity
  8
ﾊｯﾁﾝｸﾞ
  6
Continuous
100
AcDbLine
 10
5088.612368905484
 20
8258.57242810909
 30
0.0
 11
4981.086670939843
 21
8151.046730143217
 31
0.0
  0
LINE
  5
3E0
330
1F
100
AcDbEntity
  8
ﾊｯﾁﾝｸﾞ
  6
Continuous
100
AcDbLine
 10
4930.22044991938
 20
8179.376468616212
 30
0.0
 11
4901.890711446558
 21
8151.046730143159
 31
0.0
  0
LINE
  5
3E1
330
1F
100
AcDbEntity
  8
ﾊｯﾁﾝｸﾞ
  6
Continuous
100
AcDbLine
 10
4890.622470172854
 20
8218.974448362679
 30
0.0
 11
4822.694751953275
 21
8151.046730143217
 31
0.0
  0
LINE
  5
3E2
330
1F
100
AcDbEntity
  8
ﾊｯﾁﾝｸﾞ
  6
Continuous
100
AcDbLine
 10
4996.942107378306
 20
8271.046730143332
 30
0.0
 11
5049.014389159189
 21
8218.974448362679
 31
0.0
  0
LINE
  5
3E3
330
1F
100
AcDbEntity
  8
ﾊｯﾁﾝｸﾞ
  6
Continuous
100
AcDbLine
 10
4917.74614788502
 20
8271.046730143217
 30
0.0
 11
5009.416409412665
 21
8179.376468616153
 31
0.0
  0
LINE
  5
3E4
330
1F
100
AcDbEntity
  8
ﾊｯﾁﾝｸﾞ
  6
Continuous
100
AcDbLine
 10
4838.550188391968
 20
8271.046730143217
 30
0.0
 11
4958.550188392899
 21
8151.046730143217
 31
0.0
  0
LINE
  5
3E5
330
1F
100
AcDbEntity
  8
ﾊｯﾁﾝｸﾞ
  6
Continuous
100
AcDbLine
 10
4851.024490426327
 20
8258.57242810909
 30
0.0
 11
4797.261641443274
 21
8204.809579126154
 31
0.0
  0
LWPOLYLINE
  5
3E6
330
1F
100
AcDbEntity
  8
画層2
100
AcDbPolyline
 90
        8
 70
     0
 43
0.0
 10
5290.385686073484
 20
8271.046730143217
 10
5290.385686073484
 20
8071.046730143216
 10
5315.385686073485
 20
8071.046730143216
 10
5315.385686073485
 20
6921.046730143216
 10
5765.385686073485
 20
6921.046730143216
 10
5765.385686073485
 20
8071.046730143216
 10
5790.385686073484
 20
8071.046730143216
 10
5790.385686073484
 20
8271.046730143273
  0
LINE
  5
3E7
330
1F
100
AcDbEntity
  8
ﾊｯﾁﾝｸﾞ
  6
Continuous
100
AcDbLine
 10
5633.742268965146
 20
7021.046730143216
 30
0.0
 11
5649.849402272175
 21
6999.203654514824
 31
0.0
  0
LINE
  5
3E8
330
1F
100
AcDbEntity
  8
ﾊｯﾁﾝｸﾞ
  6
Continuous
100
AcDbLine
 10
5542.139728586688
 20
7021.046730143216
 30
0.0
 11
5558.246861893715
 21
6999.203654514824
 31
0.0
  0
LINE
  5
3E9
330
1F
100
AcDbEntity
  8
ﾊｯﾁﾝｸﾞ
  6
Continuous
100
AcDbLine
 10
5525.96122442841
 20
6943.283290069924
 30
0.0
 11
5538.79950828807
 21
6921.046730143216
 31
0.0
  0
LINE
  5
3EA
330
1F
100
AcDbEntity
  8
ﾊｯﾁﾝｸﾞ
  6
Continuous
100
AcDbLine
 10
5617.563764806869
 20
6943.283290069924
 30
0.0
 11
5630.402048666297
 21
6921.046730143216
 31
0.0
  0
LINE
  5
3EB
330
1F
100
AcDbEntity
  8
ﾊｯﾁﾝｸﾞ
  6
Continuous
100
AcDbLine
 10
5513.122940568752
 20
6921.046730143216
 30
0.0
 11
5570.857967487802
 21
7021.046730143216
 31
0.0
  0
LINE
  5
3EC
330
1F
100
AcDbEntity
  8
ﾊｯﾁﾝｸﾞ
  6
Continuous
100
AcDbLine
 10
5604.725480947211
 20
6921.046730143216
 30
0.0
 11
5662.460507866261
 21
7021.046730143216
 31
0.0
  0
LINE
  5
3ED
330
1F
100
AcDbEntity
  8
ﾊｯﾁﾝｸﾞ
  6
Continuous
100
AcDbLine
 10
5450.53718820823
 20
7021.046730143216
 30
0.0
 11
5466.644321515257
 21
6999.203654514824
 31
0.0
  0
LINE
  5
3EE
330
1F
100
AcDbEntity
  8
ﾊｯﾁﾝｸﾞ
  6
Continuous
100
AcDbLine
 10
5434.358684049952
 20
6943.283290069924
 30
0.0
 11
5447.196967909378
 21
6921.046730143216
 31
0.0
  0
LINE
  5
3EF
330
1F
100
AcDbEntity
  8
ﾊｯﾁﾝｸﾞ
  6
Continuous
100
AcDbLine
 10
5421.520400190293
 20
6921.046730143216
 30
0.0
 11
5479.255427109343
 21
7021.046730143216
 31
0.0
  0
LINE
  5
3F0
330
1F
100
AcDbEntity
  8
画層2
  6
Continuous
100
AcDbLine
 10
5765.385686073485
 20
7021.046730143216
 30
0.0
 11
5315.385686073485
 21
7021.046730143216
 31
0.0
  0
LWPOLYLINE
  5
3F1
102
{ACAD_REACTORS
330
351
102
}
330
1F
100
AcDbEntity
  8
画層1
  6
Continuous
100
AcDbPolyline
 90
        4
 70
     1
 43
0.0
 10
5420.485686073578
 20
8321.046730143216
 10
5660.285686073393
 20
8321.046730143216
 10
5660.285686073393
 20
8271.046730143273
 10
5420.485686073578
 20
8271.046730143273
  0
LINE
  5
3F3
330
1F
100
AcDbEntity
  8
ﾊｯﾁﾝｸﾞ
  6
Continuous
100
AcDbLine
 10
5696.328021325669
 20
6921.046730143216
 30
0.0
 11
5754.06304824472
 21
7021.046730143216
 31
0.0
  0
LINE
  5
3F4
330
1F
100
AcDbEntity
  8
ﾊｯﾁﾝｸﾞ
  6
Continuous
100
AcDbLine
 10
5709.16630518533
 20
6943.283290069924
 30
0.0
 11
5722.004589044754
 21
6921.046730143216
 31
0.0
  0
LINE
  5
3F5
330
1F
100
AcDbEntity
  8
ﾊｯﾁﾝｸﾞ
  6
Continuous
100
AcDbLine
 10
5725.344809343607
 20
7021.046730143216
 30
0.0
 11
5741.451942650633
 21
6999.203654514824
 31
0.0
  0
LINE
  5
3F6
330
1F
100
AcDbEntity
  8
ﾊｯﾁﾝｸﾞ
  6
Continuous
100
AcDbLine
 10
5329.917859811835
 20
6921.046730143216
 30
0.0
 11
5387.652886730883
 21
7021.046730143216
 31
0.0
  0
LINE
  5
3F7
330
1F
100
AcDbEntity
  8
ﾊｯﾁﾝｸﾞ
  6
Continuous
100
AcDbLine
 10
5342.756143671493
 20
6943.283290069924
 30
0.0
 11
5355.594427530919
 21
6921.046730143216
 31
0.0
  0
LINE
  5
3F8
330
1F
100
AcDbEntity
  8
ﾊｯﾁﾝｸﾞ
  6
Continuous
100
AcDbLine
 10
5358.93464782977
 20
7021.046730143216
 30
0.0
 11
5375.041781136799
 21
6999.203654514824
 31
0.0
  0
LEADER
  5
3F9
330
1F
100
AcDbEntity
  8
寸法引出
  6
Continuous
100
AcDbLeader
  3
1_60
 71
     0
 73
     0
 75
     1
 40
180.0
 41
1433.571428571427
 76
     3
 10
13280.64231416724
 20
8375.560460926179
 30
0.0
 10
12817.81679946699
 20
7615.547589514952
 30
0.0
 10
12781.81679946699
 20
7615.547589514952
 30
0.0
340
3FA
1001
ACAD
1000
DSTYLE
1002
{
1002
}
  0
MTEXT
  5
3FA
102
{ACAD_REACTORS
330
3F9
102
}
330
1F
100
AcDbEntity
  8
寸法文字
  6
Continuous
100
AcDbMText
 10
12721.81679946699
 20
7675.547589514952
 30
0.0
 40
180.0
 41
0.0
 71
     9
 72
     1
  1
タンバックル9mm
  7
1_100
 73
     1
 44
1.0
1001
ACAD
1000
MTEXTBEGIN
1070
    73
1070
     1
1070
    44
1040
1.0
1070
    74
1070
     0
1000
MTEXTEND
  0
LINE
  5
3FB
102
{ACAD_REACTORS
330
351
330
1613
102
}
330
1F
100
AcDbEntity
  8
画層1
  6
Continuous
100
AcDbLine
 10
5540.385686073484
 20
8296.046730143215
 30
0.0
 11
16391.06804447182
 21
8296.046730143215
 31
0.0
  0
DIMENSION
  5
3FC
330
1F
100
AcDbEntity
  8
寸法
  6
Continuous
100
AcDbDimension
  2
*D14
 10
13540.38568607348
 20
5221.046721978032
 30
0.0
 11
9540.385686073483
 21
5388.189579120889
 31
0.0
 70
    32
 71
     5
 42
8000.0
  3
1_60
100
AcDbAlignedDimension
 13
5540.385686073484
 23
6130.938008390684
 33
0.0
 14
13540.38568607348
 24
6778.579258349807
 34
0.0
100
AcDbRotatedDimension
  0
DIMENSION
  5
3FD
330
1F
100
AcDbEntity
  8
寸法
  6
Continuous
100
AcDbDimension
  2
*D15
 10
21851.06804447182
 20
7021.046730143274
 30
0.0
 11
21683.92518732896
 21
7646.046730143277
 31
0.0
 70
    32
 71
     5
 42
1249.999999999999
  3
1_60
100
AcDbAlignedDimension
 13
20471.06804447182
 23
8271.046730143273
 33
0.0
 14
20471.06804447182
 24
7021.046730143274
 34
0.0
 50
90.0
100
AcDbRotatedDimension
  0
DIMENSION
  5
3FE
330
1F
100
AcDbEntity
  8
寸法
  6
Continuous
100
AcDbDimension
  2
*D16
 10
21251.06804447182
 20
8271.046730143273
 30
0.0
 11
21417.98515283226
 21
8042.261178861862
 31
0.0
 70
   160
 71
     5
 42
199.9999999999991
  3
1_60
100
AcDbAlignedDimension
 13
20471.06804447182
 23
8071.046730143274
 33
0.0
 14
20471.06804447182
 24
8271.046730143273
 34
0.0
 50
90.0
100
AcDbRotatedDimension
  0
DIMENSION
  5
3FF
330
1F
100
AcDbEntity
  8
寸法
  6
Continuous
100
AcDbDimension
  2
*D17
 10
21251.06804447182
 20
7021.046730143274
 30
0.0
 11
21097.39163193529
 21
6676.21884382728
 31
0.0
 70
   160
 71
     5
 42
100.0
  3
1_60
100
AcDbAlignedDimension
 13
20471.06804447182
 23
6921.046730143274
 33
0.0
 14
20471.06804447182
 24
7021.046730143274
 34
0.0
 50
90.0
100
AcDbRotatedDimension
  0
DIMENSION
  5
400
330
1F
100
AcDbEntity
  8
寸法
  6
Continuous
100
AcDbDimension
  2
*D18
 10
21251.06804447182
 20
8071.046730143274
 30
0.0
 11
21083.92518732896
 21
7546.046730143277
 31
0.0
 70
    32
 71
     5
 42
1050.0
  3
1_60
100
AcDbAlignedDimension
 13
20471.06804447182
 23
7021.046730143274
 33
0.0
 14
20471.06804447182
 24
8071.046730143274
 34
0.0
 50
90.0
100
AcDbRotatedDimension
  0
LINE
  5
401
330
1F
100
AcDbEntity
  8
ﾊｯﾁﾝｸﾞ
  6
Continuous
100
AcDbLine
 10
19943.64540214677
 20
8179.37646861627
 30
0.0
 11
19971.97514061959
 21
8151.046730143217
 31
0.0
  0
LINE
  5
402
330
1F
100
AcDbEntity
  8
ﾊｯﾁﾝｸﾞ
  6
Continuous
100
AcDbLine
 10
20260.42924011898
 20
8258.57242810915
 30
0.0
 11
20314.1920891018
 21
8204.809579126211
 31
0.0
  0
LINE
  5
403
330
1F
100
AcDbEntity
  8
ﾊｯﾁﾝｸﾞ
  6
Continuous
100
AcDbLine
 10
20272.90354215311
 20
8271.046730143273
 30
0.0
 11
20152.90354215217
 21
8151.046730143274
 31
0.0
  0
LINE
  5
404
330
1F
100
AcDbEntity
  8
ﾊｯﾁﾝｸﾞ
  6
Continuous
100
AcDbLine
 10
20193.70758266005
 20
8271.046730143273
 30
0.0
 11
20102.03732113264
 21
8179.37646861627
 31
0.0
  0
LINE
  5
405
330
1F
100
AcDbEntity
  8
ﾊｯﾁﾝｸﾞ
  6
Continuous
100
AcDbLine
 10
20114.511623167
 20
8271.046730143391
 30
0.0
 11
20062.43934138611
 21
8218.974448362738
 31
0.0
  0
LINE
  5
406
330
1F
100
AcDbEntity
  8
ﾊｯﾁﾝｸﾞ
  6
Continuous
100
AcDbLine
 10
20220.83126037245
 20
8218.974448362738
 30
0.0
 11
20288.7589785918
 21
8151.046730143274
 31
0.0
  0
LINE
  5
407
330
1F
100
AcDbEntity
  8
ﾊｯﾁﾝｸﾞ
  6
Continuous
100
AcDbLine
 10
20181.23328062616
 20
8179.37646861627
 30
0.0
 11
20209.56301909875
 21
8151.046730143217
 31
0.0
  0
LINE
  5
408
330
1F
100
AcDbEntity
  8
ﾊｯﾁﾝｸﾞ
  6
Continuous
100
AcDbLine
 10
20022.84136163959
 20
8258.57242810915
 30
0.0
 11
20130.3670596057
 21
8151.046730143274
 31
0.0
  0
LINE
  5
409
330
1F
100
AcDbEntity
  8
ﾊｯﾁﾝｸﾞ
  6
Continuous
100
AcDbLine
 10
19983.24338189329
 20
8218.974448362738
 30
0.0
 11
20051.17110011264
 21
8151.046730143274
 31
0.0
  0
DIMENSION
  5
40A
330
1F
100
AcDbEntity
  8
寸法
  6
Continuous
100
AcDbDimension
  2
*D19
 10
19640.96804447196
 20
13631.04673014333
 30
0.0
 11
19571.06804447182
 21
13811.04673014333
 31
0.0
 70
    32
  1
φ<>
 71
     5
 42
139.8000000002794
  3
1_60
100
AcDbAlignedDimension
 13
19501.16804447168
 23
13271.04673014368
 33
0.0
 14
19640.96804447196
 24
13271.04673014368
 34
0.0
100
AcDbRotatedDimension
  0
LEADER
  5
40B
330
1F
100
AcDbEntity
  8
寸法引出
  6
Continuous
100
AcDbLeader
  3
1_60
 71
     0
 73
     0
 74
     0
 75
     1
 40
180.0
 41
2819.571428571427
 76
     3
 10
19640.96804447196
 20
12789.2727060519
 30
0.0
 10
20522.7784194481
 20
14143.06522868163
 30
0.0
 10
20558.7784194481
 20
14143.06522868163
 30
0.0
340
40C
1001
ACAD
1000
DSTYLE
1002
{
1002
}
  0
MTEXT
  5
40C
102
{ACAD_REACTORS
330
40B
102
}
330
1F
100
AcDbEntity
  8
寸法文字
  6
Continuous
100
AcDbMText
 10
20618.7784194481
 20
14203.06522868163
 30
0.0
 40
180.0
 41
0.0
 71
     7
 72
     1
  1
主柱KSポールφ139.8厚さ3.0mm
  7
1_100
 73
     1
 44
1.0
1001
ACAD
1000
ACAD_MTEXT_DEFINED_HEIGHT_BEGIN
1070
    46
1040
0.0
1000
ACAD_MTEXT_DEFINED_HEIGHT_END
1000
MTEXTBEGIN
1070
    73
1070
     1
1070
    44
1040
1.0
1070
    74
1070
     0
1000
MTEXTEND
  0
LEADER
  5
40D
330
1F
100
AcDbEntity
  8
寸法引出
  6
Continuous
100
AcDbLeader
  3
1_60
 71
     0
 73
     0
 74
     0
 75
     1
 40
180.0
 41
3528.0
 76
     3
 10
7974.084119369774
 20
13183.17490020344
 30
0.0
 10
8396.24696834179
 20
14006.74651898202
 30
0.0
 10
8432.246968341791
 20
14006.74651898202
 30
0.0
340
40E
  0
MTEXT
  5
40E
102
{ACAD_REACTORS
330
40D
102
}
330
1F
100
AcDbEntity
  8
寸法文字
  6
Continuous
100
AcDbMText
 10
8492.246968341792
 20
14066.74651898202
 30
0.0
 40
180.0
 41
0.0
 71
     7
 72
     1
  1
端末・コーナー補強ポールφ114.3×3.0mm
  7
1_100
 73
     1
 44
1.0
1001
ACAD
1000
MTEXTBEGIN
1070
    73
1070
     1
1070
    44
1040
1.0
1070
    74
1070
     0
1000
MTEXTEND
  0
CIRCLE
  5
40F
330
1F
100
AcDbEntity
  8
画層1
  6
Continuous
100
AcDbCircle
 10
13635.28568607339
 20
13231.04673014322
 30
0.0
 40
10.9509940156
  0
LINE
  5
410
330
1F
100
AcDbEntity
  8
画層1
  6
Continuous
100
AcDbLine
 10
13420.48568607357
 20
13206.04673014322
 30
0.0
 11
13660.28568607339
 21
13206.04673014322
 31
0.0
  0
LINE
  5
411
330
1F
100
AcDbEntity
  8
画層1
  6
Continuous
100
AcDbLine
 10
13660.28568607339
 20
13256.04673014322
 30
0.0
 11
13420.48568607357
 21
13256.04673014322
 31
0.0
  0
LINE
  5
412
330
1F
100
AcDbEntity
  8
画層1
  6
Continuous
100
AcDbLine
 10
13565.38568607348
 20
13206.04673014322
 30
0.0
 11
13565.38568607348
 21
13256.04673014322
 31
0.0
  0
LINE
  5
413
330
1F
100
AcDbEntity
  8
画層1
  6
Continuous
100
AcDbLine
 10
13515.38568607348
 20
13256.04673014322
 30
0.0
 11
13515.38568607348
 21
13206.04673014322
 31
0.0
  0
LINE
  5
414
330
1F
100
AcDbEntity
  8
画層1
  6
Continuous
100
AcDbLine
 10
13420.48568607357
 20
13256.04673014322
 30
0.0
 11
13420.48568607357
 21
13206.04673014322
 31
0.0
  0
CIRCLE
  5
415
330
1F
100
AcDbEntity
  8
画層1
  6
Continuous
100
AcDbCircle
 10
13445.48568607358
 20
13231.04673014322
 30
0.0
 40
10.9509940156
  0
MTEXT
  5
416
330
1F
100
AcDbEntity
  8
寸法文字
  6
Continuous
100
AcDbMText
 10
9014.025547819711
 20
13919.27201112799
 30
0.0
 40
180.0
 41
0.0
 71
     1
 72
     1
  1
（STK-540鋼管）
  7
1_100
 73
     1
 44
1.0
1001
ACAD
1000
MTEXTBEGIN
1070
    73
1070
     1
1070
    44
1040
1.0
1070
    74
1070
     0
1000
MTEXTEND
  0
LINE
  5
417
330
1F
100
AcDbEntity
  8
画層1
  6
Continuous
100
AcDbLine
 10
13470.48568607358
 20
13271.04673014322
 30
0.0
 11
13610.28568607339
 21
13271.04673014322
 31
0.0
  0
LINE
  5
418
330
1F
100
AcDbEntity
  8
画層1
  6
Continuous
100
AcDbLine
 10
13660.28568607339
 20
13206.04673014322
 30
0.0
 11
13660.28568607339
 21
13256.04673014322
 31
0.0
  0
LINE
  5
419
330
1F
100
AcDbEntity
  8
画層1
  6
Continuous
100
AcDbLine
 10
13660.28568607339
 20
13206.04673014322
 30
0.0
 11
13420.48568607357
 21
13206.04673014322
 31
0.0
  0
CIRCLE
  5
41A
330
1F
100
AcDbEntity
  8
画層1
  6
Continuous
100
AcDbCircle
 10
13445.48568607358
 20
13181.04673014321
 30
0.0
 40
10.9509940156
  0
CIRCLE
  5
41B
330
1F
100
AcDbEntity
  8
画層1
  6
Continuous
100
AcDbCircle
 10
13635.28568607339
 20
13181.04673014321
 30
0.0
 40
10.9509940156
  0
CIRCLE
  5
41D
330
1F
100
AcDbEntity
  8
画層1
  6
Continuous
100
AcDbCircle
 10
19571.06804447182
 20
13231.04673014368
 30
0.0
 40
10.9509940156
  0
LINE
  5
41E
330
1F
100
AcDbEntity
  8
画層1
  6
Continuous
100
AcDbLine
 10
19553.91804447168
 20
13256.04673014368
 30
0.0
 11
19553.91804447168
 21
13206.04673014368
 31
0.0
  0
LINE
  5
41F
330
1F
100
AcDbEntity
  8
画層1
  6
Continuous
100
AcDbLine
 10
19588.21804447196
 20
13256.04673014368
 30
0.0
 11
19588.21804447196
 21
13206.04673014368
 31
0.0
  0
LINE
  5
420
330
1F
100
AcDbEntity
  8
画層1
  6
Continuous
100
AcDbLine
 10
19553.91804447168
 20
13206.04673014368
 30
0.0
 11
19501.16804447168
 21
13206.04673014368
 31
0.0
  0
LINE
  5
421
330
1F
100
AcDbEntity
  8
画層1
  6
Continuous
100
AcDbLine
 10
19588.21804447196
 20
13206.04673014368
 30
0.0
 11
19640.96804447196
 21
13206.04673014368
 31
0.0
  0
LINE
  5
422
330
1F
100
AcDbEntity
  8
画層1
  6
Continuous
100
AcDbLine
 10
19553.91804447168
 20
13256.04673014368
 30
0.0
 11
19501.16804447168
 21
13256.04673014368
 31
0.0
  0
LINE
  5
423
330
1F
100
AcDbEntity
  8
画層1
  6
Continuous
100
AcDbLine
 10
19501.16804447168
 20
13271.04673014368
 30
0.0
 11
19640.96804447196
 21
13271.04673014368
 31
0.0
  0
LINE
  5
424
330
1F
100
AcDbEntity
  8
画層1
  6
Continuous
100
AcDbLine
 10
19588.21804447196
 20
13256.04673014368
 30
0.0
 11
19640.96804447196
 21
13256.04673014368
 31
0.0
  0
LINE
  5
425
330
1F
100
AcDbEntity
  8
画層1
  6
Continuous
100
AcDbLine
 10
19451.16804447168
 20
13256.04673014368
 30
0.0
 11
19451.16804447168
 21
13206.04673014368
 31
0.0
  0
LINE
  5
426
330
1F
100
AcDbEntity
  8
画層1
  6
Continuous
100
AcDbLine
 10
19451.16804447168
 20
13231.04673014368
 30
0.0
 11
19501.16804447168
 21
13231.04673014368
 31
0.0
  0
MTEXT
  5
427
102
{ACAD_REACTORS
330
428
102
}
330
1F
100
AcDbEntity
  8
寸法文字
  6
Continuous
100
AcDbMText
 10
14658.97856321468
 20
13926.000203634
 30
0.0
 40
180.0
 41
0.0
 71
     7
 72
     1
  1
ネット上下6mm合繊ロープに4mm合繊\Pロープにて22m㎡ワイヤーに巻付
  7
1_100
 73
     1
 44
1.0
1001
ACAD
1000
MTEXTBEGIN
1070
    73
1070
     1
1070
    44
1040
1.0
1070
    74
1070
     0
1000
MTEXTEND
  0
LEADER
  5
428
330
1F
100
AcDbEntity
  8
寸法引出
  6
Continuous
100
AcDbLeader
  3
1_60
 71
     0
 73
     0
 74
     0
 75
     1
 40
508.0
 41
3097.285714285713
 76
     3
 10
14185.21703083863
 20
13231.04673014322
 30
0.0
 10
14562.97856321468
 20
13866.000203634
 30
0.0
 10
14598.97856321468
 20
13866.000203634
 30
0.0
340
427
  0
LINE
  5
429
330
1F
100
AcDbEntity
  8
画層1
  6
Continuous
100
AcDbLine
 10
5420.485686073578
 20
13206.04673014322
 30
0.0
 11
5660.285686073393
 21
13206.04673014322
 31
0.0
  0
LINE
  5
42A
330
1F
100
AcDbEntity
  8
画層1
  6
Continuous
100
AcDbLine
 10
5470.485686073578
 20
13271.04673014322
 30
0.0
 11
5610.285686073392
 21
13271.04673014322
 31
0.0
  0
DIMENSION
  5
42B
330
1F
100
AcDbEntity
  8
寸法
  6
Continuous
100
AcDbDimension
  2
*D20
 10
5610.285686073392
 20
13631.04673014327
 30
0.0
 11
5540.385686073484
 21
13811.04673014327
 31
0.0
 70
    32
  1
φ<>
 71
     5
 42
139.7999999998137
  3
1_60
100
AcDbAlignedDimension
 13
5470.485686073578
 23
13256.04673014322
 33
0.0
 14
5610.285686073392
 24
13256.04673014322
 34
0.0
100
AcDbRotatedDimension
  0
LINE
  5
42C
330
1F
100
AcDbEntity
  8
画層1
  6
Continuous
100
AcDbLine
 10
5660.285686073393
 20
13256.04673014322
 30
0.0
 11
5420.485686073578
 21
13256.04673014322
 31
0.0
  0
LINE
  5
42D
330
1F
100
AcDbEntity
  8
画層1
  6
Continuous
100
AcDbLine
 10
5660.285686073393
 20
13206.04673014322
 30
0.0
 11
5420.485686073578
 21
13206.04673014322
 31
0.0
  0
CIRCLE
  5
42E
330
1F
100
AcDbEntity
  8
画層1
  6
Continuous
100
AcDbCircle
 10
5445.485686073578
 20
13231.04673014322
 30
0.0
 40
10.9509940156
  0
LINE
  5
42F
330
1F
100
AcDbEntity
  8
画層1
  6
Continuous
100
AcDbLine
 10
5420.485686073578
 20
13256.04673014322
 30
0.0
 11
5420.485686073578
 21
13206.04673014322
 31
0.0
  0
CIRCLE
  5
430
330
1F
100
AcDbEntity
  8
画層1
  6
Continuous
100
AcDbCircle
 10
5445.485686073578
 20
13181.04673014321
 30
0.0
 40
10.9509940156
  0
LINE
  5
431
102
{ACAD_REACTORS
330
351
102
}
330
1F
100
AcDbEntity
  8
画層1
  6
Continuous
100
AcDbLine
 10
5660.285686073393
 20
13206.04673014322
 30
0.0
 11
5660.285686073393
 21
13256.04673014322
 31
0.0
  0
CIRCLE
  5
432
330
1F
100
AcDbEntity
  8
画層1
  6
Continuous
100
AcDbCircle
 10
5635.285686073394
 20
13231.04673014322
 30
0.0
 40
10.9509940156
  0
LINE
  5
433
330
1F
100
AcDbEntity
  8
画層1
  6
Continuous
100
AcDbLine
 10
5515.385686073485
 20
13256.04673014322
 30
0.0
 11
5515.385686073485
 21
13206.04673014322
 31
0.0
  0
LINE
  5
434
330
1F
100
AcDbEntity
  8
画層1
  6
Continuous
100
AcDbLine
 10
5565.385686073485
 20
13206.04673014322
 30
0.0
 11
5565.385686073485
 21
13256.04673014322
 31
0.0
  0
LWPOLYLINE
  5
435
102
{ACAD_REACTORS
330
351
102
}
330
1F
100
AcDbEntity
  8
画層1
100
AcDbPolyline
 90
        4
 70
     1
 43
0.0
 10
5725.285686073394
 20
13250.82300948191
 10
5905.285686073391
 20
13250.82300948191
 10
5905.285686073391
 20
13210.82300948191
 10
5725.285686073394
 20
13210.82300948191
  0
CIRCLE
  5
436
330
1F
100
AcDbEntity
  8
画層1
  6
Continuous
100
AcDbCircle
 10
5635.285686073394
 20
13181.04673014321
 30
0.0
 40
10.9509940156
  0
LINE
  5
438
102
{ACAD_REACTORS
330
351
330
1613
102
}
330
1F
100
AcDbEntity
  8
画層1
  6
Continuous
100
AcDbLine
 10
16391.06804447182
 20
13231.04673014322
 30
0.0
 11
5540.385686073484
 21
13231.04673014322
 31
0.0
  0
LEADER
  5
43B
330
1F
100
AcDbEntity
  8
寸法引出
  6
Continuous
100
AcDbLeader
  3
1_60
 71
     0
 73
     0
 74
     0
 75
     1
 40
408.0
 41
1870.285714285715
 76
     3
 10
10597.96032195648
 20
11400.02173671005
 30
0.0
 10
10937.73195260912
 20
11033.00190352581
 30
0.0
 10
10973.73195260912
 20
11033.00190352581
 30
0.0
340
43C
1001
ACAD
1000
DSTYLE
1002
{
1002
}
  0
MTEXT
  5
43C
102
{ACAD_REACTORS
330
43B
102
}
330
1F
100
AcDbEntity
  8
寸法文字
  6
Continuous
100
AcDbMText
 10
11033.73195260912
 20
11093.00190352581
 30
0.0
 40
180.0
 41
0.0
 71
     7
 72
     1
  1
筋違\Pメッセンワイヤー22m㎡
  7
1_100
 73
     1
 44
0.6666666666666666
1001
ACAD
1000
MTEXTBEGIN
1070
    73
1070
     1
1070
    44
1040
0.6666666666666666
1070
    74
1070
     0
1000
MTEXTEND
  0
LINE
  5
43E
330
1F
100
AcDbEntity
  8
画層1
  6
Continuous
100
AcDbLine
 10
13420.48568607357
 20
13156.04673014322
 30
0.0
 11
13660.28568607339
 21
13156.04673014322
 31
0.0
  0
CIRCLE
  5
43F
330
1F
100
AcDbEntity
  8
画層1
  6
Continuous
100
AcDbCircle
 10
13635.28568607339
 20
10751.04673014362
 30
0.0
 40
10.9509940156
  0
LINE
  5
440
330
1F
100
AcDbEntity
  8
画層1
  6
Continuous
100
AcDbLine
 10
13660.28568607339
 20
10776.04673014362
 30
0.0
 11
13420.48568607357
 21
10776.04673014362
 31
0.0
  0
LINE
  5
441
330
1F
100
AcDbEntity
  8
画層1
  6
Continuous
100
AcDbLine
 10
13420.48568607357
 20
10726.04673014362
 30
0.0
 11
13660.28568607339
 21
10726.04673014362
 31
0.0
  0
LINE
  5
442
330
1F
100
AcDbEntity
  8
画層1
  6
Continuous
100
AcDbLine
 10
13565.38568607348
 20
10726.04673014362
 30
0.0
 11
13565.38568607348
 21
10776.04673014362
 31
0.0
  0
CIRCLE
  5
443
330
1F
100
AcDbEntity
  8
画層1
  6
Continuous
100
AcDbCircle
 10
13445.48568607358
 20
10751.04673014362
 30
0.0
 40
10.9509940156
  0
LINE
  5
444
330
1F
100
AcDbEntity
  8
画層1
  6
Continuous
100
AcDbLine
 10
13420.48568607357
 20
10776.04673014362
 30
0.0
 11
13420.48568607357
 21
10726.04673014362
 31
0.0
  0
LINE
  5
445
330
1F
100
AcDbEntity
  8
画層1
  6
Continuous
100
AcDbLine
 10
13515.38568607348
 20
10776.04673014362
 30
0.0
 11
13515.38568607348
 21
10726.04673014362
 31
0.0
  0
LINE
  5
446
330
1F
100
AcDbEntity
  8
画層1
  6
Continuous
100
AcDbLine
 10
13660.28568607339
 20
10726.04673014362
 30
0.0
 11
13660.28568607339
 21
10776.04673014362
 31
0.0
  0
LINE
  5
447
330
1F
100
AcDbEntity
  8
画層1
  6
Continuous
100
AcDbLine
 10
19588.21804447196
 20
10776.04673014368
 30
0.0
 11
19640.96804447196
 21
10776.04673014368
 31
0.0
  0
LINE
  5
448
330
1F
100
AcDbEntity
  8
画層1
  6
Continuous
100
AcDbLine
 10
19588.21804447196
 20
10726.04673014368
 30
0.0
 11
19640.96804447196
 21
10726.04673014368
 31
0.0
  0
CIRCLE
  5
449
330
1F
100
AcDbEntity
  8
画層1
  6
Continuous
100
AcDbCircle
 10
19571.06804447182
 20
10751.04673014368
 30
0.0
 40
10.9509940156
  0
LINE
  5
44A
330
1F
100
AcDbEntity
  8
画層1
  6
Continuous
100
AcDbLine
 10
19588.21804447196
 20
10776.04673014368
 30
0.0
 11
19588.21804447196
 21
10726.04673014368
 31
0.0
  0
LINE
  5
44B
330
1F
100
AcDbEntity
  8
画層1
  6
Continuous
100
AcDbLine
 10
19553.91804447168
 20
10776.04673014368
 30
0.0
 11
19553.91804447168
 21
10726.04673014368
 31
0.0
  0
LINE
  5
44C
330
1F
100
AcDbEntity
  8
画層1
  6
Continuous
100
AcDbLine
 10
19553.91804447168
 20
10776.04673014368
 30
0.0
 11
19501.16804447168
 21
10776.04673014368
 31
0.0
  0
LINE
  5
44D
330
1F
100
AcDbEntity
  8
画層1
  6
Continuous
100
AcDbLine
 10
19553.91804447168
 20
10726.04673014368
 30
0.0
 11
19501.16804447168
 21
10726.04673014368
 31
0.0
  0
LINE
  5
44E
330
1F
100
AcDbEntity
  8
画層1
  6
Continuous
100
AcDbLine
 10
19451.16804447168
 20
10776.04673014368
 30
0.0
 11
19451.16804447168
 21
10726.04673014368
 31
0.0
  0
LINE
  5
44F
330
1F
100
AcDbEntity
  8
画層1
  6
Continuous
100
AcDbLine
 10
19451.16804447168
 20
10751.04673014368
 30
0.0
 11
19501.16804447168
 21
10751.04673014368
 31
0.0
  0
LINE
  5
450
102
{ACAD_REACTORS
330
351
102
}
330
1F
100
AcDbEntity
  8
画層1
  6
Continuous
100
AcDbLine
 10
5420.485686073578
 20
13156.04673014322
 30
0.0
 11
5660.285686073393
 21
13156.04673014322
 31
0.0
  0
LINE
  5
451
102
{ACAD_REACTORS
330
351
102
}
330
1F
100
AcDbEntity
  8
画層1
  6
Continuous
100
AcDbLine
 10
5660.285686073393
 20
10776.04673014362
 30
0.0
 11
5420.485686073578
 21
10776.04673014362
 31
0.0
  0
LINE
  5
452
102
{ACAD_REACTORS
330
351
102
}
330
1F
100
AcDbEntity
  8
画層1
  6
Continuous
100
AcDbLine
 10
5420.485686073578
 20
10726.04673014362
 30
0.0
 11
5660.285686073393
 21
10726.04673014362
 31
0.0
  0
CIRCLE
  5
453
330
1F
100
AcDbEntity
  8
画層1
  6
Continuous
100
AcDbCircle
 10
5445.485686073578
 20
10751.04673014362
 30
0.0
 40
10.9509940156
  0
LINE
  5
454
330
1F
100
AcDbEntity
  8
画層1
  6
Continuous
100
AcDbLine
 10
5420.485686073578
 20
10776.04673014362
 30
0.0
 11
5420.485686073578
 21
10726.04673014362
 31
0.0
  0
LINE
  5
455
102
{ACAD_REACTORS
330
351
102
}
330
1F
100
AcDbEntity
  8
画層1
  6
Continuous
100
AcDbLine
 10
5660.285686073393
 20
10726.04673014362
 30
0.0
 11
5660.285686073393
 21
10776.04673014362
 31
0.0
  0
CIRCLE
  5
456
330
1F
100
AcDbEntity
  8
画層1
  6
Continuous
100
AcDbCircle
 10
5635.285686073394
 20
10751.04673014362
 30
0.0
 40
10.9509940156
  0
LINE
  5
457
330
1F
100
AcDbEntity
  8
画層1
  6
Continuous
100
AcDbLine
 10
5565.385686073485
 20
10726.04673014362
 30
0.0
 11
5565.385686073485
 21
10776.04673014362
 31
0.0
  0
LINE
  5
458
330
1F
100
AcDbEntity
  8
画層1
  6
Continuous
100
AcDbLine
 10
5515.385686073485
 20
10776.04673014362
 30
0.0
 11
5515.385686073485
 21
10726.04673014362
 31
0.0
  0
LWPOLYLINE
  5
459
330
1F
100
AcDbEntity
  8
画層1-1
100
AcDbPolyline
 90
        4
 70
     1
 43
0.0
 10
5697.535686073393
 20
10771.04772445766
 10
5877.535686073393
 20
10771.04772445766
 10
5877.535686073393
 20
10731.04772445766
 10
5697.535686073393
 20
10731.04772445766
  0
LINE
  5
45A
102
{ACAD_REACTORS
330
1613
102
}
330
1F
100
AcDbEntity
  8
画層1-1
  6
Continuous
100
AcDbLine
 10
5540.385686073484
 20
10751.04673014362
 30
0.0
 11
16391.06804447182
 21
10751.04673014322
 31
0.0
  0
LINE
  5
45B
330
1F
100
AcDbEntity
  8
画層1
  6
Continuous
100
AcDbLine
 10
5420.485686073578
 20
13206.04673014322
 30
0.0
 11
5420.485686073578
 21
13156.04673014322
 31
0.0
  0
LINE
  5
45C
330
1F
100
AcDbEntity
  8
画層1
  6
Continuous
100
AcDbLine
 10
13420.48568607357
 20
13206.04673014322
 30
0.0
 11
13420.48568607357
 21
13156.04673014322
 31
0.0
  0
LINE
  5
45D
330
1F
100
AcDbEntity
  8
画層1
  6
Continuous
100
AcDbLine
 10
13515.38568607348
 20
13206.04673014322
 30
0.0
 11
13515.38568607348
 21
13156.04673014322
 31
0.0
  0
LINE
  5
45E
330
1F
100
AcDbEntity
  8
画層1
  6
Continuous
100
AcDbLine
 10
13660.28568607339
 20
13156.04673014322
 30
0.0
 11
13660.28568607339
 21
13206.04673014322
 31
0.0
  0
LINE
  5
45F
330
1F
100
AcDbEntity
  8
画層1
  6
Continuous
100
AcDbLine
 10
13565.38568607348
 20
13156.04673014322
 30
0.0
 11
13565.38568607348
 21
13206.04673014322
 31
0.0
  0
LINE
  5
460
330
1F
100
AcDbEntity
  8
画層1
  6
Continuous
100
AcDbLine
 10
5565.385686073485
 20
13156.04673014322
 30
0.0
 11
5565.385686073485
 21
13206.04673014322
 31
0.0
  0
LINE
  5
461
330
1F
100
AcDbEntity
  8
画層1
  6
Continuous
100
AcDbLine
 10
5515.385686073485
 20
13206.04673014322
 30
0.0
 11
5515.385686073485
 21
13156.04673014322
 31
0.0
  0
LINE
  5
462
102
{ACAD_REACTORS
330
351
102
}
330
1F
100
AcDbEntity
  8
画層1
  6
Continuous
100
AcDbLine
 10
5660.285686073393
 20
13156.04673014322
 30
0.0
 11
5660.285686073393
 21
13206.04673014322
 31
0.0
  0
DIMENSION
  5
464
330
1F
100
AcDbEntity
  8
寸法
  6
Continuous
100
AcDbDimension
  2
*D21
 10
17471.06804447182
 20
13271.04673014327
 30
0.0
 11
17299.07094478913
 21
13454.22510870409
 31
0.0
 70
   160
 71
     5
 42
40.0
  3
1_60
100
AcDbAlignedDimension
 13
16691.06804447182
 23
13231.04673014327
 33
0.0
 14
16691.06804447182
 24
13271.04673014327
 34
0.0
 50
90.0
100
AcDbRotatedDimension
  0
DIMENSION
  5
465
330
1F
100
AcDbEntity
  8
寸法
  6
Continuous
100
AcDbDimension
  2
*D22
 10
17471.06804447182
 20
13231.04673014327
 30
0.0
 11
17303.92518732896
 21
11991.04673014325
 31
0.0
 70
    32
 71
     5
 42
2480.000000000059
  3
1_60
100
AcDbAlignedDimension
 13
16691.06804447182
 23
10751.04673014322
 33
0.0
 14
16691.06804447182
 24
13231.04673014327
 34
0.0
 50
90.0
100
AcDbRotatedDimension
  0
DIMENSION
  5
466
330
1F
100
AcDbEntity
  8
寸法
  6
Continuous
100
AcDbDimension
  2
*D23
 10
21251.06804447182
 20
13271.04673014327
 30
0.0
 11
21110.89325953744
 21
13452.32765186883
 31
0.0
 70
   160
 71
     5
 42
40.0
  3
1_60
100
AcDbAlignedDimension
 13
20471.06804447182
 23
13231.04673014327
 33
0.0
 14
20471.06804447182
 24
13271.04673014327
 34
0.0
 50
90.0
100
AcDbRotatedDimension
  0
DIMENSION
  5
467
330
1F
100
AcDbEntity
  8
寸法
  6
Continuous
100
AcDbDimension
  2
*D24
 10
21251.06804447182
 20
13231.04673014327
 30
0.0
 11
21083.92518732896
 21
11991.04673014327
 31
0.0
 70
    32
 71
     5
 42
2480.0
  3
1_60
100
AcDbAlignedDimension
 13
20471.06804447182
 23
10751.04673014327
 33
0.0
 14
20471.06804447182
 24
13231.04673014327
 34
0.0
 50
90.0
100
AcDbRotatedDimension
  0
MTEXT
  5
468
330
1F
100
AcDbEntity
  8
寸法文字
  6
Continuous
100
AcDbMText
 10
20870.66049077156
 20
14104.20103653144
 30
0.0
 40
180.0
 41
0.0
 71
     1
 72
     1
  1
（溶融亜鉛メッキ450g/㎡）
  7
1_100
 73
     1
 44
1.0
1001
ACAD
1000
MTEXTBEGIN
1070
    73
1070
     1
1070
    44
1040
1.0
1070
    74
1070
     0
1000
MTEXTEND
  0
TEXT
  5
46A
330
1F
100
AcDbEntity
  8
図面枠
 62
     3
100
AcDbText
 10
2258.429837275926
 20
376.3115164834046
 30
0.0
 40
180.0
  1
KS1-H05
 41
0.75
  7
1_100
 11
2258.429837275926
 21
376.3115164834046
 31
0.0
100
AcDbText
 73
     1
  0
TEXT
  5
46B
330
1F
100
AcDbEntity
  8
図面枠
 62
     3
100
AcDbText
 10
1225.006337816249
 20
376.1799679885474
 30
0.0
 40
180.0
  1
1/60
 41
0.75
  7
1_100
 11
1225.006337816249
 21
376.1799679885474
 31
0.0
100
AcDbText
 73
     1
  0
LINE
  5
46C
330
1F
100
AcDbEntity
  8
寸法引出
100
AcDbLine
 10
16370.47919655897
 20
5221.046721978207
 30
0.0
 11
13540.38568607348
 21
5221.04672197809
 31
0.0
1001
ACAD
1000
DSTYLE
1002
{
1070
    41
1040
3.0
1070
   341
1005
0
1002
}
  0
LWPOLYLINE
  5
46D
330
1F
100
AcDbEntity
  8
寸法引出
  6
Continuous
100
AcDbPolyline
 90
        3
 70
     0
 43
0.0
 10
16190.47919655897
 20
5269.2775761782
 10
16370.47919655897
 20
5221.046721978207
 10
16190.47919655897
 20
5172.815867778201
  0
MTEXT
  5
46E
330
1F
100
AcDbEntity
  8
画層1-1
100
AcDbMText
 10
2428.684902272268
 20
3129.168019693013
 30
0.0
 40
150.0
 41
0.0
 71
     1
 72
     5
  1
{\F|c128;・※印表記のネットを使用する場合標準柱スパンは変更になる場合があります}
  7
1_100
 73
     1
 44
1.0
1001
AcDbBlockRepETag
1070
     1
1071
        0
1005
46E
1001
ACAD
1000
MTEXTBEGIN
1070
    73
1070
     1
1070
    44
1040
1.0
1070
    74
1070
     0
1000
MTEXTEND
  0
MTEXT
  5
46F
330
1F
100
AcDbEntity
  8
画層1-1
100
AcDbMText
 10
2428.684902272268
 20
1414.611778675996
 30
0.0
 40
150.0
 41
0.0
 71
     1
 72
     5
  1
・速度圧　q=0.6EVo （N/㎡）　・地表面粗度区分　　　・基礎　普通土質 [B] を選定
  7
1_100
 73
     1
 44
1.0
1001
AcDbBlockRepETag
1070
     1
1071
        1
1005
46F
1001
ACAD
1000
MTEXTBEGIN
1070
    73
1070
     1
1070
    44
1040
1.0
1070
    74
1070
     0
1000
MTEXTEND
  0
MTEXT
  5
470
330
1F
100
AcDbEntity
  8
画層1-1
100
AcDbMText
 10
2428.684902272268
 20
4029.168019693012
 30
0.0
 40
150.0
 41
0.0
 71
     1
 72
     5
  1
・主柱．端末ポール．バンド金具．ボルトは溶融亜鉛メッキ仕上げとする
  7
1_100
 73
     1
 44
1.0
1001
AcDbBlockRepETag
1070
     1
1071
        2
1005
470
1001
ACAD
1000
MTEXTBEGIN
1070
    73
1070
     1
1070
    44
1040
1.0
1070
    74
1070
     0
1000
MTEXTEND
  0
MTEXT
  5
471
330
1F
100
AcDbEntity
  8
画層1-1
100
AcDbMText
 10
2428.684902272268
 20
3729.168019693013
 30
0.0
 40
150.0
 41
0.0
 71
     1
 72
     5
  1
・主柱ポール基礎部（ＧＬ）はＦＲＰ被覆補強とする
  7
1_100
 73
     1
 44
1.0
1001
AcDbBlockRepETag
1070
     1
1071
        3
1005
471
1001
ACAD
1000
MTEXTBEGIN
1070
    73
1070
     1
1070
    44
1040
1.0
1070
    74
1070
     0
1000
MTEXTEND
  0
MTEXT
  5
472
330
1F
100
AcDbEntity
  8
画層1-1
100
AcDbMText
 10
2428.684902272268
 20
2398.989058685325
 30
0.0
 40
150.0
 41
0.0
 71
     1
 72
     5
  1
・構造計算書．材料承認願いを提出後施工のこと
  7
1_100
 73
     1
 44
1.0
1001
AcDbBlockRepETag
1070
     1
1071
        4
1005
472
1001
ACAD
1000
MTEXTBEGIN
1070
    73
1070
     1
1070
    44
1040
1.0
1070
    74
1070
     0
1000
MTEXTEND
  0
MTEXT
  5
473
330
1F
100
AcDbEntity
  8
画層1-1
100
AcDbMText
 10
2428.684902272268
 20
3429.168019693013
 30
0.0
 40
150.0
 41
0.0
 71
     1
 72
     5
  1
・上部（補強ポール・ネット）下り防止金具付きとする
  7
1_100
 73
     1
 44
1.0
1001
AcDbBlockRepETag
1070
     1
1071
        5
1005
473
1001
ACAD
1000
MTEXTBEGIN
1070
    73
1070
     1
1070
    44
1040
1.0
1070
    74
1070
     0
1000
MTEXTEND
  0
POINT
  5
474
330
1F
100
AcDbEntity
  8
画層1-1
100
AcDbPoint
 10
1020.385701034182
 20
1138.029712768598
 30
0.0
1001
AcDbBlockRepETag
1070
     1
1071
        6
1005
474
  0
MTEXT
  5
475
330
1F
100
AcDbEntity
  8
画層1-1
100
AcDbMText
 10
2178.684902272268
 20
2030.327801002269
 30
0.0
 40
200.0
 41
0.0
 71
     1
 72
     5
  1
設計条件
  7
1_100
 73
     1
 44
1.0
1001
AcDbBlockRepETag
1070
     1
1071
        7
1005
475
1001
ACAD
1000
MTEXTBEGIN
1070
    73
1070
     1
1070
    44
1040
1.0
1070
    74
1070
     0
1000
MTEXTEND
  0
MTEXT
  5
476
330
1F
100
AcDbEntity
  8
画層1-1
100
AcDbMText
 10
2178.684902272268
 20
2724.500609359849
 30
0.0
 40
200.0
 41
0.0
 71
     1
 72
     5
  1
特記
  7
1_100
 73
     1
 44
1.0
1001
AcDbBlockRepETag
1070
     1
1071
        8
1005
476
1001
ACAD
1000
MTEXTBEGIN
1070
    73
1070
     1
1070
    44
1040
1.0
1070
    74
1070
     0
1000
MTEXTEND
  0
MTEXT
  5
477
330
1F
100
AcDbEntity
  8
画層1-1
100
AcDbMText
 10
2178.684902272268
 20
4364.882503662399
 30
0.0
 40
200.0
 41
0.0
 71
     1
 72
     5
  1
仕様について
  7
1_100
 73
     1
 44
1.0
1001
AcDbBlockRepETag
1070
     1
1071
        9
1005
477
1001
ACAD
1000
MTEXTBEGIN
1070
    73
1070
     1
1070
    44
1040
1.0
1070
    74
1070
     0
1000
MTEXTEND
  0
MTEXT
  5
478
330
1F
100
AcDbEntity
  8
画層1-1
100
AcDbMText
 10
5877.048157623779
 20
1383.523537912078
 30
0.0
 40
150.0
 41
0.0
 71
     1
 72
     5
  1
Ⅲ
  7
STYLE1
 73
     1
 44
1.0
1001
AcDbBlockRepETag
1070
     1
1071
       10
1005
478
1001
ACAD
1000
MTEXTBEGIN
1070
    73
1070
     1
1070
    44
1040
1.0
1070
    74
1070
     0
1000
MTEXTEND
  0
MTEXT
  5
479
330
1F
100
AcDbEntity
  8
画層1-1
100
AcDbMText
 10
3920.423887278281
 20
1396.854991350424
 30
0.0
 40
60.0
 41
0.0
 71
     1
 72
     5
  1
2
  7
1_100
 73
     1
 44
1.0
1001
AcDbBlockRepETag
1070
     1
1071
       11
1005
479
1001
ACAD
1000
MTEXTBEGIN
1070
    73
1070
     1
1070
    44
1040
1.0
1070
    74
1070
     0
1000
MTEXTEND
  0
MTEXT
  5
47A
330
1F
100
AcDbEntity
  8
画層1-1
100
AcDbMText
 10
2428.684902272268
 20
1653.45494855201
 30
0.0
 40
150.0
 41
0.0
 71
     1
 72
     5
  1
・設計荷重。建築基準法・同施工令（平成12年6月）に基づく風圧力に依る、基準風速。
  7
1_100
 73
     1
 44
1.0
1001
AcDbBlockRepETag
1070
     1
1071
       12
1005
47A
1001
ACAD
1000
ACAD_MTEXT_DEFINED_HEIGHT_BEGIN
1070
    46
1040
0.0
1000
ACAD_MTEXT_DEFINED_HEIGHT_END
1000
MTEXTBEGIN
1070
    73
1070
     1
1070
    44
1040
1.0
1070
    74
1070
     0
1000
MTEXTEND
  0
HATCH
  5
718
330
1F
100
AcDbEntity
  8
ﾊｯﾁﾝｸﾞ
100
AcDbHatch
 10
0.0
 20
0.0
 30
0.0
210
0.0
220
0.0
230
1.0
  2
PLAST
 70
     0
 71
     0
 91
        2
 92
        7
 72
     0
 73
     1
 93
        7
 10
19796.06804447182
 20
8071.046730143274
 10
19821.06804447182
 20
8071.046730143274
 10
19821.06804447182
 20
8271.046730143273
 10
19571.06804447182
 20
8271.046730143273
 10
19571.06804447182
 20
7023.425408119972
 10
19572.82208698479
 20
7021.046730143274
 10
19796.06804447182
 20
7021.046730143274
 97
        0
 92
        7
 72
     0
 73
     1
 93
        6
 10
19571.06804447182
 20
8271.046730143279
 10
19321.06804447182
 20
8271.046730143279
 10
19321.06804447182
 20
8071.046730143274
 10
19346.06804447182
 20
8071.046730143274
 10
19346.06804447182
 20
7021.046730143275
 10
19571.06804447182
 20
7021.046730143274
 97
        0
 75
     0
 76
     1
 52
45.0
 41
80.0
 77
     0
 78
     3
 53
45.0
 43
800.0
 44
0.0
 45
-359.2102448427661
 46
359.2102448427661
 79
     0
 53
45.0
 43
755.0987193946542
 44
44.90128060534575
 45
-359.2102448427661
 46
359.2102448427661
 79
     0
 53
45.0
 43
710.1974387893083
 44
89.80256121069151
 45
-359.2102448427661
 46
359.2102448427661
 79
     0
 47
10.07363667641612
 98
        2
 10
19725.51753700989
 20
7541.361439224035
 10
19453.39340770914
 20
7490.993246202743
  0
HATCH
  5
728
330
1F
100
AcDbEntity
  8
ﾊｯﾁﾝｸﾞ
100
AcDbHatch
 10
0.0
 20
0.0
 30
0.0
210
0.0
220
0.0
230
1.0
  2
PLAST
 70
     0
 71
     0
 91
        2
 92
        7
 72
     0
 73
     1
 93
        6
 10
5765.385686073485
 20
8071.046730143216
 10
5790.385686073484
 20
8071.046730143216
 10
5790.385686073484
 20
8271.046730143217
 10
5540.385686073484
 20
8271.046730143217
 10
5540.385686073486
 20
7021.046730143218
 10
5765.385686073484
 20
7021.046730143216
 97
        0
 92
        7
 72
     0
 73
     1
 93
        6
 10
5540.385686073484
 20
8271.046730143217
 10
5290.385686073484
 20
8271.046730143218
 10
5290.385686073484
 20
8071.046730143216
 10
5315.385686073484
 20
8071.046730143216
 10
5315.385686073486
 20
7021.046730143218
 10
5540.385686073486
 20
7021.046730143216
 97
        0
 75
     0
 76
     1
 52
45.0
 41
80.0
 77
     0
 78
     3
 53
45.0
 43
0.0
 44
0.0
 45
-359.2102448427661
 46
359.2102448427661
 79
     0
 53
45.0
 43
-44.90128060534575
 44
44.90128060534575
 45
-359.2102448427661
 46
359.2102448427661
 79
     0
 53
45.0
 43
-89.80256121069151
 44
89.80256121069151
 45
-359.2102448427661
 46
359.2102448427661
 79
     0
 47
4.411163419011976
 98
        2
 10
5673.799051210677
 20
7756.557589684359
 10
5479.610919280951
 20
7690.390154281974
  0
HATCH
  5
740
330
1F
100
AcDbEntity
  8
ﾊｯﾁﾝｸﾞ
100
AcDbHatch
 10
0.0
 20
0.0
 30
0.0
210
0.0
220
0.0
230
1.0
  2
PLAST
 70
     0
 71
     0
 91
        2
 92
        7
 72
     0
 73
     1
 93
        7
 10
13765.38568607348
 20
8071.046730143274
 10
13790.38568607348
 20
8071.046730143274
 10
13790.38568607348
 20
8271.046730143215
 10
13540.38568607348
 20
8271.046730143213
 10
13540.38568607348
 20
7023.425408120356
 10
13542.13972858669
 20
7021.046730143274
 10
13765.38568607348
 20
7021.046730143275
 97
        0
 92
        7
 72
     0
 73
     1
 93
        6
 10
13540.38568607349
 20
8271.046730143217
 10
13290.38568607348
 20
8271.046730143215
 10
13290.38568607348
 20
8071.046730143274
 10
13315.38568607348
 20
8071.046730143274
 10
13315.38568607348
 20
7021.046730143275
 10
13540.38568607348
 20
7021.046730143275
 97
        0
 75
     0
 76
     1
 52
45.0
 41
80.0
 77
     0
 78
     3
 53
45.0
 43
2000.0
 44
0.0
 45
-359.2102448427661
 46
359.2102448427661
 79
     0
 53
45.0
 43
1955.098719394654
 44
44.90128060534575
 45
-359.2102448427661
 46
359.2102448427661
 79
     0
 53
45.0
 43
1910.197438789309
 44
89.80256121069151
 45
-359.2102448427661
 46
359.2102448427661
 79
     0
 47
18.02143705081842
 98
        2
 10
13613.286923984
 20
7417.463954919703
 10
13487.07379197866
 20
7417.463954919703
  0
LINE
  5
D4F
102
{ACAD_REACTORS
330
D52
102
}
330
1F
100
AcDbEntity
  8
画層2-1
  6
Continuous
100
AcDbLine
 10
5720.285686073394
 20
13181.04673014321
 30
0.0
 11
5660.285686073393
 21
13181.04673014321
 31
0.0
  0
LINE
  5
D50
102
{ACAD_REACTORS
330
D52
102
}
330
1F
100
AcDbEntity
  8
画層2-1
  6
Continuous
100
AcDbLine
 10
13360.48568607357
 20
13181.04673014321
 30
0.0
 11
13420.48568607357
 21
13181.04673014321
 31
0.0
  0
LWPOLYLINE
  5
D51
102
{ACAD_REACTORS
330
D52
102
}
330
1F
100
AcDbEntity
  8
画層2-1
  6
Continuous
100
AcDbPolyline
 90
        4
 70
     1
 43
0.0
 10
5720.285686073394
 20
13238.19673014318
 10
13360.48568607357
 20
13238.19673014318
 10
13360.48568607357
 20
13123.89673014319
 10
5720.285686073394
 20
13123.89673014319
  0
LINE
  5
15E6
330
1F
100
AcDbEntity
  8
画層1-1
  6
Continuous
100
AcDbLine
 10
5635.285686073394
 20
13181.04673014321
 30
0.0
 11
13445.48568607358
 21
8296.046730143215
 31
0.0
  0
LINE
  5
15E8
102
{ACAD_REACTORS
330
1613
102
}
330
1F
100
AcDbEntity
  8
画層1-1
  6
Continuous
100
AcDbLine
 10
16391.06804447181
 20
10019.68976371162
 30
0.0
 11
13635.28568607339
 21
8296.046730143215
 31
0.0
  0
LWPOLYLINE
  5
15E9
330
1F
100
AcDbEntity
  8
画層1-1
100
AcDbPolyline
 90
        4
 70
     1
 43
0.0
 10
13701.77468379373
 20
8361.22366799624
 10
13854.38306317003
 20
8456.673563460563
 10
13875.5941510512
 20
8422.760590265841
 10
13722.9857716749
 20
8327.31069480152
  0
LINE
  5
15EA
102
{ACAD_REACTORS
330
1613
102
}
330
1F
100
AcDbEntity
  8
画層1-1
  6
Continuous
100
AcDbLine
 10
13635.28568607339
 20
13181.04673014321
 30
0.0
 11
16391.06804447181
 21
11457.40369657481
 31
0.0
  0
HATCH
  5
1613
330
1F
100
AcDbEntity
  8
ﾈｯﾄ
 62
   230
370
    13
100
AcDbHatch
 10
0.0
 20
0.0
 30
0.0
210
0.0
220
0.0
230
1.0
  2
NET
 70
     0
 71
     1
 91
        4
 92
        7
 72
     0
 73
     1
 93
        4
 10
15515.65969104326
 20
8296.046730143215
 10
16391.06804447182
 20
8296.046730143215
 10
16391.06804447182
 20
10019.68976371162
 10
15292.94446349075
 20
9332.852846207286
 97
        4
330
15E8
330
347
330
3FB
330
348
 92
        7
 72
     0
 73
     1
 93
        4
 10
16391.06804447182
 20
10019.68976371163
 10
16391.06804447182
 20
10751.04673014322
 10
14988.30373203612
 20
10751.04673014327
 10
15292.94446349074
 20
9332.852846207281
 97
        4
330
348
330
45A
330
347
330
15E8
 92
        7
 72
     0
 73
     1
 93
        4
 10
14988.30373203612
 20
10751.04673014327
 10
16391.06804447182
 20
10751.04673014322
 10
16391.06804447182
 20
11457.4036965748
 10
14595.30115432286
 20
12580.59148413178
 97
        4
330
15EA
330
347
330
45A
330
348
 92
        7
 72
     0
 73
     1
 93
        4
 10
16391.06804447182
 20
13231.04673014322
 10
14455.57754941387
 20
13231.04673014321
 10
14595.30115432286
 20
12580.59148413178
 10
16391.06804447182
 20
11457.40369657481
 97
        4
330
438
330
347
330
15EA
330
348
 75
     0
 76
     1
 52
0.0
 41
25.0
 77
     0
 78
     2
 53
0.0
 43
0.0
 44
0.0
 45
0.0
 46
79.375
 79
     0
 53
90.0
 43
0.0
 44
0.0
 45
-79.375
 46
0.0000000000000049
 79
     0
 47
15.98495529740976
 98
        4
 10
15803.0602120852
 20
9056.165970304865
 10
15627.06837158184
 20
9855.413669476753
 10
15051.09522971103
 20
11357.99957883521
 10
15835.05885199783
 20
12636.7960076268
  0
MTEXT
  5
1958
330
1F
100
AcDbEntity
  8
寸法文字
  6
Continuous
100
AcDbMText
 10
7578.071387976206
 20
12330.72924700954
 30
0.0
 40
120.0
 41
0.0
 71
     1
 72
     1
  1
※KRP-40　1100D18本40mm目（再生ポリエステル100%）\P※KSP-24　37.5mm目（ｽｰﾊﾟｰﾎﾟﾘｴﾁﾚﾝ）
  7
1_100
 73
     1
 44
1.0
1001
ACAD
1000
MTEXTBEGIN
1070
    73
1070
     1
1070
    44
1040
1.0
1070
    74
1070
     0
1000
MTEXTEND
  0
MTEXT
  5
1959
330
1F
100
AcDbEntity
  8
寸法文字
  6
Continuous
100
AcDbMText
 10
7563.330076594652
 20
12439.79299789036
 30
0.0
 40
180.0
 41
0.0
 71
     7
 72
     1
  1
ネット\Pクレモナ250D/80本×37.5mm目
  7
1_100
 73
     1
 44
0.6
1001
ACAD
1000
MTEXTBEGIN
1070
    73
1070
     1
1070
    44
1040
0.6
1070
    74
1070
     0
1000
MTEXTEND
  0
LEADER
  5
195A
330
1F
100
AcDbEntity
  8
寸法引出
100
AcDbLeader
  3
1_50
 71
     0
 76
     3
 10
7247.723237985654
 20
11994.90316911012
 30
0.0
 10
7443.330076594651
 20
12379.79299789036
 30
0.0
 10
10994.79462466327
 20
12379.79299789036
 30
0.0
210
0.0
220
0.0
230
0.9999999999999998
1001
ACAD
1000
DSTYLE
1002
{
1070
    41
1040
1.0
1070
   341
1005
87
1070
   147
1040
0.625
1070
    77
1070
     0
1002
}
  0
ENDSEC
  0
SECTION
  2
OBJECTS
  0
DICTIONARY
  5
C
330
0
100
AcDbDictionary
281
     1
  3
ACAD_COLOR
350
6B
  3
ACAD_GROUP
350
D
  3
ACAD_LAYOUT
350
1A
  3
ACAD_MATERIAL
350
6A
  3
ACAD_MLINESTYLE
350
17
  3
ACAD_PLOTSETTINGS
350
19
  3
ACAD_PLOTSTYLENAME
350
E
  3
ACAD_TABLESTYLE
350
1654
  3
ACDBHEADERROUNDTRIPXREC
350
1C4E
  3
AcDbVariableDictionary
350
5E
  3
ADE_QUERY_LIBRARY
350
1942
  3
AEC_CLASSIFICATION_SYSTEM_DEFS
350
1955
  3
AEC_VARS
350
168A
  3
ASE_INDEX_DICTIONARY
350
193E
  3
Autodesk_MAP
350
165C
  3
DWGPROPS
350
1C4D
  3
Root
350
1974
1001
ADE
1000
ADE02C004
1000
[Query]
1000
CaseSensitiveMatch=0
1000
SaveCurrQueryInSession=1
1000
MkSelSetWithQryObj=0
1000
ShowBlockAsInsPt=0
1000
CreateAssociativeHatchObjects=0
1000
ReferenceBoundaryForAreaLocation=1
1000
ShowImageAsBoundary=1
1000
DefaultJoinOperator=2
1000
ColorForAdd=red
1000
ColorForRemove=red
1000
BlockLocnForQuery=1
1000
TextLocnForQuery=1
1000
IncludeAllObjectsInGroups=0
1000
AlwaysUseLibraryDefinitions=0
1000
PreviewDefinitionsFrom=2
1000
[Save Back]
1000
RedefineBlockDefinitions=1
1000
RedefineLayerDefinitions=1
1000
RedefineTextStyleDefinitions=1
1000
RemoveUnusedGroups=1
1000
EraseSavedBackObjects=1
1000
RemoveLockAfterSave=1
1000
CreateHistoryFileOfChanges=0
1000
CreateBackupFileOfSourceDwg=1
1000
DontAddObjectsToSaveSet=0
1000
MarkObjectsForEditingWithoutPrompting=0
1000
[Coordinate Transformation]
1000
RestoreLastActiveDwgsOnStartup=1
1000
ActivateDwgsOnAttach=1
1000
AdjustSizesAndScalesForChangesInUnits=1
1000
AdjustRotationsForMapDistortions=1
1000
AdjustSizesAndScalesForMapDistortions=1
1000
AdjustElevations=1
1000
AdjustZeroRotationObjects=1
1000
ReconnectDbOnWSOpen=1
1000
NoOfSQLConditionsInHistory=10
  0
DICTIONARY
  5
6B
102
{ACAD_REACTORS
330
C
102
}
330
C
100
AcDbDictionary
281
     1
  0
DICTIONARY
  5
D
102
{ACAD_REACTORS
330
C
102
}
330
C
100
AcDbDictionary
281
     1
  3
*A1
350
D4E
  3
*A2
350
D52
  0
DICTIONARY
  5
1A
102
{ACAD_REACTORS
330
C
102
}
330
C
100
AcDbDictionary
281
     1
  3
Model
350
22
  3
レイアウト1
350
51
  3
レイアウト2
350
56
  0
DICTIONARY
  5
6A
102
{ACAD_REACTORS
330
C
102
}
330
C
100
AcDbDictionary
281
     1
  0
DICTIONARY
  5
17
102
{ACAD_REACTORS
330
C
102
}
330
C
100
AcDbDictionary
281
     1
  3
Standard
350
18
  0
DICTIONARY
  5
19
102
{ACAD_REACTORS
330
C
102
}
330
C
100
AcDbDictionary
281
     1
  0
ACDBDICTIONARYWDFLT
  5
E
102
{ACAD_REACTORS
330
C
102
}
330
C
100
AcDbDictionary
281
     1
  3
Normal
350
F
100
AcDbDictionaryWithDefault
340
F
  0
DICTIONARY
  5
1654
102
{ACAD_REACTORS
330
C
102
}
330
C
100
AcDbDictionary
281
     1
  3
Legend
350
1660
  3
Standard
350
1655
  0
DICTIONARY
  5
1C4E
102
{ACAD_REACTORS
330
C
102
}
330
C
100
AcDbDictionary
281
     1
  0
DICTIONARY
  5
5E
102
{ACAD_REACTORS
330
C
102
}
330
C
100
AcDbDictionary
281
     1
  3
CTABLESTYLE
350
1944
  3
DIMASSOC
350
5F
  3
HIDETEXT
350
63
  3
PROJECTNAME
350
765
  3
SORTENTS
350
15EE
  0
DICTIONARY
  5
1942
102
{ACAD_REACTORS
330
C
102
}
330
C
100
AcDbDictionary
281
     1
  3
_CurrQry
350
1C4B
  0
DICTIONARY
  5
1955
102
{ACAD_REACTORS
330
C
102
}
330
C
100
AcDbDictionary
281
     1
  0
DICTIONARY
  5
168A
102
{ACAD_REACTORS
330
C
102
}
330
C
100
AcDbDictionary
281
     1
  3
AEC_VARS_DWG_SETUP
350
1999
  0
DICTIONARY
  5
193E
102
{ACAD_REACTORS
330
C
102
}
330
C
100
AcDbDictionary
281
     1
  3
ASEBlockHierarchyIndexRecord
350
1940
1001
DCO15
1040
1621337699.175
  0
DICTIONARY
  5
165C
102
{ACAD_REACTORS
330
C
102
}
330
C
100
AcDbDictionary
281
     1
  3
MAP_DISPLAY_MANAGEMENT_DICTIONARY
350
165D
  3
MAP_DISPLAY_STYLELIBRARY_DICTIONARY
350
165E
  0
XRECORD
  5
1C4D
102
{ACAD_REACTORS
330
C
102
}
330
C
100
AcDbXrecord
280
     1
  1
DWGPROPS COOKIE
  2

  3

  4

  6

  7

  8

  9

300
=
301
=
302
=
303
=
304
=
305
=
306
=
307
=
308
=
309
=
 40
0.0603805324074074
 41
2454357.826297014
 42
2454568.694481192
  1

 90
        0
  0
GROUP
  5
D4E
102
{ACAD_REACTORS
330
D
102
}
330
D
100
AcDbGroup
300

 70
     1
 71
     1
  0
GROUP
  5
D52
102
{ACAD_REACTORS
330
D
102
}
330
D
100
AcDbGroup
300

 70
     1
 71
     1
340
D4F
340
D50
340
D51
  0
LAYOUT
  5
22
102
{ACAD_XDICTIONARY
360
1C4F
102
}
102
{ACAD_REACTORS
330
1A
102
}
330
1A
100
AcDbPlotSettings
  1

  2
EPSON PM-3000C
  4
A4
  6

 40
3.757083177566528
 41
14.7637300491333
 42
3.757080078125
 43
3.757080078125
 44
209.9733276367186
 45
296.9683227539062
 46
0.0
 47
0.0
 48
0.0
 49
0.0
140
0.0
141
0.0
142
1.0
143
86.17262407657177
 70
 11952
 72
     1
 73
     1
 74
     0
  7
2.ctb
 75
     0
147
0.0116046135384181
148
-919.3390937021268
149
564.8408227592662
100
AcDbLayout
  1
Model
 70
     1
 71
     0
 10
0.0
 20
0.0
 11
12.0
 21
9.0
 12
0.0
 22
0.0
 32
0.0
 14
0.0
 24
0.0
 34
0.0
 15
0.0
 25
0.0
 35
0.0
146
0.0
 13
0.0
 23
0.0
 33
0.0
 16
1.0
 26
0.0
 36
0.0
 17
0.0
 27
1.0
 37
0.0
 76
     0
330
1F
  0
LAYOUT
  5
51
102
{ACAD_XDICTIONARY
360
1C51
102
}
102
{ACAD_REACTORS
330
1A
102
}
330
1A
100
AcDbPlotSettings
  1

  2
None
  4

  6

 40
0.0
 41
0.0
 42
0.0
 43
0.0
 44
0.0
 45
0.0
 46
0.0
 47
0.0
 48
0.0
 49
0.0
140
0.0
141
0.0
142
1.0
143
1.0
 70
   688
 72
     0
 73
     0
 74
     5
  7

 75
    16
147
1.0
148
0.0
149
0.0
100
AcDbLayout
  1
レイアウト1
 70
     1
 71
     1
 10
0.0
 20
0.0
 11
12.0
 21
9.0
 12
0.0
 22
0.0
 32
0.0
 14
0.0
 24
0.0
 34
0.0
 15
0.0
 25
0.0
 35
0.0
146
0.0
 13
0.0
 23
0.0
 33
0.0
 16
1.0
 26
0.0
 36
0.0
 17
0.0
 27
1.0
 37
0.0
 76
     0
330
50
  0
LAYOUT
  5
56
102
{ACAD_XDICTIONARY
360
1C53
102
}
102
{ACAD_REACTORS
330
1A
102
}
330
1A
100
AcDbPlotSettings
  1

  2
None
  4

  6

 40
0.0
 41
0.0
 42
0.0
 43
0.0
 44
0.0
 45
0.0
 46
0.0
 47
0.0
 48
0.0
 49
0.0
140
0.0
141
0.0
142
1.0
143
1.0
 70
   688
 72
     0
 73
     0
 74
     5
  7

 75
    16
147
1.0
148
0.0
149
0.0
100
AcDbLayout
  1
レイアウト2
 70
     1
 71
     2
 10
0.0
 20
0.0
 11
12.0
 21
9.0
 12
0.0
 22
0.0
 32
0.0
 14
0.0
 24
0.0
 34
0.0
 15
0.0
 25
0.0
 35
0.0
146
0.0
 13
0.0
 23
0.0
 33
0.0
 16
1.0
 26
0.0
 36
0.0
 17
0.0
 27
1.0
 37
0.0
 76
     0
330
55
  0
MLINESTYLE
  5
18
102
{ACAD_REACTORS
330
17
102
}
330
17
100
AcDbMlineStyle
  2
STANDARD
 70
     0
  3

 62
   256
 51
90.0
 52
90.0
 71
     2
 49
0.5
 62
   256
  6
BYLAYER
 49
-0.5
 62
   256
  6
BYLAYER
  0
ACDBPLACEHOLDER
  5
F
102
{ACAD_REACTORS
330
E
102
}
330
E
  0
TABLESTYLE
  5
1660
102
{ACAD_REACTORS
330
1654
102
}
330
1654
100
AcDbTableStyle
  3

 70
     0
 71
     1
 40
0.06
 41
0.06
280
     0
281
     0
  7
Standard
140
0.4
170
     4
 62
     0
 63
     7
283
     0
274
    -2
284
     0
 64
     0
275
    -2
285
     0
 65
     0
276
    -2
286
     1
 66
     0
277
    -2
287
     1
 67
     0
278
    -2
288
     0
 68
     0
279
    -2
289
     1
 69
     0
  7
Standard
140
0.5
170
     5
 62
     0
 63
     7
283
     0
274
    -2
284
     1
 64
     0
275
    -2
285
     0
 65
     0
276
    -2
286
     1
 66
     0
277
    -2
287
     1
 67
     0
278
    -2
288
     0
 68
     0
279
    -2
289
     1
 69
     0
  7
Standard
140
0.4
170
     4
 62
     0
 63
     7
283
     0
274
    -2
284
     1
 64
     0
275
    -2
285
     0
 65
     0
276
    -2
286
     1
 66
     0
277
    -2
287
     1
 67
     0
278
    -2
288
     0
 68
     0
279
    -2
289
     1
 69
     0
  0
TABLESTYLE
  5
1655
102
{ACAD_REACTORS
330
1654
102
}
330
1654
100
AcDbTableStyle
  3
Standard
 70
     0
 71
     0
 40
1.5
 41
1.5
280
     0
281
     0
  7
Standard
140
4.5
170
     2
 62
     0
 63
     7
283
     0
274
    -2
284
     1
 64
     0
275
    -2
285
     1
 65
     0
276
    -2
286
     1
 66
     0
277
    -2
287
     1
 67
     0
278
    -2
288
     1
 68
     0
279
    -2
289
     1
 69
     0
  7
Standard
140
6.0
170
     5
 62
     0
 63
     7
283
     0
274
    -2
284
     1
 64
     0
275
    -2
285
     1
 65
     0
276
    -2
286
     1
 66
     0
277
    -2
287
     1
 67
     0
278
    -2
288
     1
 68
     0
279
    -2
289
     1
 69
     0
  7
Standard
140
4.5
170
     5
 62
     0
 63
     7
283
     0
274
    -2
284
     1
 64
     0
275
    -2
285
     1
 65
     0
276
    -2
286
     1
 66
     0
277
    -2
287
     1
 67
     0
278
    -2
288
     1
 68
     0
279
    -2
289
     1
 69
     0
  0
DICTIONARYVAR
  5
1944
102
{ACAD_REACTORS
330
5E
102
}
330
5E
100
DictionaryVariables
280
     0
  1
STANDARD
  0
DICTIONARYVAR
  5
5F
102
{ACAD_REACTORS
330
5E
102
}
330
5E
100
DictionaryVariables
280
     0
  1
2
  0
DICTIONARYVAR
  5
63
102
{ACAD_REACTORS
330
5E
102
}
330
5E
100
DictionaryVariables
280
     0
  1
1
  0
DICTIONARYVAR
  5
765
102
{ACAD_REACTORS
330
5E
102
}
330
5E
100
DictionaryVariables
280
     0
  1

  0
DICTIONARYVAR
  5
15EE
102
{ACAD_REACTORS
330
5E
102
}
330
5E
100
DictionaryVariables
280
     0
  1
96
  0
XRECORD
  5
1C4B
102
{ACAD_REACTORS
330
1942
102
}
330
1942
100
AcDbXrecord
280
     1
1000
ADE02C001
1070
     1
1070
     0
1002
{
1002
}
1002
{
1002
}
1002
{
1002
}
1000

  0
XRECORD
  5
1940
102
{ACAD_REACTORS
330
193E
102
}
330
193E
100
AcDbXrecord
280
     1
330
1532
330
1533
330
15D4
330
15D5
330
1529
330
152A
330
15CB
330
15CC
330
15AF
330
15B0
330
15BA
330
15BB
330
15A5
330
15A6
330
159C
330
159D
330
150C
330
150D
330
1502
330
1503
330
6DA
330
6DB
330
6D0
330
6D1
330
1592
330
1593
330
14ED
330
14EE
330
14E5
330
14E6
330
14F9
330
14FA
330
14DB
330
14DC
330
153E
330
153F
330
651
330
652
330
15E0
330
15E1
330
15C2
330
15C3
330
1521
330
1522
330
1515
330
1516
  0
DMMAPMANAGER
  5
165D
102
{ACAD_REACTORS
330
165C
102
}
330
165C
100
AcDbDictionary
281
     1
  3
DisplayMap1
350
165F
100
AcDbDictionaryWithDefault
340
165F
100
AcMapDMMapManager
 70
     1
340
165F
  0
DMSTYLELIBRARY
  5
165E
102
{ACAD_REACTORS
330
165C
102
}
330
165C
100
AcMapDMStyleLibrary
 70
     1
 70
     1
360
1664
  0
DICTIONARY
  5
1C4F
330
22
100
AcDbDictionary
280
     1
281
     1
  3
ACAD_XREC_ROUNDTRIP
360
1C50
  0
DICTIONARY
  5
1C51
330
51
100
AcDbDictionary
280
     1
281
     1
  3
ACAD_XREC_ROUNDTRIP
360
1C52
  0
DICTIONARY
  5
1C53
330
56
100
AcDbDictionary
280
     1
281
     1
  3
ACAD_XREC_ROUNDTRIP
360
1C54
  0
DMMAP
  5
165F
102
{ACAD_REACTORS
330
165D
330
1661
102
}
330
165D
100
AcMapDMMap
 70
     1
  1
既定値
 70
     1
330
0
100
AcMapDMMap
 70
     1
 90
        1
360
1661
 90
        1
 40
1.797693134862314E+99
 70
     1
100
AcMapDMMap
 70
     2
 70
     0
 40
1.797693134862314E+99
290
     0
290
     1
 40
1.0
 40
3.0
  1
Legend
 90
        1
 40
1.797693134862314E+99
  1

 70
     0
 40
1.0
 70
     1
 90
        0
 90
        1
360
1662
  0
DMSTYLECATEGORY
  5
1664
102
{ACAD_REACTORS
330
165E
102
}
330
165E
100
AcMapDMStyleCategory
 70
     1
  1
スタイルを表示
 70
     0
  0
XRECORD
  5
1C50
102
{ACAD_REACTORS
330
1C4F
102
}
330
1C4F
100
AcDbXrecord
280
     1
102
SHADEPLOT
 70
     0
102
SHADEPLOTRESLEVEL
 70
     2
102
SHADEPLOTCUSTOMDPI
 70
   300
  0
XRECORD
  5
1C52
102
{ACAD_REACTORS
330
1C51
102
}
330
1C51
100
AcDbXrecord
280
     1
102
SHADEPLOT
 70
     0
102
SHADEPLOTRESLEVEL
 70
     2
102
SHADEPLOTCUSTOMDPI
 70
   300
  0
XRECORD
  5
1C54
102
{ACAD_REACTORS
330
1C53
102
}
330
1C53
100
AcDbXrecord
280
     1
102
SHADEPLOT
 70
     0
102
SHADEPLOTRESLEVEL
 70
     2
102
SHADEPLOTCUSTOMDPI
 70
   300
  0
DMBASEELEMENT
  5
1661
102
{ACAD_REACTORS
330
165F
102
}
330
165F
100
AcMapDMBaseElement
 70
     1
  1
マップ ベース
 70
     1
330
165F
100
AcMapDMBaseElement
 70
     1
  1

 70
     2
  1

 70
     1
 40
1.797693134862314E+99
 70
     1
 70
     1
 70
     1
 70
     1
360
1663
100
AcMapDMBaseElement
 70
     1
  0
DMDEFAULTSTYLE
  5
1662
102
{ACAD_REACTORS
330
165F
102
}
330
165F
100
AcMapDMDefaultStyle
 70
     1
 90
        1
  1
既定値
100
AcMapDMDefaultStyle
 70
     1
280
   100
 90
     0
  0
DMSTYLEREFERENCE
  5
1663
330
1661
100
AcMapDMStyleReference
 70
     1
 70
     0
340
1662
330
165F
  0
ENDSEC
  0
EOF
