  0
SECTION
  2
HEADER
  9
$ACADVER
  1
AC1015
  9
$ACADMAINTVER
 70
    20
  9
$DWGCODEPAGE
  3
ANSI_932
  9
$INSBASE
 10
0.0
 20
0.0
 30
0.0
  9
$EXTMIN
 10
1616.473507474336
 20
1666.795137680725
 30
-0.0000000349181948
  9
$EXTMAX
 10
40621.33230746056
 20
27810.18727520068
 30
0.0000000814935747
  9
$LIMMIN
 10
0.0
 20
0.0
  9
$LIMMAX
 10
420.0
 20
297.0
  9
$ORTHOMODE
 70
     0
  9
$REGENMODE
 70
     1
  9
$FILLMODE
 70
     1
  9
$QTEXTMODE
 70
     0
  9
$MIRRTEXT
 70
     0
  9
$LTSCALE
 40
1.0
  9
$ATTMODE
 70
     1
  9
$TEXTSIZE
 40
2.5
  9
$TRACEWID
 40
1.0
  9
$TEXTSTYLE
  7
Standard
  9
$CLAYER
  8
0
  9
$CELTYPE
  6
ByLayer
  9
$CECOLOR
 62
   256
  9
$CELTSCALE
 40
1.0
  9
$DISPSILH
 70
     0
  9
$DIMSCALE
 40
500.0
  9
$DIMASZ
 40
2.5
  9
$DIMEXO
 40
0.625
  9
$DIMDLI
 40
3.75
  9
$DIMRND
 40
0.0
  9
$DIMDLE
 40
0.0
  9
$DIMEXE
 40
1.25
  9
$DIMTP
 40
0.0
  9
$DIMTM
 40
0.0
  9
$DIMTXT
 40
2.5
  9
$DIMCEN
 40
2.5
  9
$DIMTSZ
 40
0.0
  9
$DIMTOL
 70
     0
  9
$DIMLIM
 70
     0
  9
$DIMTIH
 70
     0
  9
$DIMTOH
 70
     0
  9
$DIMSE1
 70
     0
  9
$DIMSE2
 70
     0
  9
$DIMTAD
 70
     1
  9
$DIMZIN
 70
     8
  9
$DIMBLK
  1

  9
$DIMASO
 70
     1
  9
$DIMSHO
 70
     1
  9
$DIMPOST
  1

  9
$DIMAPOST
  1

  9
$DIMALT
 70
     0
  9
$DIMALTD
 70
     3
  9
$DIMALTF
 40
0.03937007874016
  9
$DIMLFAC
 40
1.0
  9
$DIMTOFL
 70
     1
  9
$DIMTVP
 40
0.0
  9
$DIMTIX
 70
     0
  9
$DIMSOXD
 70
     0
  9
$DIMSAH
 70
     0
  9
$DIMBLK1
  1

  9
$DIMBLK2
  1

  9
$DIMSTYLE
  2
ISO-25
  9
$DIMCLRD
 70
     0
  9
$DIMCLRE
 70
     0
  9
$DIMCLRT
 70
     0
  9
$DIMTFAC
 40
1.0
  9
$DIMGAP
 40
0.625
  9
$DIMJUST
 70
     0
  9
$DIMSD1
 70
     0
  9
$DIMSD2
 70
     0
  9
$DIMTOLJ
 70
     0
  9
$DIMTZIN
 70
     8
  9
$DIMALTZ
 70
     0
  9
$DIMALTTZ
 70
     0
  9
$DIMUPT
 70
     0
  9
$DIMDEC
 70
     2
  9
$DIMTDEC
 70
     2
  9
$DIMALTU
 70
     2
  9
$DIMALTTD
 70
     3
  9
$DIMTXSTY
  7
Standard
  9
$DIMAUNIT
 70
     0
  9
$DIMADEC
 70
     0
  9
$DIMALTRND
 40
0.0
  9
$DIMAZIN
 70
     0
  9
$DIMDSEP
 70
    44
  9
$DIMATFIT
 70
     3
  9
$DIMFRAC
 70
     0
  9
$DIMLDRBLK
  1

  9
$DIMLUNIT
 70
     2
  9
$DIMLWD
 70
    -2
  9
$DIMLWE
 70
    -2
  9
$DIMTMOVE
 70
     0
  9
$LUNITS
 70
     2
  9
$LUPREC
 70
     4
  9
$SKETCHINC
 40
1.0
  9
$FILLETRAD
 40
0.0
  9
$AUNITS
 70
     0
  9
$AUPREC
 70
     0
  9
$MENU
  1
.
  9
$ELEVATION
 40
0.0
  9
$PELEVATION
 40
0.0
  9
$THICKNESS
 40
0.0
  9
$LIMCHECK
 70
     0
  9
$CHAMFERA
 40
0.0
  9
$CHAMFERB
 40
0.0
  9
$CHAMFERC
 40
0.0
  9
$CHAMFERD
 40
0.0
  9
$SKPOLY
 70
     0
  9
$TDCREATE
 40
2454357.828216863
  9
$TDUCREATE
 40
2454357.453216863
  9
$TDUPDATE
 40
2454571.466233160
  9
$TDUUPDATE
 40
2454571.091233160
  9
$TDINDWG
 40
0.0204238310
  9
$TDUSRTIMER
 40
0.0204218287
  9
$USRTIMER
 70
     1
  9
$ANGBASE
 50
0.0
  9
$ANGDIR
 70
     0
  9
$PDMODE
 70
     0
  9
$PDSIZE
 40
0.0
  9
$PLINEWID
 40
0.0
  9
$SPLFRAME
 70
     0
  9
$SPLINETYPE
 70
     6
  9
$SPLINESEGS
 70
     8
  9
$HANDSEED
  5
D43
  9
$SURFTAB1
 70
     6
  9
$SURFTAB2
 70
     6
  9
$SURFTYPE
 70
     6
  9
$SURFU
 70
     6
  9
$SURFV
 70
     6
  9
$UCSBASE
  2

  9
$UCSNAME
  2

  9
$UCSORG
 10
0.0
 20
0.0
 30
0.0
  9
$UCSXDIR
 10
1.0
 20
0.0
 30
0.0
  9
$UCSYDIR
 10
0.0
 20
1.0
 30
0.0
  9
$UCSORTHOREF
  2

  9
$UCSORTHOVIEW
 70
     0
  9
$UCSORGTOP
 10
0.0
 20
0.0
 30
0.0
  9
$UCSORGBOTTOM
 10
0.0
 20
0.0
 30
0.0
  9
$UCSORGLEFT
 10
0.0
 20
0.0
 30
0.0
  9
$UCSORGRIGHT
 10
0.0
 20
0.0
 30
0.0
  9
$UCSORGFRONT
 10
0.0
 20
0.0
 30
0.0
  9
$UCSORGBACK
 10
0.0
 20
0.0
 30
0.0
  9
$PUCSBASE
  2

  9
$PUCSNAME
  2

  9
$PUCSORG
 10
0.0
 20
0.0
 30
0.0
  9
$PUCSXDIR
 10
1.0
 20
0.0
 30
0.0
  9
$PUCSYDIR
 10
0.0
 20
1.0
 30
0.0
  9
$PUCSORTHOREF
  2

  9
$PUCSORTHOVIEW
 70
     0
  9
$PUCSORGTOP
 10
0.0
 20
0.0
 30
0.0
  9
$PUCSORGBOTTOM
 10
0.0
 20
0.0
 30
0.0
  9
$PUCSORGLEFT
 10
0.0
 20
0.0
 30
0.0
  9
$PUCSORGRIGHT
 10
0.0
 20
0.0
 30
0.0
  9
$PUCSORGFRONT
 10
0.0
 20
0.0
 30
0.0
  9
$PUCSORGBACK
 10
0.0
 20
0.0
 30
0.0
  9
$USERI1
 70
     0
  9
$USERI2
 70
     0
  9
$USERI3
 70
     0
  9
$USERI4
 70
     0
  9
$USERI5
 70
     0
  9
$USERR1
 40
0.0
  9
$USERR2
 40
0.0
  9
$USERR3
 40
0.0
  9
$USERR4
 40
0.0
  9
$USERR5
 40
0.0
  9
$WORLDVIEW
 70
     1
  9
$SHADEDGE
 70
     3
  9
$SHADEDIF
 70
    70
  9
$TILEMODE
 70
     1
  9
$MAXACTVP
 70
    64
  9
$PINSBASE
 10
0.0
 20
0.0
 30
0.0
  9
$PLIMCHECK
 70
     0
  9
$PEXTMIN
 10
0.0
 20
0.0
 30
0.0
  9
$PEXTMAX
 10
0.0
 20
0.0
 30
0.0
  9
$PLIMMIN
 10
0.0
 20
0.0
  9
$PLIMMAX
 10
12.0
 20
9.0
  9
$UNITMODE
 70
     0
  9
$VISRETAIN
 70
     1
  9
$PLINEGEN
 70
     0
  9
$PSLTSCALE
 70
     1
  9
$TREEDEPTH
 70
  3020
  9
$CMLSTYLE
  2
Standard
  9
$CMLJUST
 70
     0
  9
$CMLSCALE
 40
20.0
  9
$PROXYGRAPHICS
 70
     1
  9
$MEASUREMENT
 70
     1
  9
$CELWEIGHT
370
    -1
  9
$ENDCAPS
280
     0
  9
$JOINSTYLE
280
     0
  9
$LWDISPLAY
290
     0
  9
$INSUNITS
 70
     6
  9
$HYPERLINKBASE
  1

  9
$STYLESHEET
  1
2.CTB
  9
$XEDIT
290
     1
  9
$CEPSNTYPE
380
     0
  9
$PSTYLEMODE
290
     1
  9
$FINGERPRINTGUID
  2
{FDEAD578-A652-11D2-9A35-0060089B3A3F}
  9
$VERSIONGUID
  2
{38CA7BD1-55BD-4C55-B8D1-187DEAC1F848}
  9
$EXTNAMES
290
     1
  9
$PSVPSCALE
 40
0.0
  9
$OLESTARTUP
290
     0
  0
ENDSEC
  0
SECTION
  2
CLASSES
  0
CLASS
  1
ACDBDICTIONARYWDFLT
  2
AcDbDictionaryWithDefault
  3
ObjectDBX Classes
 90
        0
280
     0
281
     0
  0
CLASS
  1
ACDBPLACEHOLDER
  2
AcDbPlaceHolder
  3
ObjectDBX Classes
 90
        0
280
     0
281
     0
  0
CLASS
  1
LAYOUT
  2
AcDbLayout
  3
ObjectDBX Classes
 90
        0
280
     0
281
     0
  0
CLASS
  1
DICTIONARYVAR
  2
AcDbDictionaryVar
  3
ObjectDBX Classes
 90
        0
280
     0
281
     0
  0
CLASS
  1
SORTENTSTABLE
  2
AcDbSortentsTable
  3
ObjectDBX Classes
 90
    32768
280
     0
281
     0
  0
CLASS
  1
TABLESTYLE
  2
AcDbTableStyle
  3
ObjectDBX Classes
 90
     2047
280
     0
281
     0
  0
CLASS
  1
AECC_TREE_NODE
  2
AeccDbTreeNode
  3
AeccvBase10|Product Desc: Autodesk Civil 3D |Company: Autodesk,Inc. |WEB Address: www.autodesk.com
 90
     1023
280
     0
281
     0
  0
CLASS
  1
AECC_CLASS_NODE
  2
AeccDbClassNode
  3
AeccLand10|Product Desc: Autodesk Civil 3D |Company: Autodesk,Inc. |WEB Address: www.autodesk.com
 90
     1023
280
     0
281
     0
  0
CLASS
  1
AECC_ROOT_SETTINGS_NODE
  2
AeccDbRootSettingsNode
  3
AeccvBase10|Product Desc: Autodesk Civil 3D |Company: Autodesk,Inc. |WEB Address: www.autodesk.com
 90
     1023
280
     0
281
     0
  0
CLASS
  1
AEC_VARS_DWG_SETUP
  2
AecDbVarsDwgSetup
  3
AecBase40|Product Desc: Autodesk Architectural Desktop 2005 |Company: Autodesk,Inc. |WEB Address: www.autodesk.com
 90
      129
280
     0
281
     0
  0
CLASS
  1
DMMAPMANAGER
  2
AcMapDMMapManager
  3
AcMapDisplayManagement
 90
     1024
280
     0
281
     0
  0
CLASS
  1
DMSTYLELIBRARY
  2
AcMapDMStyleLibrary
  3
AcMapDisplayManagement
 90
     1024
280
     0
281
     0
  0
CLASS
  1
DMMAP
  2
AcMapDMMap
  3
AcMapDisplayManagement
 90
     1024
280
     0
281
     0
  0
CLASS
  1
DMBASEELEMENT
  2
AcMapDMBaseElement
  3
AcMapDisplayManagement
 90
     1024
280
     0
281
     0
  0
CLASS
  1
DMDEFAULTSTYLE
  2
AcMapDMDefaultStyle
  3
AcMapDisplayManagement
 90
     1024
280
     0
281
     0
  0
CLASS
  1
DMSTYLEREFERENCE
  2
AcMapDMStyleReference
  3
AcMapDisplayManagement
 90
     1024
280
     0
281
     0
  0
CLASS
  1
DMSTYLECATEGORY
  2
AcMapDMStyleCategory
  3
AcMapDisplayManagement
 90
     1024
280
     0
281
     0
  0
CLASS
  1
AECC_SETTINGS_NODE
  2
AeccDbSettingsNode
  3
AeccvBase10|Product Desc: Autodesk Civil 3D |Company: Autodesk,Inc. |WEB Address: www.autodesk.com
 90
     1023
280
     0
281
     0
  0
CLASS
  1
AECC_PROFILE_VIEW_STYLE
  2
AeccDbGraphStyleProfile
  3
AeccLand10|Product Desc: Autodesk Civil 3D |Company: Autodesk,Inc. |WEB Address: www.autodesk.com
 90
      129
280
     0
281
     0
  0
CLASS
  1
AECC_PROFILE_VIEW_BAND_STYLE_SET
  2
AeccDbGraphProfileBandStyleSet
  3
AeccLand10|Product Desc: Autodesk Civil 3D |Company: Autodesk,Inc. |WEB Address: www.autodesk.com
 90
      129
280
     0
281
     0
  0
CLASS
  1
AECC_PROFILE_VIEW_DATA_BAND_STYLE
  2
AeccDbGraphStyleProfileDataBands
  3
AeccLand10|Product Desc: Autodesk Civil 3D |Company: Autodesk,Inc. |WEB Address: www.autodesk.com
 90
      129
280
     0
281
     0
  0
CLASS
  1
AECC_LABEL_NODE
  2
AeccDbLabelNode
  3
AeccLand10|Product Desc: Autodesk Civil 3D |Company: Autodesk,Inc. |WEB Address: www.autodesk.com
 90
     1023
280
     0
281
     0
  0
CLASS
  1
AECC_LABEL_COLLECTOR_STYLE
  2
AeccDbLabelStyleCollector
  3
AeccLand10|Product Desc: Autodesk Civil 3D |Company: Autodesk,Inc. |WEB Address: www.autodesk.com
 90
     1023
280
     0
281
     0
  0
CLASS
  1
AECC_LABEL_TEXT_STYLE
  2
AeccDbLabelStyleText
  3
AeccLand10|Product Desc: Autodesk Civil 3D |Company: Autodesk,Inc. |WEB Address: www.autodesk.com
 90
     1023
280
     0
281
     0
  0
CLASS
  1
AECC_PROFILE_VIEW_HORIZONTAL_GEOMETRY_BAND_STYLE
  2
AeccDbGraphStyleHorGeometryBands
  3
AeccLand10|Product Desc: Autodesk Civil 3D |Company: Autodesk,Inc. |WEB Address: www.autodesk.com
 90
      129
280
     0
281
     0
  0
CLASS
  1
AECC_PROFILE_VIEW_VERTICAL_GEOMETRY_BAND_STYLE
  2
AeccDbGraphStyleVertGeometryBands
  3
AeccLand10|Product Desc: Autodesk Civil 3D |Company: Autodesk,Inc. |WEB Address: www.autodesk.com
 90
      129
280
     0
281
     0
  0
CLASS
  1
AECC_LABEL_RADIAL_LINE_STYLE
  2
AeccDbLabelStyleRadialLine
  3
AeccLand10|Product Desc: Autodesk Civil 3D |Company: Autodesk,Inc. |WEB Address: www.autodesk.com
 90
     1023
280
     0
281
     0
  0
CLASS
  1
AECC_POINT_STYLE
  2
AeccDbPointStyle
  3
AeccLand10|Product Desc: Autodesk Civil 3D |Company: Autodesk,Inc. |WEB Address: www.autodesk.com
 90
      895
280
     0
281
     0
  0
CLASS
  1
AECC_PROFILE_LABEL_SET
  2
AeccDbVAlignStnLabelsDlgTemplate
  3
AeccLand10|Product Desc: Autodesk Civil 3D |Company: Autodesk,Inc. |WEB Address: www.autodesk.com
 90
     1023
280
     0
281
     0
  0
CLASS
  1
AECC_SECTION_VIEW_STYLE
  2
AeccDbGraphStyleCrossSection
  3
AeccLand10|Product Desc: Autodesk Civil 3D |Company: Autodesk,Inc. |WEB Address: www.autodesk.com
 90
      129
280
     0
281
     0
  0
CLASS
  1
AECC_SECTION_VIEW_BAND_STYLE_SET
  2
AeccDbGraphSectionBandStyleSet
  3
AeccLand10|Product Desc: Autodesk Civil 3D |Company: Autodesk,Inc. |WEB Address: www.autodesk.com
 90
      129
280
     0
281
     0
  0
CLASS
  1
AECC_SECTION_VIEW_DATA_BAND_STYLE
  2
AeccDbGraphStyleSectionDataBands
  3
AeccLand10|Product Desc: Autodesk Civil 3D |Company: Autodesk,Inc. |WEB Address: www.autodesk.com
 90
      129
280
     0
281
     0
  0
CLASS
  1
AECC_SECTION_LABEL_SET
  2
AeccDbSectionLabelsDlgTemplate
  3
AeccLand10|Product Desc: Autodesk Civil 3D |Company: Autodesk,Inc. |WEB Address: www.autodesk.com
 90
     1023
280
     0
281
     0
  0
CLASS
  1
AECC_ALIGNMENT_STYLE
  2
AeccDbAlignmentStyle
  3
AeccLand10|Product Desc: Autodesk Civil 3D |Company: Autodesk,Inc. |WEB Address: www.autodesk.com
 90
     1023
280
     0
281
     0
  0
CLASS
  1
AECC_LABEL_VECTOR_ARROW_STYLE
  2
AeccDbLabelStyleVectorArrow
  3
AeccLand10|Product Desc: Autodesk Civil 3D |Company: Autodesk,Inc. |WEB Address: www.autodesk.com
 90
     1023
280
     0
281
     0
  0
CLASS
  1
AECC_ALIGNMENT_LABEL_SET
  2
AeccDbAlignStnLabelsDlgTemplate
  3
AeccLand10|Product Desc: Autodesk Civil 3D |Company: Autodesk,Inc. |WEB Address: www.autodesk.com
 90
     1023
280
     0
281
     0
  0
CLASS
  1
AECC_SURFACE_STYLE
  2
AeccDbSurfaceStyle
  3
AeccLand10|Product Desc: Autodesk Civil 3D |Company: Autodesk,Inc. |WEB Address: www.autodesk.com
 90
      129
280
     0
281
     0
  0
CLASS
  1
AECC_LEGEND_TABLE_STYLE
  2
AeccDbLegendScheduleTableStyle
  3
AeccLand10|Product Desc: Autodesk Civil 3D |Company: Autodesk,Inc. |WEB Address: www.autodesk.com
 90
     1023
280
     0
281
     0
  0
CLASS
  1
AECC_SECTION_STYLE
  2
AeccDbSectionStyle
  3
AeccLand10|Product Desc: Autodesk Civil 3D |Company: Autodesk,Inc. |WEB Address: www.autodesk.com
 90
     1023
280
     0
281
     0
  0
CLASS
  1
AECC_GRADING_STYLE
  2
AeccDbGradingStyle
  3
AeccLand10|Product Desc: Autodesk Civil 3D |Company: Autodesk,Inc. |WEB Address: www.autodesk.com
 90
     1023
280
     0
281
     0
  0
CLASS
  1
AECC_GRADING_CRITERIA
  2
AeccDbGradingCriteria
  3
AeccLand10|Product Desc: Autodesk Civil 3D |Company: Autodesk,Inc. |WEB Address: www.autodesk.com
 90
     1023
280
     0
281
     0
  0
CLASS
  1
AECC_PARCEL_STYLE
  2
AeccDbParcelStyle
  3
AeccLand10|Product Desc: Autodesk Civil 3D |Company: Autodesk,Inc. |WEB Address: www.autodesk.com
 90
      129
280
     0
281
     0
  0
CLASS
  1
AECC_SAMPLE_LINE_GROUP_STYLE
  2
AeccDbSampleLineGroupStyle
  3
AeccLand10|Product Desc: Autodesk Civil 3D |Company: Autodesk,Inc. |WEB Address: www.autodesk.com
 90
      129
280
     0
281
     0
  0
CLASS
  1
AECC_SHEET_STYLE
  2
AeccDbSheetStyle
  3
AeccLand10|Product Desc: Autodesk Civil 3D |Company: Autodesk,Inc. |WEB Address: www.autodesk.com
 90
      129
280
     0
281
     0
  0
CLASS
  1
AECC_SAMPLE_LINE_STYLE
  2
AeccDbSampleLineStyle
  3
AeccLand10|Product Desc: Autodesk Civil 3D |Company: Autodesk,Inc. |WEB Address: www.autodesk.com
 90
     1023
280
     0
281
     0
  0
CLASS
  1
AECC_PROFILE_STYLE
  2
AeccDbVAlignmentStyle
  3
AeccLand10|Product Desc: Autodesk Civil 3D |Company: Autodesk,Inc. |WEB Address: www.autodesk.com
 90
     1023
280
     0
281
     0
  0
CLASS
  1
AECC_STATION_FORMAT_STYLE
  2
AeccDbStationFormatStyle
  3
AeccLand10|Product Desc: Autodesk Civil 3D |Company: Autodesk,Inc. |WEB Address: www.autodesk.com
 90
     1023
280
     0
281
     0
  0
CLASS
  1
AECC_TABLE_STYLE
  2
AeccDbScheduleTableStyle
  3
AeccLand10|Product Desc: Autodesk Civil 3D |Company: Autodesk,Inc. |WEB Address: www.autodesk.com
 90
     1023
280
     0
281
     0
  0
CLASS
  1
AECC_GRADING_CRITERIA_SET
  2
AeccDbGradingCriteriaSet
  3
AeccLand10|Product Desc: Autodesk Civil 3D |Company: Autodesk,Inc. |WEB Address: www.autodesk.com
 90
     1023
280
     0
281
     0
  0
CLASS
  1
AECC_FORMAT_MANAGER_OBJECT
  2
AeccDbFormatManagerObject
  3
AeccLand10|Product Desc: Autodesk Civil 3D |Company: Autodesk,Inc. |WEB Address: www.autodesk.com
 90
     1023
280
     0
281
     0
  0
CLASS
  1
AECC_POINT_DESCRIPTION_KEY_SET_NODE
  2
AeccDbPointDescKeySetsNode
  3
AeccvBase10|Product Desc: Autodesk Civil 3D |Company: Autodesk,Inc. |WEB Address: www.autodesk.com
 90
     1023
280
     0
281
     0
  0
ENDSEC
  0
SECTION
  2
TABLES
  0
TABLE
  2
VPORT
  5
8
330
0
100
AcDbSymbolTable
 70
     2
  0
VPORT
  5
D3A
330
8
100
AcDbSymbolTableRecord
100
AcDbViewportTableRecord
  2
*Active
 70
     0
 10
0.0
 20
0.0
 11
1.0
 21
1.0
 12
20310.66615373029
 22
13905.09363760034
 13
0.0
 23
0.0
 14
10.0
 24
10.0
 15
10.0
 25
10.0
 16
0.0
 26
0.0
 36
1.0
 17
0.0
 27
0.0
 37
0.0
 40
33293.79473551154
 41
1.227931488801053
 42
50.0
 43
0.0
 44
0.0
 50
0.0
 51
0.0
 71
     0
 72
  1000
 73
     1
 74
     1
 75
     0
 76
     0
 77
     0
 78
     0
281
     0
 65
     1
110
0.0
120
0.0
130
0.0
111
1.0
121
0.0
131
0.0
112
0.0
122
1.0
132
0.0
 79
     0
146
0.0
  0
ENDTAB
  0
TABLE
  2
LTYPE
  5
5
330
0
100
AcDbSymbolTable
 70
     3
  0
LTYPE
  5
14
330
5
100
AcDbSymbolTableRecord
100
AcDbLinetypeTableRecord
  2
ByBlock
 70
     0
  3

 72
    65
 73
     0
 40
0.0
  0
LTYPE
  5
15
330
5
100
AcDbSymbolTableRecord
100
AcDbLinetypeTableRecord
  2
ByLayer
 70
     0
  3

 72
    65
 73
     0
 40
0.0
  0
LTYPE
  5
16
330
5
100
AcDbSymbolTableRecord
100
AcDbLinetypeTableRecord
  2
Continuous
 70
     0
  3
Solid line
 72
    65
 73
     0
 40
0.0
  0
LTYPE
  5
1DE
330
5
100
AcDbSymbolTableRecord
100
AcDbLinetypeTableRecord
  2
DASHED
 70
     0
  3
__ __ __ __ __ __ __ __ __ __ __ __ __ __ __
 72
    65
 73
     2
 40
3.0
 49
2.0
 74
     0
 49
-1.0
 74
     0
  0
LTYPE
  5
1DF
330
5
100
AcDbSymbolTableRecord
100
AcDbLinetypeTableRecord
  2
DASHDOT
 70
     0
  3
__ . __ . __ . __ . __ . __ . __ . __ . __ . __
 72
    65
 73
     4
 40
8.5
 49
6.0
 74
     0
 49
-1.0
 74
     0
 49
0.5
 74
     0
 49
-1.0
 74
     0
  0
ENDTAB
  0
TABLE
  2
LAYER
  5
2
330
0
100
AcDbSymbolTable
 70
    13
  0
LAYER
  5
10
330
2
100
AcDbSymbolTableRecord
100
AcDbLayerTableRecord
  2
0
 70
     0
 62
     7
  6
Continuous
370
    -3
390
F
  0
LAYER
  5
1E0
330
2
100
AcDbSymbolTableRecord
100
AcDbLayerTableRecord
  2
DEFPOINTS
 70
     0
 62
     4
  6
Continuous
290
     0
370
    -3
390
F
  0
LAYER
  5
1E1
330
2
100
AcDbSymbolTableRecord
100
AcDbLayerTableRecord
  2
寸法
 70
     0
 62
     6
  6
Continuous
370
    -3
390
F
  0
LAYER
  5
1E2
330
2
100
AcDbSymbolTableRecord
100
AcDbLayerTableRecord
  2
画層1-1
 70
     0
 62
    82
  6
Continuous
370
    -3
390
F
  0
LAYER
  5
1E3
330
2
100
AcDbSymbolTableRecord
100
AcDbLayerTableRecord
  2
図面枠
 70
     0
 62
     7
  6
Continuous
370
    -3
390
F
  0
LAYER
  5
1E4
330
2
100
AcDbSymbolTableRecord
100
AcDbLayerTableRecord
  2
ﾊｯﾁﾝｸﾞ
 70
     0
 62
     1
  6
Continuous
370
    -3
390
F
  0
LAYER
  5
1E5
330
2
100
AcDbSymbolTableRecord
100
AcDbLayerTableRecord
  2
画層2
 70
     0
 62
    40
  6
Continuous
370
    -3
390
F
  0
LAYER
  5
1E6
330
2
100
AcDbSymbolTableRecord
100
AcDbLayerTableRecord
  2
通り芯
 70
     0
 62
     4
  6
Continuous
370
    13
390
F
  0
LAYER
  5
1E7
330
2
100
AcDbSymbolTableRecord
100
AcDbLayerTableRecord
  2
画層1
 70
     0
 62
     7
  6
Continuous
370
    -3
390
F
  0
LAYER
  5
1E8
330
2
100
AcDbSymbolTableRecord
100
AcDbLayerTableRecord
  2
ﾈｯﾄ
 70
     0
 62
   230
  6
Continuous
370
    13
390
F
  0
LAYER
  5
1E9
330
2
100
AcDbSymbolTableRecord
100
AcDbLayerTableRecord
  2
画層2-1
 70
     0
 62
     7
  6
Continuous
370
    -3
390
F
  0
LAYER
  5
1EA
330
2
100
AcDbSymbolTableRecord
100
AcDbLayerTableRecord
  2
寸法文字
 70
     0
 62
     6
  6
Continuous
370
    -3
390
F
  0
LAYER
  5
1EB
330
2
100
AcDbSymbolTableRecord
100
AcDbLayerTableRecord
  2
寸法引出
 70
     0
 62
     3
  6
Continuous
370
    -3
390
F
  0
ENDTAB
  0
TABLE
  2
STYLE
  5
3
330
0
100
AcDbSymbolTable
 70
     4
  0
STYLE
  5
11
330
3
100
AcDbSymbolTableRecord
100
AcDbTextStyleTableRecord
  2
Standard
 70
     0
 40
0.0
 41
1.0
 50
0.0
 71
     0
 42
2.5
  3
txt
  4

  0
STYLE
  5
1EC
330
3
100
AcDbSymbolTableRecord
100
AcDbTextStyleTableRecord
  2
1_100
 70
     0
 40
0.0
 41
0.75
 50
0.0
 71
     0
 42
2.5
  3
romans.shx
  4
extfont2.shx
  0
STYLE
  5
1ED
330
3
100
AcDbSymbolTableRecord
100
AcDbTextStyleTableRecord
  2
STYLE1
 70
     0
 40
0.0
 41
0.75
 50
0.0
 71
     0
 42
0.2
  3
HGRSKP.TTF
  4

1001
ACAD
1000
HGSeikaishotaiPRO
1071
    32833
  0
STYLE
  5
1EE
330
3
100
AcDbSymbolTableRecord
100
AcDbTextStyleTableRecord
  2
MSP明朝
 70
     0
 40
0.0
 41
0.75
 50
0.0
 71
     0
 42
0.2
  3
MS PMincho.ttf
  4

1001
ACAD
1000
MS PMincho
1071
    32786
  0
ENDTAB
  0
TABLE
  2
VIEW
  5
6
330
0
100
AcDbSymbolTable
 70
     0
  0
ENDTAB
  0
TABLE
  2
UCS
  5
7
330
0
100
AcDbSymbolTable
 70
     0
  0
ENDTAB
  0
TABLE
  2
APPID
  5
9
330
0
100
AcDbSymbolTable
 70
     4
  0
APPID
  5
12
330
9
100
AcDbSymbolTableRecord
100
AcDbRegAppTableRecord
  2
ACAD
 70
     0
  0
APPID
  5
1F1
330
9
100
AcDbSymbolTableRecord
100
AcDbRegAppTableRecord
  2
AcDbBlockRepETag
 70
     0
  0
APPID
  5
A3B
330
9
100
AcDbSymbolTableRecord
100
AcDbRegAppTableRecord
  2
ADE
 70
     0
  0
APPID
  5
A3C
330
9
100
AcDbSymbolTableRecord
100
AcDbRegAppTableRecord
  2
DCO15
 70
     0
  0
ENDTAB
  0
TABLE
  2
DIMSTYLE
  5
A
330
0
100
AcDbSymbolTable
 70
     4
100
AcDbDimStyleTable
 71
     0
  0
DIMSTYLE
105
27
330
A
100
AcDbSymbolTableRecord
100
AcDbDimStyleTableRecord
  2
ISO-25
 70
     0
 41
2.5
 42
0.625
 43
3.75
 44
1.25
 73
     0
 74
     0
 77
     1
 78
     8
140
2.5
141
2.5
143
0.03937007874016
147
0.625
171
     3
172
     1
271
     2
272
     2
274
     3
278
    44
283
     0
284
     8
340
11
  0
DIMSTYLE
105
1EF
330
A
100
AcDbSymbolTableRecord
100
AcDbDimStyleTableRecord
  2
STANDARD
 70
     0
340
11
  0
DIMSTYLE
105
1F0
102
{ACAD_REACTORS
330
35B
330
35C
330
36F
330
374
330
37D
330
38F
330
390
330
3C7
330
3D3
330
3D4
330
3D5
330
3D6
330
3D7
330
40B
330
416
330
417
330
419
330
41A
330
41B
330
430
330
44C
330
460
330
46C
330
485
330
491
102
}
330
A
100
AcDbSymbolTableRecord
100
AcDbDimStyleTableRecord
  2
1_100
 70
     0
 40
100.0
 41
0.6
 42
3.0
 43
10.0
 44
0.0
 73
     0
 74
     0
 77
     1
 78
     8
140
3.0
141
0.0
147
1.0
172
     1
173
     1
176
   256
177
   256
178
   256
271
     1
272
     1
277
     6
279
     2
284
     8
340
1EC
341
87
343
87
344
87
  0
DIMSTYLE
105
A3A
330
A
100
AcDbSymbolTableRecord
100
AcDbDimStyleTableRecord
  2
1_50
 70
     0
 40
50.0
 41
1.0
 42
3.0
 43
10.0
 44
0.0
 73
     0
 74
     0
 77
     1
 78
    12
140
3.0
141
0.0
147
1.0
172
     1
173
     1
176
   256
177
   256
178
   256
271
     1
272
     1
277
     6
279
     2
340
1EC
341
87
343
87
344
87
  0
ENDTAB
  0
TABLE
  2
BLOCK_RECORD
  5
1
330
0
100
AcDbSymbolTable
 70
    28
  0
BLOCK_RECORD
  5
1F
330
1
100
AcDbSymbolTableRecord
100
AcDbBlockTableRecord
  2
*Model_Space
340
22
  0
BLOCK_RECORD
  5
50
330
1
100
AcDbSymbolTableRecord
100
AcDbBlockTableRecord
  2
*Paper_Space
340
51
  0
BLOCK_RECORD
  5
55
330
1
100
AcDbSymbolTableRecord
100
AcDbBlockTableRecord
  2
*Paper_Space0
340
56
  0
BLOCK_RECORD
  5
87
330
1
100
AcDbSymbolTableRecord
100
AcDbBlockTableRecord
  2
_ORIGIN
340
0
102
{BLKREFS
331
5D9
331
5DA
331
5E2
331
5E3
331
5EB
331
5EC
331
5F4
331
5F5
331
5FD
331
5FE
331
607
331
608
331
611
331
612
331
61B
331
61C
331
623
331
624
331
62F
331
630
331
637
331
638
331
643
331
644
331
64B
331
64C
331
654
331
655
331
660
331
661
331
668
331
669
331
671
331
672
331
67D
331
67E
331
687
331
688
331
690
331
691
331
699
331
69A
331
6A5
331
6A6
331
6B0
331
6B1
331
6BB
331
6BC
331
6C6
331
6C7
102
}
  0
BLOCK_RECORD
  5
8C
330
1
100
AcDbSymbolTableRecord
100
AcDbBlockTableRecord
  2
sai450
340
0
310
28000000200000002000000001000800000000000004000000000000000000000000000000000000000000004000000080000000FF000000002000004020000080200000FF200000004000004040000080400000FF400000006000004060000080600000FF600000008000004080000080800000FF80000000A0000040A000
310
0080A00000FFA0000000C0000040C0000080C00000FFC0000000FF000040FF000080FF0000FFFF0000000020004000200080002000FF002000002020004020200080202000FF202000004020004040200080402000FF402000006020004060200080602000FF602000008020004080200080802000FF80200000A0200040A0
310
200080A02000FFA0200000C0200040C0200080C02000FFC0200000FF200040FF200080FF2000FFFF2000000040004000400080004000FF004000002040004020400080204000FF204000004040004040400080404000FF404000006040004060400080604000FF604000008040004080400080804000FF80400000A0400040
310
A0400080A04000FFA0400000C0400040C0400080C04000FFC0400000FF400040FF400080FF4000FFFF4000000060004000600080006000FF006000002060004020600080206000FF206000004060004040600080406000FF406000006060004060600080606000FF606000008060004080600080806000FF80600000A06000
310
40A0600080A06000FFA0600000C0600040C0600080C06000FFC0600000FF600040FF600080FF6000FFFF6000000080004000800080008000FF008000002080004020800080208000FF208000004080004040800080408000FF408000006080004060800080608000FF608000008080004080800080808000FF80800000A080
310
0040A0800080A08000FFA0800000C0800040C0800080C08000FFC0800000FF800040FF800080FF8000FFFF80000000A0004000A0008000A000FF00A0000020A0004020A0008020A000FF20A0000040A0004040A0008040A000FF40A0000060A0004060A0008060A000FF60A0000080A0004080A0008080A000FF80A00000A0
310
A00040A0A00080A0A000FFA0A00000C0A00040C0A00080C0A000FFC0A00000FFA00040FFA00080FFA000FFFFA0000000C0004000C0008000C000FF00C0000020C0004020C0008020C000FF20C0000040C0004040C0008040C000FF40C0000060C0004060C0008060C000FF60C0000080C0004080C0008080C000FF80C00000
310
A0C00040A0C00080A0C000FFA0C00000C0C00040C0C00080C0C000FFC0C00000FFC00040FFC00080FFC000FFFFC0000000FF004000FF008000FF00FF00FF000020FF004020FF008020FF00FF20FF000040FF004040FF008040FF00FF40FF000060FF004060FF008060FF00FF60FF000080FF004080FF008080FF00FF80FF00
310
00A0FF0040A0FF0080A0FF00FFA0FF0000C0FF0040C0FF0080C0FF00FFC0FF0000FFFF0040FFFF0080FFFF00FFFFFF00FFFFFFFFFFFFFFFFFFFFFFFFFFFFFFFFFFFFFFFFFFFFFFFFFFFFFFFFFFFFFFFFFFFFFFFFFFFFFFFFFFFFFFFFFFFFFFFFFFFFFFFFFFFFFFFFFFFFFFFFFFFFFFFFFFFFFFFFFFFFFFFFFFFFFFFFFFFFFF
310
FFFFFFFFFFFFFFFFFFFFFFFFFFFFFFFFFFFFFFFFFFFFFFFFFFFFFFFFFFFFFFFFFFFFFFFFFFFFFFFFFFFFFFFFFFFFFFFFFFFFFFFFFFFFFFFFFFFFFFFFFFFFFFFFFFFFFFFFFFFFFFFFFFFFFFFFFFFFFFFFFFFFFFFFFFFFFFFFFFFFFFFFFFFFFFFFFFFFFFFFFFFFFFFFFFFFFFFFFFFFFFFFFFFFFFFFFFFFFFFFFFFFFFFFFFFFFF
310
FFFFFFFFFFFFFFFFFFFFFFFFFFFFFFFFFFFFFFFFFFFFFFFFFFFFFFFFFFFFFFFFFFFFFFFFFFFFFFFFFFFFFFFFFFFFFFFFFFFFFFFFFFFFFFFFFFFFFFFFFFFFFFFFFFFFFFFFFFFFFFFFFFFFFFFFFFFFFFFFFFFFFFFFFFFFFFFFFFFFFFFFFFFFFFFFFFFFFFFFFFFFFFFFFFFFFFFFFFFFFFFFFFFFFFFFFFFFFFFFFFFFFFFFFFFFFF
310
FFFFFFFFFFFFFFFFFFFFFFFFFFFFFFFFFFFFFFFFFFFFFFFFFFFFFFFFFFFFFFFFFFFFFFFFFFFFFFFFFFFFFFFFFFFFFFFFFFFFFFFFE0FFE0FFFFFFE0FFE0FFFFFFFFE0E0FFFFFFFFE0E0FFFFFFFFE0E0FFFFFFFFFFFFE0E0FFFFFFFFE0E0FFFFFFFFE0E0FFFFFFFFFFE0FFFFFFFFFFE0FFFFFFFFFFFFE0FFFFFFFFFFE0FFFFFF
310
FFFFE0E0FFFFFFFFFFE0FFFFFFFFFFE0FFFFFFFFFFFFFFE0FFFFFFFFFFE0FFFFFFFFFFE0FFFFFFFFFFFFE0FFFFFFFFFFE0FFFFFFFFFFFFE0FFFFFFFFFFE0FFFFFFFFFFFFE0FFFFFFFFFFE0FFFFFFFFFFE0FFFFFFFFFFFFFFE0FFFFFFFFFFE0FFFFFFFFFFE0E0FFFFFFFFFFE0FFFFFFFFFFE0FFFFFFFFFFFFE0FFFFFFFFFFE0
310
FFFFFFFFFFFFE0FFFFFFFFFFE0FFFFFFFFFFE0FFFFFFFFFFE0FFE0FFFFFFE0FFE0FFFFFFFFE0E0FFFFFFFFE0FFE0FFFFFFE0FFE0FFFFFFFFFFFFFFFFFFFFFFFFFFFFFFFFFFFFFFFFFFFFFFFFFFFFFFFFFFFFFFFFFFFFFFFFFFFFFFFFFFFFFFFFFFFFFFFFFFFFFFFFFFFFFFFFFFFFFFFFFFFFFFFFFFFFFFFFFFFFFFFFFFFFFF
310
FFFFFFFFFFFFFFFFFFFFFFFFFFFFFFFFFFFFFFFFFFFFFFFFFFFFFFFFFFFFFFFFFFFFFFFFFFFFFFFFFFFFFFFFFFFFFFFFFFFFFFFFFFFFFFFFFFFFFFFFFFFFFFFFFFFFFFFFFFFFFFFFFFFFFFFFFFFFFFFFFFFFFFFFFFFFFFFFFFFFFFFFFFFFFFFFFFFFFFFFFFFFFFFFFFFFFFFFFFFFFFFFFFFFFFFFFFFFFFFFFFFFFFFFFFFFFF
310
FFFFFFFFFFFFFFFFFFFFFFFFFFFFFFFFFFFFFFFFFFFFFFFFFFFFFFFFFFFFFFFFFFFFFFFFFFFFFFFFFFFFFFFFFFFFFFFFFFFFFFFFFFFFFFFFFFFFFFFFFFFFFFFFFFFFFFFFFFFFFFFFFFFFFFFFFFFFFFFFFFFFFFFFFFFFFFFFFFFFFFFFFFFFFFFFFFFFFFFFFFFFFFFFFFFFFFFFFFFFFFFFFFFFFFFFFFFFFFFFFFFFFFFFFFFFFF
310
FFFFFFFFFFFFFFFFFFFFFFFFFFFFFFFFFFFFFFFFFFFFFFFFFFFFFFFFFFFFFFFFFFFFFFFFFFFFFFFFFFFFFFFFFFFFFFFFFFFFFFFFFFFFFFFF
102
{BLKREFS
331
380
331
3CA
331
40C
102
}
  0
BLOCK_RECORD
  5
496
330
1
100
AcDbSymbolTableRecord
100
AcDbBlockTableRecord
  2
*D3
340
0
  0
BLOCK_RECORD
  5
4A2
330
1
100
AcDbSymbolTableRecord
100
AcDbBlockTableRecord
  2
*D4
340
0
  0
BLOCK_RECORD
  5
4AE
330
1
100
AcDbSymbolTableRecord
100
AcDbBlockTableRecord
  2
*D5
340
0
  0
BLOCK_RECORD
  5
4BA
330
1
100
AcDbSymbolTableRecord
100
AcDbBlockTableRecord
  2
*D6
340
0
  0
BLOCK_RECORD
  5
4C6
330
1
100
AcDbSymbolTableRecord
100
AcDbBlockTableRecord
  2
*D7
340
0
  0
BLOCK_RECORD
  5
4D2
330
1
100
AcDbSymbolTableRecord
100
AcDbBlockTableRecord
  2
*D8
340
0
  0
BLOCK_RECORD
  5
4DE
330
1
100
AcDbSymbolTableRecord
100
AcDbBlockTableRecord
  2
*D9
340
0
  0
BLOCK_RECORD
  5
4EC
330
1
100
AcDbSymbolTableRecord
100
AcDbBlockTableRecord
  2
*D10
340
0
  0
BLOCK_RECORD
  5
4F8
330
1
100
AcDbSymbolTableRecord
100
AcDbBlockTableRecord
  2
*D11
340
0
  0
BLOCK_RECORD
  5
504
330
1
100
AcDbSymbolTableRecord
100
AcDbBlockTableRecord
  2
*D12
340
0
  0
BLOCK_RECORD
  5
512
330
1
100
AcDbSymbolTableRecord
100
AcDbBlockTableRecord
  2
*D13
340
0
  0
BLOCK_RECORD
  5
51E
330
1
100
AcDbSymbolTableRecord
100
AcDbBlockTableRecord
  2
*D14
340
0
  0
BLOCK_RECORD
  5
52C
330
1
100
AcDbSymbolTableRecord
100
AcDbBlockTableRecord
  2
*D15
340
0
  0
BLOCK_RECORD
  5
538
330
1
100
AcDbSymbolTableRecord
100
AcDbBlockTableRecord
  2
*D16
340
0
  0
BLOCK_RECORD
  5
544
330
1
100
AcDbSymbolTableRecord
100
AcDbBlockTableRecord
  2
*D17
340
0
  0
BLOCK_RECORD
  5
552
330
1
100
AcDbSymbolTableRecord
100
AcDbBlockTableRecord
  2
*D18
340
0
  0
BLOCK_RECORD
  5
55E
330
1
100
AcDbSymbolTableRecord
100
AcDbBlockTableRecord
  2
*D19
340
0
  0
BLOCK_RECORD
  5
56A
330
1
100
AcDbSymbolTableRecord
100
AcDbBlockTableRecord
  2
*D20
340
0
  0
BLOCK_RECORD
  5
578
330
1
100
AcDbSymbolTableRecord
100
AcDbBlockTableRecord
  2
*D21
340
0
  0
BLOCK_RECORD
  5
586
330
1
100
AcDbSymbolTableRecord
100
AcDbBlockTableRecord
  2
*D22
340
0
  0
BLOCK_RECORD
  5
592
330
1
100
AcDbSymbolTableRecord
100
AcDbBlockTableRecord
  2
*D23
340
0
  0
BLOCK_RECORD
  5
59E
330
1
100
AcDbSymbolTableRecord
100
AcDbBlockTableRecord
  2
*D24
340
0
  0
BLOCK_RECORD
  5
5AC
330
1
100
AcDbSymbolTableRecord
100
AcDbBlockTableRecord
  2
*D25
340
0
  0
BLOCK_RECORD
  5
5BA
330
1
100
AcDbSymbolTableRecord
100
AcDbBlockTableRecord
  2
*D26
340
0
  0
BLOCK_RECORD
  5
5C8
330
1
100
AcDbSymbolTableRecord
100
AcDbBlockTableRecord
  2
*D27
340
0
  0
ENDTAB
  0
ENDSEC
  0
SECTION
  2
BLOCKS
  0
BLOCK
  5
20
330
1F
100
AcDbEntity
  8
0
100
AcDbBlockBegin
  2
*Model_Space
 70
     0
 10
0.0
 20
0.0
 30
0.0
  3
*Model_Space
  1

  0
ENDBLK
  5
21
330
1F
100
AcDbEntity
  8
0
100
AcDbBlockEnd
  0
BLOCK
  5
52
330
50
100
AcDbEntity
 67
     1
  8
0
100
AcDbBlockBegin
  2
*Paper_Space
 70
     0
 10
0.0
 20
0.0
 30
0.0
  3
*Paper_Space
  1

  0
ENDBLK
  5
53
330
50
100
AcDbEntity
 67
     1
  8
0
100
AcDbBlockEnd
  0
BLOCK
  5
57
330
55
100
AcDbEntity
  8
0
100
AcDbBlockBegin
  2
*Paper_Space0
 70
     0
 10
0.0
 20
0.0
 30
0.0
  3
*Paper_Space0
  1

  0
ENDBLK
  5
58
330
55
100
AcDbEntity
  8
0
100
AcDbBlockEnd
  0
BLOCK
  5
88
330
87
100
AcDbEntity
  8
0
100
AcDbBlockBegin
  2
_ORIGIN
 70
     0
 10
0.0
 20
0.0
 30
0.0
  3
_ORIGIN
  1

  0
CIRCLE
  5
89
330
87
100
AcDbEntity
  8
0
  6
ByBlock
 62
     0
100
AcDbCircle
 10
0.0
 20
0.0
 30
0.0
 40
0.5
  0
LINE
  5
8A
330
87
100
AcDbEntity
  8
0
  6
ByBlock
 62
     0
100
AcDbLine
 10
0.0
 20
0.0
 30
0.0
 11
-1.0
 21
0.0
 31
0.0
  0
ENDBLK
  5
8B
330
87
100
AcDbEntity
  8
0
100
AcDbBlockEnd
  0
BLOCK
  5
8D
330
8C
100
AcDbEntity
  8
0
100
AcDbBlockBegin
  2
sai450
 70
     0
 10
0.0
 20
0.0
 30
0.0
  3
sai450
  1

  0
LINE
  5
8E
330
8C
100
AcDbEntity
  8
ﾊｯﾁﾝｸﾞ
  6
Continuous
100
AcDbLine
 10
184.9591232701205
 20
0.0
 30
0.0
 11
201.0662565772654
 21
-21.8430756283924
 31
0.0
  0
LINE
  5
8F
330
8C
100
AcDbEntity
  8
ﾊｯﾁﾝｸﾞ
  6
Continuous
100
AcDbLine
 10
168.7806191118434
 20
-77.76344007329317
 30
0.0
 11
181.6189029712695
 21
-100.0
 31
0.0
  0
LINE
  5
90
330
8C
100
AcDbEntity
  8
ﾊｯﾁﾝｸﾞ
  6
Continuous
100
AcDbLine
 10
155.9423352523008
 20
-100.0
 30
0.0
 11
213.6773621712346
 21
0.0
 31
0.0
  0
LINE
  5
91
330
8C
100
AcDbEntity
  8
ﾊｯﾁﾝｸﾞ
  6
Continuous
100
AcDbLine
 10
64.33979487384203
 20
-100.0
 30
0.0
 11
122.0748217927758
 21
0.0
 31
0.0
  0
LINE
  5
92
330
8C
100
AcDbEntity
  8
ﾊｯﾁﾝｸﾞ
  6
Continuous
100
AcDbLine
 10
-27.26274550461676
 20
-100.0
 30
0.0
 11
30.47228141431697
 21
0.0
 31
0.0
  0
LINE
  5
93
330
8C
100
AcDbEntity
  8
ﾊｯﾁﾝｸﾞ
  6
Continuous
100
AcDbLine
 10
77.17807873338461
 20
-77.76344007329317
 30
0.0
 11
90.01636259281076
 21
-100.0
 31
0.0
  0
LINE
  5
94
330
8C
100
AcDbEntity
  8
ﾊｯﾁﾝｸﾞ
  6
Continuous
100
AcDbLine
 10
-14.4244616451906
 20
-77.76344007329317
 30
0.0
 11
-1.586177785531615
 21
-100.0
 31
0.0
  0
LINE
  5
95
330
8C
100
AcDbEntity
  8
ﾊｯﾁﾝｸﾞ
  6
Continuous
100
AcDbLine
 10
1.754042513202874
 20
0.0
 30
0.0
 11
17.86117582034785
 21
-21.8430756283924
 31
0.0
  0
LINE
  5
96
330
8C
100
AcDbEntity
  8
ﾊｯﾁﾝｸﾞ
  6
Continuous
100
AcDbLine
 10
93.35658289166168
 20
0.0
 30
0.0
 11
109.4637161988066
 21
-21.8430756283924
 31
0.0
  0
LINE
  5
97
330
8C
100
AcDbEntity
  8
ﾊｯﾁﾝｸﾞ
  6
Continuous
100
AcDbLine
 10
-181.4510382437146
 20
0.0
 30
0.0
 11
-165.3439049364533
 21
-21.8430756283924
 31
0.0
  0
LINE
  5
98
330
8C
100
AcDbEntity
  8
ﾊｯﾁﾝｸﾞ
  6
Continuous
100
AcDbLine
 10
-197.6295424019918
 20
-77.76344007329317
 30
0.0
 11
-184.7912585424492
 21
-100.0
 31
0.0
  0
LINE
  5
99
330
8C
100
AcDbEntity
  8
ﾊｯﾁﾝｸﾞ
  6
Continuous
100
AcDbLine
 10
-210.4678262615343
 20
-100.0
 30
0.0
 11
-152.7327993426006
 21
0.0
 31
0.0
  0
LINE
  5
9A
330
8C
100
AcDbEntity
  8
ﾊｯﾁﾝｸﾞ
  6
Continuous
100
AcDbLine
 10
-118.8652858830755
 20
-100.0
 30
0.0
 11
-61.13025896414182
 21
0.0
 31
0.0
  0
LINE
  5
9B
330
8C
100
AcDbEntity
  8
ﾊｯﾁﾝｸﾞ
  6
Continuous
100
AcDbLine
 10
-106.027002023533
 20
-77.76344007329317
 30
0.0
 11
-93.18871816399042
 21
-100.0
 31
0.0
  0
LINE
  5
9C
330
8C
100
AcDbEntity
  8
ﾊｯﾁﾝｸﾞ
  6
Continuous
100
AcDbLine
 10
-89.84849786525591
 20
0.0
 30
0.0
 11
-73.74136455799453
 21
-21.8430756283924
 31
0.0
  0
ENDBLK
  5
9D
330
8C
100
AcDbEntity
  8
0
100
AcDbBlockEnd
  0
BLOCK
  5
4A0
330
496
100
AcDbEntity
  8
0
100
AcDbBlockBegin
  2
*D3
 70
     1
 10
0.0
 20
0.0
 30
0.0
  3
*D3
  1

  0
LINE
  5
5D6
330
496
100
AcDbEntity
  8
寸法
  6
Continuous
370
    -2
100
AcDbLine
 10
27452.18613482023
 20
19711.82315637512
 30
0.0
 11
28152.18613482023
 21
19711.82315637512
 31
0.0
  0
LINE
  5
5D7
330
496
100
AcDbEntity
  8
寸法
  6
Continuous
370
    -2
100
AcDbLine
 10
27452.18613482023
 20
22031.82315637512
 30
0.0
 11
28152.18613482023
 21
22031.82315637512
 31
0.0
  0
LINE
  5
5D8
330
496
100
AcDbEntity
  8
寸法
  6
Continuous
370
    -2
100
AcDbLine
 10
28152.18613482023
 20
19771.82315637512
 30
0.0
 11
28152.18613482023
 21
21971.82315637512
 31
0.0
  0
INSERT
  5
5D9
330
496
100
AcDbEntity
  8
寸法
  6
Continuous
370
    -2
100
AcDbBlockReference
  2
_ORIGIN
 10
28152.18613482023
 20
19711.82315637512
 30
0.0
 41
60.0
 42
60.0
 43
60.0
 50
270.0
  0
INSERT
  5
5DA
330
496
100
AcDbEntity
  8
寸法
  6
Continuous
370
    -2
100
AcDbBlockReference
  2
_ORIGIN
 10
28152.18613482023
 20
22031.82315637512
 30
0.0
 41
60.0
 42
60.0
 43
60.0
 50
90.0
  0
MTEXT
  5
5DB
330
496
100
AcDbEntity
  8
寸法
  6
Continuous
100
AcDbMText
 10
27873.6147062488
 20
20871.82315637513
 30
0.0
 40
300.0
 41
0.0
 71
     5
 72
     1
  1
\A1;2,320
  7
1_100
 11
0.0000000000000001
 21
1.0
 31
0.0
 73
     1
 44
1.0
1001
ACAD
1000
MTEXTBEGIN
1070
    73
1070
     1
1070
    44
1040
1.0
1070
    74
1070
     0
1000
MTEXTEND
  0
POINT
  5
5DC
330
496
100
AcDbEntity
  8
DEFPOINTS
  6
Continuous
 62
     0
100
AcDbPoint
 10
27152.18613482023
 20
19711.82315637512
 30
0.0
  0
POINT
  5
5DD
330
496
100
AcDbEntity
  8
DEFPOINTS
  6
Continuous
 62
     0
100
AcDbPoint
 10
27152.18613482023
 20
22031.82315637512
 30
0.0
  0
POINT
  5
5DE
330
496
100
AcDbEntity
  8
DEFPOINTS
  6
Continuous
 62
     0
100
AcDbPoint
 10
28152.18613482023
 20
22031.82315637512
 30
0.0
  0
ENDBLK
  5
4A1
330
496
100
AcDbEntity
  8
0
100
AcDbBlockEnd
  0
BLOCK
  5
4AC
330
4A2
100
AcDbEntity
  8
0
100
AcDbBlockBegin
  2
*D4
 70
     1
 10
0.0
 20
0.0
 30
0.0
  3
*D4
  1

  0
LINE
  5
5DF
330
4A2
100
AcDbEntity
  8
寸法
  6
Continuous
370
    -2
100
AcDbLine
 10
33952.18613482023
 20
19711.8231563757
 30
0.0
 11
34752.18613482023
 21
19711.8231563757
 31
0.0
  0
LINE
  5
5E0
330
4A2
100
AcDbEntity
  8
寸法
  6
Continuous
370
    -2
100
AcDbLine
 10
33952.18613482023
 20
22031.8231563757
 30
0.0
 11
34752.18613482023
 21
22031.8231563757
 31
0.0
  0
LINE
  5
5E1
330
4A2
100
AcDbEntity
  8
寸法
  6
Continuous
370
    -2
100
AcDbLine
 10
34752.18613482023
 20
19771.8231563757
 30
0.0
 11
34752.18613482023
 21
21971.8231563757
 31
0.0
  0
INSERT
  5
5E2
330
4A2
100
AcDbEntity
  8
寸法
  6
Continuous
370
    -2
100
AcDbBlockReference
  2
_ORIGIN
 10
34752.18613482023
 20
19711.8231563757
 30
0.0
 41
60.0
 42
60.0
 43
60.0
 50
270.0
  0
INSERT
  5
5E3
330
4A2
100
AcDbEntity
  8
寸法
  6
Continuous
370
    -2
100
AcDbBlockReference
  2
_ORIGIN
 10
34752.18613482023
 20
22031.8231563757
 30
0.0
 41
60.0
 42
60.0
 43
60.0
 50
90.0
  0
MTEXT
  5
5E4
330
4A2
100
AcDbEntity
  8
寸法
  6
Continuous
100
AcDbMText
 10
34473.61470624879
 20
20871.82315637571
 30
0.0
 40
300.0
 41
0.0
 71
     5
 72
     1
  1
\A1;2,320
  7
1_100
 11
0.0000000000000001
 21
1.0
 31
0.0
 73
     1
 44
1.0
1001
ACAD
1000
MTEXTBEGIN
1070
    73
1070
     1
1070
    44
1040
1.0
1070
    74
1070
     0
1000
MTEXTEND
  0
POINT
  5
5E5
330
4A2
100
AcDbEntity
  8
DEFPOINTS
  6
Continuous
 62
     0
100
AcDbPoint
 10
33652.18613482023
 20
19711.8231563757
 30
0.0
  0
POINT
  5
5E6
330
4A2
100
AcDbEntity
  8
DEFPOINTS
  6
Continuous
 62
     0
100
AcDbPoint
 10
33652.18613482023
 20
22031.8231563757
 30
0.0
  0
POINT
  5
5E7
330
4A2
100
AcDbEntity
  8
DEFPOINTS
  6
Continuous
 62
     0
100
AcDbPoint
 10
34752.18613482023
 20
22031.8231563757
 30
0.0
  0
ENDBLK
  5
4AD
330
4A2
100
AcDbEntity
  8
0
100
AcDbBlockEnd
  0
BLOCK
  5
4B8
330
4AE
100
AcDbEntity
  8
0
100
AcDbBlockBegin
  2
*D5
 70
     1
 10
0.0
 20
0.0
 30
0.0
  3
*D5
  1

  0
LINE
  5
5E8
330
4AE
100
AcDbEntity
  8
寸法
  6
Continuous
370
    -2
100
AcDbLine
 10
27452.18613482023
 20
22091.82315637512
 30
0.0
 11
29152.18613482023
 21
22091.82315637512
 31
0.0
  0
LINE
  5
5E9
330
4AE
100
AcDbEntity
  8
寸法
  6
Continuous
370
    -2
100
AcDbLine
 10
27452.18613482023
 20
15091.82315637501
 30
0.0
 11
29152.18613482023
 21
15091.823156375
 31
0.0
  0
LINE
  5
5EA
330
4AE
100
AcDbEntity
  8
寸法
  6
Continuous
370
    -2
100
AcDbLine
 10
29152.18613482023
 20
22031.82315637512
 30
0.0
 11
29152.18613482023
 21
15151.823156375
 31
0.0
  0
INSERT
  5
5EB
330
4AE
100
AcDbEntity
  8
寸法
  6
Continuous
370
    -2
100
AcDbBlockReference
  2
_ORIGIN
 10
29152.18613482023
 20
22091.82315637512
 30
0.0
 41
60.0
 42
60.0
 43
60.0
 50
90.0
  0
INSERT
  5
5EC
330
4AE
100
AcDbEntity
  8
寸法
  6
Continuous
370
    -2
100
AcDbBlockReference
  2
_ORIGIN
 10
29152.18613482023
 20
15091.823156375
 30
0.0
 41
60.0
 42
60.0
 43
60.0
 50
270.0
  0
MTEXT
  5
5ED
330
4AE
100
AcDbEntity
  8
寸法
  6
Continuous
100
AcDbMText
 10
28873.61470624879
 20
18591.82315637506
 30
0.0
 40
300.0
 41
0.0
 71
     5
 72
     1
  1
\A1;7,000
  7
1_100
 11
0.0000000000000001
 21
1.0
 31
0.0
 73
     1
 44
1.0
1001
ACAD
1000
MTEXTBEGIN
1070
    73
1070
     1
1070
    44
1040
1.0
1070
    74
1070
     0
1000
MTEXTEND
  0
POINT
  5
5EE
330
4AE
100
AcDbEntity
  8
DEFPOINTS
  6
Continuous
 62
     0
100
AcDbPoint
 10
27152.18613482023
 20
22091.82315637512
 30
0.0
  0
POINT
  5
5EF
330
4AE
100
AcDbEntity
  8
DEFPOINTS
  6
Continuous
 62
     0
100
AcDbPoint
 10
27152.18613482023
 20
15091.82315637501
 30
0.0
  0
POINT
  5
5F0
330
4AE
100
AcDbEntity
  8
DEFPOINTS
  6
Continuous
 62
     0
100
AcDbPoint
 10
29152.18613482023
 20
15091.823156375
 30
0.0
  0
ENDBLK
  5
4B9
330
4AE
100
AcDbEntity
  8
0
100
AcDbBlockEnd
  0
BLOCK
  5
4C4
330
4BA
100
AcDbEntity
  8
0
100
AcDbBlockBegin
  2
*D6
 70
     1
 10
0.0
 20
0.0
 30
0.0
  3
*D6
  1

  0
LINE
  5
5F1
330
4BA
100
AcDbEntity
  8
寸法
  6
Continuous
370
    -2
100
AcDbLine
 10
33952.18613482023
 20
22091.8231563757
 30
0.0
 11
35752.18613482024
 21
22091.8231563757
 31
0.0
  0
LINE
  5
5F2
330
4BA
100
AcDbEntity
  8
寸法
  6
Continuous
370
    -2
100
AcDbLine
 10
33952.18613482023
 20
15091.82315637501
 30
0.0
 11
35752.18613482023
 21
15091.82315637501
 31
0.0
  0
LINE
  5
5F3
330
4BA
100
AcDbEntity
  8
寸法
  6
Continuous
370
    -2
100
AcDbLine
 10
35752.18613482024
 20
22031.8231563757
 30
0.0
 11
35752.18613482023
 21
15151.82315637501
 31
0.0
  0
INSERT
  5
5F4
330
4BA
100
AcDbEntity
  8
寸法
  6
Continuous
370
    -2
100
AcDbBlockReference
  2
_ORIGIN
 10
35752.18613482024
 20
22091.8231563757
 30
0.0
 41
60.0
 42
60.0
 43
60.0
 50
90.0
  0
INSERT
  5
5F5
330
4BA
100
AcDbEntity
  8
寸法
  6
Continuous
370
    -2
100
AcDbBlockReference
  2
_ORIGIN
 10
35752.18613482023
 20
15091.82315637501
 30
0.0
 41
60.0
 42
60.0
 43
60.0
 50
270.0
  0
MTEXT
  5
5F6
330
4BA
100
AcDbEntity
  8
寸法
  6
Continuous
100
AcDbMText
 10
35473.6147062488
 20
18591.82315637536
 30
0.0
 40
300.0
 41
0.0
 71
     5
 72
     1
  1
\A1;7,000
  7
1_100
 11
0.0000000000000001
 21
1.0
 31
0.0
 73
     1
 44
1.0
1001
ACAD
1000
MTEXTBEGIN
1070
    73
1070
     1
1070
    44
1040
1.0
1070
    74
1070
     0
1000
MTEXTEND
  0
POINT
  5
5F7
330
4BA
100
AcDbEntity
  8
DEFPOINTS
  6
Continuous
 62
     0
100
AcDbPoint
 10
33652.18613482023
 20
22091.8231563757
 30
0.0
  0
POINT
  5
5F8
330
4BA
100
AcDbEntity
  8
DEFPOINTS
  6
Continuous
 62
     0
100
AcDbPoint
 10
33652.18613482023
 20
15091.82315637501
 30
0.0
  0
POINT
  5
5F9
330
4BA
100
AcDbEntity
  8
DEFPOINTS
  6
Continuous
 62
     0
100
AcDbPoint
 10
35752.18613482023
 20
15091.82315637501
 30
0.0
  0
ENDBLK
  5
4C5
330
4BA
100
AcDbEntity
  8
0
100
AcDbBlockEnd
  0
BLOCK
  5
4D0
330
4C6
100
AcDbEntity
  8
0
100
AcDbBlockBegin
  2
*D7
 70
     1
 10
0.0
 20
0.0
 30
0.0
  3
*D7
  1

  0
LINE
  5
5FA
330
4C6
100
AcDbEntity
  8
寸法
  6
Continuous
370
    -2
100
AcDbLine
 10
10152.18613482022
 20
11291.82315637489
 30
0.0
 11
10152.18613482022
 21
9991.823156374428
 31
0.0
  0
LINE
  5
5FB
330
4C6
100
AcDbEntity
  8
寸法
  6
Continuous
370
    -2
100
AcDbLine
 10
20152.18613481999
 20
12549.3556845816
 30
0.0
 11
20152.18613481999
 21
9991.823156374428
 31
0.0
  0
LINE
  5
5FC
330
4C6
100
AcDbEntity
  8
寸法
  6
Continuous
370
    -2
100
AcDbLine
 10
10212.18613482022
 20
9991.823156374428
 30
0.0
 11
20092.18613481999
 21
9991.823156374428
 31
0.0
  0
INSERT
  5
5FD
330
4C6
100
AcDbEntity
  8
寸法
  6
Continuous
370
    -2
100
AcDbBlockReference
  2
_ORIGIN
 10
10152.18613482022
 20
9991.823156374428
 30
0.0
 41
60.0
 42
60.0
 43
60.0
 50
180.0
  0
INSERT
  5
5FE
330
4C6
100
AcDbEntity
  8
寸法
  6
Continuous
370
    -2
100
AcDbBlockReference
  2
_ORIGIN
 10
20152.18613481999
 20
9991.823156374428
 30
0.0
 41
60.0
 42
60.0
 43
60.0
  0
MTEXT
  5
5FF
330
4C6
100
AcDbEntity
  8
寸法
  6
Continuous
100
AcDbMText
 10
15152.18613482011
 20
10270.39458494585
 30
0.0
 40
300.0
 41
0.0
 71
     5
 72
     1
  1
\A1;10,000
  7
1_100
 73
     1
 44
1.0
1001
ACAD
1000
MTEXTBEGIN
1070
    73
1070
     1
1070
    44
1040
1.0
1070
    74
1070
     0
1000
MTEXTEND
  0
POINT
  5
600
330
4C6
100
AcDbEntity
  8
DEFPOINTS
  6
Continuous
 62
     0
100
AcDbPoint
 10
10152.18613482022
 20
11591.82315637489
 30
0.0
  0
POINT
  5
601
330
4C6
100
AcDbEntity
  8
DEFPOINTS
  6
Continuous
 62
     0
100
AcDbPoint
 10
20152.18613481999
 20
12849.3556845816
 30
0.0
  0
POINT
  5
602
330
4C6
100
AcDbEntity
  8
DEFPOINTS
  6
Continuous
 62
     0
100
AcDbPoint
 10
20152.18613481999
 20
9991.823156374428
 30
0.0
  0
ENDBLK
  5
4D1
330
4C6
100
AcDbEntity
  8
0
100
AcDbBlockEnd
  0
BLOCK
  5
4DC
330
4D2
100
AcDbEntity
  8
0
100
AcDbBlockBegin
  2
*D8
 70
     1
 10
0.0
 20
0.0
 30
0.0
  3
*D8
  1

  0
LINE
  5
603
330
4D2
100
AcDbEntity
  8
寸法
  6
Continuous
370
    -2
100
AcDbLine
 10
9927.186134820226
 20
12691.82315637501
 30
0.0
 11
9927.186134820226
 21
12391.82315637501
 31
0.0
  0
LINE
  5
604
330
4D2
100
AcDbEntity
  8
寸法
  6
Continuous
370
    -2
100
AcDbLine
 10
10377.18613482022
 20
12691.82315637501
 30
0.0
 11
10377.18613482022
 21
12391.82315637501
 31
0.0
  0
LINE
  5
605
330
4D2
100
AcDbEntity
  8
寸法
  6
Continuous
370
    -2
100
AcDbLine
 10
9987.186134820227
 20
12391.82315637501
 30
0.0
 11
10317.18613482022
 21
12391.82315637501
 31
0.0
  0
MTEXT
  5
606
330
4D2
100
AcDbEntity
  8
寸法
  6
Continuous
100
AcDbMText
 10
9350.795898625749
 20
12573.15681796385
 30
0.0
 40
300.0
 41
0.0
 71
     5
 72
     1
  1
\A1;φ450
  7
1_100
 73
     1
 44
1.0
1001
ACAD
1000
MTEXTBEGIN
1070
    73
1070
     1
1070
    44
1040
1.0
1070
    74
1070
     0
1000
MTEXTEND
  0
INSERT
  5
607
330
4D2
100
AcDbEntity
  8
寸法
  6
Continuous
370
    -2
100
AcDbBlockReference
  2
_ORIGIN
 10
9927.186134820226
 20
12391.82315637501
 30
0.0
 41
60.0
 42
60.0
 43
60.0
 50
180.0
  0
INSERT
  5
608
330
4D2
100
AcDbEntity
  8
寸法
  6
Continuous
370
    -2
100
AcDbBlockReference
  2
_ORIGIN
 10
10377.18613482022
 20
12391.82315637501
 30
0.0
 41
60.0
 42
60.0
 43
60.0
  0
POINT
  5
609
330
4D2
100
AcDbEntity
  8
DEFPOINTS
  6
Continuous
 62
     0
100
AcDbPoint
 10
9927.186134820226
 20
12991.823156375
 30
0.0
  0
POINT
  5
60A
330
4D2
100
AcDbEntity
  8
DEFPOINTS
  6
Continuous
 62
     0
100
AcDbPoint
 10
10377.18613482022
 20
12991.823156375
 30
0.0
  0
POINT
  5
60B
330
4D2
100
AcDbEntity
  8
DEFPOINTS
  6
Continuous
 62
     0
100
AcDbPoint
 10
10377.18613482022
 20
12391.82315637501
 30
0.0
  0
ENDBLK
  5
4DD
330
4D2
100
AcDbEntity
  8
0
100
AcDbBlockEnd
  0
BLOCK
  5
4EA
330
4DE
100
AcDbEntity
  8
0
100
AcDbBlockBegin
  2
*D9
 70
     1
 10
0.0
 20
0.0
 30
0.0
  3
*D9
  1

  0
LINE
  5
60C
330
4DE
100
AcDbEntity
  8
寸法
  6
Continuous
370
    -2
100
AcDbLine
 10
9902.186134820226
 20
12691.82315637501
 30
0.0
 11
9902.186134820226
 21
11991.82315637489
 31
0.0
  0
LINE
  5
60D
330
4DE
100
AcDbEntity
  8
寸法
  6
Continuous
370
    -2
100
AcDbLine
 10
10402.18613482022
 20
12691.82315637489
 30
0.0
 11
10402.18613482022
 21
11991.82315637489
 31
0.0
  0
LINE
  5
60E
330
4DE
100
AcDbEntity
  8
寸法
  6
Continuous
370
    -2
100
AcDbLine
 10
9842.186134820224
 20
11991.82315637489
 30
0.0
 11
9782.186134820229
 21
11991.82315637489
 31
0.0
  0
LINE
  5
60F
330
4DE
100
AcDbEntity
  8
寸法
  6
Continuous
370
    -2
100
AcDbLine
 10
10462.18613482022
 20
11991.82315637489
 30
0.0
 11
10522.18613482022
 21
11991.82315637489
 31
0.0
  0
LINE
  5
610
330
4DE
100
AcDbEntity
  8
寸法
  6
Continuous
370
    -2
100
AcDbLine
 10
9902.186134820226
 20
11991.82315637489
 30
0.0
 11
10402.18613482022
 21
11991.82315637489
 31
0.0
  0
INSERT
  5
611
330
4DE
100
AcDbEntity
  8
寸法
  6
Continuous
370
    -2
100
AcDbBlockReference
  2
_ORIGIN
 10
9902.186134820226
 20
11991.82315637489
 30
0.0
 41
60.0
 42
60.0
 43
60.0
  0
INSERT
  5
612
330
4DE
100
AcDbEntity
  8
寸法
  6
Continuous
370
    -2
100
AcDbBlockReference
  2
_ORIGIN
 10
10402.18613482022
 20
11991.82315637489
 30
0.0
 41
60.0
 42
60.0
 43
60.0
 50
180.0
  0
MTEXT
  5
613
330
4DE
100
AcDbEntity
  8
寸法
  6
Continuous
100
AcDbMText
 10
10152.18613482022
 20
11741.82315637489
 30
0.0
 40
300.0
 41
0.0
 71
     5
 72
     1
  1
\A1;□500
  7
1_100
 73
     1
 44
1.0
1001
ACAD
1000
MTEXTBEGIN
1070
    73
1070
     1
1070
    44
1040
1.0
1070
    74
1070
     0
1000
MTEXTEND
  0
POINT
  5
614
330
4DE
100
AcDbEntity
  8
DEFPOINTS
  6
Continuous
 62
     0
100
AcDbPoint
 10
9902.186134820226
 20
12991.823156375
 30
0.0
  0
POINT
  5
615
330
4DE
100
AcDbEntity
  8
DEFPOINTS
  6
Continuous
 62
     0
100
AcDbPoint
 10
10402.18613482022
 20
12991.82315637489
 30
0.0
  0
POINT
  5
616
330
4DE
100
AcDbEntity
  8
DEFPOINTS
  6
Continuous
 62
     0
100
AcDbPoint
 10
10402.18613482022
 20
11991.82315637489
 30
0.0
  0
ENDBLK
  5
4EB
330
4DE
100
AcDbEntity
  8
0
100
AcDbBlockEnd
  0
BLOCK
  5
4F6
330
4EC
100
AcDbEntity
  8
0
100
AcDbBlockBegin
  2
*D10
 70
     1
 10
0.0
 20
0.0
 30
0.0
  3
*D10
  1

  0
LINE
  5
617
330
4EC
100
AcDbEntity
  8
寸法
  6
Continuous
370
    -2
100
AcDbLine
 10
31927.18613482023
 20
12691.82315637501
 30
0.0
 11
31927.18613482023
 21
12391.82315637501
 31
0.0
  0
LINE
  5
618
330
4EC
100
AcDbEntity
  8
寸法
  6
Continuous
370
    -2
100
AcDbLine
 10
32377.18613482023
 20
12691.82315637501
 30
0.0
 11
32377.18613482023
 21
12391.82315637501
 31
0.0
  0
LINE
  5
619
330
4EC
100
AcDbEntity
  8
寸法
  6
Continuous
370
    -2
100
AcDbLine
 10
31987.18613482023
 20
12391.82315637501
 30
0.0
 11
32317.18613482023
 21
12391.82315637501
 31
0.0
  0
MTEXT
  5
61A
330
4EC
100
AcDbEntity
  8
寸法
  6
Continuous
100
AcDbMText
 10
31350.79589862598
 20
12573.15681796385
 30
0.0
 40
300.0
 41
0.0
 71
     5
 72
     1
  1
\A1;φ450
  7
1_100
 73
     1
 44
1.0
1001
ACAD
1000
MTEXTBEGIN
1070
    73
1070
     1
1070
    44
1040
1.0
1070
    74
1070
     0
1000
MTEXTEND
  0
INSERT
  5
61B
330
4EC
100
AcDbEntity
  8
寸法
  6
Continuous
370
    -2
100
AcDbBlockReference
  2
_ORIGIN
 10
31927.18613482023
 20
12391.82315637501
 30
0.0
 41
60.0
 42
60.0
 43
60.0
 50
180.0
  0
INSERT
  5
61C
330
4EC
100
AcDbEntity
  8
寸法
  6
Continuous
370
    -2
100
AcDbBlockReference
  2
_ORIGIN
 10
32377.18613482023
 20
12391.82315637501
 30
0.0
 41
60.0
 42
60.0
 43
60.0
  0
POINT
  5
61D
330
4EC
100
AcDbEntity
  8
DEFPOINTS
  6
Continuous
 62
     0
100
AcDbPoint
 10
31927.18613482023
 20
12991.823156375
 30
0.0
  0
POINT
  5
61E
330
4EC
100
AcDbEntity
  8
DEFPOINTS
  6
Continuous
 62
     0
100
AcDbPoint
 10
32377.18613482023
 20
12991.823156375
 30
0.0
  0
POINT
  5
61F
330
4EC
100
AcDbEntity
  8
DEFPOINTS
  6
Continuous
 62
     0
100
AcDbPoint
 10
32377.18613482023
 20
12391.82315637501
 30
0.0
  0
ENDBLK
  5
4F7
330
4EC
100
AcDbEntity
  8
0
100
AcDbBlockEnd
  0
BLOCK
  5
502
330
4F8
100
AcDbEntity
  8
0
100
AcDbBlockBegin
  2
*D11
 70
     1
 10
0.0
 20
0.0
 30
0.0
  3
*D11
  1

  0
LINE
  5
620
330
4F8
100
AcDbEntity
  8
寸法
  6
Continuous
370
    -2
100
AcDbLine
 10
27452.18613482023
 20
15091.82315637501
 30
0.0
 11
29152.18613482023
 21
15091.823156375
 31
0.0
  0
LINE
  5
621
330
4F8
100
AcDbEntity
  8
寸法
  6
Continuous
370
    -2
100
AcDbLine
 10
27452.18613482023
 20
13091.82315637512
 30
0.0
 11
29152.18613482023
 21
13091.82315637512
 31
0.0
  0
LINE
  5
622
330
4F8
100
AcDbEntity
  8
寸法
  6
Continuous
370
    -2
100
AcDbLine
 10
29152.18613482023
 20
15031.823156375
 30
0.0
 11
29152.18613482023
 21
13151.82315637512
 31
0.0
  0
INSERT
  5
623
330
4F8
100
AcDbEntity
  8
寸法
  6
Continuous
370
    -2
100
AcDbBlockReference
  2
_ORIGIN
 10
29152.18613482023
 20
15091.823156375
 30
0.0
 41
60.0
 42
60.0
 43
60.0
 50
90.0
  0
INSERT
  5
624
330
4F8
100
AcDbEntity
  8
寸法
  6
Continuous
370
    -2
100
AcDbBlockReference
  2
_ORIGIN
 10
29152.18613482023
 20
13091.82315637512
 30
0.0
 41
60.0
 42
60.0
 43
60.0
 50
270.0
  0
MTEXT
  5
625
330
4F8
100
AcDbEntity
  8
寸法
  6
Continuous
100
AcDbMText
 10
28873.61470624879
 20
14091.82315637507
 30
0.0
 40
300.0
 41
0.0
 71
     5
 72
     1
  1
\A1;2,000
  7
1_100
 11
0.0000000000000001
 21
1.0
 31
0.0
 73
     1
 44
1.0
1001
ACAD
1000
MTEXTBEGIN
1070
    73
1070
     1
1070
    44
1040
1.0
1070
    74
1070
     0
1000
MTEXTEND
  0
POINT
  5
626
330
4F8
100
AcDbEntity
  8
DEFPOINTS
  6
Continuous
 62
     0
100
AcDbPoint
 10
27152.18613482023
 20
15091.82315637501
 30
0.0
  0
POINT
  5
627
330
4F8
100
AcDbEntity
  8
DEFPOINTS
  6
Continuous
 62
     0
100
AcDbPoint
 10
27152.18613482023
 20
13091.82315637512
 30
0.0
  0
POINT
  5
628
330
4F8
100
AcDbEntity
  8
DEFPOINTS
  6
Continuous
 62
     0
100
AcDbPoint
 10
29152.18613482023
 20
13091.82315637512
 30
0.0
  0
ENDBLK
  5
503
330
4F8
100
AcDbEntity
  8
0
100
AcDbBlockEnd
  0
BLOCK
  5
510
330
504
100
AcDbEntity
  8
0
100
AcDbBlockBegin
  2
*D12
 70
     1
 10
0.0
 20
0.0
 30
0.0
  3
*D12
  1

  0
LINE
  5
629
330
504
100
AcDbEntity
  8
寸法
  6
Continuous
370
    -2
100
AcDbLine
 10
27452.18613482023
 20
14891.82315637512
 30
0.0
 11
28152.18613482023
 21
14891.82315637512
 31
0.0
  0
LINE
  5
62A
330
504
100
AcDbEntity
  8
寸法
  6
Continuous
370
    -2
100
AcDbLine
 10
27452.18613482023
 20
15091.82315637512
 30
0.0
 11
28152.18613482023
 21
15091.82315637512
 31
0.0
  0
LINE
  5
62B
330
504
100
AcDbEntity
  8
寸法
  6
Continuous
370
    -2
100
AcDbLine
 10
28152.18613482023
 20
14831.82315637512
 30
0.0
 11
28152.18613482023
 21
14771.82315637512
 31
0.0
  0
LINE
  5
62C
330
504
100
AcDbEntity
  8
寸法
  6
Continuous
370
    -2
100
AcDbLine
 10
28152.18613482023
 20
15151.82315637512
 30
0.0
 11
28152.18613482023
 21
15211.82315637512
 31
0.0
  0
MTEXT
  5
62D
330
504
100
AcDbEntity
  8
寸法
  6
Continuous
100
AcDbMText
 10
28409.00316335226
 20
14745.61082268323
 30
0.0
 40
300.0
 41
0.0
 71
     5
 72
     1
  1
\A1;200
  7
1_100
 11
0.0000000000000001
 21
1.0
 31
0.0
 73
     1
 44
1.0
1001
ACAD
1000
MTEXTBEGIN
1070
    73
1070
     1
1070
    44
1040
1.0
1070
    74
1070
     0
1000
MTEXTEND
  0
LINE
  5
62E
330
504
100
AcDbEntity
  8
寸法
  6
Continuous
370
    -2
100
AcDbLine
 10
28152.18613482023
 20
14891.82315637512
 30
0.0
 11
28152.18613482023
 21
15091.82315637512
 31
0.0
  0
INSERT
  5
62F
330
504
100
AcDbEntity
  8
寸法
  6
Continuous
370
    -2
100
AcDbBlockReference
  2
_ORIGIN
 10
28152.18613482023
 20
14891.82315637512
 30
0.0
 41
60.0
 42
60.0
 43
60.0
 50
90.0
  0
INSERT
  5
630
330
504
100
AcDbEntity
  8
寸法
  6
Continuous
370
    -2
100
AcDbBlockReference
  2
_ORIGIN
 10
28152.18613482023
 20
15091.82315637512
 30
0.0
 41
60.0
 42
60.0
 43
60.0
 50
270.0
  0
POINT
  5
631
330
504
100
AcDbEntity
  8
DEFPOINTS
  6
Continuous
 62
     0
100
AcDbPoint
 10
27152.18613482023
 20
14891.82315637512
 30
0.0
  0
POINT
  5
632
330
504
100
AcDbEntity
  8
DEFPOINTS
  6
Continuous
 62
     0
100
AcDbPoint
 10
27152.18613482023
 20
15091.82315637512
 30
0.0
  0
POINT
  5
633
330
504
100
AcDbEntity
  8
DEFPOINTS
  6
Continuous
 62
     0
100
AcDbPoint
 10
28152.18613482023
 20
15091.82315637512
 30
0.0
  0
ENDBLK
  5
511
330
504
100
AcDbEntity
  8
0
100
AcDbBlockEnd
  0
BLOCK
  5
51C
330
512
100
AcDbEntity
  8
0
100
AcDbBlockBegin
  2
*D13
 70
     1
 10
0.0
 20
0.0
 30
0.0
  3
*D13
  1

  0
LINE
  5
634
330
512
100
AcDbEntity
  8
寸法
  6
Continuous
370
    -2
100
AcDbLine
 10
27452.18613482023
 20
13091.82315637512
 30
0.0
 11
28152.18613482023
 21
13091.82315637512
 31
0.0
  0
LINE
  5
635
330
512
100
AcDbEntity
  8
寸法
  6
Continuous
370
    -2
100
AcDbLine
 10
27452.18613482023
 20
14891.82315637512
 30
0.0
 11
28152.18613482023
 21
14891.82315637512
 31
0.0
  0
LINE
  5
636
330
512
100
AcDbEntity
  8
寸法
  6
Continuous
370
    -2
100
AcDbLine
 10
28152.18613482023
 20
13151.82315637512
 30
0.0
 11
28152.18613482023
 21
14831.82315637512
 31
0.0
  0
INSERT
  5
637
330
512
100
AcDbEntity
  8
寸法
  6
Continuous
370
    -2
100
AcDbBlockReference
  2
_ORIGIN
 10
28152.18613482023
 20
13091.82315637512
 30
0.0
 41
60.0
 42
60.0
 43
60.0
 50
270.0
  0
INSERT
  5
638
330
512
100
AcDbEntity
  8
寸法
  6
Continuous
370
    -2
100
AcDbBlockReference
  2
_ORIGIN
 10
28152.18613482023
 20
14891.82315637512
 30
0.0
 41
60.0
 42
60.0
 43
60.0
 50
90.0
  0
MTEXT
  5
639
330
512
100
AcDbEntity
  8
寸法
  6
Continuous
100
AcDbMText
 10
27873.6147062488
 20
13991.82315637512
 30
0.0
 40
300.0
 41
0.0
 71
     5
 72
     1
  1
\A1;1,800
  7
1_100
 11
0.0000000000000001
 21
1.0
 31
0.0
 73
     1
 44
1.0
1001
ACAD
1000
MTEXTBEGIN
1070
    73
1070
     1
1070
    44
1040
1.0
1070
    74
1070
     0
1000
MTEXTEND
  0
POINT
  5
63A
330
512
100
AcDbEntity
  8
DEFPOINTS
  6
Continuous
 62
     0
100
AcDbPoint
 10
27152.18613482023
 20
13091.82315637512
 30
0.0
  0
POINT
  5
63B
330
512
100
AcDbEntity
  8
DEFPOINTS
  6
Continuous
 62
     0
100
AcDbPoint
 10
27152.18613482023
 20
14891.82315637512
 30
0.0
  0
POINT
  5
63C
330
512
100
AcDbEntity
  8
DEFPOINTS
  6
Continuous
 62
     0
100
AcDbPoint
 10
28152.18613482023
 20
14891.82315637512
 30
0.0
  0
ENDBLK
  5
51D
330
512
100
AcDbEntity
  8
0
100
AcDbBlockEnd
  0
BLOCK
  5
52A
330
51E
100
AcDbEntity
  8
0
100
AcDbBlockBegin
  2
*D14
 70
     1
 10
0.0
 20
0.0
 30
0.0
  3
*D14
  1

  0
LINE
  5
63D
330
51E
100
AcDbEntity
  8
寸法
  6
Continuous
370
    -2
100
AcDbLine
 10
27452.18613482023
 20
12991.82315637512
 30
0.0
 11
28152.18613482023
 21
12991.82315637512
 31
0.0
  0
LINE
  5
63E
330
51E
100
AcDbEntity
  8
寸法
  6
Continuous
370
    -2
100
AcDbLine
 10
27452.18613482023
 20
13091.82315637512
 30
0.0
 11
28152.18613482023
 21
13091.82315637512
 31
0.0
  0
LINE
  5
63F
330
51E
100
AcDbEntity
  8
寸法
  6
Continuous
370
    -2
100
AcDbLine
 10
28152.18613482023
 20
12931.82315637512
 30
0.0
 11
28152.18613482023
 21
12871.82315637512
 31
0.0
  0
LINE
  5
640
330
51E
100
AcDbEntity
  8
寸法
  6
Continuous
370
    -2
100
AcDbLine
 10
28152.18613482023
 20
13151.82315637512
 30
0.0
 11
28152.18613482023
 21
13211.82315637512
 31
0.0
  0
MTEXT
  5
641
330
51E
100
AcDbEntity
  8
寸法
  6
Continuous
100
AcDbMText
 10
27849.35851677147
 20
12631.8517757133
 30
0.0
 40
300.0
 41
0.0
 71
     5
 72
     1
  1
\A1;100
  7
1_100
 11
0.0000000000000001
 21
1.0
 31
0.0
 73
     1
 44
1.0
1001
ACAD
1000
MTEXTBEGIN
1070
    73
1070
     1
1070
    44
1040
1.0
1070
    74
1070
     0
1000
MTEXTEND
  0
LINE
  5
642
330
51E
100
AcDbEntity
  8
寸法
  6
Continuous
370
    -2
100
AcDbLine
 10
28152.18613482023
 20
12991.82315637512
 30
0.0
 11
28152.18613482023
 21
13091.82315637512
 31
0.0
  0
INSERT
  5
643
330
51E
100
AcDbEntity
  8
寸法
  6
Continuous
370
    -2
100
AcDbBlockReference
  2
_ORIGIN
 10
28152.18613482023
 20
12991.82315637512
 30
0.0
 41
60.0
 42
60.0
 43
60.0
 50
90.0
  0
INSERT
  5
644
330
51E
100
AcDbEntity
  8
寸法
  6
Continuous
370
    -2
100
AcDbBlockReference
  2
_ORIGIN
 10
28152.18613482023
 20
13091.82315637512
 30
0.0
 41
60.0
 42
60.0
 43
60.0
 50
270.0
  0
POINT
  5
645
330
51E
100
AcDbEntity
  8
DEFPOINTS
  6
Continuous
 62
     0
100
AcDbPoint
 10
27152.18613482023
 20
12991.82315637512
 30
0.0
  0
POINT
  5
646
330
51E
100
AcDbEntity
  8
DEFPOINTS
  6
Continuous
 62
     0
100
AcDbPoint
 10
27152.18613482023
 20
13091.82315637512
 30
0.0
  0
POINT
  5
647
330
51E
100
AcDbEntity
  8
DEFPOINTS
  6
Continuous
 62
     0
100
AcDbPoint
 10
28152.18613482023
 20
13091.82315637512
 30
0.0
  0
ENDBLK
  5
52B
330
51E
100
AcDbEntity
  8
0
100
AcDbBlockEnd
  0
BLOCK
  5
536
330
52C
100
AcDbEntity
  8
0
100
AcDbBlockBegin
  2
*D15
 70
     1
 10
0.0
 20
0.0
 30
0.0
  3
*D15
  1

  0
LINE
  5
648
330
52C
100
AcDbEntity
  8
寸法
  6
Continuous
370
    -2
100
AcDbLine
 10
27452.18613482023
 20
15091.82315637512
 30
0.0
 11
28152.18613482023
 21
15091.82315637512
 31
0.0
  0
LINE
  5
649
330
52C
100
AcDbEntity
  8
寸法
  6
Continuous
370
    -2
100
AcDbLine
 10
27452.18613482023
 20
17401.82315637512
 30
0.0
 11
28152.18613482023
 21
17401.82315637512
 31
0.0
  0
LINE
  5
64A
330
52C
100
AcDbEntity
  8
寸法
  6
Continuous
370
    -2
100
AcDbLine
 10
28152.18613482023
 20
15151.82315637512
 30
0.0
 11
28152.18613482023
 21
17341.82315637512
 31
0.0
  0
INSERT
  5
64B
330
52C
100
AcDbEntity
  8
寸法
  6
Continuous
370
    -2
100
AcDbBlockReference
  2
_ORIGIN
 10
28152.18613482023
 20
15091.82315637512
 30
0.0
 41
60.0
 42
60.0
 43
60.0
 50
270.0
  0
INSERT
  5
64C
330
52C
100
AcDbEntity
  8
寸法
  6
Continuous
370
    -2
100
AcDbBlockReference
  2
_ORIGIN
 10
28152.18613482023
 20
17401.82315637512
 30
0.0
 41
60.0
 42
60.0
 43
60.0
 50
90.0
  0
MTEXT
  5
64D
330
52C
100
AcDbEntity
  8
寸法
  6
Continuous
100
AcDbMText
 10
27873.6147062488
 20
16246.82315637512
 30
0.0
 40
300.0
 41
0.0
 71
     5
 72
     1
  1
\A1;2,310
  7
1_100
 11
0.0000000000000001
 21
1.0
 31
0.0
 73
     1
 44
1.0
1001
ACAD
1000
MTEXTBEGIN
1070
    73
1070
     1
1070
    44
1040
1.0
1070
    74
1070
     0
1000
MTEXTEND
  0
POINT
  5
64E
330
52C
100
AcDbEntity
  8
DEFPOINTS
  6
Continuous
 62
     0
100
AcDbPoint
 10
27152.18613482023
 20
15091.82315637512
 30
0.0
  0
POINT
  5
64F
330
52C
100
AcDbEntity
  8
DEFPOINTS
  6
Continuous
 62
     0
100
AcDbPoint
 10
27152.18613482023
 20
17401.82315637512
 30
0.0
  0
POINT
  5
650
330
52C
100
AcDbEntity
  8
DEFPOINTS
  6
Continuous
 62
     0
100
AcDbPoint
 10
28152.18613482023
 20
17401.82315637512
 30
0.0
  0
ENDBLK
  5
537
330
52C
100
AcDbEntity
  8
0
100
AcDbBlockEnd
  0
BLOCK
  5
542
330
538
100
AcDbEntity
  8
0
100
AcDbBlockBegin
  2
*D16
 70
     1
 10
0.0
 20
0.0
 30
0.0
  3
*D16
  1

  0
LINE
  5
651
330
538
100
AcDbEntity
  8
寸法
  6
Continuous
370
    -2
100
AcDbLine
 10
27452.18613482023
 20
17401.82315637512
 30
0.0
 11
28152.18613482023
 21
17401.82315637512
 31
0.0
  0
LINE
  5
652
330
538
100
AcDbEntity
  8
寸法
  6
Continuous
370
    -2
100
AcDbLine
 10
27452.18613482023
 20
19711.82315637512
 30
0.0
 11
28152.18613482023
 21
19711.82315637512
 31
0.0
  0
LINE
  5
653
330
538
100
AcDbEntity
  8
寸法
  6
Continuous
370
    -2
100
AcDbLine
 10
28152.18613482023
 20
17461.82315637511
 30
0.0
 11
28152.18613482023
 21
19651.82315637512
 31
0.0
  0
INSERT
  5
654
330
538
100
AcDbEntity
  8
寸法
  6
Continuous
370
    -2
100
AcDbBlockReference
  2
_ORIGIN
 10
28152.18613482023
 20
17401.82315637512
 30
0.0
 41
60.0
 42
60.0
 43
60.0
 50
270.0
  0
INSERT
  5
655
330
538
100
AcDbEntity
  8
寸法
  6
Continuous
370
    -2
100
AcDbBlockReference
  2
_ORIGIN
 10
28152.18613482023
 20
19711.82315637512
 30
0.0
 41
60.0
 42
60.0
 43
60.0
 50
90.0
  0
MTEXT
  5
656
330
538
100
AcDbEntity
  8
寸法
  6
Continuous
100
AcDbMText
 10
27873.6147062488
 20
18556.82315637513
 30
0.0
 40
300.0
 41
0.0
 71
     5
 72
     1
  1
\A1;2,310
  7
1_100
 11
0.0000000000000001
 21
1.0
 31
0.0
 73
     1
 44
1.0
1001
ACAD
1000
MTEXTBEGIN
1070
    73
1070
     1
1070
    44
1040
1.0
1070
    74
1070
     0
1000
MTEXTEND
  0
POINT
  5
657
330
538
100
AcDbEntity
  8
DEFPOINTS
  6
Continuous
 62
     0
100
AcDbPoint
 10
27152.18613482023
 20
17401.82315637512
 30
0.0
  0
POINT
  5
658
330
538
100
AcDbEntity
  8
DEFPOINTS
  6
Continuous
 62
     0
100
AcDbPoint
 10
27152.18613482023
 20
19711.82315637512
 30
0.0
  0
POINT
  5
659
330
538
100
AcDbEntity
  8
DEFPOINTS
  6
Continuous
 62
     0
100
AcDbPoint
 10
28152.18613482023
 20
19711.82315637512
 30
0.0
  0
ENDBLK
  5
543
330
538
100
AcDbEntity
  8
0
100
AcDbBlockEnd
  0
BLOCK
  5
550
330
544
100
AcDbEntity
  8
0
100
AcDbBlockBegin
  2
*D17
 70
     1
 10
0.0
 20
0.0
 30
0.0
  3
*D17
  1

  0
LINE
  5
65A
330
544
100
AcDbEntity
  8
寸法
  6
Continuous
370
    -2
100
AcDbLine
 10
33952.18613482023
 20
14891.8231563757
 30
0.0
 11
34752.18613482023
 21
14891.8231563757
 31
0.0
  0
LINE
  5
65B
330
544
100
AcDbEntity
  8
寸法
  6
Continuous
370
    -2
100
AcDbLine
 10
33952.18613482023
 20
15091.8231563757
 30
0.0
 11
34752.18613482023
 21
15091.8231563757
 31
0.0
  0
LINE
  5
65C
330
544
100
AcDbEntity
  8
寸法
  6
Continuous
370
    -2
100
AcDbLine
 10
34752.18613482023
 20
14831.8231563757
 30
0.0
 11
34752.18613482023
 21
14771.8231563757
 31
0.0
  0
LINE
  5
65D
330
544
100
AcDbEntity
  8
寸法
  6
Continuous
370
    -2
100
AcDbLine
 10
34752.18613482023
 20
15151.8231563757
 30
0.0
 11
34752.18613482023
 21
15211.8231563757
 31
0.0
  0
MTEXT
  5
65E
330
544
100
AcDbEntity
  8
寸法
  6
Continuous
100
AcDbMText
 10
34968.0674999439
 20
14746.94378029093
 30
0.0
 40
300.0
 41
0.0
 71
     5
 72
     1
  1
\A1;200
  7
1_100
 11
0.0000000000000001
 21
1.0
 31
0.0
 73
     1
 44
1.0
1001
ACAD
1000
MTEXTBEGIN
1070
    73
1070
     1
1070
    44
1040
1.0
1070
    74
1070
     0
1000
MTEXTEND
  0
LINE
  5
65F
330
544
100
AcDbEntity
  8
寸法
  6
Continuous
370
    -2
100
AcDbLine
 10
34752.18613482023
 20
14891.8231563757
 30
0.0
 11
34752.18613482023
 21
15091.8231563757
 31
0.0
  0
INSERT
  5
660
330
544
100
AcDbEntity
  8
寸法
  6
Continuous
370
    -2
100
AcDbBlockReference
  2
_ORIGIN
 10
34752.18613482023
 20
14891.8231563757
 30
0.0
 41
60.0
 42
60.0
 43
60.0
 50
90.0
  0
INSERT
  5
661
330
544
100
AcDbEntity
  8
寸法
  6
Continuous
370
    -2
100
AcDbBlockReference
  2
_ORIGIN
 10
34752.18613482023
 20
15091.8231563757
 30
0.0
 41
60.0
 42
60.0
 43
60.0
 50
270.0
  0
POINT
  5
662
330
544
100
AcDbEntity
  8
DEFPOINTS
  6
Continuous
 62
     0
100
AcDbPoint
 10
33652.18613482023
 20
14891.8231563757
 30
0.0
  0
POINT
  5
663
330
544
100
AcDbEntity
  8
DEFPOINTS
  6
Continuous
 62
     0
100
AcDbPoint
 10
33652.18613482023
 20
15091.8231563757
 30
0.0
  0
POINT
  5
664
330
544
100
AcDbEntity
  8
DEFPOINTS
  6
Continuous
 62
     0
100
AcDbPoint
 10
34752.18613482023
 20
15091.8231563757
 30
0.0
  0
ENDBLK
  5
551
330
544
100
AcDbEntity
  8
0
100
AcDbBlockEnd
  0
BLOCK
  5
55C
330
552
100
AcDbEntity
  8
0
100
AcDbBlockBegin
  2
*D18
 70
     1
 10
0.0
 20
0.0
 30
0.0
  3
*D18
  1

  0
LINE
  5
665
330
552
100
AcDbEntity
  8
寸法
  6
Continuous
370
    -2
100
AcDbLine
 10
33952.18613482023
 20
15091.82315637501
 30
0.0
 11
35752.18613482023
 21
15091.82315637501
 31
0.0
  0
LINE
  5
666
330
552
100
AcDbEntity
  8
寸法
  6
Continuous
370
    -2
100
AcDbLine
 10
33952.18613482023
 20
13091.8231563757
 30
0.0
 11
35752.18613482023
 21
13091.8231563757
 31
0.0
  0
LINE
  5
667
330
552
100
AcDbEntity
  8
寸法
  6
Continuous
370
    -2
100
AcDbLine
 10
35752.18613482023
 20
15031.823156375
 30
0.0
 11
35752.18613482023
 21
13151.8231563757
 31
0.0
  0
INSERT
  5
668
330
552
100
AcDbEntity
  8
寸法
  6
Continuous
370
    -2
100
AcDbBlockReference
  2
_ORIGIN
 10
35752.18613482023
 20
15091.82315637501
 30
0.0
 41
60.0
 42
60.0
 43
60.0
 50
90.0
  0
INSERT
  5
669
330
552
100
AcDbEntity
  8
寸法
  6
Continuous
370
    -2
100
AcDbBlockReference
  2
_ORIGIN
 10
35752.18613482023
 20
13091.8231563757
 30
0.0
 41
60.0
 42
60.0
 43
60.0
 50
270.0
  0
MTEXT
  5
66A
330
552
100
AcDbEntity
  8
寸法
  6
Continuous
100
AcDbMText
 10
35473.6147062488
 20
14091.82315637536
 30
0.0
 40
300.0
 41
0.0
 71
     5
 72
     1
  1
\A1;2,000
  7
1_100
 11
0.0000000000000001
 21
1.0
 31
0.0
 73
     1
 44
1.0
1001
ACAD
1000
MTEXTBEGIN
1070
    73
1070
     1
1070
    44
1040
1.0
1070
    74
1070
     0
1000
MTEXTEND
  0
POINT
  5
66B
330
552
100
AcDbEntity
  8
DEFPOINTS
  6
Continuous
 62
     0
100
AcDbPoint
 10
33652.18613482023
 20
15091.82315637501
 30
0.0
  0
POINT
  5
66C
330
552
100
AcDbEntity
  8
DEFPOINTS
  6
Continuous
 62
     0
100
AcDbPoint
 10
33652.18613482023
 20
13091.8231563757
 30
0.0
  0
POINT
  5
66D
330
552
100
AcDbEntity
  8
DEFPOINTS
  6
Continuous
 62
     0
100
AcDbPoint
 10
35752.18613482023
 20
13091.8231563757
 30
0.0
  0
ENDBLK
  5
55D
330
552
100
AcDbEntity
  8
0
100
AcDbBlockEnd
  0
BLOCK
  5
568
330
55E
100
AcDbEntity
  8
0
100
AcDbBlockBegin
  2
*D19
 70
     1
 10
0.0
 20
0.0
 30
0.0
  3
*D19
  1

  0
LINE
  5
66E
330
55E
100
AcDbEntity
  8
寸法
  6
Continuous
370
    -2
100
AcDbLine
 10
33952.18613482023
 20
13091.8231563757
 30
0.0
 11
34752.18613482023
 21
13091.8231563757
 31
0.0
  0
LINE
  5
66F
330
55E
100
AcDbEntity
  8
寸法
  6
Continuous
370
    -2
100
AcDbLine
 10
33952.18613482023
 20
14891.8231563757
 30
0.0
 11
34752.18613482023
 21
14891.8231563757
 31
0.0
  0
LINE
  5
670
330
55E
100
AcDbEntity
  8
寸法
  6
Continuous
370
    -2
100
AcDbLine
 10
34752.18613482023
 20
13151.8231563757
 30
0.0
 11
34752.18613482023
 21
14831.8231563757
 31
0.0
  0
INSERT
  5
671
330
55E
100
AcDbEntity
  8
寸法
  6
Continuous
370
    -2
100
AcDbBlockReference
  2
_ORIGIN
 10
34752.18613482023
 20
13091.8231563757
 30
0.0
 41
60.0
 42
60.0
 43
60.0
 50
270.0
  0
INSERT
  5
672
330
55E
100
AcDbEntity
  8
寸法
  6
Continuous
370
    -2
100
AcDbBlockReference
  2
_ORIGIN
 10
34752.18613482023
 20
14891.8231563757
 30
0.0
 41
60.0
 42
60.0
 43
60.0
 50
90.0
  0
MTEXT
  5
673
330
55E
100
AcDbEntity
  8
寸法
  6
Continuous
100
AcDbMText
 10
34473.6147062488
 20
13991.82315637571
 30
0.0
 40
300.0
 41
0.0
 71
     5
 72
     1
  1
\A1;1,800
  7
1_100
 11
0.0000000000000001
 21
1.0
 31
0.0
 73
     1
 44
1.0
1001
ACAD
1000
MTEXTBEGIN
1070
    73
1070
     1
1070
    44
1040
1.0
1070
    74
1070
     0
1000
MTEXTEND
  0
POINT
  5
674
330
55E
100
AcDbEntity
  8
DEFPOINTS
  6
Continuous
 62
     0
100
AcDbPoint
 10
33652.18613482023
 20
13091.8231563757
 30
0.0
  0
POINT
  5
675
330
55E
100
AcDbEntity
  8
DEFPOINTS
  6
Continuous
 62
     0
100
AcDbPoint
 10
33652.18613482023
 20
14891.8231563757
 30
0.0
  0
POINT
  5
676
330
55E
100
AcDbEntity
  8
DEFPOINTS
  6
Continuous
 62
     0
100
AcDbPoint
 10
34752.18613482023
 20
14891.8231563757
 30
0.0
  0
ENDBLK
  5
569
330
55E
100
AcDbEntity
  8
0
100
AcDbBlockEnd
  0
BLOCK
  5
576
330
56A
100
AcDbEntity
  8
0
100
AcDbBlockBegin
  2
*D20
 70
     1
 10
0.0
 20
0.0
 30
0.0
  3
*D20
  1

  0
LINE
  5
677
330
56A
100
AcDbEntity
  8
寸法
  6
Continuous
370
    -2
100
AcDbLine
 10
33952.18613482023
 20
12991.8231563757
 30
0.0
 11
34752.18613482023
 21
12991.8231563757
 31
0.0
  0
LINE
  5
678
330
56A
100
AcDbEntity
  8
寸法
  6
Continuous
370
    -2
100
AcDbLine
 10
33952.18613482023
 20
13091.8231563757
 30
0.0
 11
34752.18613482023
 21
13091.8231563757
 31
0.0
  0
LINE
  5
679
330
56A
100
AcDbEntity
  8
寸法
  6
Continuous
370
    -2
100
AcDbLine
 10
34752.18613482023
 20
12931.8231563757
 30
0.0
 11
34752.18613482023
 21
12871.8231563757
 31
0.0
  0
LINE
  5
67A
330
56A
100
AcDbEntity
  8
寸法
  6
Continuous
370
    -2
100
AcDbLine
 10
34752.18613482023
 20
13151.8231563757
 30
0.0
 11
34752.18613482023
 21
13211.8231563757
 31
0.0
  0
MTEXT
  5
67B
330
56A
100
AcDbEntity
  8
寸法
  6
Continuous
100
AcDbMText
 10
34468.1190192533
 20
12655.26438889726
 30
0.0
 40
300.0
 41
0.0
 71
     5
 72
     1
  1
\A1;100
  7
1_100
 11
0.0000000000000001
 21
1.0
 31
0.0
 73
     1
 44
1.0
1001
ACAD
1000
MTEXTBEGIN
1070
    73
1070
     1
1070
    44
1040
1.0
1070
    74
1070
     0
1000
MTEXTEND
  0
LINE
  5
67C
330
56A
100
AcDbEntity
  8
寸法
  6
Continuous
370
    -2
100
AcDbLine
 10
34752.18613482023
 20
12991.8231563757
 30
0.0
 11
34752.18613482023
 21
13091.8231563757
 31
0.0
  0
INSERT
  5
67D
330
56A
100
AcDbEntity
  8
寸法
  6
Continuous
370
    -2
100
AcDbBlockReference
  2
_ORIGIN
 10
34752.18613482023
 20
12991.8231563757
 30
0.0
 41
60.0
 42
60.0
 43
60.0
 50
90.0
  0
INSERT
  5
67E
330
56A
100
AcDbEntity
  8
寸法
  6
Continuous
370
    -2
100
AcDbBlockReference
  2
_ORIGIN
 10
34752.18613482023
 20
13091.8231563757
 30
0.0
 41
60.0
 42
60.0
 43
60.0
 50
270.0
  0
POINT
  5
67F
330
56A
100
AcDbEntity
  8
DEFPOINTS
  6
Continuous
 62
     0
100
AcDbPoint
 10
33652.18613482023
 20
12991.8231563757
 30
0.0
  0
POINT
  5
680
330
56A
100
AcDbEntity
  8
DEFPOINTS
  6
Continuous
 62
     0
100
AcDbPoint
 10
33652.18613482023
 20
13091.8231563757
 30
0.0
  0
POINT
  5
681
330
56A
100
AcDbEntity
  8
DEFPOINTS
  6
Continuous
 62
     0
100
AcDbPoint
 10
34752.18613482023
 20
13091.8231563757
 30
0.0
  0
ENDBLK
  5
577
330
56A
100
AcDbEntity
  8
0
100
AcDbBlockEnd
  0
BLOCK
  5
584
330
578
100
AcDbEntity
  8
0
100
AcDbBlockBegin
  2
*D21
 70
     1
 10
0.0
 20
0.0
 30
0.0
  3
*D21
  1

  0
LINE
  5
682
330
578
100
AcDbEntity
  8
寸法
  6
Continuous
370
    -2
100
AcDbLine
 10
31902.18613482023
 20
12691.82315637501
 30
0.0
 11
31902.18613482023
 21
11991.82315637489
 31
0.0
  0
LINE
  5
683
330
578
100
AcDbEntity
  8
寸法
  6
Continuous
370
    -2
100
AcDbLine
 10
32402.18613482023
 20
12691.82315637489
 30
0.0
 11
32402.18613482023
 21
11991.82315637489
 31
0.0
  0
LINE
  5
684
330
578
100
AcDbEntity
  8
寸法
  6
Continuous
370
    -2
100
AcDbLine
 10
31842.18613482022
 20
11991.82315637489
 30
0.0
 11
31782.18613482023
 21
11991.82315637489
 31
0.0
  0
LINE
  5
685
330
578
100
AcDbEntity
  8
寸法
  6
Continuous
370
    -2
100
AcDbLine
 10
32462.18613482023
 20
11991.82315637489
 30
0.0
 11
32522.18613482023
 21
11991.82315637489
 31
0.0
  0
LINE
  5
686
330
578
100
AcDbEntity
  8
寸法
  6
Continuous
370
    -2
100
AcDbLine
 10
31902.18613482023
 20
11991.82315637489
 30
0.0
 11
32402.18613482023
 21
11991.82315637489
 31
0.0
  0
INSERT
  5
687
330
578
100
AcDbEntity
  8
寸法
  6
Continuous
370
    -2
100
AcDbBlockReference
  2
_ORIGIN
 10
31902.18613482023
 20
11991.82315637489
 30
0.0
 41
60.0
 42
60.0
 43
60.0
  0
INSERT
  5
688
330
578
100
AcDbEntity
  8
寸法
  6
Continuous
370
    -2
100
AcDbBlockReference
  2
_ORIGIN
 10
32402.18613482023
 20
11991.82315637489
 30
0.0
 41
60.0
 42
60.0
 43
60.0
 50
180.0
  0
MTEXT
  5
689
330
578
100
AcDbEntity
  8
寸法
  6
Continuous
100
AcDbMText
 10
32152.18613482023
 20
11741.82315637489
 30
0.0
 40
300.0
 41
0.0
 71
     5
 72
     1
  1
\A1;□500
  7
1_100
 73
     1
 44
1.0
1001
ACAD
1000
MTEXTBEGIN
1070
    73
1070
     1
1070
    44
1040
1.0
1070
    74
1070
     0
1000
MTEXTEND
  0
POINT
  5
68A
330
578
100
AcDbEntity
  8
DEFPOINTS
  6
Continuous
 62
     0
100
AcDbPoint
 10
31902.18613482023
 20
12991.823156375
 30
0.0
  0
POINT
  5
68B
330
578
100
AcDbEntity
  8
DEFPOINTS
  6
Continuous
 62
     0
100
AcDbPoint
 10
32402.18613482023
 20
12991.82315637489
 30
0.0
  0
POINT
  5
68C
330
578
100
AcDbEntity
  8
DEFPOINTS
  6
Continuous
 62
     0
100
AcDbPoint
 10
32402.18613482023
 20
11991.82315637489
 30
0.0
  0
ENDBLK
  5
585
330
578
100
AcDbEntity
  8
0
100
AcDbBlockEnd
  0
BLOCK
  5
590
330
586
100
AcDbEntity
  8
0
100
AcDbBlockBegin
  2
*D22
 70
     1
 10
0.0
 20
0.0
 30
0.0
  3
*D22
  1

  0
LINE
  5
68D
330
586
100
AcDbEntity
  8
寸法
  6
Continuous
370
    -2
100
AcDbLine
 10
33952.18613482023
 20
15091.8231563757
 30
0.0
 11
34752.18613482022
 21
15091.8231563757
 31
0.0
  0
LINE
  5
68E
330
586
100
AcDbEntity
  8
寸法
  6
Continuous
370
    -2
100
AcDbLine
 10
33952.18613482023
 20
17401.8231563757
 30
0.0
 11
34752.18613482023
 21
17401.8231563757
 31
0.0
  0
LINE
  5
68F
330
586
100
AcDbEntity
  8
寸法
  6
Continuous
370
    -2
100
AcDbLine
 10
34752.18613482022
 20
15151.8231563757
 30
0.0
 11
34752.18613482023
 21
17341.8231563757
 31
0.0
  0
INSERT
  5
690
330
586
100
AcDbEntity
  8
寸法
  6
Continuous
370
    -2
100
AcDbBlockReference
  2
_ORIGIN
 10
34752.18613482022
 20
15091.8231563757
 30
0.0
 41
60.0
 42
60.0
 43
60.0
 50
270.0
  0
INSERT
  5
691
330
586
100
AcDbEntity
  8
寸法
  6
Continuous
370
    -2
100
AcDbBlockReference
  2
_ORIGIN
 10
34752.18613482023
 20
17401.8231563757
 30
0.0
 41
60.0
 42
60.0
 43
60.0
 50
90.0
  0
MTEXT
  5
692
330
586
100
AcDbEntity
  8
寸法
  6
Continuous
100
AcDbMText
 10
34473.61470624879
 20
16246.82315637571
 30
0.0
 40
300.0
 41
0.0
 71
     5
 72
     1
  1
\A1;2,310
  7
1_100
 11
0.0000000000000001
 21
1.0
 31
0.0
 73
     1
 44
1.0
1001
ACAD
1000
MTEXTBEGIN
1070
    73
1070
     1
1070
    44
1040
1.0
1070
    74
1070
     0
1000
MTEXTEND
  0
POINT
  5
693
330
586
100
AcDbEntity
  8
DEFPOINTS
  6
Continuous
 62
     0
100
AcDbPoint
 10
33652.18613482023
 20
15091.8231563757
 30
0.0
  0
POINT
  5
694
330
586
100
AcDbEntity
  8
DEFPOINTS
  6
Continuous
 62
     0
100
AcDbPoint
 10
33652.18613482023
 20
17401.8231563757
 30
0.0
  0
POINT
  5
695
330
586
100
AcDbEntity
  8
DEFPOINTS
  6
Continuous
 62
     0
100
AcDbPoint
 10
34752.18613482023
 20
17401.8231563757
 30
0.0
  0
ENDBLK
  5
591
330
586
100
AcDbEntity
  8
0
100
AcDbBlockEnd
  0
BLOCK
  5
59C
330
592
100
AcDbEntity
  8
0
100
AcDbBlockBegin
  2
*D23
 70
     1
 10
0.0
 20
0.0
 30
0.0
  3
*D23
  1

  0
LINE
  5
696
330
592
100
AcDbEntity
  8
寸法
  6
Continuous
370
    -2
100
AcDbLine
 10
33952.18613482023
 20
17401.8231563757
 30
0.0
 11
34752.18613482023
 21
17401.8231563757
 31
0.0
  0
LINE
  5
697
330
592
100
AcDbEntity
  8
寸法
  6
Continuous
370
    -2
100
AcDbLine
 10
33952.18613482023
 20
19711.8231563757
 30
0.0
 11
34752.18613482023
 21
19711.8231563757
 31
0.0
  0
LINE
  5
698
330
592
100
AcDbEntity
  8
寸法
  6
Continuous
370
    -2
100
AcDbLine
 10
34752.18613482023
 20
17461.8231563757
 30
0.0
 11
34752.18613482023
 21
19651.8231563757
 31
0.0
  0
INSERT
  5
699
330
592
100
AcDbEntity
  8
寸法
  6
Continuous
370
    -2
100
AcDbBlockReference
  2
_ORIGIN
 10
34752.18613482023
 20
17401.8231563757
 30
0.0
 41
60.0
 42
60.0
 43
60.0
 50
270.0
  0
INSERT
  5
69A
330
592
100
AcDbEntity
  8
寸法
  6
Continuous
370
    -2
100
AcDbBlockReference
  2
_ORIGIN
 10
34752.18613482023
 20
19711.8231563757
 30
0.0
 41
60.0
 42
60.0
 43
60.0
 50
90.0
  0
MTEXT
  5
69B
330
592
100
AcDbEntity
  8
寸法
  6
Continuous
100
AcDbMText
 10
34473.61470624879
 20
18556.82315637571
 30
0.0
 40
300.0
 41
0.0
 71
     5
 72
     1
  1
\A1;2,310
  7
1_100
 11
0.0000000000000001
 21
1.0
 31
0.0
 73
     1
 44
1.0
1001
ACAD
1000
MTEXTBEGIN
1070
    73
1070
     1
1070
    44
1040
1.0
1070
    74
1070
     0
1000
MTEXTEND
  0
POINT
  5
69C
330
592
100
AcDbEntity
  8
DEFPOINTS
  6
Continuous
 62
     0
100
AcDbPoint
 10
33652.18613482023
 20
17401.8231563757
 30
0.0
  0
POINT
  5
69D
330
592
100
AcDbEntity
  8
DEFPOINTS
  6
Continuous
 62
     0
100
AcDbPoint
 10
33652.18613482023
 20
19711.8231563757
 30
0.0
  0
POINT
  5
69E
330
592
100
AcDbEntity
  8
DEFPOINTS
  6
Continuous
 62
     0
100
AcDbPoint
 10
34752.18613482023
 20
19711.8231563757
 30
0.0
  0
ENDBLK
  5
59D
330
592
100
AcDbEntity
  8
0
100
AcDbBlockEnd
  0
BLOCK
  5
5AA
330
59E
100
AcDbEntity
  8
0
100
AcDbBlockBegin
  2
*D24
 70
     1
 10
0.0
 20
0.0
 30
0.0
  3
*D24
  1

  0
LINE
  5
69F
330
59E
100
AcDbEntity
  8
寸法
  6
Continuous
370
    -2
100
AcDbLine
 10
10056.83613482013
 20
22391.82315637512
 30
0.0
 11
10056.83613482013
 21
22691.82315637512
 31
0.0
  0
LINE
  5
6A0
330
59E
100
AcDbEntity
  8
寸法
  6
Continuous
370
    -2
100
AcDbLine
 10
10247.53613482032
 20
22391.82315637512
 30
0.0
 11
10247.53613482032
 21
22691.82315637512
 31
0.0
  0
LINE
  5
6A1
330
59E
100
AcDbEntity
  8
寸法
  6
Continuous
370
    -2
100
AcDbLine
 10
9996.836134820133
 20
22691.82315637512
 30
0.0
 11
9936.836134820133
 21
22691.82315637512
 31
0.0
  0
LINE
  5
6A2
330
59E
100
AcDbEntity
  8
寸法
  6
Continuous
370
    -2
100
AcDbLine
 10
10307.53613482032
 20
22691.82315637512
 30
0.0
 11
10367.53613482032
 21
22691.82315637512
 31
0.0
  0
MTEXT
  5
6A3
330
59E
100
AcDbEntity
  8
寸法
  6
Continuous
100
AcDbMText
 10
10152.18613482022
 20
22991.82315637512
 30
0.0
 40
300.0
 41
0.0
 71
     5
 72
     1
  1
\A1;φ190.7
  7
1_100
 73
     1
 44
1.0
1001
ACAD
1000
MTEXTBEGIN
1070
    73
1070
     1
1070
    44
1040
1.0
1070
    74
1070
     0
1000
MTEXTEND
  0
LINE
  5
6A4
330
59E
100
AcDbEntity
  8
寸法
  6
Continuous
370
    -2
100
AcDbLine
 10
10056.83613482013
 20
22691.82315637512
 30
0.0
 11
10247.53613482032
 21
22691.82315637512
 31
0.0
  0
INSERT
  5
6A5
330
59E
100
AcDbEntity
  8
寸法
  6
Continuous
370
    -2
100
AcDbBlockReference
  2
_ORIGIN
 10
10056.83613482013
 20
22691.82315637512
 30
0.0
 41
60.0
 42
60.0
 43
60.0
  0
INSERT
  5
6A6
330
59E
100
AcDbEntity
  8
寸法
  6
Continuous
370
    -2
100
AcDbBlockReference
  2
_ORIGIN
 10
10247.53613482032
 20
22691.82315637512
 30
0.0
 41
60.0
 42
60.0
 43
60.0
 50
180.0
  0
POINT
  5
6A7
330
59E
100
AcDbEntity
  8
DEFPOINTS
  6
Continuous
 62
     0
100
AcDbPoint
 10
10056.83613482013
 20
22091.82315637512
 30
0.0
  0
POINT
  5
6A8
330
59E
100
AcDbEntity
  8
DEFPOINTS
  6
Continuous
 62
     0
100
AcDbPoint
 10
10247.53613482032
 20
22091.82315637512
 30
0.0
  0
POINT
  5
6A9
330
59E
100
AcDbEntity
  8
DEFPOINTS
  6
Continuous
 62
     0
100
AcDbPoint
 10
10247.53613482032
 20
22691.82315637512
 30
0.0
  0
ENDBLK
  5
5AB
330
59E
100
AcDbEntity
  8
0
100
AcDbBlockEnd
  0
BLOCK
  5
5B8
330
5AC
100
AcDbEntity
  8
0
100
AcDbBlockBegin
  2
*D25
 70
     1
 10
0.0
 20
0.0
 30
0.0
  3
*D25
  1

  0
LINE
  5
6AA
330
5AC
100
AcDbEntity
  8
寸法
  6
Continuous
370
    -2
100
AcDbLine
 10
27452.18613482023
 20
22031.82315637512
 30
0.0
 11
28152.18613482023
 21
22031.82315637512
 31
0.0
  0
LINE
  5
6AB
330
5AC
100
AcDbEntity
  8
寸法
  6
Continuous
370
    -2
100
AcDbLine
 10
27452.18613482023
 20
22091.82315637512
 30
0.0
 11
28152.18613482023
 21
22091.82315637512
 31
0.0
  0
LINE
  5
6AC
330
5AC
100
AcDbEntity
  8
寸法
  6
Continuous
370
    -2
100
AcDbLine
 10
28152.18613482023
 20
21971.82315637512
 30
0.0
 11
28152.18613482023
 21
21911.82315637512
 31
0.0
  0
LINE
  5
6AD
330
5AC
100
AcDbEntity
  8
寸法
  6
Continuous
370
    -2
100
AcDbLine
 10
28152.18613482023
 20
22151.82315637512
 30
0.0
 11
28152.18613482023
 21
22211.82315637512
 31
0.0
  0
MTEXT
  5
6AE
330
5AC
100
AcDbEntity
  8
寸法
  6
Continuous
100
AcDbMText
 10
27918.14664352628
 20
22349.10581311191
 30
0.0
 40
300.0
 41
0.0
 71
     5
 72
     1
  1
\A1;60
  7
1_100
 11
0.0000000000000001
 21
1.0
 31
0.0
 73
     1
 44
1.0
1001
ACAD
1000
MTEXTBEGIN
1070
    73
1070
     1
1070
    44
1040
1.0
1070
    74
1070
     0
1000
MTEXTEND
  0
LINE
  5
6AF
330
5AC
100
AcDbEntity
  8
寸法
  6
Continuous
370
    -2
100
AcDbLine
 10
28152.18613482023
 20
22031.82315637512
 30
0.0
 11
28152.18613482023
 21
22091.82315637512
 31
0.0
  0
INSERT
  5
6B0
330
5AC
100
AcDbEntity
  8
寸法
  6
Continuous
370
    -2
100
AcDbBlockReference
  2
_ORIGIN
 10
28152.18613482023
 20
22031.82315637512
 30
0.0
 41
60.0
 42
60.0
 43
60.0
 50
90.0
  0
INSERT
  5
6B1
330
5AC
100
AcDbEntity
  8
寸法
  6
Continuous
370
    -2
100
AcDbBlockReference
  2
_ORIGIN
 10
28152.18613482023
 20
22091.82315637512
 30
0.0
 41
60.0
 42
60.0
 43
60.0
 50
270.0
  0
POINT
  5
6B2
330
5AC
100
AcDbEntity
  8
DEFPOINTS
  6
Continuous
 62
     0
100
AcDbPoint
 10
27152.18613482023
 20
22031.82315637512
 30
0.0
  0
POINT
  5
6B3
330
5AC
100
AcDbEntity
  8
DEFPOINTS
  6
Continuous
 62
     0
100
AcDbPoint
 10
27152.18613482023
 20
22091.82315637512
 30
0.0
  0
POINT
  5
6B4
330
5AC
100
AcDbEntity
  8
DEFPOINTS
  6
Continuous
 62
     0
100
AcDbPoint
 10
28152.18613482023
 20
22091.82315637512
 30
0.0
  0
ENDBLK
  5
5B9
330
5AC
100
AcDbEntity
  8
0
100
AcDbBlockEnd
  0
BLOCK
  5
5C6
330
5BA
100
AcDbEntity
  8
0
100
AcDbBlockBegin
  2
*D26
 70
     1
 10
0.0
 20
0.0
 30
0.0
  3
*D26
  1

  0
LINE
  5
6B5
330
5BA
100
AcDbEntity
  8
寸法
  6
Continuous
370
    -2
100
AcDbLine
 10
32056.83613482013
 20
22391.82315637524
 30
0.0
 11
32056.83613482013
 21
22691.82315637512
 31
0.0
  0
LINE
  5
6B6
330
5BA
100
AcDbEntity
  8
寸法
  6
Continuous
370
    -2
100
AcDbLine
 10
32247.53613482009
 20
22391.82315637524
 30
0.0
 11
32247.53613482009
 21
22691.82315637512
 31
0.0
  0
LINE
  5
6B7
330
5BA
100
AcDbEntity
  8
寸法
  6
Continuous
370
    -2
100
AcDbLine
 10
31996.83613482013
 20
22691.82315637512
 30
0.0
 11
31936.83613482013
 21
22691.82315637512
 31
0.0
  0
LINE
  5
6B8
330
5BA
100
AcDbEntity
  8
寸法
  6
Continuous
370
    -2
100
AcDbLine
 10
32307.53613482009
 20
22691.82315637512
 30
0.0
 11
32367.53613482009
 21
22691.82315637512
 31
0.0
  0
MTEXT
  5
6B9
330
5BA
100
AcDbEntity
  8
寸法
  6
Continuous
100
AcDbMText
 10
32152.18613482011
 20
22991.82315637512
 30
0.0
 40
300.0
 41
0.0
 71
     5
 72
     1
  1
\A1;φ190.7
  7
1_100
 73
     1
 44
1.0
1001
ACAD
1000
MTEXTBEGIN
1070
    73
1070
     1
1070
    44
1040
1.0
1070
    74
1070
     0
1000
MTEXTEND
  0
LINE
  5
6BA
330
5BA
100
AcDbEntity
  8
寸法
  6
Continuous
370
    -2
100
AcDbLine
 10
32056.83613482013
 20
22691.82315637512
 30
0.0
 11
32247.53613482009
 21
22691.82315637512
 31
0.0
  0
INSERT
  5
6BB
330
5BA
100
AcDbEntity
  8
寸法
  6
Continuous
370
    -2
100
AcDbBlockReference
  2
_ORIGIN
 10
32056.83613482013
 20
22691.82315637512
 30
0.0
 41
60.0
 42
60.0
 43
60.0
  0
INSERT
  5
6BC
330
5BA
100
AcDbEntity
  8
寸法
  6
Continuous
370
    -2
100
AcDbBlockReference
  2
_ORIGIN
 10
32247.53613482009
 20
22691.82315637512
 30
0.0
 41
60.0
 42
60.0
 43
60.0
 50
180.0
  0
POINT
  5
6BD
330
5BA
100
AcDbEntity
  8
DEFPOINTS
  6
Continuous
 62
     0
100
AcDbPoint
 10
32056.83613482013
 20
22091.82315637524
 30
0.0
  0
POINT
  5
6BE
330
5BA
100
AcDbEntity
  8
DEFPOINTS
  6
Continuous
 62
     0
100
AcDbPoint
 10
32247.53613482009
 20
22091.82315637524
 30
0.0
  0
POINT
  5
6BF
330
5BA
100
AcDbEntity
  8
DEFPOINTS
  6
Continuous
 62
     0
100
AcDbPoint
 10
32247.53613482009
 20
22691.82315637512
 30
0.0
  0
ENDBLK
  5
5C7
330
5BA
100
AcDbEntity
  8
0
100
AcDbBlockEnd
  0
BLOCK
  5
5D4
330
5C8
100
AcDbEntity
  8
0
100
AcDbBlockBegin
  2
*D27
 70
     1
 10
0.0
 20
0.0
 30
0.0
  3
*D27
  1

  0
LINE
  5
6C0
330
5C8
100
AcDbEntity
  8
寸法
  6
Continuous
370
    -2
100
AcDbLine
 10
33952.18613482023
 20
22031.8231563757
 30
0.0
 11
34752.18613482023
 21
22031.8231563757
 31
0.0
  0
LINE
  5
6C1
330
5C8
100
AcDbEntity
  8
寸法
  6
Continuous
370
    -2
100
AcDbLine
 10
33952.18613482023
 20
22091.8231563757
 30
0.0
 11
34752.18613482023
 21
22091.8231563757
 31
0.0
  0
LINE
  5
6C2
330
5C8
100
AcDbEntity
  8
寸法
  6
Continuous
370
    -2
100
AcDbLine
 10
34752.18613482023
 20
21971.8231563757
 30
0.0
 11
34752.18613482023
 21
21911.8231563757
 31
0.0
  0
LINE
  5
6C3
330
5C8
100
AcDbEntity
  8
寸法
  6
Continuous
370
    -2
100
AcDbLine
 10
34752.18613482023
 20
22151.8231563757
 30
0.0
 11
34752.18613482023
 21
22211.8231563757
 31
0.0
  0
MTEXT
  5
6C4
330
5C8
100
AcDbEntity
  8
寸法
  6
Continuous
100
AcDbMText
 10
34489.83933909063
 20
22345.10748685178
 30
0.0
 40
300.0
 41
0.0
 71
     5
 72
     1
  1
\A1;60
  7
1_100
 11
0.0000000000000001
 21
1.0
 31
0.0
 73
     1
 44
1.0
1001
ACAD
1000
MTEXTBEGIN
1070
    73
1070
     1
1070
    44
1040
1.0
1070
    74
1070
     0
1000
MTEXTEND
  0
LINE
  5
6C5
330
5C8
100
AcDbEntity
  8
寸法
  6
Continuous
370
    -2
100
AcDbLine
 10
34752.18613482023
 20
22031.8231563757
 30
0.0
 11
34752.18613482023
 21
22091.8231563757
 31
0.0
  0
INSERT
  5
6C6
330
5C8
100
AcDbEntity
  8
寸法
  6
Continuous
370
    -2
100
AcDbBlockReference
  2
_ORIGIN
 10
34752.18613482023
 20
22031.8231563757
 30
0.0
 41
60.0
 42
60.0
 43
60.0
 50
90.0
  0
INSERT
  5
6C7
330
5C8
100
AcDbEntity
  8
寸法
  6
Continuous
370
    -2
100
AcDbBlockReference
  2
_ORIGIN
 10
34752.18613482023
 20
22091.8231563757
 30
0.0
 41
60.0
 42
60.0
 43
60.0
 50
270.0
  0
POINT
  5
6C8
330
5C8
100
AcDbEntity
  8
DEFPOINTS
  6
Continuous
 62
     0
100
AcDbPoint
 10
33652.18613482023
 20
22031.8231563757
 30
0.0
  0
POINT
  5
6C9
330
5C8
100
AcDbEntity
  8
DEFPOINTS
  6
Continuous
 62
     0
100
AcDbPoint
 10
33652.18613482023
 20
22091.8231563757
 30
0.0
  0
POINT
  5
6CA
330
5C8
100
AcDbEntity
  8
DEFPOINTS
  6
Continuous
 62
     0
100
AcDbPoint
 10
34752.18613482023
 20
22091.8231563757
 30
0.0
  0
ENDBLK
  5
5D5
330
5C8
100
AcDbEntity
  8
0
100
AcDbBlockEnd
  0
ENDSEC
  0
SECTION
  2
ENTITIES
  0
LWPOLYLINE
  5
349
330
1F
100
AcDbEntity
  8
図面枠
100
AcDbPolyline
 90
        4
 70
     1
 43
0.0
 10
1618.852902442788
 20
2308.489824281214
 10
40618.85290244279
 20
2308.489824281214
 10
40618.85290244279
 20
27808.48982428121
 10
1618.852902442788
 20
27808.48982428121
  0
LWPOLYLINE
  5
34A
330
1F
100
AcDbEntity
  8
図面枠
100
AcDbPolyline
 90
        4
 70
     1
 43
0.0
 10
1618.852902441874
 20
2308.489824281214
 10
40618.85290244187
 20
2308.489824281214
 10
40618.85290244187
 20
27808.48982428121
 10
1618.852902441874
 20
27808.48982428121
  0
LINE
  5
34B
330
1F
100
AcDbEntity
  8
寸法
  6
Continuous
 62
     3
100
AcDbLine
 10
16792.093035841
 20
26179.31680874587
 30
0.0
 11
25445.61276904458
 21
26179.31680874587
 31
0.0
  0
LINE
  5
34C
330
1F
100
AcDbEntity
  8
寸法
  6
Continuous
 62
     3
100
AcDbLine
 10
16792.093035841
 20
26239.31680874354
 30
0.0
 11
25445.61276904458
 21
26239.31680874354
 31
0.0
  0
MTEXT
  5
34D
330
1F
100
AcDbEntity
  8
寸法
  6
Continuous
 62
     3
100
AcDbMText
 10
21118.85290244188
 20
26336.86643561452
 30
0.0
 40
500.0
 41
0.0
 71
     8
 72
     1
  1
防球ネット　ＫＳ－Ⅰ型　Ｈ＝７,０００
  7
MSP明朝
 73
     1
 44
1.0
1001
ACAD
1000
ACAD_MTEXT_DEFINED_HEIGHT_BEGIN
1070
    46
1040
0.0
1000
ACAD_MTEXT_DEFINED_HEIGHT_END
1000
MTEXTBEGIN
1070
    73
1070
     1
1070
    44
1040
1.0
1070
    74
1070
     0
1000
MTEXTEND
  0
MTEXT
  5
34E
330
1F
100
AcDbEntity
  8
画層1-1
100
AcDbMText
 10
4435.451320813651
 20
6657.231493607945
 30
0.0
 40
300.0
 41
0.0
 71
     1
 72
     5
  1
{\F|c128;・※印表記のネットを使用する場合標準柱スパンは変更になる場合があります}
  7
1_100
 73
     1
 44
1.0
1001
AcDbBlockRepETag
1070
     1
1071
        0
1005
34E
1001
ACAD
1000
MTEXTBEGIN
1070
    73
1070
     1
1070
    44
1040
1.0
1070
    74
1070
     0
1000
MTEXTEND
  0
MTEXT
  5
34F
330
1F
100
AcDbEntity
  8
画層1-1
100
AcDbMText
 10
4435.451320813651
 20
3387.411056592429
 30
0.0
 40
300.0
 41
0.0
 71
     1
 72
     5
  1
・速度圧　q=0.6EVo （N/㎡）　・地表面粗度区分　　　・基礎　普通土質 [B] を選定
  7
1_100
 73
     1
 44
1.0
1001
AcDbBlockRepETag
1070
     1
1071
        1
1005
34F
1001
ACAD
1000
MTEXTBEGIN
1070
    73
1070
     1
1070
    44
1040
1.0
1070
    74
1070
     0
1000
MTEXTEND
  0
MTEXT
  5
350
330
1F
100
AcDbEntity
  8
画層1-1
100
AcDbMText
 10
4435.451320813651
 20
8457.231493607944
 30
0.0
 40
300.0
 41
0.0
 71
     1
 72
     5
  1
・主柱．端末ポール．バンド金具．ボルトは溶融亜鉛メッキ仕上げとする
  7
1_100
 73
     1
 44
1.0
1001
AcDbBlockRepETag
1070
     1
1071
        2
1005
350
1001
ACAD
1000
MTEXTBEGIN
1070
    73
1070
     1
1070
    44
1040
1.0
1070
    74
1070
     0
1000
MTEXTEND
  0
MTEXT
  5
351
330
1F
100
AcDbEntity
  8
画層1-1
100
AcDbMText
 10
4435.451320813651
 20
7857.231493607945
 30
0.0
 40
300.0
 41
0.0
 71
     1
 72
     5
  1
・主柱ポール基礎部（ＧＬ）はＦＲＰ被覆補強とする
  7
1_100
 73
     1
 44
1.0
1001
AcDbBlockRepETag
1070
     1
1071
        3
1005
351
1001
ACAD
1000
MTEXTBEGIN
1070
    73
1070
     1
1070
    44
1040
1.0
1070
    74
1070
     0
1000
MTEXTEND
  0
MTEXT
  5
352
330
1F
100
AcDbEntity
  8
画層1-1
100
AcDbMText
 10
4435.451320813651
 20
5196.873571592567
 30
0.0
 40
300.0
 41
0.0
 71
     1
 72
     5
  1
・構造計算書．材料承認願いを提出後施工のこと
  7
1_100
 73
     1
 44
1.0
1001
AcDbBlockRepETag
1070
     1
1071
        4
1005
352
1001
ACAD
1000
MTEXTBEGIN
1070
    73
1070
     1
1070
    44
1040
1.0
1070
    74
1070
     0
1000
MTEXTEND
  0
MTEXT
  5
353
330
1F
100
AcDbEntity
  8
画層1-1
100
AcDbMText
 10
4435.451320813651
 20
7257.231493607943
 30
0.0
 40
300.0
 41
0.0
 71
     1
 72
     5
  1
・上部（補強ポール・ネット）下り防止金具付きとする
  7
1_100
 73
     1
 44
1.0
1001
AcDbBlockRepETag
1070
     1
1071
        5
1005
353
1001
ACAD
1000
MTEXTBEGIN
1070
    73
1070
     1
1070
    44
1040
1.0
1070
    74
1070
     0
1000
MTEXTEND
  0
POINT
  5
354
330
1F
100
AcDbEntity
  8
画層1-1
100
AcDbPoint
 10
1618.852918337482
 20
2674.954879759114
 30
0.0
1001
AcDbBlockRepETag
1070
     1
1071
        6
1005
354
  0
MTEXT
  5
355
330
1F
100
AcDbEntity
  8
画層1-1
100
AcDbMText
 10
3935.451320813653
 20
4459.551056226455
 30
0.0
 40
400.0
 41
0.0
 71
     1
 72
     5
  1
設計条件
  7
1_100
 73
     1
 44
1.0
1001
AcDbBlockRepETag
1070
     1
1071
        7
1005
355
1001
ACAD
1000
MTEXTBEGIN
1070
    73
1070
     1
1070
    44
1040
1.0
1070
    74
1070
     0
1000
MTEXTEND
  0
MTEXT
  5
356
330
1F
100
AcDbEntity
  8
画層1-1
100
AcDbMText
 10
3935.451320813653
 20
5847.896672941615
 30
0.0
 40
400.0
 41
0.0
 71
     1
 72
     5
  1
特記
  7
1_100
 73
     1
 44
1.0
1001
AcDbBlockRepETag
1070
     1
1071
        8
1005
356
1001
ACAD
1000
MTEXTBEGIN
1070
    73
1070
     1
1070
    44
1040
1.0
1070
    74
1070
     0
1000
MTEXTEND
  0
MTEXT
  5
357
330
1F
100
AcDbEntity
  8
画層1-1
100
AcDbMText
 10
3935.451320813653
 20
9128.660461546717
 30
0.0
 40
400.0
 41
0.0
 71
     1
 72
     5
  1
仕様について
  7
1_100
 73
     1
 44
1.0
1001
AcDbBlockRepETag
1070
     1
1071
        9
1005
357
1001
ACAD
1000
MTEXTBEGIN
1070
    73
1070
     1
1070
    44
1040
1.0
1070
    74
1070
     0
1000
MTEXTEND
  0
MTEXT
  5
358
330
1F
100
AcDbEntity
  8
画層1-1
100
AcDbMText
 10
11332.17783151668
 20
3325.234575064591
 30
0.0
 40
300.0
 41
0.0
 71
     1
 72
     5
  1
Ⅲ
  7
STYLE1
 73
     1
 44
1.0
1001
AcDbBlockRepETag
1070
     1
1071
       10
1005
358
1001
ACAD
1000
MTEXTBEGIN
1070
    73
1070
     1
1070
    44
1040
1.0
1070
    74
1070
     0
1000
MTEXTEND
  0
MTEXT
  5
359
330
1F
100
AcDbEntity
  8
画層1-1
100
AcDbMText
 10
7418.929290825679
 20
3351.897481941284
 30
0.0
 40
120.0
 41
0.0
 71
     1
 72
     5
  1
2
  7
1_100
 73
     1
 44
1.0
1001
AcDbBlockRepETag
1070
     1
1071
       11
1005
359
1001
ACAD
1000
MTEXTBEGIN
1070
    73
1070
     1
1070
    44
1040
1.0
1070
    74
1070
     0
1000
MTEXTEND
  0
MTEXT
  5
35A
330
1F
100
AcDbEntity
  8
画層1-1
100
AcDbMText
 10
4435.451320813651
 20
3828.684652518256
 30
0.0
 40
300.0
 41
0.0
 71
     1
 72
     5
  1
・設計荷重。建築基準法・同施工令（平成12年6月）に基づく風圧力に依る、基準風速。
  7
1_100
 73
     1
 44
1.0
1001
AcDbBlockRepETag
1070
     1
1071
       12
1005
35A
1001
ACAD
1000
ACAD_MTEXT_DEFINED_HEIGHT_BEGIN
1070
    46
1040
0.0
1000
ACAD_MTEXT_DEFINED_HEIGHT_END
1000
MTEXTBEGIN
1070
    73
1070
     1
1070
    44
1040
1.0
1070
    74
1070
     0
1000
MTEXTEND
  0
DIMENSION
  5
35B
330
1F
100
AcDbEntity
  8
寸法
  6
Continuous
100
AcDbDimension
  2
*D3
 10
28152.18613482023
 20
22031.82315637512
 30
0.0
 11
27873.6147062488
 21
20871.82315637513
 31
0.0
 70
    32
 71
     5
 42
2320.0
  3
1_100
100
AcDbAlignedDimension
 13
27152.18613482023
 23
19711.82315637512
 33
0.0
 14
27152.18613482023
 24
22031.82315637512
 34
0.0
 50
90.0
100
AcDbRotatedDimension
  0
DIMENSION
  5
35C
330
1F
100
AcDbEntity
  8
寸法
  6
Continuous
100
AcDbDimension
  2
*D4
 10
34752.18613482023
 20
22031.8231563757
 30
0.0
 11
34473.61470624879
 21
20871.82315637571
 31
0.0
 70
    32
 71
     5
 42
2320.0
  3
1_100
100
AcDbAlignedDimension
 13
33652.18613482023
 23
19711.8231563757
 33
0.0
 14
33652.18613482023
 24
22031.8231563757
 34
0.0
 50
90.0
100
AcDbRotatedDimension
  0
LEADER
  5
35F
330
1F
100
AcDbEntity
  8
寸法引出
  6
Continuous
100
AcDbLeader
  3
1_100
 71
     0
 73
     0
 75
     1
 40
300.0
 41
4699.285714285712
 76
     3
 10
10056.83613482013
 20
20774.37146552935
 30
0.0
 10
8885.033026244377
 20
21699.92465483051
 30
0.0
 10
8825.033026244376
 20
21699.92465483051
 30
0.0
340
360
  0
MTEXT
  5
360
102
{ACAD_REACTORS
330
35F
102
}
330
1F
100
AcDbEntity
  8
寸法文字
  6
Continuous
100
AcDbMText
 10
8725.033026244377
 20
21799.92465483052
 30
0.0
 40
300.0
 41
0.0
 71
     9
 72
     1
  1
主柱KSポールφ190.7厚さ3.0mm
  7
1_100
 73
     1
 44
1.0
1001
ACAD
1000
ACAD_MTEXT_DEFINED_HEIGHT_BEGIN
1070
    46
1040
0.0
1000
ACAD_MTEXT_DEFINED_HEIGHT_END
1000
MTEXTBEGIN
1070
    73
1070
     1
1070
    44
1040
1.0
1070
    74
1070
     0
1000
MTEXTEND
  0
LINE
  5
361
330
1F
100
AcDbEntity
  8
画層1-1
  6
Continuous
100
AcDbLine
 10
20272.53613482009
 20
21981.82315637512
 30
0.0
 11
26652.18613482023
 21
17494.17575850841
 31
0.0
  0
LINE
  5
362
330
1F
100
AcDbEntity
  8
画層1
  6
Continuous
100
AcDbLine
 10
10056.83613482013
 20
22091.82315637512
 30
0.0
 11
10056.83613482013
 21
13091.82315637512
 31
0.0
  0
LINE
  5
363
102
{ACAD_REACTORS
330
3C0
102
}
330
1F
100
AcDbEntity
  8
通り芯
  6
DASHDOT
 48
100.0
100
AcDbLine
 10
10152.18613482022
 20
12849.35568458171
 30
0.0
 11
10152.18613482022
 21
22152.28581607776
 31
0.0
  0
LINE
  5
364
102
{ACAD_REACTORS
330
376
102
}
330
1F
100
AcDbEntity
  8
画層1
  6
Continuous
100
AcDbLine
 10
10247.53613482032
 20
13091.82315637512
 30
0.0
 11
10247.53613482032
 21
22091.82315637512
 31
0.0
  0
LINE
  5
365
330
1F
100
AcDbEntity
  8
画層1
  6
Continuous
100
AcDbLine
 10
20056.83613482013
 20
22091.82315637512
 30
0.0
 11
20056.83613482013
 21
13091.82315637512
 31
0.0
  0
LINE
  5
366
330
1F
100
AcDbEntity
  8
通り芯
  6
DASHDOT
 48
100.0
100
AcDbLine
 10
20152.18613482022
 20
12849.35568458171
 30
0.0
 11
20152.18613482022
 21
22152.28581607776
 31
0.0
  0
LINE
  5
367
330
1F
100
AcDbEntity
  8
画層1
  6
Continuous
100
AcDbLine
 10
20247.53613482032
 20
13091.82315637512
 30
0.0
 11
20247.53613482032
 21
22091.82315637512
 31
0.0
  0
LINE
  5
368
330
1F
100
AcDbEntity
  8
画層1-1
  6
Continuous
100
AcDbLine
 10
20031.83613482013
 20
21981.82315637512
 30
0.0
 11
10272.53613482032
 21
15116.82315637512
 31
0.0
  0
LINE
  5
369
330
1F
100
AcDbEntity
  8
画層1-1
  6
Continuous
100
AcDbLine
 10
20031.83613482013
 20
15116.82315637512
 30
0.0
 11
10272.53613482032
 21
21981.82315637512
 31
0.0
  0
LINE
  5
36A
330
1F
100
AcDbEntity
  8
画層1
  6
Continuous
100
AcDbLine
 10
10152.18613482022
 20
22056.82315637512
 30
0.0
 11
10152.18613482022
 21
15116.82315637512
 31
0.0
  0
LINE
  5
36B
102
{ACAD_REACTORS
330
376
102
}
330
1F
100
AcDbEntity
  8
DEFPOINTS
100
AcDbLine
 10
11681.14596478886
 20
22088.97315637515
 30
0.0
 11
13163.69202868256
 21
15091.82315637512
 31
0.0
  0
LINE
  5
36C
330
1F
100
AcDbEntity
  8
通り芯
  6
DASHDOT
 48
100.0
100
AcDbLine
 10
32152.18613482023
 20
12849.35568458229
 30
0.0
 11
32152.18613482023
 21
22152.28581607834
 31
0.0
  0
LINE
  5
36D
330
1F
100
AcDbEntity
  8
画層1
  6
Continuous
100
AcDbLine
 10
32247.53613482009
 20
13091.82315637524
 30
0.0
 11
32247.53613482009
 21
22091.82315637524
 31
0.0
  0
LINE
  5
36E
330
1F
100
AcDbEntity
  8
画層1
  6
Continuous
100
AcDbLine
 10
32056.83613482013
 20
22091.82315637524
 30
0.0
 11
32056.83613482013
 21
13091.82315637524
 31
0.0
  0
DIMENSION
  5
36F
330
1F
100
AcDbEntity
  8
寸法
  6
Continuous
100
AcDbDimension
  2
*D5
 10
29152.18613482023
 20
15091.823156375
 30
0.0
 11
28873.61470624879
 21
18591.82315637506
 31
0.0
 70
    32
 71
     5
 42
7000.000000000118
  3
1_100
100
AcDbAlignedDimension
 13
27152.18613482023
 23
22091.82315637512
 33
0.0
 14
27152.18613482023
 24
15091.82315637501
 34
0.0
 50
90.0
100
AcDbRotatedDimension
  0
LINE
  5
370
330
1F
100
AcDbEntity
  8
DEFPOINTS
100
AcDbLine
 10
23239.24624119711
 20
22031.82315637512
 30
0.0
 11
24709.6834454051
 21
15091.82315637512
 31
0.0
  0
LINE
  5
371
330
1F
100
AcDbEntity
  8
DEFPOINTS
100
AcDbLine
 10
26652.18613482023
 20
22031.82315637512
 30
0.0
 11
26652.18613482023
 21
15091.82315637512
 31
0.0
  0
LINE
  5
372
330
1F
100
AcDbEntity
  8
画層1
  6
Continuous
100
AcDbLine
 10
32152.18613482023
 20
22071.8231563757
 30
0.0
 11
32152.18613482023
 21
15116.8231563757
 31
0.0
  0
LINE
  5
373
330
1F
100
AcDbEntity
  8
画層1-1
  6
DASHED
 48
100.0
100
AcDbLine
 10
32031.83613482013
 20
22031.82315637524
 30
0.0
 11
32031.83613482013
 21
15116.8231563757
 31
0.0
  0
DIMENSION
  5
374
330
1F
100
AcDbEntity
  8
寸法
  6
Continuous
100
AcDbDimension
  2
*D6
 10
35752.18613482023
 20
15091.82315637501
 30
0.0
 11
35473.6147062488
 21
18591.82315637536
 31
0.0
 70
    32
 71
     5
 42
7000.000000000696
  3
1_100
100
AcDbAlignedDimension
 13
33652.18613482023
 23
22091.8231563757
 33
0.0
 14
33652.18613482023
 24
15091.82315637501
 34
0.0
 50
90.0
100
AcDbRotatedDimension
  0
HATCH
  5
375
330
1F
100
AcDbEntity
  8
ﾈｯﾄ
 62
   230
370
    13
100
AcDbHatch
 10
0.0
 20
0.0
 30
0.0
210
0.0
220
0.0
230
1.0
  2
NET
 70
     0
 71
     0
 91
        1
 92
        7
 72
     0
 73
     1
 93
        4
 10
26652.18613482023
 20
22031.82315637512
 10
23239.24624119734
 20
22031.82315637518
 10
24704.38648141304
 20
15116.823156375
 10
26652.18613482023
 20
15116.823156375
 97
        0
 75
     0
 76
     1
 52
0.0
 41
1000.0
 77
     0
 78
     2
 53
0.0
 43
-458327.5810032642
 44
-238727.9861910862
 45
0.0
 46
125.0
 79
     0
 53
90.0
 43
-458327.5810032642
 44
-238727.9861910862
 45
-125.0
 46
0.0000000000000077
 79
     0
 47
48.6136305665326
 98
        1
 10
25207.67947284168
 20
19536.1481326849
  0
HATCH
  5
376
330
1F
100
AcDbEntity
  8
ﾈｯﾄ
 62
   230
370
    13
100
AcDbHatch
 10
0.0
 20
0.0
 30
0.0
210
0.0
220
0.0
230
1.0
  2
NET
 70
     0
 71
     1
 91
        1
 92
        7
 72
     0
 73
     1
 93
       25
 10
11693.25482447481
 20
22031.82315637512
 10
10542.53613482032
 20
22031.82315637512
 10
10542.53613482032
 20
22011.59943571387
 10
10387.98613482027
 20
22011.59943571387
 10
10387.98613482027
 20
22031.82315637512
 10
10297.53613482032
 20
22031.82315637512
 10
10297.53613482032
 20
22006.82315637512
 10
10297.53613482032
 20
21956.82315637511
 10
10247.53613482032
 20
21956.82315637511
 10
10247.53613482032
 20
19736.82315637512
 10
10297.53613482032
 20
19736.82315637512
 10
10297.53613482032
 20
19686.82315637512
 10
10247.53613482032
 20
19686.82315637512
 10
10247.53613482032
 20
17426.82315637512
 10
10297.53613482032
 20
17426.82315637512
 10
10297.53613482032
 20
17376.82315637512
 10
10247.53613482032
 20
17376.82315637512
 10
10247.53613482032
 20
15141.82315637512
 10
10297.53613482032
 20
15141.82315637512
 10
10297.53613482032
 20
15116.82315637512
 10
10372.98613482027
 20
15116.82315637511
 10
10372.98613482027
 20
15136.59943571387
 10
10527.53613482032
 20
15136.59943571387
 10
10527.53613482032
 20
15116.82315637511
 10
13158.39506469046
 20
15116.82315637509
 97
       16
330
453
330
461
330
46B
330
458
330
45E
330
364
330
38C
330
387
330
389
330
394
330
39A
330
393
330
3A6
330
37C
330
3A4
330
36B
 75
     0
 76
     1
 52
0.0
 41
1000.0
 77
     0
 78
     2
 53
0.0
 43
-458327.5810032642
 44
-238727.9861910862
 45
0.0
 46
125.0
 79
     0
 53
90.0
 43
-458327.5810032642
 44
-238727.9861910862
 45
-125.0
 46
0.0000000000000077
 79
     0
 47
48.6136305665326
 98
        1
 10
11585.33513463184
 20
18174.96552205601
  0
LINE
  5
377
330
1F
100
AcDbEntity
  8
画層1-1
  6
Continuous
100
AcDbLine
 10
10152.18613482022
 20
19711.82315637512
 30
0.0
 11
26646.81339832105
 21
19711.823156375
 31
0.0
  0
LEADER
  5
378
330
1F
100
AcDbEntity
  8
寸法引出
  6
Continuous
100
AcDbLeader
  3
1_100
 71
     0
 73
     0
 74
     0
 75
     1
 40
346.6666666666666
 41
3117.142857142858
 76
     3
 10
14749.25116600434
 20
15116.82315637512
 30
0.0
 10
14995.6043702137
 20
15621.64021108664
 30
0.0
 10
15055.6043702137
 20
15621.64021108664
 30
0.0
340
379
  0
MTEXT
  5
379
102
{ACAD_REACTORS
330
378
102
}
330
1F
100
AcDbEntity
  8
寸法文字
  6
Continuous
100
AcDbMText
 10
15155.6043702137
 20
15721.64021108664
 30
0.0
 40
300.0
 41
0.0
 71
     7
 72
     1
  1
メッセンワイヤー22m㎡
  7
1_100
 73
     1
 44
1.0
1001
ACAD
1000
MTEXTBEGIN
1070
    73
1070
     1
1070
    44
1040
1.0
1070
    74
1070
     0
1000
MTEXTEND
  0
LINE
  5
37A
330
1F
100
AcDbEntity
  8
画層1-1
  6
Continuous
100
AcDbLine
 10
10152.18613482022
 20
17401.82315637512
 30
0.0
 11
26646.81339832105
 21
17401.82315637512
 31
0.0
  0
LINE
  5
37B
102
{ACAD_REACTORS
330
3C0
330
409
102
}
330
1F
100
AcDbEntity
  8
画層2
  6
Continuous
100
AcDbLine
 10
26652.18613482023
 20
15091.82315637512
 30
0.0
 11
6929.402761335139
 21
15091.82315637501
 31
0.0
  0
LINE
  5
37C
102
{ACAD_REACTORS
330
376
102
}
330
1F
100
AcDbEntity
  8
画層1
  6
Continuous
100
AcDbLine
 10
26652.18613482023
 20
15116.823156375
 30
0.0
 11
10152.18613482022
 21
15116.82315637512
 31
0.0
  0
DIMENSION
  5
37D
330
1F
100
AcDbEntity
  8
寸法
  6
Continuous
100
AcDbDimension
  2
*D7
 10
20152.18613481999
 20
9991.823156374428
 30
0.0
 11
15152.18613482011
 21
10270.39458494585
 31
0.0
 70
    32
 71
     5
 42
9999.999999999767
  3
1_100
100
AcDbAlignedDimension
 13
10152.18613482022
 23
11591.82315637489
 33
0.0
 14
20152.18613481999
 24
12849.3556845816
 34
0.0
100
AcDbRotatedDimension
  0
LEADER
  5
37E
330
1F
100
AcDbEntity
  8
寸法引出
  6
Continuous
100
AcDbLeader
  3
1_100
 71
     0
 73
     0
 74
     0
 75
     1
 40
696.6666666666665
 41
3117.142857142857
 76
     3
 10
15721.11690622422
 20
18949.52703838392
 30
0.0
 10
16345.72796283558
 20
18418.15148425175
 30
0.0
 10
16405.72796283558
 20
18418.15148425175
 30
0.0
340
37F
  0
MTEXT
  5
37F
102
{ACAD_REACTORS
330
37E
102
}
330
1F
100
AcDbEntity
  8
寸法文字
  6
Continuous
100
AcDbMText
 10
16505.72796283558
 20
18518.15148425175
 30
0.0
 40
300.0
 41
0.0
 71
     7
 72
     1
  1
筋違\Pメッセンワイヤー38m㎡
  7
1_100
 73
     1
 44
0.7
1001
ACAD
1000
MTEXTBEGIN
1070
    73
1070
     1
1070
    44
1040
0.7
1070
    74
1070
     0
1000
MTEXTEND
  0
INSERT
  5
380
330
1F
100
AcDbEntity
  8
ﾊｯﾁﾝｸﾞ
  6
Continuous
100
AcDbBlockReference
  2
sai450
 10
10152.18613482022
 20
13091.82315637489
 30
0.0
  0
LEADER
  5
382
330
1F
100
AcDbEntity
  8
寸法引出
  6
Continuous
100
AcDbLeader
  3
1_100
 71
     0
 73
     0
 75
     1
 40
346.6666666666666
 41
3117.142857142858
 76
     3
 10
10152.18613482022
 20
18847.16251068298
 30
0.0
 10
9110.344455541001
 20
19672.37816345439
 30
0.0
 10
9050.344455541001
 20
19672.37816345439
 30
0.0
340
383
  0
MTEXT
  5
383
102
{ACAD_REACTORS
330
382
102
}
330
1F
100
AcDbEntity
  8
寸法文字
  6
Continuous
100
AcDbMText
 10
8950.344455540998
 20
19772.37816345439
 30
0.0
 40
300.0
 41
0.0
 71
     9
 72
     1
  1
メッセンワイヤー22m㎡
  7
1_100
 73
     1
 44
1.0
1001
ACAD
1000
MTEXTBEGIN
1070
    73
1070
     1
1070
    44
1040
1.0
1070
    74
1070
     0
1000
MTEXTEND
  0
LINE
  5
384
330
1F
100
AcDbEntity
  8
画層1
  6
Continuous
100
AcDbLine
 10
10006.83613482013
 20
19736.82315637512
 30
0.0
 11
10006.83613482013
 21
19686.82315637512
 31
0.0
  0
LINE
  5
385
330
1F
100
AcDbEntity
  8
画層1
  6
Continuous
100
AcDbLine
 10
10127.18613482022
 20
19686.82315637512
 30
0.0
 11
10127.18613482022
 21
19736.82315637512
 31
0.0
  0
LINE
  5
386
330
1F
100
AcDbEntity
  8
画層1
  6
Continuous
100
AcDbLine
 10
10177.18613482022
 20
19686.82315637512
 30
0.0
 11
10177.18613482022
 21
19736.82315637512
 31
0.0
  0
LINE
  5
387
102
{ACAD_REACTORS
330
376
102
}
330
1F
100
AcDbEntity
  8
画層1
  6
Continuous
100
AcDbLine
 10
10297.53613482032
 20
19686.82315637512
 30
0.0
 11
10297.53613482032
 21
19736.82315637512
 31
0.0
  0
CIRCLE
  5
388
330
1F
100
AcDbEntity
  8
画層1
  6
Continuous
100
AcDbCircle
 10
10272.53613482032
 20
19711.82315637512
 30
0.0
 40
10.9509940156
  0
LINE
  5
389
102
{ACAD_REACTORS
330
376
102
}
330
1F
100
AcDbEntity
  8
画層1
  6
Continuous
100
AcDbLine
 10
10006.83613482013
 20
19686.82315637512
 30
0.0
 11
10297.53613482032
 21
19686.82315637512
 31
0.0
  0
CIRCLE
  5
38A
330
1F
100
AcDbEntity
  8
画層1
  6
Continuous
100
AcDbCircle
 10
10031.83613482013
 20
19711.82315637512
 30
0.0
 40
10.9509940156
  0
LWPOLYLINE
  5
38B
330
1F
100
AcDbEntity
  8
画層1-1
100
AcDbPolyline
 90
        4
 70
     1
 43
0.0
 10
10372.98613482027
 20
19731.82415068921
 10
10527.53613482032
 20
19731.82415068921
 10
10527.53613482032
 20
19691.82415068921
 10
10372.98613482027
 20
19691.82415068921
  0
LINE
  5
38C
102
{ACAD_REACTORS
330
376
102
}
330
1F
100
AcDbEntity
  8
画層1
  6
Continuous
100
AcDbLine
 10
10297.53613482032
 20
19736.82315637512
 30
0.0
 11
10006.83613482013
 21
19736.82315637512
 31
0.0
  0
LINE
  5
38D
330
1F
100
AcDbEntity
  8
寸法引出
  6
Continuous
100
AcDbLine
 10
14244.87119170965
 20
17401.82315637512
 30
0.0
 11
14995.6043702137
 21
15621.64021108664
 31
0.0
  0
LINE
  5
38E
330
1F
100
AcDbEntity
  8
画層2-1
  6
Continuous
100
AcDbLine
 10
10056.83613482013
 20
14941.82315637512
 30
0.0
 11
10247.53613482032
 21
14941.82315637512
 31
0.0
  0
DIMENSION
  5
38F
330
1F
100
AcDbEntity
  8
寸法
  6
Continuous
100
AcDbDimension
  2
*D8
 10
10377.18613482022
 20
12391.82315637501
 30
0.0
 11
9350.795898625749
 21
12573.15681796385
 31
0.0
 70
   160
  1
φ<>
 71
     5
 42
450.0
  3
1_100
100
AcDbAlignedDimension
 13
9927.186134820226
 23
12991.823156375
 33
0.0
 14
10377.18613482022
 24
12991.823156375
 34
0.0
100
AcDbRotatedDimension
  0
DIMENSION
  5
390
330
1F
100
AcDbEntity
  8
寸法
  6
Continuous
100
AcDbDimension
  2
*D9
 10
10402.18613482022
 20
11991.82315637489
 30
0.0
 11
10152.18613482022
 21
11741.82315637489
 31
0.0
 70
    32
  1
□<>
 71
     5
 42
500.0
  3
1_100
100
AcDbAlignedDimension
 13
9902.186134820226
 23
12991.823156375
 33
0.0
 14
10402.18613482022
 24
12991.82315637489
 34
0.0
100
AcDbRotatedDimension
1001
ACAD
1000
DSTYLE
1002
{
1070
    77
1070
     2
1070
   174
1070
     1
1002
}
  0
TEXT
  5
391
330
1F
100
AcDbEntity
  8
寸法
  6
Continuous
100
AcDbText
 10
6997.773817198238
 20
15171.82315637501
 30
0.0
 40
300.0
  1
▽GL
 41
0.75
  7
1_100
 11
6997.773817198238
 21
15171.82315637501
 31
0.0
100
AcDbText
 73
     1
  0
CIRCLE
  5
392
330
1F
100
AcDbEntity
  8
画層1
  6
Continuous
100
AcDbCircle
 10
10272.53613482032
 20
17401.82315637512
 30
0.0
 40
10.9509940156
  0
LINE
  5
393
102
{ACAD_REACTORS
330
376
102
}
330
1F
100
AcDbEntity
  8
画層1
  6
Continuous
100
AcDbLine
 10
10006.83613482013
 20
17376.82315637512
 30
0.0
 11
10297.53613482032
 21
17376.82315637512
 31
0.0
  0
LINE
  5
394
102
{ACAD_REACTORS
330
376
102
}
330
1F
100
AcDbEntity
  8
画層1
  6
Continuous
100
AcDbLine
 10
10297.53613482032
 20
17426.82315637512
 30
0.0
 11
10006.83613482013
 21
17426.82315637512
 31
0.0
  0
CIRCLE
  5
395
330
1F
100
AcDbEntity
  8
画層1
  6
Continuous
100
AcDbCircle
 10
10031.83613482013
 20
17401.82315637512
 30
0.0
 40
10.9509940156
  0
LINE
  5
396
330
1F
100
AcDbEntity
  8
画層1
  6
Continuous
100
AcDbLine
 10
10006.83613482013
 20
17426.82315637512
 30
0.0
 11
10006.83613482013
 21
17376.82315637512
 31
0.0
  0
LINE
  5
397
330
1F
100
AcDbEntity
  8
画層1
  6
Continuous
100
AcDbLine
 10
10127.18613482022
 20
17376.82315637512
 30
0.0
 11
10127.18613482022
 21
17426.82315637512
 31
0.0
  0
LINE
  5
398
330
1F
100
AcDbEntity
  8
画層1
  6
Continuous
100
AcDbLine
 10
10177.18613482022
 20
17376.82315637512
 30
0.0
 11
10177.18613482022
 21
17426.82315637512
 31
0.0
  0
LWPOLYLINE
  5
399
330
1F
100
AcDbEntity
  8
画層1-1
100
AcDbPolyline
 90
        4
 70
     1
 43
0.0
 10
10372.98613482027
 20
17421.82415068921
 10
10527.53613482032
 20
17421.82415068921
 10
10527.53613482032
 20
17381.82415068921
 10
10372.98613482027
 20
17381.82415068921
  0
LINE
  5
39A
102
{ACAD_REACTORS
330
376
102
}
330
1F
100
AcDbEntity
  8
画層1
  6
Continuous
100
AcDbLine
 10
10297.53613482032
 20
17376.82315637512
 30
0.0
 11
10297.53613482032
 21
17426.82315637512
 31
0.0
  0
MTEXT
  5
39B
330
1F
100
AcDbEntity
  8
寸法文字
  6
Continuous
100
AcDbMText
 10
8958.089808318652
 20
15705.80866581996
 30
0.0
 40
300.0
 41
0.0
 71
     3
 72
     1
  1
（250）
  7
1_100
 73
     1
 44
1.0
1001
ACAD
1000
MTEXTBEGIN
1070
    73
1070
     1
1070
    44
1040
1.0
1070
    74
1070
     0
1000
MTEXTEND
  0
LEADER
  5
39C
330
1F
100
AcDbEntity
  8
寸法引出
  6
Continuous
100
AcDbLeader
  3
1_100
 71
     0
 73
     0
 75
     1
 40
300.0
 41
1095.0
 76
     3
 10
10078.97718804993
 20
15156.98315662032
 30
0.0
 10
9195.288099929346
 20
15830.76780876823
 30
0.0
 10
9135.288099929345
 20
15830.76780876823
 30
0.0
340
39D
  0
MTEXT
  5
39D
102
{ACAD_REACTORS
330
39C
102
}
330
1F
100
AcDbEntity
  8
寸法文字
  6
Continuous
100
AcDbMText
 10
9035.288099929344
 20
15930.76780876823
 30
0.0
 40
300.0
 41
0.0
 71
     9
 72
     1
  1
FRP被覆
  7
1_100
 73
     1
 44
1.0
1001
ACAD
1000
MTEXTBEGIN
1070
    73
1070
     1
1070
    44
1040
1.0
1070
    74
1070
     0
1000
MTEXTEND
  0
LINE
  5
39E
330
1F
100
AcDbEntity
  8
画層2-1
  6
Continuous
100
AcDbLine
 10
10056.83613482013
 20
15191.82315637512
 30
0.0
 11
10247.53613482032
 21
15191.82315637512
 31
0.0
  0
LWPOLYLINE
  5
39F
330
1F
100
AcDbEntity
  8
画層1
100
AcDbPolyline
 90
        4
 70
     1
 43
0.0
 10
10133.30499636091
 20
15471.82315637512
 10
10173.30499636091
 20
15471.82315637512
 10
10173.30499636091
 20
15291.82315637512
 10
10133.30499636091
 20
15291.82315637512
  0
CIRCLE
  5
3A0
330
1F
100
AcDbEntity
  8
画層1
  6
Continuous
100
AcDbCircle
 10
10272.53613482032
 20
15116.82315637512
 30
0.0
 40
10.9509940156
  0
CIRCLE
  5
3A1
330
1F
100
AcDbEntity
  8
画層1
  6
Continuous
100
AcDbCircle
 10
10031.83613482013
 20
15116.82315637512
 30
0.0
 40
10.9509940156
  0
LINE
  5
3A2
330
1F
100
AcDbEntity
  8
画層1
  6
Continuous
100
AcDbLine
 10
10127.18613482022
 20
15091.82315637512
 30
0.0
 11
10127.18613482022
 21
15141.82315637512
 31
0.0
  0
LINE
  5
3A3
330
1F
100
AcDbEntity
  8
画層1
  6
Continuous
100
AcDbLine
 10
10177.18613482022
 20
15091.82315637512
 30
0.0
 11
10177.18613482022
 21
15141.82315637512
 31
0.0
  0
LWPOLYLINE
  5
3A4
102
{ACAD_REACTORS
330
376
102
}
330
1F
100
AcDbEntity
  8
画層1
100
AcDbPolyline
 90
        4
 70
     1
 43
0.0
 10
10372.98613482027
 20
15136.59943571387
 10
10527.53613482032
 20
15136.59943571387
 10
10527.53613482032
 20
15096.59943571387
 10
10372.98613482027
 20
15096.59943571387
  0
LWPOLYLINE
  5
3A5
330
1F
100
AcDbEntity
  8
画層1-1
100
AcDbPolyline
 90
        4
 70
     1
 43
0.0
 10
10381.26916590764
 20
15218.38333838215
 10
10528.13779503887
 20
15322.44873008647
 10
10551.26330414263
 20
15289.81116233572
 10
10404.39467501163
 20
15185.74577063139
  0
LWPOLYLINE
  5
3A6
102
{ACAD_REACTORS
330
376
102
}
330
1F
100
AcDbEntity
  8
画層1
  6
Continuous
100
AcDbPolyline
 90
        4
 70
     1
 43
0.0
 10
10006.83613482013
 20
15141.82315637512
 10
10297.53613482032
 20
15141.82315637512
 10
10297.53613482032
 20
15091.82315637512
 10
10006.83613482013
 20
15091.82315637512
  0
LINE
  5
3A7
330
1F
100
AcDbEntity
  8
ﾊｯﾁﾝｸﾞ
  6
Continuous
100
AcDbLine
 10
9462.8249391733
 20
15079.34885434088
 30
0.0
 11
9409.062090190248
 21
15025.58600535794
 31
0.0
  0
LINE
  5
3A8
330
1F
100
AcDbEntity
  8
ﾊｯﾁﾝｸﾞ
  6
Continuous
100
AcDbLine
 10
9450.350637138942
 20
15091.82315637501
 30
0.0
 11
9570.350637139872
 21
14971.82315637501
 31
0.0
  0
LINE
  5
3A9
330
1F
100
AcDbEntity
  8
ﾊｯﾁﾝｸﾞ
  6
Continuous
100
AcDbLine
 10
9529.546596631993
 20
15091.82315637501
 30
0.0
 11
9621.216858159641
 21
15000.15289484794
 31
0.0
  0
LINE
  5
3AA
330
1F
100
AcDbEntity
  8
ﾊｯﾁﾝｸﾞ
  6
Continuous
100
AcDbLine
 10
9608.742556125278
 20
15091.82315637512
 30
0.0
 11
9660.814837906166
 21
15039.75087459447
 31
0.0
  0
LINE
  5
3AB
330
1F
100
AcDbEntity
  8
ﾊｯﾁﾝｸﾞ
  6
Continuous
100
AcDbLine
 10
9502.422918919824
 20
15039.75087459447
 30
0.0
 11
9434.495200700245
 21
14971.82315637501
 31
0.0
  0
LINE
  5
3AC
330
1F
100
AcDbEntity
  8
ﾊｯﾁﾝｸﾞ
  6
Continuous
100
AcDbLine
 10
9542.020898666121
 20
15000.15289484794
 30
0.0
 11
9513.691160193532
 21
14971.82315637489
 31
0.0
  0
LINE
  5
3AD
330
1F
100
AcDbEntity
  8
ﾊｯﾁﾝｸﾞ
  6
Continuous
100
AcDbLine
 10
9700.412817652455
 20
15079.34885434088
 30
0.0
 11
9592.887119686585
 21
14971.82315637501
 31
0.0
  0
LINE
  5
3AE
330
1F
100
AcDbEntity
  8
ﾊｯﾁﾝｸﾞ
  6
Continuous
100
AcDbLine
 10
9740.010797398989
 20
15039.75087459447
 30
0.0
 11
9672.083079179635
 21
14971.82315637501
 31
0.0
  0
LINE
  5
3AF
330
1F
100
AcDbEntity
  8
ﾊｯﾁﾝｸﾞ
  6
Continuous
100
AcDbLine
 10
9779.60877714551
 20
15000.15289484794
 30
0.0
 11
9751.279038672691
 21
14971.82315637489
 31
0.0
  0
LINE
  5
3B0
330
1F
100
AcDbEntity
  8
ﾊｯﾁﾝｸﾞ
  6
Continuous
100
AcDbLine
 10
9687.938515618334
 20
15091.82315637501
 30
0.0
 11
9807.93851561903
 21
14971.82315637489
 31
0.0
  0
LINE
  5
3B1
330
1F
100
AcDbEntity
  8
ﾊｯﾁﾝｸﾞ
  6
Continuous
100
AcDbLine
 10
9767.134475111385
 20
15091.82315637501
 30
0.0
 11
9887.134475112084
 21
14971.82315637489
 31
0.0
  0
LINE
  5
3B2
330
1F
100
AcDbEntity
  8
ﾊｯﾁﾝｸﾞ
  6
Continuous
100
AcDbLine
 10
9846.330434604436
 20
15091.82315637489
 30
0.0
 11
9902.186134820459
 21
15035.96745615933
 31
0.0
  0
LINE
  5
3B3
102
{ACAD_REACTORS
330
3C0
102
}
330
1F
100
AcDbEntity
  8
画層2
100
AcDbLine
 10
10377.18613482046
 20
13091.82315637489
 30
0.0
 11
9927.186134820461
 21
13091.82315637489
 31
0.0
  0
LINE
  5
3B4
330
1F
100
AcDbEntity
  8
ﾊｯﾁﾝｸﾞ
  6
Continuous
100
AcDbLine
 10
10762.35137097456
 20
15000.15289484794
 30
0.0
 11
10790.68110944738
 21
14971.82315637489
 31
0.0
  0
LINE
  5
3B5
330
1F
100
AcDbEntity
  8
ﾊｯﾁﾝｸﾞ
  6
Continuous
100
AcDbLine
 10
10801.94935072109
 20
15039.75087459447
 30
0.0
 11
10869.87706894044
 21
14971.82315637501
 31
0.0
  0
LINE
  5
3B6
330
1F
100
AcDbEntity
  8
ﾊｯﾁﾝｸﾞ
  6
Continuous
100
AcDbLine
 10
10774.82567300869
 20
15091.82315637501
 30
0.0
 11
10683.15541148128
 21
15000.15289484794
 31
0.0
  0
LINE
  5
3B7
330
1F
100
AcDbEntity
  8
ﾊｯﾁﾝｸﾞ
  6
Continuous
100
AcDbLine
 10
10854.02163250174
 20
15091.82315637501
 30
0.0
 11
10734.02163250081
 21
14971.82315637501
 31
0.0
  0
LINE
  5
3B8
330
1F
100
AcDbEntity
  8
ﾊｯﾁﾝｸﾞ
  6
Continuous
100
AcDbLine
 10
10458.04183503625
 20
15091.82315637489
 30
0.0
 11
10402.18613482046
 21
15035.96745615933
 31
0.0
  0
LINE
  5
3B9
330
1F
100
AcDbEntity
  8
ﾊｯﾁﾝｸﾞ
  6
Continuous
100
AcDbLine
 10
10537.23779452953
 20
15091.82315637501
 30
0.0
 11
10417.2377945286
 21
14971.82315637489
 31
0.0
  0
LINE
  5
3BA
330
1F
100
AcDbEntity
  8
ﾊｯﾁﾝｸﾞ
  6
Continuous
100
AcDbLine
 10
10616.43375402258
 20
15091.82315637501
 30
0.0
 11
10496.43375402188
 21
14971.82315637489
 31
0.0
  0
LINE
  5
3BB
330
1F
100
AcDbEntity
  8
ﾊｯﾁﾝｸﾞ
  6
Continuous
100
AcDbLine
 10
10524.76349249541
 20
15000.15289484794
 30
0.0
 11
10553.09323096799
 21
14971.82315637489
 31
0.0
  0
LINE
  5
3BC
330
1F
100
AcDbEntity
  8
ﾊｯﾁﾝｸﾞ
  6
Continuous
100
AcDbLine
 10
10564.36147224193
 20
15039.75087459447
 30
0.0
 11
10632.28919046128
 21
14971.82315637501
 31
0.0
  0
LINE
  5
3BD
330
1F
100
AcDbEntity
  8
ﾊｯﾁﾝｸﾞ
  6
Continuous
100
AcDbLine
 10
10603.95945198822
 20
15079.34885434088
 30
0.0
 11
10711.4851499541
 21
14971.82315637501
 31
0.0
  0
LINE
  5
3BE
330
1F
100
AcDbEntity
  8
ﾊｯﾁﾝｸﾞ
  6
Continuous
100
AcDbLine
 10
10695.62971351564
 20
15091.82315637512
 30
0.0
 11
10643.55743173475
 21
15039.75087459447
 31
0.0
  0
LWPOLYLINE
  5
3BF
102
{ACAD_REACTORS
330
3C0
102
}
330
1F
100
AcDbEntity
  8
画層2
100
AcDbPolyline
 90
        8
 70
     0
 43
0.0
 10
9902.186134820459
 20
15091.82315637489
 10
9902.186134820459
 20
14891.82315637489
 10
9927.186134820461
 20
14891.82315637489
 10
9927.186134820461
 20
12991.82315637489
 10
10377.18613482046
 20
12991.82315637489
 10
10377.18613482046
 20
14891.82315637489
 10
10402.18613482046
 20
14891.82315637489
 10
10402.18613482046
 20
15091.82315637535
  0
HATCH
  5
3C0
330
1F
100
AcDbEntity
  8
ﾊｯﾁﾝｸﾞ
100
AcDbHatch
 10
0.0
 20
0.0
 30
0.0
210
0.0
220
0.0
230
1.0
  2
PLAST
 70
     0
 71
     1
 91
        2
 92
        7
 72
     0
 73
     1
 93
        6
 10
10377.18613482046
 20
14891.82315637489
 10
10402.18613482046
 20
14891.82315637489
 10
10402.18613482046
 20
15091.82315637503
 10
10152.18613482022
 20
15091.82315637502
 10
10152.18613482022
 20
13091.82315637489
 10
10377.18613482046
 20
13091.82315637489
 97
        4
330
3BF
330
37B
330
363
330
3B3
 92
        7
 72
     0
 73
     1
 93
        6
 10
9927.186134820461
 20
13091.82315637489
 10
10152.18613482022
 20
13091.82315637489
 10
10152.18613482022
 20
15091.82315637502
 10
9902.186134820459
 20
15091.82315637502
 10
9902.186134820459
 20
14891.82315637489
 10
9927.186134820461
 20
14891.82315637489
 97
        4
330
37B
330
3BF
330
3B3
330
363
 75
     0
 76
     1
 52
45.0
 41
2000.0
 77
     0
 78
     3
 53
45.0
 43
-458327.5810032642
 44
-238727.9861910862
 45
-353.5533905932737
 46
353.5533905932738
 79
     0
 53
45.0
 43
-458371.7751770882
 44
-238683.7920172621
 45
-353.5533905932737
 46
353.5533905932738
 79
     0
 53
45.0
 43
-458415.9693509125
 44
-238639.5978434379
 45
-353.5533905932737
 46
353.5533905932738
 79
     0
 47
22.87573562982597
 98
        2
 10
10271.91274026118
 20
14374.26099255335
 10
10020.08270834747
 20
14282.75893805366
  0
MTEXT
  5
3C1
102
{ACAD_REACTORS
330
3C2
102
}
330
1F
100
AcDbEntity
  8
寸法文字
  6
Continuous
100
AcDbMText
 10
11097.22300979018
 20
13645.87959630535
 30
0.0
 40
300.0
 41
0.0
 71
     7
 72
     1
  1
砕石
  7
1_100
 73
     1
 44
1.0
1001
ACAD
1000
MTEXTBEGIN
1070
    73
1070
     1
1070
    44
1040
1.0
1070
    74
1070
     0
1000
MTEXTEND
  0
LEADER
  5
3C2
330
1F
100
AcDbEntity
  8
寸法引出
  6
Continuous
100
AcDbLeader
  3
1_100
 71
     0
 73
     0
 74
     0
 75
     1
 40
300.0
 41
495.0
 76
     3
 10
10377.18613482022
 20
13041.82315637512
 30
0.0
 10
10937.22300979018
 20
13545.87959630535
 30
0.0
 10
10997.22300979018
 20
13545.87959630535
 30
0.0
340
3C1
  0
MTEXT
  5
3C3
102
{ACAD_REACTORS
330
3C4
102
}
330
1F
100
AcDbEntity
  8
寸法文字
  6
Continuous
100
AcDbMText
 10
11080.79460433812
 20
14390.40321780558
 30
0.0
 40
300.0
 41
0.0
 71
     7
 72
     1
  1
コンクリート
  7
1_100
 73
     1
 44
1.0
1001
ACAD
1000
MTEXTBEGIN
1070
    73
1070
     1
1070
    44
1040
1.0
1070
    74
1070
     0
1000
MTEXTEND
  0
LEADER
  5
3C4
330
1F
100
AcDbEntity
  8
寸法引出
  6
Continuous
100
AcDbLeader
  3
1_100
 71
     0
 73
     0
 74
     0
 75
     1
 40
300.0
 41
1547.142857142856
 76
     3
 10
10377.18613482022
 20
13805.71607349164
 30
0.0
 10
10920.79460433812
 20
14290.40321780558
 30
0.0
 10
10980.79460433812
 20
14290.40321780558
 30
0.0
340
3C3
  0
LINE
  5
3C5
330
1F
100
AcDbEntity
  8
ﾊｯﾁﾝｸﾞ
  6
Continuous
100
AcDbLine
 10
10841.54733046761
 20
15079.34885434088
 30
0.0
 11
10895.31017945043
 21
15025.58600535794
 31
0.0
  0
LINE
  5
3C6
330
1F
100
AcDbEntity
  8
寸法引出
  6
Continuous
100
AcDbLine
 10
14427.41928682791
 20
19711.82315637512
 30
0.0
 11
14995.6043702137
 21
15621.64021108664
 31
0.0
  0
DIMENSION
  5
3C7
330
1F
100
AcDbEntity
  8
寸法
  6
Continuous
100
AcDbDimension
  2
*D10
 10
32377.18613482023
 20
12391.82315637501
 30
0.0
 11
31350.79589862598
 21
12573.15681796385
 31
0.0
 70
   160
  1
φ<>
 71
     5
 42
450.0
  3
1_100
100
AcDbAlignedDimension
 13
31927.18613482023
 23
12991.823156375
 33
0.0
 14
32377.18613482023
 24
12991.823156375
 34
0.0
100
AcDbRotatedDimension
  0
TEXT
  5
3C8
330
1F
100
AcDbEntity
  8
寸法
  6
Continuous
100
AcDbText
 10
31025.78490053758
 20
15171.82315637501
 30
0.0
 40
240.0
  1
▽GL
 41
0.75
  7
1_100
 11
31025.78490053758
 21
15171.82315637501
 31
0.0
100
AcDbText
 73
     1
  0
LINE
  5
3C9
102
{ACAD_REACTORS
330
44B
102
}
330
1F
100
AcDbEntity
  8
画層2
100
AcDbLine
 10
30920.72224505373
 20
15091.82315637501
 30
0.0
 11
32994.60867020058
 21
15091.82315637501
 31
0.0
  0
INSERT
  5
3CA
330
1F
100
AcDbEntity
  8
ﾊｯﾁﾝｸﾞ
  6
Continuous
100
AcDbBlockReference
  2
sai450
 10
20152.18613482046
 20
13091.82315637489
 30
0.0
  0
LINE
  5
3CB
330
1F
100
AcDbEntity
  8
画層1
  6
Continuous
100
AcDbLine
 10
20006.83613482013
 20
19686.82315637512
 30
0.0
 11
20297.53613482032
 21
19686.82315637512
 31
0.0
  0
LINE
  5
3CC
330
1F
100
AcDbEntity
  8
画層1
  6
Continuous
100
AcDbLine
 10
20297.53613482032
 20
19736.82315637512
 30
0.0
 11
20006.83613482013
 21
19736.82315637512
 31
0.0
  0
LINE
  5
3CD
330
1F
100
AcDbEntity
  8
画層1
  6
Continuous
100
AcDbLine
 10
20006.83613482013
 20
19736.82315637512
 30
0.0
 11
20006.83613482013
 21
19686.82315637512
 31
0.0
  0
LINE
  5
3CE
330
1F
100
AcDbEntity
  8
画層1
  6
Continuous
100
AcDbLine
 10
20127.18613482022
 20
19686.82315637512
 30
0.0
 11
20127.18613482022
 21
19736.82315637512
 31
0.0
  0
CIRCLE
  5
3CF
330
1F
100
AcDbEntity
  8
画層1
  6
Continuous
100
AcDbCircle
 10
20031.83613482013
 20
19711.82315637512
 30
0.0
 40
10.9509940156
  0
LINE
  5
3D0
330
1F
100
AcDbEntity
  8
画層1
  6
Continuous
100
AcDbLine
 10
20177.18613482023
 20
19686.82315637512
 30
0.0
 11
20177.18613482023
 21
19736.82315637512
 31
0.0
  0
LINE
  5
3D1
330
1F
100
AcDbEntity
  8
画層1
  6
Continuous
100
AcDbLine
 10
20297.53613482032
 20
19686.82315637512
 30
0.0
 11
20297.53613482032
 21
19736.82315637512
 31
0.0
  0
CIRCLE
  5
3D2
330
1F
100
AcDbEntity
  8
画層1
  6
Continuous
100
AcDbCircle
 10
20272.53613482032
 20
19711.82315637512
 30
0.0
 40
10.9509940156
  0
DIMENSION
  5
3D3
330
1F
100
AcDbEntity
  8
寸法
  6
Continuous
100
AcDbDimension
  2
*D11
 10
29152.18613482023
 20
13091.82315637512
 30
0.0
 11
28873.61470624879
 21
14091.82315637507
 31
0.0
 70
    32
 71
     5
 42
1999.999999999883
  3
1_100
100
AcDbAlignedDimension
 13
27152.18613482023
 23
15091.82315637501
 33
0.0
 14
27152.18613482023
 24
13091.82315637512
 34
0.0
 50
90.0
100
AcDbRotatedDimension
  0
DIMENSION
  5
3D4
330
1F
100
AcDbEntity
  8
寸法
  6
Continuous
100
AcDbDimension
  2
*D12
 10
28152.18613482023
 20
15091.82315637512
 30
0.0
 11
28409.00316335226
 21
14745.61082268323
 31
0.0
 70
   160
 71
     5
 42
200.0
  3
1_100
100
AcDbAlignedDimension
 13
27152.18613482023
 23
14891.82315637512
 33
0.0
 14
27152.18613482023
 24
15091.82315637512
 34
0.0
 50
90.0
100
AcDbRotatedDimension
  0
DIMENSION
  5
3D5
330
1F
100
AcDbEntity
  8
寸法
  6
Continuous
100
AcDbDimension
  2
*D13
 10
28152.18613482023
 20
14891.82315637512
 30
0.0
 11
27873.6147062488
 21
13991.82315637512
 31
0.0
 70
    32
 71
     5
 42
1800.0
  3
1_100
100
AcDbAlignedDimension
 13
27152.18613482023
 23
13091.82315637512
 33
0.0
 14
27152.18613482023
 24
14891.82315637512
 34
0.0
 50
90.0
100
AcDbRotatedDimension
  0
DIMENSION
  5
3D6
330
1F
100
AcDbEntity
  8
寸法
  6
Continuous
100
AcDbDimension
  2
*D14
 10
28152.18613482023
 20
13091.82315637512
 30
0.0
 11
27849.35851677147
 21
12631.8517757133
 31
0.0
 70
   160
 71
     5
 42
100.0
  3
1_100
100
AcDbAlignedDimension
 13
27152.18613482023
 23
12991.82315637512
 33
0.0
 14
27152.18613482023
 24
13091.82315637512
 34
0.0
 50
90.0
100
AcDbRotatedDimension
  0
DIMENSION
  5
3D7
330
1F
100
AcDbEntity
  8
寸法
  6
Continuous
100
AcDbDimension
  2
*D15
 10
28152.18613482023
 20
17401.82315637512
 30
0.0
 11
27873.6147062488
 21
16246.82315637512
 31
0.0
 70
    32
 71
     5
 42
2310.0
  3
1_100
100
AcDbAlignedDimension
 13
27152.18613482023
 23
15091.82315637512
 33
0.0
 14
27152.18613482023
 24
17401.82315637512
 34
0.0
 50
90.0
100
AcDbRotatedDimension
  0
LEADER
  5
3D8
330
1F
100
AcDbEntity
  8
寸法引出
  6
Continuous
100
AcDbLeader
  3
1_100
 71
     0
 73
     0
 75
     1
 40
300.0
 41
2603.571428571428
 76
     3
 10
19825.9209779246
 20
15238.42696077892
 30
0.0
 10
19271.05115075142
 20
14092.42406449424
 30
0.0
 10
19211.05115075142
 20
14092.42406449424
 30
0.0
340
3D9
  0
MTEXT
  5
3D9
102
{ACAD_REACTORS
330
3D8
102
}
330
1F
100
AcDbEntity
  8
寸法文字
  6
Continuous
100
AcDbMText
 10
19111.05115075142
 20
14192.42406449424
 30
0.0
 40
300.0
 41
0.0
 71
     9
 72
     1
  1
タンバックル12mm
  7
1_100
 73
     1
 44
1.0
1001
ACAD
1000
MTEXTBEGIN
1070
    73
1070
     1
1070
    44
1040
1.0
1070
    74
1070
     0
1000
MTEXTEND
  0
LINE
  5
3DA
330
1F
100
AcDbEntity
  8
画層2-1
  6
Continuous
100
AcDbLine
 10
20056.83613482013
 20
14941.82315637512
 30
0.0
 11
20247.53613482032
 21
14941.82315637512
 31
0.0
  0
LINE
  5
3DB
330
1F
100
AcDbEntity
  8
寸法引出
  6
Continuous
100
AcDbLine
 10
16345.72796283558
 20
18418.15148425176
 30
0.0
 11
15983.14108372002
 21
17964.80318832441
 31
0.0
  0
LINE
  5
3DC
330
1F
100
AcDbEntity
  8
画層1
  6
Continuous
100
AcDbLine
 10
20006.83613482013
 20
17376.82315637512
 30
0.0
 11
20297.53613482032
 21
17376.82315637512
 31
0.0
  0
LINE
  5
3DD
330
1F
100
AcDbEntity
  8
画層1
  6
Continuous
100
AcDbLine
 10
20297.53613482032
 20
17426.82315637512
 30
0.0
 11
20006.83613482013
 21
17426.82315637512
 31
0.0
  0
CIRCLE
  5
3DE
330
1F
100
AcDbEntity
  8
画層1
  6
Continuous
100
AcDbCircle
 10
20031.83613482013
 20
17401.82315637512
 30
0.0
 40
10.9509940156
  0
LINE
  5
3DF
330
1F
100
AcDbEntity
  8
画層1
  6
Continuous
100
AcDbLine
 10
20006.83613482013
 20
17426.82315637512
 30
0.0
 11
20006.83613482013
 21
17376.82315637512
 31
0.0
  0
LINE
  5
3E0
330
1F
100
AcDbEntity
  8
画層1
  6
Continuous
100
AcDbLine
 10
20127.18613482022
 20
17376.82315637512
 30
0.0
 11
20127.18613482022
 21
17426.82315637512
 31
0.0
  0
CIRCLE
  5
3E1
330
1F
100
AcDbEntity
  8
画層1
  6
Continuous
100
AcDbCircle
 10
20272.53613482032
 20
17401.82315637512
 30
0.0
 40
10.9509940156
  0
LINE
  5
3E2
330
1F
100
AcDbEntity
  8
画層1
  6
Continuous
100
AcDbLine
 10
20177.18613482023
 20
17376.82315637512
 30
0.0
 11
20177.18613482023
 21
17426.82315637512
 31
0.0
  0
LINE
  5
3E3
330
1F
100
AcDbEntity
  8
画層1
  6
Continuous
100
AcDbLine
 10
20297.53613482032
 20
17376.82315637512
 30
0.0
 11
20297.53613482032
 21
17426.82315637512
 31
0.0
  0
LINE
  5
3E4
330
1F
100
AcDbEntity
  8
画層2-1
  6
Continuous
100
AcDbLine
 10
20056.83613482013
 20
15191.82315637512
 30
0.0
 11
20247.53613482032
 21
15191.82315637512
 31
0.0
  0
CIRCLE
  5
3E5
330
1F
100
AcDbEntity
  8
画層1
  6
Continuous
100
AcDbCircle
 10
20031.83613482013
 20
15116.82315637512
 30
0.0
 40
10.9509940156
  0
LINE
  5
3E6
330
1F
100
AcDbEntity
  8
画層1
  6
Continuous
100
AcDbLine
 10
20127.18613482022
 20
15091.82315637512
 30
0.0
 11
20127.18613482022
 21
15141.82315637512
 31
0.0
  0
CIRCLE
  5
3E7
330
1F
100
AcDbEntity
  8
画層1
  6
Continuous
100
AcDbCircle
 10
20272.53613482032
 20
15116.82315637512
 30
0.0
 40
10.9509940156
  0
LINE
  5
3E8
330
1F
100
AcDbEntity
  8
画層1
  6
Continuous
100
AcDbLine
 10
20177.18613482023
 20
15091.82315637512
 30
0.0
 11
20177.18613482023
 21
15141.82315637512
 31
0.0
  0
LWPOLYLINE
  5
3E9
330
1F
100
AcDbEntity
  8
画層1-1
100
AcDbPolyline
 90
        4
 70
     1
 43
0.0
 10
19923.07731272315
 20
15218.60962298492
 10
19776.20825790486
 20
15322.67441390935
 10
19753.08288230806
 20
15290.03675156195
 10
19899.95193712635
 20
15185.9719606374
  0
LWPOLYLINE
  5
3EA
330
1F
100
AcDbEntity
  8
画層1-1
100
AcDbPolyline
 90
        4
 70
     1
 43
0.0
 10
20381.26916590764
 20
15218.38333838215
 10
20528.13779503888
 20
15322.44873008647
 10
20551.26330414263
 20
15289.81116233572
 10
20404.39467501164
 20
15185.74577063139
  0
LEADER
  5
3EB
330
1F
100
AcDbEntity
  8
寸法引出
  6
Continuous
100
AcDbLeader
  3
1_100
 71
     0
 73
     0
 75
     1
 40
300.0
 41
1319.999999999999
 76
     3
 10
20038.19567963494
 20
17376.82315637512
 30
0.0
 10
19681.09414182266
 20
16788.95943772307
 30
0.0
 10
19621.09414182266
 20
16788.95943772307
 30
0.0
340
3EC
  0
MTEXT
  5
3EC
102
{ACAD_REACTORS
330
3EB
102
}
330
1F
100
AcDbEntity
  8
寸法文字
  6
Continuous
100
AcDbMText
 10
19521.09414182266
 20
16888.95943772307
 30
0.0
 40
300.0
 41
0.0
 71
     9
 72
     1
  1
バンド金具
  7
1_100
 73
     1
 44
1.0
1001
ACAD
1000
MTEXTBEGIN
1070
    73
1070
     1
1070
    44
1040
1.0
1070
    74
1070
     0
1000
MTEXTEND
  0
TEXT
  5
3ED
330
1F
100
AcDbEntity
  8
寸法
  6
Continuous
100
AcDbText
 10
23474.52222502896
 20
10111.09061193842
 30
0.0
 40
300.0
  1
10,000
 41
0.75
  7
1_100
 11
23474.52222502896
 21
10111.09061193842
 31
0.0
100
AcDbText
 73
     1
  0
LWPOLYLINE
  5
3EE
330
1F
100
AcDbEntity
  8
画層1
  6
Continuous
100
AcDbPolyline
 90
        4
 70
     1
 43
0.0
 10
20006.83613482013
 20
15141.82315637512
 10
20297.53613482032
 20
15141.82315637512
 10
20297.53613482032
 20
15091.82315637512
 10
20006.83613482013
 20
15091.82315637512
  0
LINE
  5
3EF
330
1F
100
AcDbEntity
  8
ﾊｯﾁﾝｸﾞ
  6
Continuous
100
AcDbLine
 10
19462.8249391733
 20
15079.34885434088
 30
0.0
 11
19409.06209019025
 21
15025.58600535794
 31
0.0
  0
LINE
  5
3F0
330
1F
100
AcDbEntity
  8
ﾊｯﾁﾝｸﾞ
  6
Continuous
100
AcDbLine
 10
19450.35063713894
 20
15091.82315637501
 30
0.0
 11
19570.35063713987
 21
14971.82315637501
 31
0.0
  0
LINE
  5
3F1
330
1F
100
AcDbEntity
  8
ﾊｯﾁﾝｸﾞ
  6
Continuous
100
AcDbLine
 10
19529.54659663199
 20
15091.82315637501
 30
0.0
 11
19621.21685815963
 21
15000.15289484794
 31
0.0
  0
LINE
  5
3F2
330
1F
100
AcDbEntity
  8
ﾊｯﾁﾝｸﾞ
  6
Continuous
100
AcDbLine
 10
19608.74255612528
 20
15091.82315637512
 30
0.0
 11
19660.81483790616
 21
15039.75087459447
 31
0.0
  0
LINE
  5
3F3
330
1F
100
AcDbEntity
  8
ﾊｯﾁﾝｸﾞ
  6
Continuous
100
AcDbLine
 10
19502.42291891983
 20
15039.75087459447
 30
0.0
 11
19434.49520070025
 21
14971.82315637501
 31
0.0
  0
LINE
  5
3F4
330
1F
100
AcDbEntity
  8
ﾊｯﾁﾝｸﾞ
  6
Continuous
100
AcDbLine
 10
19542.02089866612
 20
15000.15289484794
 30
0.0
 11
19513.69116019353
 21
14971.82315637489
 31
0.0
  0
LINE
  5
3F5
330
1F
100
AcDbEntity
  8
ﾊｯﾁﾝｸﾞ
  6
Continuous
100
AcDbLine
 10
19700.41281765245
 20
15079.34885434088
 30
0.0
 11
19592.88711968658
 21
14971.82315637501
 31
0.0
  0
LINE
  5
3F6
330
1F
100
AcDbEntity
  8
ﾊｯﾁﾝｸﾞ
  6
Continuous
100
AcDbLine
 10
19740.01079739898
 20
15039.75087459447
 30
0.0
 11
19672.08307917963
 21
14971.82315637501
 31
0.0
  0
LINE
  5
3F7
330
1F
100
AcDbEntity
  8
ﾊｯﾁﾝｸﾞ
  6
Continuous
100
AcDbLine
 10
19779.60877714551
 20
15000.15289484794
 30
0.0
 11
19751.27903867269
 21
14971.82315637489
 31
0.0
  0
LINE
  5
3F8
330
1F
100
AcDbEntity
  8
ﾊｯﾁﾝｸﾞ
  6
Continuous
100
AcDbLine
 10
19687.93851561833
 20
15091.82315637501
 30
0.0
 11
19807.93851561903
 21
14971.82315637489
 31
0.0
  0
LINE
  5
3F9
330
1F
100
AcDbEntity
  8
ﾊｯﾁﾝｸﾞ
  6
Continuous
100
AcDbLine
 10
19767.13447511138
 20
15091.82315637501
 30
0.0
 11
19887.13447511208
 21
14971.82315637489
 31
0.0
  0
LINE
  5
3FA
330
1F
100
AcDbEntity
  8
ﾊｯﾁﾝｸﾞ
  6
Continuous
100
AcDbLine
 10
19846.33043460443
 20
15091.82315637489
 30
0.0
 11
19902.18613482046
 21
15035.96745615933
 31
0.0
  0
LINE
  5
3FB
102
{ACAD_REACTORS
330
409
102
}
330
1F
100
AcDbEntity
  8
画層2
100
AcDbLine
 10
20377.18613482046
 20
13091.82315637489
 30
0.0
 11
19927.18613482046
 21
13091.82315637489
 31
0.0
  0
LINE
  5
3FC
330
1F
100
AcDbEntity
  8
ﾊｯﾁﾝｸﾞ
  6
Continuous
100
AcDbLine
 10
20762.35137097456
 20
15000.15289484794
 30
0.0
 11
20790.68110944739
 21
14971.82315637489
 31
0.0
  0
LINE
  5
3FD
330
1F
100
AcDbEntity
  8
ﾊｯﾁﾝｸﾞ
  6
Continuous
100
AcDbLine
 10
20801.94935072109
 20
15039.75087459447
 30
0.0
 11
20869.87706894044
 21
14971.82315637501
 31
0.0
  0
LINE
  5
3FE
330
1F
100
AcDbEntity
  8
ﾊｯﾁﾝｸﾞ
  6
Continuous
100
AcDbLine
 10
20774.82567300869
 20
15091.82315637501
 30
0.0
 11
20683.15541148128
 21
15000.15289484794
 31
0.0
  0
LINE
  5
3FF
330
1F
100
AcDbEntity
  8
ﾊｯﾁﾝｸﾞ
  6
Continuous
100
AcDbLine
 10
20854.02163250174
 20
15091.82315637501
 30
0.0
 11
20734.02163250081
 21
14971.82315637501
 31
0.0
  0
LINE
  5
400
330
1F
100
AcDbEntity
  8
ﾊｯﾁﾝｸﾞ
  6
Continuous
100
AcDbLine
 10
20841.54733046762
 20
15079.34885434088
 30
0.0
 11
20895.31017945044
 21
15025.58600535794
 31
0.0
  0
LINE
  5
401
330
1F
100
AcDbEntity
  8
ﾊｯﾁﾝｸﾞ
  6
Continuous
100
AcDbLine
 10
20458.04183503625
 20
15091.82315637489
 30
0.0
 11
20402.18613482046
 21
15035.96745615933
 31
0.0
  0
LINE
  5
402
330
1F
100
AcDbEntity
  8
ﾊｯﾁﾝｸﾞ
  6
Continuous
100
AcDbLine
 10
20537.23779452953
 20
15091.82315637501
 30
0.0
 11
20417.2377945286
 21
14971.82315637489
 31
0.0
  0
LINE
  5
403
330
1F
100
AcDbEntity
  8
ﾊｯﾁﾝｸﾞ
  6
Continuous
100
AcDbLine
 10
20616.43375402259
 20
15091.82315637501
 30
0.0
 11
20496.43375402189
 21
14971.82315637489
 31
0.0
  0
LINE
  5
404
330
1F
100
AcDbEntity
  8
ﾊｯﾁﾝｸﾞ
  6
Continuous
100
AcDbLine
 10
20524.76349249541
 20
15000.15289484794
 30
0.0
 11
20553.093230968
 21
14971.82315637489
 31
0.0
  0
LINE
  5
405
330
1F
100
AcDbEntity
  8
ﾊｯﾁﾝｸﾞ
  6
Continuous
100
AcDbLine
 10
20564.36147224193
 20
15039.75087459447
 30
0.0
 11
20632.28919046128
 21
14971.82315637501
 31
0.0
  0
LINE
  5
406
330
1F
100
AcDbEntity
  8
ﾊｯﾁﾝｸﾞ
  6
Continuous
100
AcDbLine
 10
20603.95945198823
 20
15079.34885434088
 30
0.0
 11
20711.4851499541
 21
14971.82315637501
 31
0.0
  0
LINE
  5
407
330
1F
100
AcDbEntity
  8
ﾊｯﾁﾝｸﾞ
  6
Continuous
100
AcDbLine
 10
20695.62971351564
 20
15091.82315637512
 30
0.0
 11
20643.55743173476
 21
15039.75087459447
 31
0.0
  0
LWPOLYLINE
  5
408
102
{ACAD_REACTORS
330
409
102
}
330
1F
100
AcDbEntity
  8
画層2
100
AcDbPolyline
 90
        8
 70
     0
 43
0.0
 10
19902.18613482046
 20
15091.82315637489
 10
19902.18613482046
 20
14891.82315637489
 10
19927.18613482046
 20
14891.82315637489
 10
19927.18613482046
 20
12991.82315637489
 10
20377.18613482046
 20
12991.82315637489
 10
20377.18613482046
 20
14891.82315637489
 10
20402.18613482046
 20
14891.82315637489
 10
20402.18613482046
 20
15091.82315637535
  0
HATCH
  5
409
330
1F
100
AcDbEntity
  8
ﾊｯﾁﾝｸﾞ
100
AcDbHatch
 10
0.0
 20
0.0
 30
0.0
210
0.0
220
0.0
230
1.0
  2
PLAST
 70
     0
 71
     1
 91
        1
 92
        7
 72
     0
 73
     1
 93
        8
 10
20377.18613482046
 20
14891.82315637489
 10
20402.18613482046
 20
14891.82315637489
 10
20402.18613482046
 20
15091.82315637508
 10
19902.18613482046
 20
15091.82315637508
 10
19902.18613482046
 20
14891.82315637489
 10
19927.18613482046
 20
14891.82315637489
 10
19927.18613482046
 20
13091.82315637489
 10
20377.18613482046
 20
13091.82315637489
 97
        3
330
408
330
37B
330
3FB
 75
     0
 76
     1
 52
45.0
 41
2000.0
 77
     0
 78
     3
 53
45.0
 43
-458327.5810032642
 44
-238727.9861910862
 45
-353.5533905932737
 46
353.5533905932738
 79
     0
 53
45.0
 43
-458371.7751770882
 44
-238683.7920172621
 45
-353.5533905932737
 46
353.5533905932738
 79
     0
 53
45.0
 43
-458415.9693509125
 44
-238639.5978434379
 45
-353.5533905932737
 46
353.5533905932738
 79
     0
 47
24.76348510047452
 98
        1
 10
20280.75185354928
 20
14083.5388592943
  0
LINE
  5
40A
330
1F
100
AcDbEntity
  8
画層1-1
  6
Continuous
100
AcDbLine
 10
26652.18613482023
 20
19637.15553164788
 30
0.0
 11
20272.53613482032
 21
15116.82315637512
 31
0.0
  0
DIMENSION
  5
40B
330
1F
100
AcDbEntity
  8
寸法
  6
Continuous
100
AcDbDimension
  2
*D16
 10
28152.18613482023
 20
19711.82315637512
 30
0.0
 11
27873.6147062488
 21
18556.82315637513
 31
0.0
 70
    32
 71
     5
 42
2310.0
  3
1_100
100
AcDbAlignedDimension
 13
27152.18613482023
 23
17401.82315637512
 33
0.0
 14
27152.18613482023
 24
19711.82315637512
 34
0.0
 50
90.0
100
AcDbRotatedDimension
  0
INSERT
  5
40C
330
1F
100
AcDbEntity
  8
ﾊｯﾁﾝｸﾞ
  6
Continuous
100
AcDbBlockReference
  2
sai450
 10
32152.18613482023
 20
13091.82315637489
 30
0.0
  0
LINE
  5
40D
330
1F
100
AcDbEntity
  8
画層1
  6
Continuous
100
AcDbLine
 10
32006.83613482013
 20
19711.8231563757
 30
0.0
 11
32056.83613482013
 21
19711.8231563757
 31
0.0
  0
LINE
  5
40E
330
1F
100
AcDbEntity
  8
画層1
  6
Continuous
100
AcDbLine
 10
32006.83613482013
 20
19736.82315637524
 30
0.0
 11
32006.83613482013
 21
19686.82315637524
 31
0.0
  0
LINE
  5
40F
330
1F
100
AcDbEntity
  8
画層1
  6
Continuous
100
AcDbLine
 10
32127.18613482023
 20
19686.82315637524
 30
0.0
 11
32127.18613482023
 21
19736.82315637524
 31
0.0
  0
LINE
  5
410
330
1F
100
AcDbEntity
  8
画層1
  6
Continuous
100
AcDbLine
 10
32177.18613482023
 20
19686.82315637524
 30
0.0
 11
32177.18613482023
 21
19736.82315637524
 31
0.0
  0
LINE
  5
411
330
1F
100
AcDbEntity
  8
画層1
  6
Continuous
100
AcDbLine
 10
32177.18613482023
 20
19686.82315637524
 30
0.0
 11
32247.53613482009
 21
19686.82315637524
 31
0.0
  0
LINE
  5
412
330
1F
100
AcDbEntity
  8
画層1
  6
Continuous
100
AcDbLine
 10
32102.18613482023
 20
19711.8231563757
 30
0.0
 11
32202.18613482022
 21
19711.8231563757
 31
0.0
  0
LINE
  5
413
330
1F
100
AcDbEntity
  8
画層1
  6
Continuous
100
AcDbLine
 10
32056.83613482013
 20
19686.82315637524
 30
0.0
 11
32127.18613482023
 21
19686.82315637524
 31
0.0
  0
LINE
  5
414
330
1F
100
AcDbEntity
  8
画層1
  6
Continuous
100
AcDbLine
 10
32247.53613482009
 20
19736.82315637524
 30
0.0
 11
32177.18613482023
 21
19736.82315637524
 31
0.0
  0
LINE
  5
415
330
1F
100
AcDbEntity
  8
画層1
  6
Continuous
100
AcDbLine
 10
32127.18613482023
 20
19736.82315637524
 30
0.0
 11
32056.83613482013
 21
19736.82315637524
 31
0.0
  0
DIMENSION
  5
416
330
1F
100
AcDbEntity
  8
寸法
  6
Continuous
100
AcDbDimension
  2
*D17
 10
34752.18613482023
 20
15091.8231563757
 30
0.0
 11
34968.0674999439
 21
14746.94378029093
 31
0.0
 70
   160
 71
     5
 42
200.0
  3
1_100
100
AcDbAlignedDimension
 13
33652.18613482023
 23
14891.8231563757
 33
0.0
 14
33652.18613482023
 24
15091.8231563757
 34
0.0
 50
90.0
100
AcDbRotatedDimension
  0
DIMENSION
  5
417
330
1F
100
AcDbEntity
  8
寸法
  6
Continuous
100
AcDbDimension
  2
*D18
 10
35752.18613482023
 20
13091.8231563757
 30
0.0
 11
35473.6147062488
 21
14091.82315637536
 31
0.0
 70
    32
 71
     5
 42
1999.999999999301
  3
1_100
100
AcDbAlignedDimension
 13
33652.18613482023
 23
15091.82315637501
 33
0.0
 14
33652.18613482023
 24
13091.8231563757
 34
0.0
 50
90.0
100
AcDbRotatedDimension
  0
LINE
  5
418
330
1F
100
AcDbEntity
  8
画層2-1
  6
Continuous
100
AcDbLine
 10
32056.83613482013
 20
14941.82315637524
 30
0.0
 11
32247.53613482009
 21
14941.82315637524
 31
0.0
  0
DIMENSION
  5
419
330
1F
100
AcDbEntity
  8
寸法
  6
Continuous
100
AcDbDimension
  2
*D19
 10
34752.18613482023
 20
14891.8231563757
 30
0.0
 11
34473.6147062488
 21
13991.82315637571
 31
0.0
 70
    32
 71
     5
 42
1800.0
  3
1_100
100
AcDbAlignedDimension
 13
33652.18613482023
 23
13091.8231563757
 33
0.0
 14
33652.18613482023
 24
14891.8231563757
 34
0.0
 50
90.0
100
AcDbRotatedDimension
  0
DIMENSION
  5
41A
330
1F
100
AcDbEntity
  8
寸法
  6
Continuous
100
AcDbDimension
  2
*D20
 10
34752.18613482023
 20
13091.8231563757
 30
0.0
 11
34468.1190192533
 21
12655.26438889726
 31
0.0
 70
   160
 71
     5
 42
100.0
  3
1_100
100
AcDbAlignedDimension
 13
33652.18613482023
 23
12991.8231563757
 33
0.0
 14
33652.18613482023
 24
13091.8231563757
 34
0.0
 50
90.0
100
AcDbRotatedDimension
  0
DIMENSION
  5
41B
330
1F
100
AcDbEntity
  8
寸法
  6
Continuous
100
AcDbDimension
  2
*D21
 10
32402.18613482023
 20
11991.82315637489
 30
0.0
 11
32152.18613482023
 21
11741.82315637489
 31
0.0
 70
    32
  1
□<>
 71
     5
 42
500.0
  3
1_100
100
AcDbAlignedDimension
 13
31902.18613482023
 23
12991.823156375
 33
0.0
 14
32402.18613482023
 24
12991.82315637489
 34
0.0
100
AcDbRotatedDimension
1001
ACAD
1000
DSTYLE
1002
{
1070
    77
1070
     2
1070
   174
1070
     1
1002
}
  0
LINE
  5
41C
330
1F
100
AcDbEntity
  8
画層1
  6
Continuous
100
AcDbLine
 10
32006.83613482013
 20
17401.8231563757
 30
0.0
 11
32056.83613482013
 21
17401.8231563757
 31
0.0
  0
LINE
  5
41D
330
1F
100
AcDbEntity
  8
画層1
  6
Continuous
100
AcDbLine
 10
32006.83613482013
 20
17426.82315637524
 30
0.0
 11
32006.83613482013
 21
17376.82315637524
 31
0.0
  0
LINE
  5
41E
330
1F
100
AcDbEntity
  8
画層1
  6
Continuous
100
AcDbLine
 10
32127.18613482023
 20
17376.82315637524
 30
0.0
 11
32127.18613482023
 21
17426.82315637524
 31
0.0
  0
LINE
  5
41F
330
1F
100
AcDbEntity
  8
画層1
  6
Continuous
100
AcDbLine
 10
32177.18613482023
 20
17376.82315637524
 30
0.0
 11
32177.18613482023
 21
17426.82315637524
 31
0.0
  0
LINE
  5
420
330
1F
100
AcDbEntity
  8
画層1
  6
Continuous
100
AcDbLine
 10
32177.18613482023
 20
17376.82315637524
 30
0.0
 11
32247.53613482009
 21
17376.82315637524
 31
0.0
  0
LINE
  5
421
330
1F
100
AcDbEntity
  8
画層1
  6
Continuous
100
AcDbLine
 10
32247.53613482009
 20
17426.82315637524
 30
0.0
 11
32177.18613482023
 21
17426.82315637524
 31
0.0
  0
LINE
  5
422
330
1F
100
AcDbEntity
  8
画層1
  6
Continuous
100
AcDbLine
 10
32102.18613482023
 20
17401.8231563757
 30
0.0
 11
32202.18613482022
 21
17401.8231563757
 31
0.0
  0
LINE
  5
423
330
1F
100
AcDbEntity
  8
画層1
  6
Continuous
100
AcDbLine
 10
32056.83613482013
 20
17376.82315637524
 30
0.0
 11
32127.18613482023
 21
17376.82315637524
 31
0.0
  0
LINE
  5
424
330
1F
100
AcDbEntity
  8
画層1
  6
Continuous
100
AcDbLine
 10
32127.18613482023
 20
17426.82315637524
 30
0.0
 11
32056.83613482013
 21
17426.82315637524
 31
0.0
  0
LINE
  5
425
330
1F
100
AcDbEntity
  8
画層2-1
  6
Continuous
100
AcDbLine
 10
32056.83613482013
 20
15191.82315637524
 30
0.0
 11
32247.53613482009
 21
15191.82315637524
 31
0.0
  0
LWPOLYLINE
  5
426
330
1F
100
AcDbEntity
  8
画層1
100
AcDbPolyline
 90
        4
 70
     1
 43
0.0
 10
32133.30499636115
 20
15471.82315637524
 10
32173.30499636115
 20
15471.82315637524
 10
32173.30499636115
 20
15291.82315637524
 10
32133.30499636115
 20
15291.82315637524
  0
LINE
  5
427
330
1F
100
AcDbEntity
  8
画層1
  6
Continuous
100
AcDbLine
 10
32006.83613482013
 20
15116.8231563757
 30
0.0
 11
32056.83613482013
 21
15116.8231563757
 31
0.0
  0
LINE
  5
428
330
1F
100
AcDbEntity
  8
画層1
  6
Continuous
100
AcDbLine
 10
32006.83613482013
 20
15141.82315637524
 30
0.0
 11
32006.83613482013
 21
15091.82315637524
 31
0.0
  0
LINE
  5
429
330
1F
100
AcDbEntity
  8
画層1
  6
Continuous
100
AcDbLine
 10
32247.53613482009
 20
15091.82315637524
 30
0.0
 11
32177.18613482023
 21
15091.82315637524
 31
0.0
  0
LINE
  5
42A
330
1F
100
AcDbEntity
  8
画層1
  6
Continuous
100
AcDbLine
 10
32247.53613482009
 20
15141.82315637524
 30
0.0
 11
32177.18613482023
 21
15141.82315637524
 31
0.0
  0
LINE
  5
42B
330
1F
100
AcDbEntity
  8
画層1
  6
Continuous
100
AcDbLine
 10
32127.18613482023
 20
15091.82315637524
 30
0.0
 11
32127.18613482023
 21
15141.82315637524
 31
0.0
  0
LINE
  5
42C
330
1F
100
AcDbEntity
  8
画層1
  6
Continuous
100
AcDbLine
 10
32177.18613482023
 20
15091.82315637524
 30
0.0
 11
32177.18613482023
 21
15141.82315637524
 31
0.0
  0
LINE
  5
42D
330
1F
100
AcDbEntity
  8
画層1
  6
Continuous
100
AcDbLine
 10
32102.18613482023
 20
15116.8231563757
 30
0.0
 11
32202.18613482022
 21
15116.8231563757
 31
0.0
  0
LINE
  5
42E
330
1F
100
AcDbEntity
  8
画層1
  6
Continuous
100
AcDbLine
 10
32127.18613482023
 20
15091.82315637524
 30
0.0
 11
32056.83613482013
 21
15091.82315637524
 31
0.0
  0
LINE
  5
42F
330
1F
100
AcDbEntity
  8
画層1
  6
Continuous
100
AcDbLine
 10
32127.18613482023
 20
15141.82315637524
 30
0.0
 11
32056.83613482013
 21
15141.82315637524
 31
0.0
  0
DIMENSION
  5
430
330
1F
100
AcDbEntity
  8
寸法
  6
Continuous
100
AcDbDimension
  2
*D22
 10
34752.18613482023
 20
17401.8231563757
 30
0.0
 11
34473.61470624879
 21
16246.82315637571
 31
0.0
 70
    32
 71
     5
 42
2309.999999999998
  3
1_100
100
AcDbAlignedDimension
 13
33652.18613482023
 23
15091.8231563757
 33
0.0
 14
33652.18613482023
 24
17401.8231563757
 34
0.0
 50
90.0
100
AcDbRotatedDimension
  0
LINE
  5
431
330
1F
100
AcDbEntity
  8
ﾊｯﾁﾝｸﾞ
  6
Continuous
100
AcDbLine
 10
31462.8249391733
 20
15079.34885434158
 30
0.0
 11
31409.06209019025
 21
15025.58600535864
 31
0.0
  0
LINE
  5
432
330
1F
100
AcDbEntity
  8
ﾊｯﾁﾝｸﾞ
  6
Continuous
100
AcDbLine
 10
31450.35063713894
 20
15091.8231563757
 30
0.0
 11
31570.35063713987
 21
14971.8231563757
 31
0.0
  0
LINE
  5
433
330
1F
100
AcDbEntity
  8
ﾊｯﾁﾝｸﾞ
  6
Continuous
100
AcDbLine
 10
31529.54659663199
 20
15091.8231563757
 30
0.0
 11
31621.21685815964
 21
15000.15289484864
 31
0.0
  0
LINE
  5
434
330
1F
100
AcDbEntity
  8
ﾊｯﾁﾝｸﾞ
  6
Continuous
100
AcDbLine
 10
31608.74255612528
 20
15091.82315637582
 30
0.0
 11
31660.81483790617
 21
15039.75087459517
 31
0.0
  0
LINE
  5
435
330
1F
100
AcDbEntity
  8
ﾊｯﾁﾝｸﾞ
  6
Continuous
100
AcDbLine
 10
31502.42291891983
 20
15039.75087459517
 30
0.0
 11
31434.49520070025
 21
14971.8231563757
 31
0.0
  0
LINE
  5
436
330
1F
100
AcDbEntity
  8
ﾊｯﾁﾝｸﾞ
  6
Continuous
100
AcDbLine
 10
31542.02089866612
 20
15000.15289484864
 30
0.0
 11
31513.69116019353
 21
14971.82315637559
 31
0.0
  0
LINE
  5
437
330
1F
100
AcDbEntity
  8
ﾊｯﾁﾝｸﾞ
  6
Continuous
100
AcDbLine
 10
31700.41281765246
 20
15079.34885434158
 30
0.0
 11
31592.88711968658
 21
14971.8231563757
 31
0.0
  0
LINE
  5
438
330
1F
100
AcDbEntity
  8
ﾊｯﾁﾝｸﾞ
  6
Continuous
100
AcDbLine
 10
31740.01079739898
 20
15039.75087459517
 30
0.0
 11
31672.08307917964
 21
14971.8231563757
 31
0.0
  0
LINE
  5
439
330
1F
100
AcDbEntity
  8
ﾊｯﾁﾝｸﾞ
  6
Continuous
100
AcDbLine
 10
31779.60877714551
 20
15000.15289484864
 30
0.0
 11
31751.27903867269
 21
14971.82315637559
 31
0.0
  0
LINE
  5
43A
330
1F
100
AcDbEntity
  8
ﾊｯﾁﾝｸﾞ
  6
Continuous
100
AcDbLine
 10
31687.93851561833
 20
15091.8231563757
 30
0.0
 11
31807.93851561904
 21
14971.82315637559
 31
0.0
  0
LINE
  5
43B
330
1F
100
AcDbEntity
  8
ﾊｯﾁﾝｸﾞ
  6
Continuous
100
AcDbLine
 10
31767.13447511138
 20
15091.8231563757
 30
0.0
 11
31887.13447511208
 21
14971.82315637559
 31
0.0
  0
LINE
  5
43C
330
1F
100
AcDbEntity
  8
ﾊｯﾁﾝｸﾞ
  6
Continuous
100
AcDbLine
 10
31846.33043460443
 20
15091.82315637559
 30
0.0
 11
31902.18613482047
 21
15035.96745616003
 31
0.0
  0
LINE
  5
43D
102
{ACAD_REACTORS
330
44B
102
}
330
1F
100
AcDbEntity
  8
画層2
100
AcDbLine
 10
32377.18613482047
 20
13091.82315637559
 30
0.0
 11
31927.18613482047
 21
13091.82315637559
 31
0.0
  0
LINE
  5
43E
330
1F
100
AcDbEntity
  8
ﾊｯﾁﾝｸﾞ
  6
Continuous
100
AcDbLine
 10
32762.35137097457
 20
15000.15289484864
 30
0.0
 11
32790.68110944739
 21
14971.82315637559
 31
0.0
  0
LINE
  5
43F
330
1F
100
AcDbEntity
  8
ﾊｯﾁﾝｸﾞ
  6
Continuous
100
AcDbLine
 10
32801.94935072109
 20
15039.75087459517
 30
0.0
 11
32869.87706894044
 21
14971.8231563757
 31
0.0
  0
LINE
  5
440
330
1F
100
AcDbEntity
  8
ﾊｯﾁﾝｸﾞ
  6
Continuous
100
AcDbLine
 10
32774.82567300869
 20
15091.8231563757
 30
0.0
 11
32683.15541148128
 21
15000.15289484864
 31
0.0
  0
LINE
  5
441
330
1F
100
AcDbEntity
  8
ﾊｯﾁﾝｸﾞ
  6
Continuous
100
AcDbLine
 10
32854.02163250175
 20
15091.8231563757
 30
0.0
 11
32734.02163250081
 21
14971.8231563757
 31
0.0
  0
LINE
  5
442
330
1F
100
AcDbEntity
  8
ﾊｯﾁﾝｸﾞ
  6
Continuous
100
AcDbLine
 10
32841.54733046762
 20
15079.34885434158
 30
0.0
 11
32895.31017945044
 21
15025.58600535864
 31
0.0
  0
LINE
  5
443
330
1F
100
AcDbEntity
  8
ﾊｯﾁﾝｸﾞ
  6
Continuous
100
AcDbLine
 10
32458.04183503625
 20
15091.82315637559
 30
0.0
 11
32402.18613482046
 21
15035.96745616003
 31
0.0
  0
LINE
  5
444
330
1F
100
AcDbEntity
  8
ﾊｯﾁﾝｸﾞ
  6
Continuous
100
AcDbLine
 10
32537.23779452954
 20
15091.8231563757
 30
0.0
 11
32417.2377945286
 21
14971.82315637559
 31
0.0
  0
LINE
  5
445
330
1F
100
AcDbEntity
  8
ﾊｯﾁﾝｸﾞ
  6
Continuous
100
AcDbLine
 10
32616.43375402259
 20
15091.8231563757
 30
0.0
 11
32496.43375402189
 21
14971.82315637559
 31
0.0
  0
LINE
  5
446
330
1F
100
AcDbEntity
  8
ﾊｯﾁﾝｸﾞ
  6
Continuous
100
AcDbLine
 10
32524.76349249541
 20
15000.15289484864
 30
0.0
 11
32553.09323096799
 21
14971.82315637559
 31
0.0
  0
LINE
  5
447
330
1F
100
AcDbEntity
  8
ﾊｯﾁﾝｸﾞ
  6
Continuous
100
AcDbLine
 10
32564.36147224194
 20
15039.75087459517
 30
0.0
 11
32632.28919046128
 21
14971.8231563757
 31
0.0
  0
LINE
  5
448
330
1F
100
AcDbEntity
  8
ﾊｯﾁﾝｸﾞ
  6
Continuous
100
AcDbLine
 10
32603.95945198824
 20
15079.34885434158
 30
0.0
 11
32711.4851499541
 21
14971.8231563757
 31
0.0
  0
LINE
  5
449
330
1F
100
AcDbEntity
  8
ﾊｯﾁﾝｸﾞ
  6
Continuous
100
AcDbLine
 10
32695.62971351564
 20
15091.82315637582
 30
0.0
 11
32643.55743173475
 21
15039.75087459517
 31
0.0
  0
LWPOLYLINE
  5
44A
102
{ACAD_REACTORS
330
44B
102
}
330
1F
100
AcDbEntity
  8
画層2
100
AcDbPolyline
 90
        8
 70
     0
 43
0.0
 10
31902.18613482047
 20
15091.82315637559
 10
31902.18613482047
 20
14891.82315637559
 10
31927.18613482047
 20
14891.82315637559
 10
31927.18613482047
 20
12991.82315637559
 10
32377.18613482047
 20
12991.82315637559
 10
32377.18613482047
 20
14891.82315637559
 10
32402.18613482046
 20
14891.82315637559
 10
32402.18613482046
 20
15091.82315637605
  0
HATCH
  5
44B
330
1F
100
AcDbEntity
  8
ﾊｯﾁﾝｸﾞ
100
AcDbHatch
 10
0.0
 20
0.0
 30
0.0
210
0.0
220
0.0
230
1.0
  2
PLAST
 70
     0
 71
     1
 91
        1
 92
        7
 72
     0
 73
     1
 93
        8
 10
32377.18613482047
 20
14891.82315637559
 10
32402.18613482046
 20
14891.82315637559
 10
32402.18613482046
 20
15091.82315637501
 10
31902.18613482047
 20
15091.82315637501
 10
31902.18613482047
 20
14891.82315637559
 10
31927.18613482047
 20
14891.82315637559
 10
31927.18613482047
 20
13091.82315637559
 10
32377.18613482047
 20
13091.82315637559
 97
        3
330
44A
330
3C9
330
43D
 75
     0
 76
     1
 52
45.0
 41
2000.0
 77
     0
 78
     3
 53
45.0
 43
-458327.5810032642
 44
-238727.9861910862
 45
-353.5533905932737
 46
353.5533905932738
 79
     0
 53
45.0
 43
-458371.7751770882
 44
-238683.7920172621
 45
-353.5533905932737
 46
353.5533905932738
 79
     0
 53
45.0
 43
-458415.9693509125
 44
-238639.5978434379
 45
-353.5533905932737
 46
353.5533905932738
 79
     0
 47
25.41080486272239
 98
        1
 10
32300.23706874333
 20
14274.04013652567
  0
DIMENSION
  5
44C
330
1F
100
AcDbEntity
  8
寸法
  6
Continuous
100
AcDbDimension
  2
*D23
 10
34752.18613482023
 20
19711.8231563757
 30
0.0
 11
34473.61470624879
 21
18556.82315637571
 31
0.0
 70
    32
 71
     5
 42
2310.0
  3
1_100
100
AcDbAlignedDimension
 13
33652.18613482023
 23
17401.8231563757
 33
0.0
 14
33652.18613482023
 24
19711.8231563757
 34
0.0
 50
90.0
100
AcDbRotatedDimension
  0
LEADER
  5
44D
330
1F
100
AcDbEntity
  8
寸法引出
  6
Continuous
100
AcDbLeader
  3
1_100
 71
     0
 73
     0
 74
     0
 75
     1
 40
300.0
 41
5880.0
 76
     3
 10
12722.7444466477
 20
21986.05272335539
 30
0.0
 10
13747.75124286756
 20
24109.73116854966
 30
0.0
 10
13807.75124286756
 20
24109.73116854966
 30
0.0
340
44E
  0
MTEXT
  5
44E
102
{ACAD_REACTORS
330
44D
102
}
330
1F
100
AcDbEntity
  8
寸法文字
  6
Continuous
100
AcDbMText
 10
13907.75124286756
 20
24209.73116854966
 30
0.0
 40
300.0
 41
0.0
 71
     7
 72
     1
  1
端末・コーナー補強ポールφ114.3×3.0mm
  7
1_100
 73
     1
 44
1.0
1001
ACAD
1000
ACAD_MTEXT_DEFINED_HEIGHT_BEGIN
1070
    46
1040
0.0
1000
ACAD_MTEXT_DEFINED_HEIGHT_END
1000
MTEXTBEGIN
1070
    73
1070
     1
1070
    44
1040
1.0
1070
    74
1070
     0
1000
MTEXTEND
  0
LEADER
  5
44F
330
1F
100
AcDbEntity
  8
寸法引出
  6
Continuous
100
AcDbLeader
  3
1_100
 71
     0
 73
     0
 74
     0
 75
     1
 40
346.6666666666666
 41
3117.142857142857
 76
     3
 10
15389.8637340843
 20
22031.82315637512
 30
0.0
 10
15842.36940139684
 20
22910.43768372134
 30
0.0
 10
15902.36940139684
 20
22910.43768372134
 30
0.0
340
450
  0
MTEXT
  5
450
102
{ACAD_REACTORS
330
44F
102
}
330
1F
100
AcDbEntity
  8
寸法文字
  6
Continuous
100
AcDbMText
 10
16002.36940139684
 20
23010.43768372134
 30
0.0
 40
300.0
 41
0.0
 71
     7
 72
     1
  1
メッセンワイヤー38m㎡
  7
1_100
 73
     1
 44
1.0
1001
ACAD
1000
MTEXTBEGIN
1070
    73
1070
     1
1070
    44
1040
1.0
1070
    74
1070
     0
1000
MTEXTEND
  0
MTEXT
  5
451
330
1F
100
AcDbEntity
  8
寸法文字
  6
Continuous
100
AcDbMText
 10
14753.24113661365
 20
23932.46057518854
 30
0.0
 40
300.0
 41
0.0
 71
     1
 72
     1
  1
（STK-540鋼管）
  7
1_100
 73
     1
 44
1.0
1001
ACAD
1000
ACAD_MTEXT_DEFINED_HEIGHT_BEGIN
1070
    46
1040
0.0
1000
ACAD_MTEXT_DEFINED_HEIGHT_END
1000
MTEXTBEGIN
1070
    73
1070
     1
1070
    44
1040
1.0
1070
    74
1070
     0
1000
MTEXTEND
  0
LWPOLYLINE
  5
452
330
1F
100
AcDbEntity
  8
画層1-1
  6
Continuous
100
AcDbPolyline
 90
        4
 70
     1
 43
0.0
 10
10357.53613482032
 20
22038.97315637515
 10
19946.83613482013
 20
22038.97315637515
 10
19946.83613482013
 20
21924.6731563751
 10
10357.53613482032
 20
21924.6731563751
  0
LINE
  5
453
102
{ACAD_REACTORS
330
376
102
}
330
1F
100
AcDbEntity
  8
画層1
  6
Continuous
100
AcDbLine
 10
26652.18613482023
 20
22031.82315637512
 30
0.0
 11
10152.18613482022
 21
22031.82315637512
 31
0.0
  0
LEADER
  5
454
330
1F
100
AcDbEntity
  8
寸法引出
  6
Continuous
100
AcDbLeader
  3
1_100
 71
     0
 73
     0
 75
     1
 40
300.0
 41
2940.000000000001
 76
     3
 10
10152.18613481999
 20
22091.82315637512
 30
0.0
 10
9120.384903678091
 20
23169.14295715749
 30
0.0
 10
9060.384903678093
 20
23169.14295715749
 30
0.0
340
455
  0
MTEXT
  5
455
102
{ACAD_REACTORS
330
454
102
}
330
1F
100
AcDbEntity
  8
寸法文字
  6
Continuous
100
AcDbMText
 10
8960.384903678095
 20
23269.14295715749
 30
0.0
 40
300.0
 41
0.0
 71
     9
 72
     1
  1
上部ネット下り防止付き
  7
1_100
 73
     1
 44
1.0
1001
ACAD
1000
MTEXTBEGIN
1070
    73
1070
     1
1070
    44
1040
1.0
1070
    74
1070
     0
1000
MTEXTEND
  0
MTEXT
  5
456
330
1F
100
AcDbEntity
  8
寸法文字
  6
Continuous
100
AcDbMText
 10
8094.052609081265
 20
21587.65771585008
 30
0.0
 40
300.0
 41
0.0
 71
     3
 72
     1
  1
（STKT-590鋼管）
  7
1_100
 73
     1
 44
1.0
1001
ACAD
1000
MTEXTBEGIN
1070
    73
1070
     1
1070
    44
1040
1.0
1070
    74
1070
     0
1000
MTEXTEND
  0
LINE
  5
457
330
1F
100
AcDbEntity
  8
画層1-1
  6
Continuous
100
AcDbLine
 10
10357.53613482032
 20
21981.82315637512
 30
0.0
 11
10297.53613482032
 21
21981.82315637512
 31
0.0
  0
LINE
  5
458
102
{ACAD_REACTORS
330
376
102
}
330
1F
100
AcDbEntity
  8
画層1
  6
Continuous
100
AcDbLine
 10
10297.53613482032
 20
21956.82315637512
 30
0.0
 11
10297.53613482032
 21
22006.82315637512
 31
0.0
  0
LINE
  5
459
330
1F
100
AcDbEntity
  8
画層1
  6
Continuous
100
AcDbLine
 10
10177.18613482022
 20
21956.82315637512
 30
0.0
 11
10177.18613482022
 21
22006.82315637512
 31
0.0
  0
LINE
  5
45A
330
1F
100
AcDbEntity
  8
画層1
  6
Continuous
100
AcDbLine
 10
10006.83613482013
 20
22006.82315637512
 30
0.0
 11
10006.83613482013
 21
21956.82315637512
 31
0.0
  0
LINE
  5
45B
330
1F
100
AcDbEntity
  8
画層1
  6
Continuous
100
AcDbLine
 10
10127.18613482022
 20
21956.82315637512
 30
0.0
 11
10127.18613482022
 21
22006.82315637512
 31
0.0
  0
LINE
  5
45C
330
1F
100
AcDbEntity
  8
画層1
  6
Continuous
100
AcDbLine
 10
10297.53613482032
 20
22006.82315637512
 30
0.0
 11
10006.83613482013
 21
22006.82315637512
 31
0.0
  0
CIRCLE
  5
45D
330
1F
100
AcDbEntity
  8
画層1
  6
Continuous
100
AcDbCircle
 10
10031.83613482013
 20
21981.82315637512
 30
0.0
 40
10.9509940156
  0
LINE
  5
45E
102
{ACAD_REACTORS
330
376
102
}
330
1F
100
AcDbEntity
  8
画層1
  6
Continuous
100
AcDbLine
 10
10006.83613482013
 20
21956.82315637512
 30
0.0
 11
10297.53613482032
 21
21956.82315637512
 31
0.0
  0
CIRCLE
  5
45F
330
1F
100
AcDbEntity
  8
画層1
  6
Continuous
100
AcDbCircle
 10
10272.53613482032
 20
21981.82315637512
 30
0.0
 40
10.9509940156
  0
DIMENSION
  5
460
330
1F
100
AcDbEntity
  8
寸法
  6
Continuous
100
AcDbDimension
  2
*D24
 10
10247.53613482032
 20
22691.82315637512
 30
0.0
 11
10152.18613482022
 21
22991.82315637512
 31
0.0
 70
    32
  1
φ<>
 71
     5
 42
190.7000000001863
  3
1_100
100
AcDbAlignedDimension
 13
10056.83613482013
 23
22091.82315637512
 33
0.0
 14
10247.53613482032
 24
22091.82315637512
 34
0.0
100
AcDbRotatedDimension
  0
LWPOLYLINE
  5
461
102
{ACAD_REACTORS
330
376
102
}
330
1F
100
AcDbEntity
  8
画層1
100
AcDbPolyline
 90
        4
 70
     1
 43
0.0
 10
10387.98613482027
 20
22051.59943571387
 10
10542.53613482032
 20
22051.59943571387
 10
10542.53613482032
 20
22011.59943571387
 10
10387.98613482027
 20
22011.59943571387
  0
CIRCLE
  5
462
330
1F
100
AcDbEntity
  8
画層1
  6
Continuous
100
AcDbCircle
 10
10272.53613482032
 20
22031.82315637512
 30
0.0
 40
10.9509940156
  0
LINE
  5
463
330
1F
100
AcDbEntity
  8
画層1
  6
Continuous
100
AcDbLine
 10
10297.53613482032
 20
22056.82315637512
 30
0.0
 11
10006.83613482013
 21
22056.82315637512
 31
0.0
  0
LINE
  5
464
330
1F
100
AcDbEntity
  8
画層1
  6
Continuous
100
AcDbLine
 10
10006.83613482013
 20
22006.82315637512
 30
0.0
 11
10297.53613482032
 21
22006.82315637512
 31
0.0
  0
LINE
  5
465
330
1F
100
AcDbEntity
  8
画層1
  6
Continuous
100
AcDbLine
 10
10127.18613482022
 20
22006.82315637512
 30
0.0
 11
10127.18613482022
 21
22056.82315637512
 31
0.0
  0
LINE
  5
466
330
1F
100
AcDbEntity
  8
画層1
  6
Continuous
100
AcDbLine
 10
10006.83613482013
 20
22056.82315637512
 30
0.0
 11
10006.83613482013
 21
22006.82315637512
 31
0.0
  0
LINE
  5
467
330
1F
100
AcDbEntity
  8
画層1
  6
Continuous
100
AcDbLine
 10
10177.18613482022
 20
22006.82315637512
 30
0.0
 11
10177.18613482022
 21
22056.82315637512
 31
0.0
  0
CIRCLE
  5
468
330
1F
100
AcDbEntity
  8
画層1
  6
Continuous
100
AcDbCircle
 10
10031.83613482013
 20
22031.82315637512
 30
0.0
 40
10.9509940156
  0
LINE
  5
469
330
1F
100
AcDbEntity
  8
画層1
  6
Continuous
100
AcDbLine
 10
10056.83613482013
 20
22071.82315637512
 30
0.0
 11
10247.53613482032
 21
22071.82315637512
 31
0.0
  0
LINE
  5
46A
330
1F
100
AcDbEntity
  8
画層1
  6
Continuous
100
AcDbLine
 10
10056.83613482013
 20
22091.82315637512
 30
0.0
 11
10247.53613482032
 21
22091.82315637512
 31
0.0
  0
LINE
  5
46B
102
{ACAD_REACTORS
330
376
102
}
330
1F
100
AcDbEntity
  8
画層1
  6
Continuous
100
AcDbLine
 10
10297.53613482032
 20
22006.82315637512
 30
0.0
 11
10297.53613482032
 21
22056.82315637512
 31
0.0
  0
DIMENSION
  5
46C
330
1F
100
AcDbEntity
  8
寸法
  6
Continuous
100
AcDbDimension
  2
*D25
 10
28152.18613482023
 20
22091.82315637512
 30
0.0
 11
27918.14664352628
 21
22349.10581311191
 31
0.0
 70
   160
 71
     5
 42
60.0
  3
1_100
100
AcDbAlignedDimension
 13
27152.18613482023
 23
22031.82315637512
 33
0.0
 14
27152.18613482023
 24
22091.82315637512
 34
0.0
 50
90.0
100
AcDbRotatedDimension
  0
LINE
  5
46D
330
1F
100
AcDbEntity
  8
画層1-1
  6
Continuous
100
AcDbLine
 10
20006.83613482013
 20
21981.82315637512
 30
0.0
 11
19946.83613482013
 21
21981.82315637512
 31
0.0
  0
LINE
  5
46E
330
1F
100
AcDbEntity
  8
画層1
  6
Continuous
100
AcDbLine
 10
20297.53613482032
 20
22006.82315637512
 30
0.0
 11
20006.83613482013
 21
22006.82315637512
 31
0.0
  0
LINE
  5
46F
330
1F
100
AcDbEntity
  8
画層1
  6
Continuous
100
AcDbLine
 10
20006.83613482013
 20
21956.82315637512
 30
0.0
 11
20297.53613482032
 21
21956.82315637512
 31
0.0
  0
LINE
  5
470
330
1F
100
AcDbEntity
  8
画層1
  6
Continuous
100
AcDbLine
 10
20297.53613482032
 20
21956.82315637512
 30
0.0
 11
20297.53613482032
 21
22006.82315637512
 31
0.0
  0
CIRCLE
  5
471
330
1F
100
AcDbEntity
  8
画層1
  6
Continuous
100
AcDbCircle
 10
20272.53613482032
 20
21981.82315637512
 30
0.0
 40
10.9509940156
  0
LINE
  5
472
330
1F
100
AcDbEntity
  8
画層1
  6
Continuous
100
AcDbLine
 10
20177.18613482023
 20
21956.82315637512
 30
0.0
 11
20177.18613482023
 21
22006.82315637512
 31
0.0
  0
CIRCLE
  5
473
330
1F
100
AcDbEntity
  8
画層1
  6
Continuous
100
AcDbCircle
 10
20031.83613482013
 20
21981.82315637512
 30
0.0
 40
10.9509940156
  0
LINE
  5
474
330
1F
100
AcDbEntity
  8
画層1
  6
Continuous
100
AcDbLine
 10
20127.18613482022
 20
21956.82315637512
 30
0.0
 11
20127.18613482022
 21
22006.82315637512
 31
0.0
  0
LINE
  5
475
330
1F
100
AcDbEntity
  8
画層1
  6
Continuous
100
AcDbLine
 10
20006.83613482013
 20
22006.82315637512
 30
0.0
 11
20006.83613482013
 21
21956.82315637512
 31
0.0
  0
LINE
  5
476
330
1F
100
AcDbEntity
  8
画層1
  6
Continuous
100
AcDbLine
 10
20297.53613482032
 20
22056.82315637512
 30
0.0
 11
20006.83613482013
 21
22056.82315637512
 31
0.0
  0
LINE
  5
477
330
1F
100
AcDbEntity
  8
画層1
  6
Continuous
100
AcDbLine
 10
20056.83613482013
 20
22071.82315637512
 30
0.0
 11
20247.53613482032
 21
22071.82315637512
 31
0.0
  0
LINE
  5
478
330
1F
100
AcDbEntity
  8
画層1
  6
Continuous
100
AcDbLine
 10
20056.83613482013
 20
22091.82315637512
 30
0.0
 11
20247.53613482032
 21
22091.82315637512
 31
0.0
  0
LINE
  5
479
330
1F
100
AcDbEntity
  8
画層1
  6
Continuous
100
AcDbLine
 10
20006.83613482013
 20
22006.82315637512
 30
0.0
 11
20297.53613482032
 21
22006.82315637512
 31
0.0
  0
LINE
  5
47A
330
1F
100
AcDbEntity
  8
画層1
  6
Continuous
100
AcDbLine
 10
20006.83613482013
 20
22056.82315637512
 30
0.0
 11
20006.83613482013
 21
22006.82315637512
 31
0.0
  0
LINE
  5
47B
330
1F
100
AcDbEntity
  8
画層1
  6
Continuous
100
AcDbLine
 10
20127.18613482022
 20
22006.82315637512
 30
0.0
 11
20127.18613482022
 21
22056.82315637512
 31
0.0
  0
CIRCLE
  5
47C
330
1F
100
AcDbEntity
  8
画層1
  6
Continuous
100
AcDbCircle
 10
20031.83613482013
 20
22031.82315637512
 30
0.0
 40
10.9509940156
  0
LINE
  5
47D
330
1F
100
AcDbEntity
  8
画層1
  6
Continuous
100
AcDbLine
 10
20177.18613482023
 20
22006.82315637512
 30
0.0
 11
20177.18613482023
 21
22056.82315637512
 31
0.0
  0
CIRCLE
  5
47E
330
1F
100
AcDbEntity
  8
画層1
  6
Continuous
100
AcDbCircle
 10
20272.53613482032
 20
22031.82315637512
 30
0.0
 40
10.9509940156
  0
LINE
  5
47F
330
1F
100
AcDbEntity
  8
画層1
  6
Continuous
100
AcDbLine
 10
20297.53613482032
 20
22006.82315637512
 30
0.0
 11
20297.53613482032
 21
22056.82315637512
 31
0.0
  0
LEADER
  5
480
330
1F
100
AcDbEntity
  8
寸法引出
  6
Continuous
100
AcDbLeader
  3
1_100
 71
     0
 73
     0
 74
     0
 75
     1
 40
846.6666666666665
 41
5162.142857142854
 76
     3
 10
21801.54150942911
 20
22031.82315637512
 30
0.0
 10
22339.6637793585
 20
23513.41227885979
 30
0.0
 10
22399.6637793585
 20
23513.41227885979
 30
0.0
340
481
  0
MTEXT
  5
481
102
{ACAD_REACTORS
330
480
102
}
330
1F
100
AcDbEntity
  8
寸法文字
  6
Continuous
100
AcDbMText
 10
22499.6637793585
 20
23613.41227885979
 30
0.0
 40
300.0
 41
0.0
 71
     7
 72
     1
  1
ネット上下6mm合繊ロープに4mm合繊\Pロープにて38m㎡ワイヤーに巻付
  7
1_100
 73
     1
 44
1.0
1001
ACAD
1000
MTEXTBEGIN
1070
    73
1070
     1
1070
    44
1040
1.0
1070
    74
1070
     0
1000
MTEXTEND
  0
MTEXT
  5
482
330
1F
100
AcDbEntity
  8
寸法文字
  6
Continuous
100
AcDbMText
 10
33714.66216107238
 20
23412.7734220771
 30
0.0
 40
300.0
 41
0.0
 71
     1
 72
     1
  1
（溶融亜鉛メッキ450g/㎡）
  7
1_100
 73
     1
 44
1.0
1001
ACAD
1000
MTEXTBEGIN
1070
    73
1070
     1
1070
    44
1040
1.0
1070
    74
1070
     0
1000
MTEXTEND
  0
LEADER
  5
483
330
1F
100
AcDbEntity
  8
寸法引出
  6
Continuous
100
AcDbLeader
  3
1_100
 71
     0
 73
     0
 74
     0
 75
     1
 40
300.0
 41
4699.285714285712
 76
     3
 10
32222.08613482013
 20
21630.12678309487
 30
0.0
 10
33446.69792203293
 20
23531.55429749101
 30
0.0
 10
33506.69792203293
 20
23531.55429749101
 30
0.0
340
484
  0
MTEXT
  5
484
102
{ACAD_REACTORS
330
483
102
}
330
1F
100
AcDbEntity
  8
寸法文字
  6
Continuous
100
AcDbMText
 10
33606.69792203291
 20
23631.55429749101
 30
0.0
 40
300.0
 41
0.0
 71
     7
 72
     1
  1
主柱KSポールφ190.7厚さ3.0mm
  7
1_100
 73
     1
 44
1.0
1001
ACAD
1000
ACAD_MTEXT_DEFINED_HEIGHT_BEGIN
1070
    46
1040
0.0
1000
ACAD_MTEXT_DEFINED_HEIGHT_END
1000
MTEXTBEGIN
1070
    73
1070
     1
1070
    44
1040
1.0
1070
    74
1070
     0
1000
MTEXTEND
  0
DIMENSION
  5
485
330
1F
100
AcDbEntity
  8
寸法
  6
Continuous
100
AcDbDimension
  2
*D26
 10
32247.53613482009
 20
22691.82315637512
 30
0.0
 11
32152.18613482011
 21
22991.82315637512
 31
0.0
 70
    32
  1
φ<>
 71
     5
 42
190.6999999999534
  3
1_100
100
AcDbAlignedDimension
 13
32056.83613482013
 23
22091.82315637524
 33
0.0
 14
32247.53613482009
 24
22091.82315637524
 34
0.0
100
AcDbRotatedDimension
  0
LINE
  5
486
330
1F
100
AcDbEntity
  8
画層1
  6
Continuous
100
AcDbLine
 10
32006.83613482013
 20
22031.8231563757
 30
0.0
 11
32056.83613482013
 21
22031.8231563757
 31
0.0
  0
LINE
  5
487
330
1F
100
AcDbEntity
  8
画層1
  6
Continuous
100
AcDbLine
 10
32006.83613482013
 20
22056.82315637524
 30
0.0
 11
32006.83613482013
 21
22006.82315637524
 31
0.0
  0
LINE
  5
488
330
1F
100
AcDbEntity
  8
画層1
  6
Continuous
100
AcDbLine
 10
32247.53613482009
 20
22056.82315637524
 30
0.0
 11
32177.18613482023
 21
22056.82315637524
 31
0.0
  0
LINE
  5
489
330
1F
100
AcDbEntity
  8
画層1
  6
Continuous
100
AcDbLine
 10
32127.18613482023
 20
22056.82315637524
 30
0.0
 11
32056.83613482013
 21
22056.82315637524
 31
0.0
  0
LINE
  5
48A
330
1F
100
AcDbEntity
  8
画層1
  6
Continuous
100
AcDbLine
 10
32056.83613482013
 20
22071.82315637524
 30
0.0
 11
32247.53613482009
 21
22071.82315637524
 31
0.0
  0
LINE
  5
48B
330
1F
100
AcDbEntity
  8
画層1
  6
Continuous
100
AcDbLine
 10
32056.83613482013
 20
22091.82315637524
 30
0.0
 11
32247.53613482009
 21
22091.82315637524
 31
0.0
  0
LINE
  5
48C
330
1F
100
AcDbEntity
  8
画層1
  6
Continuous
100
AcDbLine
 10
32177.18613482023
 20
22006.82315637524
 30
0.0
 11
32247.53613482009
 21
22006.82315637524
 31
0.0
  0
LINE
  5
48D
330
1F
100
AcDbEntity
  8
画層1
  6
Continuous
100
AcDbLine
 10
32102.18613482023
 20
22031.8231563757
 30
0.0
 11
32202.18613482022
 21
22031.8231563757
 31
0.0
  0
LINE
  5
48E
330
1F
100
AcDbEntity
  8
画層1
  6
Continuous
100
AcDbLine
 10
32056.83613482013
 20
22006.82315637524
 30
0.0
 11
32127.18613482023
 21
22006.82315637524
 31
0.0
  0
LINE
  5
48F
330
1F
100
AcDbEntity
  8
画層1
  6
Continuous
100
AcDbLine
 10
32127.18613482023
 20
22006.82315637524
 30
0.0
 11
32127.18613482023
 21
22056.82315637524
 31
0.0
  0
LINE
  5
490
330
1F
100
AcDbEntity
  8
画層1
  6
Continuous
100
AcDbLine
 10
32177.18613482023
 20
22006.82315637524
 30
0.0
 11
32177.18613482023
 21
22056.82315637524
 31
0.0
  0
DIMENSION
  5
491
330
1F
100
AcDbEntity
  8
寸法
  6
Continuous
100
AcDbDimension
  2
*D27
 10
34752.18613482023
 20
22091.8231563757
 30
0.0
 11
34489.83933909063
 21
22345.10748685178
 31
0.0
 70
   160
 71
     5
 42
60.0
  3
1_100
100
AcDbAlignedDimension
 13
33652.18613482023
 23
22031.8231563757
 33
0.0
 14
33652.18613482023
 24
22091.8231563757
 34
0.0
 50
90.0
100
AcDbRotatedDimension
  0
TEXT
  5
492
330
1F
100
AcDbEntity
  8
図面枠
 62
     3
100
AcDbText
 10
1959.887270549884
 20
1767.045280432279
 30
0.0
 40
300.0
  1
1/100
 41
0.75
  7
1_100
 11
1959.887270549884
 21
1767.045280432279
 31
0.0
100
AcDbText
 73
     1
  0
TEXT
  5
493
330
1F
100
AcDbEntity
  8
図面枠
 62
     3
100
AcDbText
 10
3682.259769649351
 20
1767.264527923698
 30
0.0
 40
300.0
  1
KS1-H07
 41
0.75
  7
1_100
 11
3682.259769649351
 21
1767.264527923698
 31
0.0
100
AcDbText
 73
     1
  0
LWPOLYLINE
  5
494
330
1F
100
AcDbEntity
  8
寸法引出
100
AcDbPolyline
 90
        2
 70
     0
 43
0.0
 10
26546.81339832105
 20
9991.823156374076
 10
20152.18613482022
 20
9991.823156375126
1001
ACAD
1000
DSTYLE
1002
{
1070
    41
1040
3.0
1070
   341
1005
0
1002
}
  0
LWPOLYLINE
  5
495
330
1F
100
AcDbEntity
  8
寸法引出
  6
Continuous
100
AcDbPolyline
 90
        3
 70
     0
 43
0.0
 10
26246.81339832106
 20
10072.20791337412
 10
26546.81339832105
 20
9991.823156374076
 10
26246.81339832103
 20
9911.438399374128
  0
MTEXT
  5
A45
330
1F
100
AcDbEntity
  8
寸法文字
  6
Continuous
100
AcDbMText
 10
12585.65679793903
 20
20978.24252196226
 30
0.0
 40
200.0
 41
0.0
 71
     1
 72
     1
  1
※KRP-40　1100D18本40mm目（再生ポリエステル100%）\P※KSP-24　37.5mm目（ｽｰﾊﾟｰﾎﾟﾘｴﾁﾚﾝ）
  7
1_100
 73
     1
 44
1.0
1001
ACAD
1000
MTEXTBEGIN
1070
    73
1070
     1
1070
    44
1040
1.0
1070
    74
1070
     0
1000
MTEXTEND
  0
MTEXT
  5
A46
330
1F
100
AcDbEntity
  8
寸法文字
  6
Continuous
100
AcDbMText
 10
12561.08794563644
 20
21160.01544009696
 30
0.0
 40
300.0
 41
0.0
 71
     7
 72
     1
  1
ネット\Pクレモナ250D/80本×37.5mm目
  7
1_100
 73
     1
 44
0.6
1001
ACAD
1000
MTEXTBEGIN
1070
    73
1070
     1
1070
    44
1040
0.6
1070
    74
1070
     0
1000
MTEXTEND
  0
LEADER
  5
A47
330
1F
100
AcDbEntity
  8
寸法引出
100
AcDbLeader
  3
1_50
 71
     0
 76
     3
 10
12035.07654795478
 20
20418.53239212988
 30
0.0
 10
12361.08794563644
 20
21060.01544009696
 30
0.0
 10
18280.19552575081
 20
21060.01544009696
 30
0.0
1001
ACAD
1000
DSTYLE
1002
{
1070
    41
1040
1.0
1070
   341
1005
87
1070
   147
1040
0.625
1070
    77
1070
     0
1002
}
  0
ENDSEC
  0
SECTION
  2
OBJECTS
  0
DICTIONARY
  5
C
330
0
100
AcDbDictionary
281
     1
  3
ACAD_COLOR
350
6B
  3
ACAD_GROUP
350
D
  3
ACAD_LAYOUT
350
1A
  3
ACAD_MATERIAL
350
6A
  3
ACAD_MLINESTYLE
350
17
  3
ACAD_PLOTSETTINGS
350
19
  3
ACAD_PLOTSTYLENAME
350
E
  3
ACAD_TABLESTYLE
350
74F
  3
ACDBHEADERROUNDTRIPXREC
350
D3C
  3
AcDbVariableDictionary
350
5E
  3
ADE_QUERY_LIBRARY
350
A4C
  3
AEC_CLASSIFICATION_SYSTEM_DEFS
350
A43
  3
AEC_VARS
350
77C
  3
ASE_INDEX_DICTIONARY
350
A4A
  3
Autodesk_MAP
350
77E
  3
DWGPROPS
350
D3B
  3
Root
350
A62
1001
ADE
1000
ADE02C004
1000
[Query]
1000
CaseSensitiveMatch=0
1000
SaveCurrQueryInSession=1
1000
MkSelSetWithQryObj=0
1000
ShowBlockAsInsPt=0
1000
CreateAssociativeHatchObjects=0
1000
ReferenceBoundaryForAreaLocation=1
1000
ShowImageAsBoundary=1
1000
DefaultJoinOperator=2
1000
ColorForAdd=red
1000
ColorForRemove=red
1000
BlockLocnForQuery=1
1000
TextLocnForQuery=1
1000
IncludeAllObjectsInGroups=0
1000
AlwaysUseLibraryDefinitions=0
1000
PreviewDefinitionsFrom=2
1000
[Save Back]
1000
RedefineBlockDefinitions=1
1000
RedefineLayerDefinitions=1
1000
RedefineTextStyleDefinitions=1
1000
RemoveUnusedGroups=1
1000
EraseSavedBackObjects=1
1000
RemoveLockAfterSave=1
1000
CreateHistoryFileOfChanges=0
1000
CreateBackupFileOfSourceDwg=1
1000
DontAddObjectsToSaveSet=0
1000
MarkObjectsForEditingWithoutPrompting=0
1000
[Coordinate Transformation]
1000
RestoreLastActiveDwgsOnStartup=1
1000
ActivateDwgsOnAttach=1
1000
AdjustSizesAndScalesForChangesInUnits=1
1000
AdjustRotationsForMapDistortions=1
1000
AdjustSizesAndScalesForMapDistortions=1
1000
AdjustElevations=1
1000
AdjustZeroRotationObjects=1
1000
ReconnectDbOnWSOpen=1
1000
NoOfSQLConditionsInHistory=10
  0
DICTIONARY
  5
6B
102
{ACAD_REACTORS
330
C
102
}
330
C
100
AcDbDictionary
281
     1
  0
DICTIONARY
  5
D
102
{ACAD_REACTORS
330
C
102
}
330
C
100
AcDbDictionary
281
     1
  0
DICTIONARY
  5
1A
102
{ACAD_REACTORS
330
C
102
}
330
C
100
AcDbDictionary
281
     1
  3
Model
350
22
  3
レイアウト1
350
51
  3
レイアウト2
350
56
  0
DICTIONARY
  5
6A
102
{ACAD_REACTORS
330
C
102
}
330
C
100
AcDbDictionary
281
     1
  0
DICTIONARY
  5
17
102
{ACAD_REACTORS
330
C
102
}
330
C
100
AcDbDictionary
281
     1
  3
Standard
350
18
  0
DICTIONARY
  5
19
102
{ACAD_REACTORS
330
C
102
}
330
C
100
AcDbDictionary
281
     1
  0
ACDBDICTIONARYWDFLT
  5
E
102
{ACAD_REACTORS
330
C
102
}
330
C
100
AcDbDictionary
281
     1
  3
Normal
350
F
100
AcDbDictionaryWithDefault
340
F
  0
DICTIONARY
  5
74F
102
{ACAD_REACTORS
330
C
102
}
330
C
100
AcDbDictionary
281
     1
  3
Legend
350
782
  3
Standard
350
750
  0
DICTIONARY
  5
D3C
102
{ACAD_REACTORS
330
C
102
}
330
C
100
AcDbDictionary
281
     1
  0
DICTIONARY
  5
5E
102
{ACAD_REACTORS
330
C
102
}
330
C
100
AcDbDictionary
281
     1
  3
CTABLESTYLE
350
A4E
  3
DIMASSOC
350
5F
  3
HIDETEXT
350
63
  3
PROJECTNAME
350
6FD
  0
DICTIONARY
  5
A4C
102
{ACAD_REACTORS
330
C
102
}
330
C
100
AcDbDictionary
281
     1
  3
_CurrQry
350
D39
  0
DICTIONARY
  5
A43
102
{ACAD_REACTORS
330
C
102
}
330
C
100
AcDbDictionary
281
     1
  0
DICTIONARY
  5
77C
102
{ACAD_REACTORS
330
C
102
}
330
C
100
AcDbDictionary
281
     1
  3
AEC_VARS_DWG_SETUP
350
A87
  0
DICTIONARY
  5
A4A
102
{ACAD_REACTORS
330
C
102
}
330
C
100
AcDbDictionary
281
     1
  3
ASEBlockHierarchyIndexRecord
350
A4B
1001
DCO15
1040
1621577178.545
  0
DICTIONARY
  5
77E
102
{ACAD_REACTORS
330
C
102
}
330
C
100
AcDbDictionary
281
     1
  3
MAP_DISPLAY_MANAGEMENT_DICTIONARY
350
77F
  3
MAP_DISPLAY_STYLELIBRARY_DICTIONARY
350
780
  0
XRECORD
  5
D3B
102
{ACAD_REACTORS
330
C
102
}
330
C
100
AcDbXrecord
280
     1
  1
DWGPROPS COOKIE
  2

  3

  4

  6

  7

  8

  9

300
=
301
=
302
=
303
=
304
=
305
=
306
=
307
=
308
=
309
=
 40
0.0204234606481482
 41
2454357.828216863
 42
2454571.46623316
  1

 90
        0
  0
LAYOUT
  5
22
102
{ACAD_XDICTIONARY
360
D3D
102
}
102
{ACAD_REACTORS
330
1A
102
}
330
1A
100
AcDbPlotSettings
  1

  2
EPSON PM-3000C
  4
A4
  6

 40
3.757083177566528
 41
14.7637300491333
 42
3.757080078125
 43
3.757080078125
 44
209.9733276367186
 45
296.9683227539062
 46
0.0
 47
0.0
 48
0.0
 49
0.0
140
0.0
141
0.0
142
1.0
143
143.6339941730688
 70
 11952
 72
     1
 73
     1
 74
     0
  7
2.ctb
 75
     0
147
0.006962140165754
148
-1448.148443286358
149
-198.032184301166
100
AcDbLayout
  1
Model
 70
     1
 71
     0
 10
0.0
 20
0.0
 11
12.0
 21
9.0
 12
0.0
 22
0.0
 32
0.0
 14
0.0
 24
0.0
 34
0.0
 15
0.0
 25
0.0
 35
0.0
146
0.0
 13
0.0
 23
0.0
 33
0.0
 16
1.0
 26
0.0
 36
0.0
 17
0.0
 27
1.0
 37
0.0
 76
     0
330
1F
  0
LAYOUT
  5
51
102
{ACAD_XDICTIONARY
360
D3F
102
}
102
{ACAD_REACTORS
330
1A
102
}
330
1A
100
AcDbPlotSettings
  1

  2
None
  4

  6

 40
0.0
 41
0.0
 42
0.0
 43
0.0
 44
0.0
 45
0.0
 46
0.0
 47
0.0
 48
0.0
 49
0.0
140
0.0
141
0.0
142
1.0
143
1.0
 70
   688
 72
     0
 73
     0
 74
     5
  7

 75
    16
147
1.0
148
0.0
149
0.0
100
AcDbLayout
  1
レイアウト1
 70
     1
 71
     1
 10
0.0
 20
0.0
 11
12.0
 21
9.0
 12
0.0
 22
0.0
 32
0.0
 14
0.0
 24
0.0
 34
0.0
 15
0.0
 25
0.0
 35
0.0
146
0.0
 13
0.0
 23
0.0
 33
0.0
 16
1.0
 26
0.0
 36
0.0
 17
0.0
 27
1.0
 37
0.0
 76
     0
330
50
  0
LAYOUT
  5
56
102
{ACAD_XDICTIONARY
360
D41
102
}
102
{ACAD_REACTORS
330
1A
102
}
330
1A
100
AcDbPlotSettings
  1

  2
None
  4

  6

 40
0.0
 41
0.0
 42
0.0
 43
0.0
 44
0.0
 45
0.0
 46
0.0
 47
0.0
 48
0.0
 49
0.0
140
0.0
141
0.0
142
1.0
143
1.0
 70
   688
 72
     0
 73
     0
 74
     5
  7

 75
    16
147
1.0
148
0.0
149
0.0
100
AcDbLayout
  1
レイアウト2
 70
     1
 71
     2
 10
0.0
 20
0.0
 11
12.0
 21
9.0
 12
0.0
 22
0.0
 32
0.0
 14
0.0
 24
0.0
 34
0.0
 15
0.0
 25
0.0
 35
0.0
146
0.0
 13
0.0
 23
0.0
 33
0.0
 16
1.0
 26
0.0
 36
0.0
 17
0.0
 27
1.0
 37
0.0
 76
     0
330
55
  0
MLINESTYLE
  5
18
102
{ACAD_REACTORS
330
17
102
}
330
17
100
AcDbMlineStyle
  2
STANDARD
 70
     0
  3

 62
   256
 51
90.0
 52
90.0
 71
     2
 49
0.5
 62
   256
  6
BYLAYER
 49
-0.5
 62
   256
  6
BYLAYER
  0
ACDBPLACEHOLDER
  5
F
102
{ACAD_REACTORS
330
E
102
}
330
E
  0
TABLESTYLE
  5
782
102
{ACAD_REACTORS
330
74F
102
}
330
74F
100
AcDbTableStyle
  3

 70
     0
 71
     1
 40
0.06
 41
0.06
280
     0
281
     0
  7
Standard
140
0.4
170
     4
 62
     0
 63
     7
283
     0
274
    -2
284
     0
 64
     0
275
    -2
285
     0
 65
     0
276
    -2
286
     1
 66
     0
277
    -2
287
     1
 67
     0
278
    -2
288
     0
 68
     0
279
    -2
289
     1
 69
     0
  7
Standard
140
0.5
170
     5
 62
     0
 63
     7
283
     0
274
    -2
284
     1
 64
     0
275
    -2
285
     0
 65
     0
276
    -2
286
     1
 66
     0
277
    -2
287
     1
 67
     0
278
    -2
288
     0
 68
     0
279
    -2
289
     1
 69
     0
  7
Standard
140
0.4
170
     4
 62
     0
 63
     7
283
     0
274
    -2
284
     1
 64
     0
275
    -2
285
     0
 65
     0
276
    -2
286
     1
 66
     0
277
    -2
287
     1
 67
     0
278
    -2
288
     0
 68
     0
279
    -2
289
     1
 69
     0
  0
TABLESTYLE
  5
750
102
{ACAD_REACTORS
330
74F
102
}
330
74F
100
AcDbTableStyle
  3
Standard
 70
     0
 71
     0
 40
1.5
 41
1.5
280
     0
281
     0
  7
Standard
140
4.5
170
     2
 62
     0
 63
     7
283
     0
274
    -2
284
     1
 64
     0
275
    -2
285
     1
 65
     0
276
    -2
286
     1
 66
     0
277
    -2
287
     1
 67
     0
278
    -2
288
     1
 68
     0
279
    -2
289
     1
 69
     0
  7
Standard
140
6.0
170
     5
 62
     0
 63
     7
283
     0
274
    -2
284
     1
 64
     0
275
    -2
285
     1
 65
     0
276
    -2
286
     1
 66
     0
277
    -2
287
     1
 67
     0
278
    -2
288
     1
 68
     0
279
    -2
289
     1
 69
     0
  7
Standard
140
4.5
170
     5
 62
     0
 63
     7
283
     0
274
    -2
284
     1
 64
     0
275
    -2
285
     1
 65
     0
276
    -2
286
     1
 66
     0
277
    -2
287
     1
 67
     0
278
    -2
288
     1
 68
     0
279
    -2
289
     1
 69
     0
  0
DICTIONARYVAR
  5
A4E
102
{ACAD_REACTORS
330
5E
102
}
330
5E
100
DictionaryVariables
280
     0
  1
STANDARD
  0
DICTIONARYVAR
  5
5F
102
{ACAD_REACTORS
330
5E
102
}
330
5E
100
DictionaryVariables
280
     0
  1
2
  0
DICTIONARYVAR
  5
63
102
{ACAD_REACTORS
330
5E
102
}
330
5E
100
DictionaryVariables
280
     0
  1
1
  0
DICTIONARYVAR
  5
6FD
102
{ACAD_REACTORS
330
5E
102
}
330
5E
100
DictionaryVariables
280
     0
  1

  0
XRECORD
  5
D39
102
{ACAD_REACTORS
330
A4C
102
}
330
A4C
100
AcDbXrecord
280
     1
1000
ADE02C001
1070
     1
1070
     0
1002
{
1002
}
1002
{
1002
}
1002
{
1002
}
1000

  0
XRECORD
  5
A4B
102
{ACAD_REACTORS
330
A4A
102
}
330
A4A
100
AcDbXrecord
280
     1
330
380
330
3CA
330
40C
330
5D9
330
5DA
330
5E2
330
5E3
330
5EB
330
5EC
330
5F4
330
5F5
330
5FD
330
5FE
330
607
330
608
330
611
330
612
330
61B
330
61C
330
623
330
624
330
62F
330
630
330
637
330
638
330
643
330
644
330
64B
330
64C
330
654
330
655
330
660
330
661
330
668
330
669
330
671
330
672
330
67D
330
67E
330
687
330
688
330
690
330
691
330
699
330
69A
330
6A5
330
6A6
330
6B0
330
6B1
330
6BB
330
6BC
330
6C6
330
6C7
  0
DMMAPMANAGER
  5
77F
102
{ACAD_REACTORS
330
77E
102
}
330
77E
100
AcDbDictionary
281
     1
  3
DisplayMap1
350
781
100
AcDbDictionaryWithDefault
340
781
100
AcMapDMMapManager
 70
     1
340
781
  0
DMSTYLELIBRARY
  5
780
102
{ACAD_REACTORS
330
77E
102
}
330
77E
100
AcMapDMStyleLibrary
 70
     1
 70
     1
360
786
  0
DICTIONARY
  5
D3D
330
22
100
AcDbDictionary
280
     1
281
     1
  3
ACAD_XREC_ROUNDTRIP
360
D3E
  0
DICTIONARY
  5
D3F
330
51
100
AcDbDictionary
280
     1
281
     1
  3
ACAD_XREC_ROUNDTRIP
360
D40
  0
DICTIONARY
  5
D41
330
56
100
AcDbDictionary
280
     1
281
     1
  3
ACAD_XREC_ROUNDTRIP
360
D42
  0
DMMAP
  5
781
102
{ACAD_REACTORS
330
77F
330
783
102
}
330
77F
100
AcMapDMMap
 70
     1
  1
既定値
 70
     1
330
0
100
AcMapDMMap
 70
     1
 90
        1
360
783
 90
        1
 40
1.797693134862314E+99
 70
     1
100
AcMapDMMap
 70
     2
 70
     0
 40
1.797693134862314E+99
290
     0
290
     1
 40
1.0
 40
3.0
  1
Legend
 90
        1
 40
1.797693134862314E+99
  1

 70
     0
 40
1.0
 70
     1
 90
        0
 90
        1
360
784
  0
DMSTYLECATEGORY
  5
786
102
{ACAD_REACTORS
330
780
102
}
330
780
100
AcMapDMStyleCategory
 70
     1
  1
スタイルを表示
 70
     0
  0
XRECORD
  5
D3E
102
{ACAD_REACTORS
330
D3D
102
}
330
D3D
100
AcDbXrecord
280
     1
102
SHADEPLOT
 70
     0
102
SHADEPLOTRESLEVEL
 70
     2
102
SHADEPLOTCUSTOMDPI
 70
   300
  0
XRECORD
  5
D40
102
{ACAD_REACTORS
330
D3F
102
}
330
D3F
100
AcDbXrecord
280
     1
102
SHADEPLOT
 70
     0
102
SHADEPLOTRESLEVEL
 70
     2
102
SHADEPLOTCUSTOMDPI
 70
   300
  0
XRECORD
  5
D42
102
{ACAD_REACTORS
330
D41
102
}
330
D41
100
AcDbXrecord
280
     1
102
SHADEPLOT
 70
     0
102
SHADEPLOTRESLEVEL
 70
     2
102
SHADEPLOTCUSTOMDPI
 70
   300
  0
DMBASEELEMENT
  5
783
102
{ACAD_REACTORS
330
781
102
}
330
781
100
AcMapDMBaseElement
 70
     1
  1
マップ ベース
 70
     1
330
781
100
AcMapDMBaseElement
 70
     1
  1

 70
     2
  1

 70
     1
 40
1.797693134862314E+99
 70
     1
 70
     1
 70
     1
 70
     1
360
785
100
AcMapDMBaseElement
 70
     1
  0
DMDEFAULTSTYLE
  5
784
102
{ACAD_REACTORS
330
781
102
}
330
781
100
AcMapDMDefaultStyle
 70
     1
 90
        1
  1
既定値
100
AcMapDMDefaultStyle
 70
     1
280
   100
 90
     0
  0
DMSTYLEREFERENCE
  5
785
330
783
100
AcMapDMStyleReference
 70
     1
 70
     0
340
784
330
781
  0
ENDSEC
  0
EOF
