  0
SECTION
  2
HEADER
  9
$ACADVER
  1
AC1015
  9
$ACADMAINTVER
 70
    20
  9
$DWGCODEPAGE
  3
ANSI_932
  9
$INSBASE
 10
0.0
 20
0.0
 30
0.0
  9
$EXTMIN
 10
3653.455327754418
 20
173.8759336491493
 30
-0.0000000349181948
  9
$EXTMAX
 10
42658.14164261348
 20
26317.49869984179
 30
0.0000000814935747
  9
$LIMMIN
 10
0.0
 20
0.0
  9
$LIMMAX
 10
420.0
 20
297.0
  9
$ORTHOMODE
 70
     0
  9
$REGENMODE
 70
     1
  9
$FILLMODE
 70
     1
  9
$QTEXTMODE
 70
     0
  9
$MIRRTEXT
 70
     0
  9
$LTSCALE
 40
1.0
  9
$ATTMODE
 70
     1
  9
$TEXTSIZE
 40
2.5
  9
$TRACEWID
 40
1.0
  9
$TEXTSTYLE
  7
Standard
  9
$CLAYER
  8
0
  9
$CELTYPE
  6
ByLayer
  9
$CECOLOR
 62
   256
  9
$CELTSCALE
 40
1.0
  9
$DISPSILH
 70
     0
  9
$DIMSCALE
 40
500.0
  9
$DIMASZ
 40
2.5
  9
$DIMEXO
 40
0.625
  9
$DIMDLI
 40
3.75
  9
$DIMRND
 40
0.0
  9
$DIMDLE
 40
0.0
  9
$DIMEXE
 40
1.25
  9
$DIMTP
 40
0.0
  9
$DIMTM
 40
0.0
  9
$DIMTXT
 40
2.5
  9
$DIMCEN
 40
2.5
  9
$DIMTSZ
 40
0.0
  9
$DIMTOL
 70
     0
  9
$DIMLIM
 70
     0
  9
$DIMTIH
 70
     0
  9
$DIMTOH
 70
     0
  9
$DIMSE1
 70
     0
  9
$DIMSE2
 70
     0
  9
$DIMTAD
 70
     1
  9
$DIMZIN
 70
     8
  9
$DIMBLK
  1

  9
$DIMASO
 70
     1
  9
$DIMSHO
 70
     1
  9
$DIMPOST
  1

  9
$DIMAPOST
  1

  9
$DIMALT
 70
     0
  9
$DIMALTD
 70
     3
  9
$DIMALTF
 40
0.03937007874016
  9
$DIMLFAC
 40
1.0
  9
$DIMTOFL
 70
     1
  9
$DIMTVP
 40
0.0
  9
$DIMTIX
 70
     0
  9
$DIMSOXD
 70
     0
  9
$DIMSAH
 70
     0
  9
$DIMBLK1
  1

  9
$DIMBLK2
  1

  9
$DIMSTYLE
  2
ISO-25
  9
$DIMCLRD
 70
     0
  9
$DIMCLRE
 70
     0
  9
$DIMCLRT
 70
     0
  9
$DIMTFAC
 40
1.0
  9
$DIMGAP
 40
0.625
  9
$DIMJUST
 70
     0
  9
$DIMSD1
 70
     0
  9
$DIMSD2
 70
     0
  9
$DIMTOLJ
 70
     0
  9
$DIMTZIN
 70
     8
  9
$DIMALTZ
 70
     0
  9
$DIMALTTZ
 70
     0
  9
$DIMUPT
 70
     0
  9
$DIMDEC
 70
     2
  9
$DIMTDEC
 70
     2
  9
$DIMALTU
 70
     2
  9
$DIMALTTD
 70
     3
  9
$DIMTXSTY
  7
Standard
  9
$DIMAUNIT
 70
     0
  9
$DIMADEC
 70
     0
  9
$DIMALTRND
 40
0.0
  9
$DIMAZIN
 70
     0
  9
$DIMDSEP
 70
    44
  9
$DIMATFIT
 70
     3
  9
$DIMFRAC
 70
     0
  9
$DIMLDRBLK
  1

  9
$DIMLUNIT
 70
     2
  9
$DIMLWD
 70
    -2
  9
$DIMLWE
 70
    -2
  9
$DIMTMOVE
 70
     0
  9
$LUNITS
 70
     2
  9
$LUPREC
 70
     4
  9
$SKETCHINC
 40
1.0
  9
$FILLETRAD
 40
0.0
  9
$AUNITS
 70
     0
  9
$AUPREC
 70
     0
  9
$MENU
  1
.
  9
$ELEVATION
 40
0.0
  9
$PELEVATION
 40
0.0
  9
$THICKNESS
 40
0.0
  9
$LIMCHECK
 70
     0
  9
$CHAMFERA
 40
0.0
  9
$CHAMFERB
 40
0.0
  9
$CHAMFERC
 40
0.0
  9
$CHAMFERD
 40
0.0
  9
$SKPOLY
 70
     0
  9
$TDCREATE
 40
2454357.829296505
  9
$TDUCREATE
 40
2454357.454296505
  9
$TDUPDATE
 40
2454571.466878727
  9
$TDUUPDATE
 40
2454571.091878727
  9
$TDINDWG
 40
0.0307436690
  9
$TDUSRTIMER
 40
0.0307416782
  9
$USRTIMER
 70
     1
  9
$ANGBASE
 50
0.0
  9
$ANGDIR
 70
     0
  9
$PDMODE
 70
     0
  9
$PDSIZE
 40
0.0
  9
$PLINEWID
 40
0.0
  9
$SPLFRAME
 70
     0
  9
$SPLINETYPE
 70
     6
  9
$SPLINESEGS
 70
     8
  9
$HANDSEED
  5
CE7
  9
$SURFTAB1
 70
     6
  9
$SURFTAB2
 70
     6
  9
$SURFTYPE
 70
     6
  9
$SURFU
 70
     6
  9
$SURFV
 70
     6
  9
$UCSBASE
  2

  9
$UCSNAME
  2

  9
$UCSORG
 10
0.0
 20
0.0
 30
0.0
  9
$UCSXDIR
 10
1.0
 20
0.0
 30
0.0
  9
$UCSYDIR
 10
0.0
 20
1.0
 30
0.0
  9
$UCSORTHOREF
  2

  9
$UCSORTHOVIEW
 70
     0
  9
$UCSORGTOP
 10
0.0
 20
0.0
 30
0.0
  9
$UCSORGBOTTOM
 10
0.0
 20
0.0
 30
0.0
  9
$UCSORGLEFT
 10
0.0
 20
0.0
 30
0.0
  9
$UCSORGRIGHT
 10
0.0
 20
0.0
 30
0.0
  9
$UCSORGFRONT
 10
0.0
 20
0.0
 30
0.0
  9
$UCSORGBACK
 10
0.0
 20
0.0
 30
0.0
  9
$PUCSBASE
  2

  9
$PUCSNAME
  2

  9
$PUCSORG
 10
0.0
 20
0.0
 30
0.0
  9
$PUCSXDIR
 10
1.0
 20
0.0
 30
0.0
  9
$PUCSYDIR
 10
0.0
 20
1.0
 30
0.0
  9
$PUCSORTHOREF
  2

  9
$PUCSORTHOVIEW
 70
     0
  9
$PUCSORGTOP
 10
0.0
 20
0.0
 30
0.0
  9
$PUCSORGBOTTOM
 10
0.0
 20
0.0
 30
0.0
  9
$PUCSORGLEFT
 10
0.0
 20
0.0
 30
0.0
  9
$PUCSORGRIGHT
 10
0.0
 20
0.0
 30
0.0
  9
$PUCSORGFRONT
 10
0.0
 20
0.0
 30
0.0
  9
$PUCSORGBACK
 10
0.0
 20
0.0
 30
0.0
  9
$USERI1
 70
     0
  9
$USERI2
 70
     0
  9
$USERI3
 70
     0
  9
$USERI4
 70
     0
  9
$USERI5
 70
     0
  9
$USERR1
 40
0.0
  9
$USERR2
 40
0.0
  9
$USERR3
 40
0.0
  9
$USERR4
 40
0.0
  9
$USERR5
 40
0.0
  9
$WORLDVIEW
 70
     1
  9
$SHADEDGE
 70
     3
  9
$SHADEDIF
 70
    70
  9
$TILEMODE
 70
     1
  9
$MAXACTVP
 70
    64
  9
$PINSBASE
 10
0.0
 20
0.0
 30
0.0
  9
$PLIMCHECK
 70
     0
  9
$PEXTMIN
 10
0.0
 20
0.0
 30
0.0
  9
$PEXTMAX
 10
0.0
 20
0.0
 30
0.0
  9
$PLIMMIN
 10
0.0
 20
0.0
  9
$PLIMMAX
 10
12.0
 20
9.0
  9
$UNITMODE
 70
     0
  9
$VISRETAIN
 70
     1
  9
$PLINEGEN
 70
     0
  9
$PSLTSCALE
 70
     1
  9
$TREEDEPTH
 70
  3020
  9
$CMLSTYLE
  2
Standard
  9
$CMLJUST
 70
     0
  9
$CMLSCALE
 40
20.0
  9
$PROXYGRAPHICS
 70
     1
  9
$MEASUREMENT
 70
     1
  9
$CELWEIGHT
370
    -1
  9
$ENDCAPS
280
     0
  9
$JOINSTYLE
280
     0
  9
$LWDISPLAY
290
     0
  9
$INSUNITS
 70
     6
  9
$HYPERLINKBASE
  1

  9
$STYLESHEET
  1
2.CTB
  9
$XEDIT
290
     1
  9
$CEPSNTYPE
380
     0
  9
$PSTYLEMODE
290
     1
  9
$FINGERPRINTGUID
  2
{FDEAD578-A652-11D2-9A35-0060089B3A3F}
  9
$VERSIONGUID
  2
{DCB09464-1563-4281-9068-D029F2A4033F}
  9
$EXTNAMES
290
     1
  9
$PSVPSCALE
 40
0.0
  9
$OLESTARTUP
290
     0
  0
ENDSEC
  0
SECTION
  2
CLASSES
  0
CLASS
  1
ACDBDICTIONARYWDFLT
  2
AcDbDictionaryWithDefault
  3
ObjectDBX Classes
 90
        0
280
     0
281
     0
  0
CLASS
  1
ACDBPLACEHOLDER
  2
AcDbPlaceHolder
  3
ObjectDBX Classes
 90
        0
280
     0
281
     0
  0
CLASS
  1
LAYOUT
  2
AcDbLayout
  3
ObjectDBX Classes
 90
        0
280
     0
281
     0
  0
CLASS
  1
DICTIONARYVAR
  2
AcDbDictionaryVar
  3
ObjectDBX Classes
 90
        0
280
     0
281
     0
  0
CLASS
  1
SORTENTSTABLE
  2
AcDbSortentsTable
  3
ObjectDBX Classes
 90
    32768
280
     0
281
     0
  0
CLASS
  1
TABLESTYLE
  2
AcDbTableStyle
  3
ObjectDBX Classes
 90
     2047
280
     0
281
     0
  0
CLASS
  1
AECC_TREE_NODE
  2
AeccDbTreeNode
  3
AeccvBase10|Product Desc: Autodesk Civil 3D |Company: Autodesk,Inc. |WEB Address: www.autodesk.com
 90
     1023
280
     0
281
     0
  0
CLASS
  1
AECC_CLASS_NODE
  2
AeccDbClassNode
  3
AeccLand10|Product Desc: Autodesk Civil 3D |Company: Autodesk,Inc. |WEB Address: www.autodesk.com
 90
     1023
280
     0
281
     0
  0
CLASS
  1
AECC_ROOT_SETTINGS_NODE
  2
AeccDbRootSettingsNode
  3
AeccvBase10|Product Desc: Autodesk Civil 3D |Company: Autodesk,Inc. |WEB Address: www.autodesk.com
 90
     1023
280
     0
281
     0
  0
CLASS
  1
AEC_VARS_DWG_SETUP
  2
AecDbVarsDwgSetup
  3
AecBase40|Product Desc: Autodesk Architectural Desktop 2005 |Company: Autodesk,Inc. |WEB Address: www.autodesk.com
 90
      129
280
     0
281
     0
  0
CLASS
  1
DMMAPMANAGER
  2
AcMapDMMapManager
  3
AcMapDisplayManagement
 90
     1024
280
     0
281
     0
  0
CLASS
  1
DMSTYLELIBRARY
  2
AcMapDMStyleLibrary
  3
AcMapDisplayManagement
 90
     1024
280
     0
281
     0
  0
CLASS
  1
DMMAP
  2
AcMapDMMap
  3
AcMapDisplayManagement
 90
     1024
280
     0
281
     0
  0
CLASS
  1
DMBASEELEMENT
  2
AcMapDMBaseElement
  3
AcMapDisplayManagement
 90
     1024
280
     0
281
     0
  0
CLASS
  1
DMDEFAULTSTYLE
  2
AcMapDMDefaultStyle
  3
AcMapDisplayManagement
 90
     1024
280
     0
281
     0
  0
CLASS
  1
DMSTYLEREFERENCE
  2
AcMapDMStyleReference
  3
AcMapDisplayManagement
 90
     1024
280
     0
281
     0
  0
CLASS
  1
DMSTYLECATEGORY
  2
AcMapDMStyleCategory
  3
AcMapDisplayManagement
 90
     1024
280
     0
281
     0
  0
CLASS
  1
AECC_SETTINGS_NODE
  2
AeccDbSettingsNode
  3
AeccvBase10|Product Desc: Autodesk Civil 3D |Company: Autodesk,Inc. |WEB Address: www.autodesk.com
 90
     1023
280
     0
281
     0
  0
CLASS
  1
AECC_PROFILE_VIEW_STYLE
  2
AeccDbGraphStyleProfile
  3
AeccLand10|Product Desc: Autodesk Civil 3D |Company: Autodesk,Inc. |WEB Address: www.autodesk.com
 90
      129
280
     0
281
     0
  0
CLASS
  1
AECC_PROFILE_VIEW_BAND_STYLE_SET
  2
AeccDbGraphProfileBandStyleSet
  3
AeccLand10|Product Desc: Autodesk Civil 3D |Company: Autodesk,Inc. |WEB Address: www.autodesk.com
 90
      129
280
     0
281
     0
  0
CLASS
  1
AECC_PROFILE_VIEW_DATA_BAND_STYLE
  2
AeccDbGraphStyleProfileDataBands
  3
AeccLand10|Product Desc: Autodesk Civil 3D |Company: Autodesk,Inc. |WEB Address: www.autodesk.com
 90
      129
280
     0
281
     0
  0
CLASS
  1
AECC_LABEL_NODE
  2
AeccDbLabelNode
  3
AeccLand10|Product Desc: Autodesk Civil 3D |Company: Autodesk,Inc. |WEB Address: www.autodesk.com
 90
     1023
280
     0
281
     0
  0
CLASS
  1
AECC_LABEL_COLLECTOR_STYLE
  2
AeccDbLabelStyleCollector
  3
AeccLand10|Product Desc: Autodesk Civil 3D |Company: Autodesk,Inc. |WEB Address: www.autodesk.com
 90
     1023
280
     0
281
     0
  0
CLASS
  1
AECC_LABEL_TEXT_STYLE
  2
AeccDbLabelStyleText
  3
AeccLand10|Product Desc: Autodesk Civil 3D |Company: Autodesk,Inc. |WEB Address: www.autodesk.com
 90
     1023
280
     0
281
     0
  0
CLASS
  1
AECC_PROFILE_VIEW_HORIZONTAL_GEOMETRY_BAND_STYLE
  2
AeccDbGraphStyleHorGeometryBands
  3
AeccLand10|Product Desc: Autodesk Civil 3D |Company: Autodesk,Inc. |WEB Address: www.autodesk.com
 90
      129
280
     0
281
     0
  0
CLASS
  1
AECC_PROFILE_VIEW_VERTICAL_GEOMETRY_BAND_STYLE
  2
AeccDbGraphStyleVertGeometryBands
  3
AeccLand10|Product Desc: Autodesk Civil 3D |Company: Autodesk,Inc. |WEB Address: www.autodesk.com
 90
      129
280
     0
281
     0
  0
CLASS
  1
AECC_LABEL_RADIAL_LINE_STYLE
  2
AeccDbLabelStyleRadialLine
  3
AeccLand10|Product Desc: Autodesk Civil 3D |Company: Autodesk,Inc. |WEB Address: www.autodesk.com
 90
     1023
280
     0
281
     0
  0
CLASS
  1
AECC_POINT_STYLE
  2
AeccDbPointStyle
  3
AeccLand10|Product Desc: Autodesk Civil 3D |Company: Autodesk,Inc. |WEB Address: www.autodesk.com
 90
      895
280
     0
281
     0
  0
CLASS
  1
AECC_PROFILE_LABEL_SET
  2
AeccDbVAlignStnLabelsDlgTemplate
  3
AeccLand10|Product Desc: Autodesk Civil 3D |Company: Autodesk,Inc. |WEB Address: www.autodesk.com
 90
     1023
280
     0
281
     0
  0
CLASS
  1
AECC_SECTION_VIEW_STYLE
  2
AeccDbGraphStyleCrossSection
  3
AeccLand10|Product Desc: Autodesk Civil 3D |Company: Autodesk,Inc. |WEB Address: www.autodesk.com
 90
      129
280
     0
281
     0
  0
CLASS
  1
AECC_SECTION_VIEW_BAND_STYLE_SET
  2
AeccDbGraphSectionBandStyleSet
  3
AeccLand10|Product Desc: Autodesk Civil 3D |Company: Autodesk,Inc. |WEB Address: www.autodesk.com
 90
      129
280
     0
281
     0
  0
CLASS
  1
AECC_SECTION_VIEW_DATA_BAND_STYLE
  2
AeccDbGraphStyleSectionDataBands
  3
AeccLand10|Product Desc: Autodesk Civil 3D |Company: Autodesk,Inc. |WEB Address: www.autodesk.com
 90
      129
280
     0
281
     0
  0
CLASS
  1
AECC_SECTION_LABEL_SET
  2
AeccDbSectionLabelsDlgTemplate
  3
AeccLand10|Product Desc: Autodesk Civil 3D |Company: Autodesk,Inc. |WEB Address: www.autodesk.com
 90
     1023
280
     0
281
     0
  0
CLASS
  1
AECC_ALIGNMENT_STYLE
  2
AeccDbAlignmentStyle
  3
AeccLand10|Product Desc: Autodesk Civil 3D |Company: Autodesk,Inc. |WEB Address: www.autodesk.com
 90
     1023
280
     0
281
     0
  0
CLASS
  1
AECC_LABEL_VECTOR_ARROW_STYLE
  2
AeccDbLabelStyleVectorArrow
  3
AeccLand10|Product Desc: Autodesk Civil 3D |Company: Autodesk,Inc. |WEB Address: www.autodesk.com
 90
     1023
280
     0
281
     0
  0
CLASS
  1
AECC_ALIGNMENT_LABEL_SET
  2
AeccDbAlignStnLabelsDlgTemplate
  3
AeccLand10|Product Desc: Autodesk Civil 3D |Company: Autodesk,Inc. |WEB Address: www.autodesk.com
 90
     1023
280
     0
281
     0
  0
CLASS
  1
AECC_SURFACE_STYLE
  2
AeccDbSurfaceStyle
  3
AeccLand10|Product Desc: Autodesk Civil 3D |Company: Autodesk,Inc. |WEB Address: www.autodesk.com
 90
      129
280
     0
281
     0
  0
CLASS
  1
AECC_LEGEND_TABLE_STYLE
  2
AeccDbLegendScheduleTableStyle
  3
AeccLand10|Product Desc: Autodesk Civil 3D |Company: Autodesk,Inc. |WEB Address: www.autodesk.com
 90
     1023
280
     0
281
     0
  0
CLASS
  1
AECC_SECTION_STYLE
  2
AeccDbSectionStyle
  3
AeccLand10|Product Desc: Autodesk Civil 3D |Company: Autodesk,Inc. |WEB Address: www.autodesk.com
 90
     1023
280
     0
281
     0
  0
CLASS
  1
AECC_GRADING_STYLE
  2
AeccDbGradingStyle
  3
AeccLand10|Product Desc: Autodesk Civil 3D |Company: Autodesk,Inc. |WEB Address: www.autodesk.com
 90
     1023
280
     0
281
     0
  0
CLASS
  1
AECC_GRADING_CRITERIA
  2
AeccDbGradingCriteria
  3
AeccLand10|Product Desc: Autodesk Civil 3D |Company: Autodesk,Inc. |WEB Address: www.autodesk.com
 90
     1023
280
     0
281
     0
  0
CLASS
  1
AECC_PARCEL_STYLE
  2
AeccDbParcelStyle
  3
AeccLand10|Product Desc: Autodesk Civil 3D |Company: Autodesk,Inc. |WEB Address: www.autodesk.com
 90
      129
280
     0
281
     0
  0
CLASS
  1
AECC_SAMPLE_LINE_GROUP_STYLE
  2
AeccDbSampleLineGroupStyle
  3
AeccLand10|Product Desc: Autodesk Civil 3D |Company: Autodesk,Inc. |WEB Address: www.autodesk.com
 90
      129
280
     0
281
     0
  0
CLASS
  1
AECC_SHEET_STYLE
  2
AeccDbSheetStyle
  3
AeccLand10|Product Desc: Autodesk Civil 3D |Company: Autodesk,Inc. |WEB Address: www.autodesk.com
 90
      129
280
     0
281
     0
  0
CLASS
  1
AECC_SAMPLE_LINE_STYLE
  2
AeccDbSampleLineStyle
  3
AeccLand10|Product Desc: Autodesk Civil 3D |Company: Autodesk,Inc. |WEB Address: www.autodesk.com
 90
     1023
280
     0
281
     0
  0
CLASS
  1
AECC_PROFILE_STYLE
  2
AeccDbVAlignmentStyle
  3
AeccLand10|Product Desc: Autodesk Civil 3D |Company: Autodesk,Inc. |WEB Address: www.autodesk.com
 90
     1023
280
     0
281
     0
  0
CLASS
  1
AECC_STATION_FORMAT_STYLE
  2
AeccDbStationFormatStyle
  3
AeccLand10|Product Desc: Autodesk Civil 3D |Company: Autodesk,Inc. |WEB Address: www.autodesk.com
 90
     1023
280
     0
281
     0
  0
CLASS
  1
AECC_TABLE_STYLE
  2
AeccDbScheduleTableStyle
  3
AeccLand10|Product Desc: Autodesk Civil 3D |Company: Autodesk,Inc. |WEB Address: www.autodesk.com
 90
     1023
280
     0
281
     0
  0
CLASS
  1
AECC_GRADING_CRITERIA_SET
  2
AeccDbGradingCriteriaSet
  3
AeccLand10|Product Desc: Autodesk Civil 3D |Company: Autodesk,Inc. |WEB Address: www.autodesk.com
 90
     1023
280
     0
281
     0
  0
CLASS
  1
AECC_FORMAT_MANAGER_OBJECT
  2
AeccDbFormatManagerObject
  3
AeccLand10|Product Desc: Autodesk Civil 3D |Company: Autodesk,Inc. |WEB Address: www.autodesk.com
 90
     1023
280
     0
281
     0
  0
CLASS
  1
AECC_POINT_DESCRIPTION_KEY_SET_NODE
  2
AeccDbPointDescKeySetsNode
  3
AeccvBase10|Product Desc: Autodesk Civil 3D |Company: Autodesk,Inc. |WEB Address: www.autodesk.com
 90
     1023
280
     0
281
     0
  0
ENDSEC
  0
SECTION
  2
TABLES
  0
TABLE
  2
VPORT
  5
8
330
0
100
AcDbSymbolTable
 70
     2
  0
VPORT
  5
CDE
330
8
100
AcDbSymbolTableRecord
100
AcDbViewportTableRecord
  2
*Active
 70
     0
 10
0.0
 20
0.0
 11
1.0
 21
1.0
 12
21329.07082130674
 22
13158.74934992089
 13
0.0
 23
0.0
 14
10.0
 24
10.0
 15
10.0
 25
10.0
 16
0.0
 26
0.0
 36
1.0
 17
0.0
 27
0.0
 37
0.0
 40
34963.19128328307
 41
1.227931488801053
 42
50.0
 43
0.0
 44
0.0
 50
0.0
 51
0.0
 71
     0
 72
  1000
 73
     1
 74
     1
 75
     0
 76
     0
 77
     0
 78
     0
281
     0
 65
     1
110
0.0
120
0.0
130
0.0
111
1.0
121
0.0
131
0.0
112
0.0
122
1.0
132
0.0
 79
     0
146
0.0
  0
ENDTAB
  0
TABLE
  2
LTYPE
  5
5
330
0
100
AcDbSymbolTable
 70
     3
  0
LTYPE
  5
14
330
5
100
AcDbSymbolTableRecord
100
AcDbLinetypeTableRecord
  2
ByBlock
 70
     0
  3

 72
    65
 73
     0
 40
0.0
  0
LTYPE
  5
15
330
5
100
AcDbSymbolTableRecord
100
AcDbLinetypeTableRecord
  2
ByLayer
 70
     0
  3

 72
    65
 73
     0
 40
0.0
  0
LTYPE
  5
16
330
5
100
AcDbSymbolTableRecord
100
AcDbLinetypeTableRecord
  2
Continuous
 70
     0
  3
Solid line
 72
    65
 73
     0
 40
0.0
  0
LTYPE
  5
1FC
330
5
100
AcDbSymbolTableRecord
100
AcDbLinetypeTableRecord
  2
DASHED
 70
     0
  3
__ __ __ __ __ __ __ __ __ __ __ __ __ __ __
 72
    65
 73
     2
 40
3.0
 49
2.0
 74
     0
 49
-1.0
 74
     0
  0
LTYPE
  5
1FD
330
5
100
AcDbSymbolTableRecord
100
AcDbLinetypeTableRecord
  2
DASHDOT
 70
     0
  3
__ . __ . __ . __ . __ . __ . __ . __ . __ . __
 72
    65
 73
     4
 40
8.5
 49
6.0
 74
     0
 49
-1.0
 74
     0
 49
0.5
 74
     0
 49
-1.0
 74
     0
  0
ENDTAB
  0
TABLE
  2
LAYER
  5
2
330
0
100
AcDbSymbolTable
 70
    13
  0
LAYER
  5
10
330
2
100
AcDbSymbolTableRecord
100
AcDbLayerTableRecord
  2
0
 70
     0
 62
     7
  6
Continuous
370
    -3
390
F
  0
LAYER
  5
1FE
330
2
100
AcDbSymbolTableRecord
100
AcDbLayerTableRecord
  2
DEFPOINTS
 70
     0
 62
     4
  6
Continuous
290
     0
370
    -3
390
F
  0
LAYER
  5
1FF
330
2
100
AcDbSymbolTableRecord
100
AcDbLayerTableRecord
  2
寸法
 70
     0
 62
     6
  6
Continuous
370
    -3
390
F
  0
LAYER
  5
200
330
2
100
AcDbSymbolTableRecord
100
AcDbLayerTableRecord
  2
画層1-1
 70
     0
 62
    82
  6
Continuous
370
    -3
390
F
  0
LAYER
  5
201
330
2
100
AcDbSymbolTableRecord
100
AcDbLayerTableRecord
  2
図面枠
 70
     0
 62
     7
  6
Continuous
370
    -3
390
F
  0
LAYER
  5
202
330
2
100
AcDbSymbolTableRecord
100
AcDbLayerTableRecord
  2
ﾊｯﾁﾝｸﾞ
 70
     0
 62
     1
  6
Continuous
370
    -3
390
F
  0
LAYER
  5
203
330
2
100
AcDbSymbolTableRecord
100
AcDbLayerTableRecord
  2
画層2
 70
     0
 62
    40
  6
Continuous
370
    -3
390
F
  0
LAYER
  5
204
330
2
100
AcDbSymbolTableRecord
100
AcDbLayerTableRecord
  2
通り芯
 70
     0
 62
     4
  6
Continuous
370
    13
390
F
  0
LAYER
  5
205
330
2
100
AcDbSymbolTableRecord
100
AcDbLayerTableRecord
  2
画層1
 70
     0
 62
     7
  6
Continuous
370
    -3
390
F
  0
LAYER
  5
206
330
2
100
AcDbSymbolTableRecord
100
AcDbLayerTableRecord
  2
ﾈｯﾄ
 70
     0
 62
   230
  6
Continuous
370
    13
390
F
  0
LAYER
  5
207
330
2
100
AcDbSymbolTableRecord
100
AcDbLayerTableRecord
  2
画層2-1
 70
     0
 62
     7
  6
Continuous
370
    -3
390
F
  0
LAYER
  5
208
330
2
100
AcDbSymbolTableRecord
100
AcDbLayerTableRecord
  2
寸法文字
 70
     0
 62
     6
  6
Continuous
370
    -3
390
F
  0
LAYER
  5
209
330
2
100
AcDbSymbolTableRecord
100
AcDbLayerTableRecord
  2
寸法引出
 70
     0
 62
     3
  6
Continuous
370
    -3
390
F
  0
ENDTAB
  0
TABLE
  2
STYLE
  5
3
330
0
100
AcDbSymbolTable
 70
     4
  0
STYLE
  5
11
330
3
100
AcDbSymbolTableRecord
100
AcDbTextStyleTableRecord
  2
Standard
 70
     0
 40
0.0
 41
1.0
 50
0.0
 71
     0
 42
2.5
  3
txt
  4

  0
STYLE
  5
20A
330
3
100
AcDbSymbolTableRecord
100
AcDbTextStyleTableRecord
  2
1_100
 70
     0
 40
0.0
 41
0.75
 50
0.0
 71
     0
 42
2.5
  3
romans.shx
  4
extfont2.shx
  0
STYLE
  5
20B
330
3
100
AcDbSymbolTableRecord
100
AcDbTextStyleTableRecord
  2
STYLE1
 70
     0
 40
0.0
 41
0.75
 50
0.0
 71
     0
 42
0.2
  3
HGRSKP.TTF
  4

1001
ACAD
1000
HGSeikaishotaiPRO
1071
    32833
  0
STYLE
  5
20C
330
3
100
AcDbSymbolTableRecord
100
AcDbTextStyleTableRecord
  2
MSP明朝
 70
     0
 40
0.0
 41
0.75
 50
0.0
 71
     0
 42
0.2
  3
MS PMincho.ttf
  4

1001
ACAD
1000
MS PMincho
1071
    32786
  0
ENDTAB
  0
TABLE
  2
VIEW
  5
6
330
0
100
AcDbSymbolTable
 70
     0
  0
ENDTAB
  0
TABLE
  2
UCS
  5
7
330
0
100
AcDbSymbolTable
 70
     0
  0
ENDTAB
  0
TABLE
  2
APPID
  5
9
330
0
100
AcDbSymbolTable
 70
     4
  0
APPID
  5
12
330
9
100
AcDbSymbolTableRecord
100
AcDbRegAppTableRecord
  2
ACAD
 70
     0
  0
APPID
  5
20F
330
9
100
AcDbSymbolTableRecord
100
AcDbRegAppTableRecord
  2
AcDbBlockRepETag
 70
     0
  0
APPID
  5
9DF
330
9
100
AcDbSymbolTableRecord
100
AcDbRegAppTableRecord
  2
ADE
 70
     0
  0
APPID
  5
9E0
330
9
100
AcDbSymbolTableRecord
100
AcDbRegAppTableRecord
  2
DCO15
 70
     0
  0
ENDTAB
  0
TABLE
  2
DIMSTYLE
  5
A
330
0
100
AcDbSymbolTable
 70
     4
100
AcDbDimStyleTable
 71
     0
  0
DIMSTYLE
105
27
330
A
100
AcDbSymbolTableRecord
100
AcDbDimStyleTableRecord
  2
ISO-25
 70
     0
 41
2.5
 42
0.625
 43
3.75
 44
1.25
 73
     0
 74
     0
 77
     1
 78
     8
140
2.5
141
2.5
143
0.03937007874016
147
0.625
171
     3
172
     1
271
     2
272
     2
274
     3
278
    44
283
     0
284
     8
340
11
  0
DIMSTYLE
105
20D
330
A
100
AcDbSymbolTableRecord
100
AcDbDimStyleTableRecord
  2
STANDARD
 70
     0
340
11
  0
DIMSTYLE
105
20E
102
{ACAD_REACTORS
330
33B
330
33E
330
340
330
34E
330
391
330
392
330
3AC
330
3BB
330
3BC
330
3BD
330
3BE
330
3C9
330
3CB
330
3CE
330
3CF
330
3D0
330
3D1
330
3D3
330
3D9
330
3DB
330
3DC
330
403
330
423
330
429
330
42C
102
}
330
A
100
AcDbSymbolTableRecord
100
AcDbDimStyleTableRecord
  2
1_100
 70
     0
 40
100.0
 41
0.6
 42
3.0
 43
10.0
 44
0.0
 73
     0
 74
     0
 77
     1
 78
     8
140
3.0
141
0.0
147
1.0
172
     1
173
     1
176
   256
177
   256
178
   256
271
     1
272
     1
277
     6
279
     2
284
     8
340
20A
341
87
343
87
344
87
  0
DIMSTYLE
105
9DE
330
A
100
AcDbSymbolTableRecord
100
AcDbDimStyleTableRecord
  2
1_50
 70
     0
 40
50.0
 41
1.0
 42
3.0
 43
10.0
 44
0.0
 73
     0
 74
     0
 77
     1
 78
    12
140
3.0
141
0.0
147
1.0
172
     1
173
     1
176
   256
177
   256
178
   256
271
     1
272
     1
277
     6
279
     2
340
20A
341
87
343
87
344
87
  0
ENDTAB
  0
TABLE
  2
BLOCK_RECORD
  5
1
330
0
100
AcDbSymbolTable
 70
    30
  0
BLOCK_RECORD
  5
1F
330
1
100
AcDbSymbolTableRecord
100
AcDbBlockTableRecord
  2
*Model_Space
340
22
  0
BLOCK_RECORD
  5
50
330
1
100
AcDbSymbolTableRecord
100
AcDbBlockTableRecord
  2
*Paper_Space
340
51
  0
BLOCK_RECORD
  5
55
330
1
100
AcDbSymbolTableRecord
100
AcDbBlockTableRecord
  2
*Paper_Space0
340
56
  0
BLOCK_RECORD
  5
87
330
1
100
AcDbSymbolTableRecord
100
AcDbBlockTableRecord
  2
_ORIGIN
340
0
102
{BLKREFS
331
577
331
578
331
580
331
581
331
589
331
58A
331
592
331
593
331
59D
331
59E
331
5A7
331
5A8
331
5AF
331
5B0
331
5B8
331
5B9
331
5C4
331
5C5
331
5CC
331
5CD
331
5D8
331
5D9
331
5E0
331
5E1
331
5E9
331
5EA
331
5F2
331
5F3
331
5FE
331
5FF
331
606
331
607
331
612
331
613
331
61A
331
61B
331
623
331
624
331
62E
331
62F
331
638
331
639
331
643
331
644
331
64E
331
64F
331
659
331
65A
331
664
331
665
102
}
  0
BLOCK_RECORD
  5
8C
330
1
100
AcDbSymbolTableRecord
100
AcDbBlockTableRecord
  2
RM
340
0
310
28000000200000002000000001000800000000000004000000000000000000000000000000000000000000004000000080000000FF000000002000004020000080200000FF200000004000004040000080400000FF400000006000004060000080600000FF600000008000004080000080800000FF80000000A0000040A000
310
0080A00000FFA0000000C0000040C0000080C00000FFC0000000FF000040FF000080FF0000FFFF0000000020004000200080002000FF002000002020004020200080202000FF202000004020004040200080402000FF402000006020004060200080602000FF602000008020004080200080802000FF80200000A0200040A0
310
200080A02000FFA0200000C0200040C0200080C02000FFC0200000FF200040FF200080FF2000FFFF2000000040004000400080004000FF004000002040004020400080204000FF204000004040004040400080404000FF404000006040004060400080604000FF604000008040004080400080804000FF80400000A0400040
310
A0400080A04000FFA0400000C0400040C0400080C04000FFC0400000FF400040FF400080FF4000FFFF4000000060004000600080006000FF006000002060004020600080206000FF206000004060004040600080406000FF406000006060004060600080606000FF606000008060004080600080806000FF80600000A06000
310
40A0600080A06000FFA0600000C0600040C0600080C06000FFC0600000FF600040FF600080FF6000FFFF6000000080004000800080008000FF008000002080004020800080208000FF208000004080004040800080408000FF408000006080004060800080608000FF608000008080004080800080808000FF80800000A080
310
0040A0800080A08000FFA0800000C0800040C0800080C08000FFC0800000FF800040FF800080FF8000FFFF80000000A0004000A0008000A000FF00A0000020A0004020A0008020A000FF20A0000040A0004040A0008040A000FF40A0000060A0004060A0008060A000FF60A0000080A0004080A0008080A000FF80A00000A0
310
A00040A0A00080A0A000FFA0A00000C0A00040C0A00080C0A000FFC0A00000FFA00040FFA00080FFA000FFFFA0000000C0004000C0008000C000FF00C0000020C0004020C0008020C000FF20C0000040C0004040C0008040C000FF40C0000060C0004060C0008060C000FF60C0000080C0004080C0008080C000FF80C00000
310
A0C00040A0C00080A0C000FFA0C00000C0C00040C0C00080C0C000FFC0C00000FFC00040FFC00080FFC000FFFFC0000000FF004000FF008000FF00FF00FF000020FF004020FF008020FF00FF20FF000040FF004040FF008040FF00FF40FF000060FF004060FF008060FF00FF60FF000080FF004080FF008080FF00FF80FF00
310
00A0FF0040A0FF0080A0FF00FFA0FF0000C0FF0040C0FF0080C0FF00FFC0FF0000FFFF0040FFFF0080FFFF00FFFFFF00FFFFFFFFFFFFFFFFFFFFFFFFFFFFFFFFFFFFFFFFFFFFFFFFFFFFFFFFFFFFFFFFFFFFFFFFFFFFFFFFFFFFFFFFFFFFFFFFFFFFFFFFFFFFFFFFFFFFFFFFFFFFFFFFFFFFFFFFFFFFFFFFFFFFFFFFFFFFFF
310
FFFFFFFFFFFFFFFFFFFFFFFFFFFFFFFFFFFFFFFFFFFFFFFFFFFFFFFFFFFFFFFFFFFFFFFFFFFFFFFFFFFFFFFFFFFFFFFFFFFFFFFFFFFFFFFFFFFFFFFFFFFFFFFFFFFFFFFFFFFFFFFFFFFFFFFFFFFFFFFFFFFFFFFFFFFFFFFFFFFFFFFFFFFFFFFFFFFFFFFFFFFFFFFFFFFFFFFFFFFFFFFFFFFFFFFFFFFFFFFFFFFFFFFFFFFFFF
310
FFFFFFFFFFFFFFFFFFFFFFFFFFFFFFFFFFFFFFFFFFFFFFFFFFFFFFFFFFFFFFFFFFFFFFFFFFFFFFFFFFFFFFFFFFFFFFFFFFFFFFFFFFFFFFFFFFFFFFFFFFFFFFFFFFFFFFFFFFFFFFFFFFFFFFFFFFFFFFFFFFFFFFFFFFFFFFFFFFFFFFFFFFFFFFFFFFFFFFFFFFFFFFFFFFFFFFFFFFFFFFFFFFFFFFFFFFFFFFFFFFFFFFFFFFFFFF
310
FFFFFFFFFFFFFFFFFFFFFFFFFFFFFFFFFFFFFFFFFFFFFFFFFFFFFFFFFFFFFFFFFFFFFFFFFFFFFFFFFFFFFFFFFFFFFFFFFFFFFFFFFFE0FFFFFFFFE0FFFFE0FFFFFFFFE0FFFFFFE0E0FFFFFFE0FFFFFFE0FFFFFFFFFFFFE0FFFFFFFFE0E0FFFFFFFFE0FFFFFFE0FFFFE0FFE0FFFFFFE0FFFFFFFFFFFFFFFFE0FFFFFFE0E0FFFF
310
FFE0FFFFFFE0FFFFFFFFE0FFFFFFE0FFFFFFFFFFFFFFFFFFFFE0FFFFFFFFE0FFE0FFFFFFE0FFE0FFFFFFFFE0FFE0FFFFFFFFE0FFFFE0FFFFFFFFE0FFFFFFFFE0FFFFFFE0FFFFFFE0E0FFFFFFE0FFFFFFFFE0FFFFFFFFE0E0FFFFFFE0FFFFFFFFE0FFE0FFE0FFFFFFFFE0FFFFFFE0FFFFE0FFFFFFFFFFFFFFE0FFFFFFE0FFFF
310
FFFFE0FFFFFFE0FFFFFFFFE0FFFFFFE0E0FFFFFFFFFFFFFFFFFFE0FFFFFFE0FFFFFFFFE0FFFFFFE0FFFFFFFFE0FFFFFFE0FFFFFFFFFFFFFFFFFFFFFFFFFFFFFFFFFFFFFFFFFFFFFFFFFFFFFFFFFFFFFFFFFFFFFFFFFFFFFFFFFFFFFFFFFFFFFFFFFFFFFFFFFFFFFFFFFFFFFFFFFFFFFFFFFFFFFFFFFFFFFFFFFFFFFFFFFFFF
310
FFFFFFFFFFFFFFFFFFFFFFFFFFFFFFFFFFFFFFFFFFFFFFFFFFFFFFFFFFFFFFFFFFFFFFFFFFFFFFFFFFFFFFFFFFFFFFFFFFFFFFFFFFFFFFFFFFFFFFFFFFFFFFFFFFFFFFFFFFFFFFFFFFFFFFFFFFFFFFFFFFFFFFFFFFFFFFFFFFFFFFFFFFFFFFFFFFFFFFFFFFFFFFFFFFFFFFFFFFFFFFFFFFFFFFFFFFFFFFFFFFFFFFFFFFFFFF
310
FFFFFFFFFFFFFFFFFFFFFFFFFFFFFFFFFFFFFFFFFFFFFFFFFFFFFFFFFFFFFFFFFFFFFFFFFFFFFFFFFFFFFFFFFFFFFFFFFFFFFFFFFFFFFFFFFFFFFFFFFFFFFFFFFFFFFFFFFFFFFFFFFFFFFFFFFFFFFFFFFFFFFFFFFFFFFFFFFFFFFFFFFFFFFFFFFFFFFFFFFFFFFFFFFFFFFFFFFFFFFFFFFFFFFFFFFFFFFFFFFFFFFFFFFFFFFF
310
FFFFFFFFFFFFFFFFFFFFFFFFFFFFFFFFFFFFFFFFFFFFFFFFFFFFFFFFFFFFFFFFFFFFFFFFFFFFFFFFFFFFFFFFFFFFFFFFFFFFFFFFFFFFFFFF
102
{BLKREFS
331
360
331
362
331
3B4
102
}
  0
BLOCK_RECORD
  5
9B
330
1
100
AcDbSymbolTableRecord
100
AcDbBlockTableRecord
  2
RH
340
0
310
28000000200000002000000001000800000000000004000000000000000000000000000000000000000000004000000080000000FF000000002000004020000080200000FF200000004000004040000080400000FF400000006000004060000080600000FF600000008000004080000080800000FF80000000A0000040A000
310
0080A00000FFA0000000C0000040C0000080C00000FFC0000000FF000040FF000080FF0000FFFF0000000020004000200080002000FF002000002020004020200080202000FF202000004020004040200080402000FF402000006020004060200080602000FF602000008020004080200080802000FF80200000A0200040A0
310
200080A02000FFA0200000C0200040C0200080C02000FFC0200000FF200040FF200080FF2000FFFF2000000040004000400080004000FF004000002040004020400080204000FF204000004040004040400080404000FF404000006040004060400080604000FF604000008040004080400080804000FF80400000A0400040
310
A0400080A04000FFA0400000C0400040C0400080C04000FFC0400000FF400040FF400080FF4000FFFF4000000060004000600080006000FF006000002060004020600080206000FF206000004060004040600080406000FF406000006060004060600080606000FF606000008060004080600080806000FF80600000A06000
310
40A0600080A06000FFA0600000C0600040C0600080C06000FFC0600000FF600040FF600080FF6000FFFF6000000080004000800080008000FF008000002080004020800080208000FF208000004080004040800080408000FF408000006080004060800080608000FF608000008080004080800080808000FF80800000A080
310
0040A0800080A08000FFA0800000C0800040C0800080C08000FFC0800000FF800040FF800080FF8000FFFF80000000A0004000A0008000A000FF00A0000020A0004020A0008020A000FF20A0000040A0004040A0008040A000FF40A0000060A0004060A0008060A000FF60A0000080A0004080A0008080A000FF80A00000A0
310
A00040A0A00080A0A000FFA0A00000C0A00040C0A00080C0A000FFC0A00000FFA00040FFA00080FFA000FFFFA0000000C0004000C0008000C000FF00C0000020C0004020C0008020C000FF20C0000040C0004040C0008040C000FF40C0000060C0004060C0008060C000FF60C0000080C0004080C0008080C000FF80C00000
310
A0C00040A0C00080A0C000FFA0C00000C0C00040C0C00080C0C000FFC0C00000FFC00040FFC00080FFC000FFFFC0000000FF004000FF008000FF00FF00FF000020FF004020FF008020FF00FF20FF000040FF004040FF008040FF00FF40FF000060FF004060FF008060FF00FF60FF000080FF004080FF008080FF00FF80FF00
310
00A0FF0040A0FF0080A0FF00FFA0FF0000C0FF0040C0FF0080C0FF00FFC0FF0000FFFF0040FFFF0080FFFF00FFFFFF00FFFFFFFFFFFFFFFFFFFFFFFFFFFFFFFFFFFFFFFFFFFFFFFFFFFFFFFFFFFFFFFFFFFFFFFFFFFFFFFFFFFFFFFFFFFFFFFFFFFFFFFFFFFFFFFFFFFFFFFFFFFFFFFFFFFFFFFFFFFFFFFFFFFFFFFFFFFFFF
310
FFFFFFFFFFFFFFFFFFFFFFFFFFFFFFFFFFFFFFFFFFFFFFFFFFFFFFFFFFFFFFFFFFFFFFFFFFFFFFFFFFFFFFFFFFFFFFFFFFFFFFFFFFFFFFFFFFFFFFFFFFFFFFFFFFFFFFFFFFFFFFFFFFFFFFFFFFFFFFFFFFFFFFFFFFFFFFFFFFFFFFFFFFFFFFFFFFFFFFFFFFFFFFFFFFFFFFFFFFFFFFFFFFFFFFFFFFFFFFFFFFFFFFFFFFFFFF
310
FFFFFFFFFFFFFFFFFFFFFFFFFFFFFFFFFFFFFFFFFFFFFFFFFFFFFFFFFFFFFFFFFFFFFFFFFFFFFFFFFFFFFFFFFFFFFFFFFFFFFFFFFFFFFFFFFFFFFFFFFFFFFFFFFFFFFFFFFFFFFFFFFFFFFFFFFFFFFFFFFFFFFFFFFFFFFFFFFFFFFFFFFFFFFFFFFFFFFFFFFFFFFFFFFFFFFFFFFFFFFFFFFFFFFFFFFFFFFFFFFFFFFFFFFFFFFF
310
FFFFFFFFFFFFFFFFFFFFFFFFFFFFFFFFFFFFFFFFFFFFFFFFFFFFFFFFFFFFFFFFFFFFFFFFFFFFFFFFFFFFFFFFFFFFFFFFFFFFFFFFFFFFE0FFFFFFE0FFFFFFE0E0FFFFFFE0FFFFFFFFE0FFFFE0FFFFFFFFE0FFFFFFFFFFFFE0FFFFFFE0FFE0FFFFE0FFFFFFE0FFFFFFFFE0E0FFFFFFFFE0FFFFFFFFFFFFFFFFE0FFFFFFE0FFFF
310
FFFFE0FFFFFFE0FFFFFFE0E0FFFFFFE0FFFFFFFFFFE0FFFFFFFFE0FFE0FFFFFFFFE0FFE0FFFFFFE0FFE0FFFFFFFFE0FFFFFFFFFFFFFFE0FFFFFFFFE0FFFFFFE0E0FFFFFFE0FFFFFFE0FFFFFFFFE0FFFFFFFFE0FFFFFFFFE0FFFFE0FFFFFFE0FFFFFFFFE0FFE0FFE0FFFFFFFFE0FFFFFFE0E0FFFFFFFFFFFFE0E0FFFFFFE0FF
310
FFFFFFE0FFFFFFE0FFFFFFFFE0FFFFFFE0FFFFFFFFFFFFFFFFE0FFFFFFE0FFFFFFFFE0FFFFFFE0FFFFFFFFE0FFFFFFE0FFFFFFFFFFFFFFFFFFFFFFFFFFFFFFFFFFFFFFFFFFFFFFFFFFFFFFFFFFFFFFFFFFFFFFFFFFFFFFFFFFFFFFFFFFFFFFFFFFFFFFFFFFFFFFFFFFFFFFFFFFFFFFFFFFFFFFFFFFFFFFFFFFFFFFFFFFFFFF
310
FFFFFFFFFFFFFFFFFFFFFFFFFFFFFFFFFFFFFFFFFFFFFFFFFFFFFFFFFFFFFFFFFFFFFFFFFFFFFFFFFFFFFFFFFFFFFFFFFFFFFFFFFFFFFFFFFFFFFFFFFFFFFFFFFFFFFFFFFFFFFFFFFFFFFFFFFFFFFFFFFFFFFFFFFFFFFFFFFFFFFFFFFFFFFFFFFFFFFFFFFFFFFFFFFFFFFFFFFFFFFFFFFFFFFFFFFFFFFFFFFFFFFFFFFFFFFF
310
FFFFFFFFFFFFFFFFFFFFFFFFFFFFFFFFFFFFFFFFFFFFFFFFFFFFFFFFFFFFFFFFFFFFFFFFFFFFFFFFFFFFFFFFFFFFFFFFFFFFFFFFFFFFFFFFFFFFFFFFFFFFFFFFFFFFFFFFFFFFFFFFFFFFFFFFFFFFFFFFFFFFFFFFFFFFFFFFFFFFFFFFFFFFFFFFFFFFFFFFFFFFFFFFFFFFFFFFFFFFFFFFFFFFFFFFFFFFFFFFFFFFFFFFFFFFFF
310
FFFFFFFFFFFFFFFFFFFFFFFFFFFFFFFFFFFFFFFFFFFFFFFFFFFFFFFFFFFFFFFFFFFFFFFFFFFFFFFFFFFFFFFFFFFFFFFFFFFFFFFFFFFFFFFF
102
{BLKREFS
331
35F
331
361
331
3B5
102
}
  0
BLOCK_RECORD
  5
AA
330
1
100
AcDbSymbolTableRecord
100
AcDbBlockTableRecord
  2
sai450
340
0
310
28000000200000002000000001000800000000000004000000000000000000000000000000000000000000004000000080000000FF000000002000004020000080200000FF200000004000004040000080400000FF400000006000004060000080600000FF600000008000004080000080800000FF80000000A0000040A000
310
0080A00000FFA0000000C0000040C0000080C00000FFC0000000FF000040FF000080FF0000FFFF0000000020004000200080002000FF002000002020004020200080202000FF202000004020004040200080402000FF402000006020004060200080602000FF602000008020004080200080802000FF80200000A0200040A0
310
200080A02000FFA0200000C0200040C0200080C02000FFC0200000FF200040FF200080FF2000FFFF2000000040004000400080004000FF004000002040004020400080204000FF204000004040004040400080404000FF404000006040004060400080604000FF604000008040004080400080804000FF80400000A0400040
310
A0400080A04000FFA0400000C0400040C0400080C04000FFC0400000FF400040FF400080FF4000FFFF4000000060004000600080006000FF006000002060004020600080206000FF206000004060004040600080406000FF406000006060004060600080606000FF606000008060004080600080806000FF80600000A06000
310
40A0600080A06000FFA0600000C0600040C0600080C06000FFC0600000FF600040FF600080FF6000FFFF6000000080004000800080008000FF008000002080004020800080208000FF208000004080004040800080408000FF408000006080004060800080608000FF608000008080004080800080808000FF80800000A080
310
0040A0800080A08000FFA0800000C0800040C0800080C08000FFC0800000FF800040FF800080FF8000FFFF80000000A0004000A0008000A000FF00A0000020A0004020A0008020A000FF20A0000040A0004040A0008040A000FF40A0000060A0004060A0008060A000FF60A0000080A0004080A0008080A000FF80A00000A0
310
A00040A0A00080A0A000FFA0A00000C0A00040C0A00080C0A000FFC0A00000FFA00040FFA00080FFA000FFFFA0000000C0004000C0008000C000FF00C0000020C0004020C0008020C000FF20C0000040C0004040C0008040C000FF40C0000060C0004060C0008060C000FF60C0000080C0004080C0008080C000FF80C00000
310
A0C00040A0C00080A0C000FFA0C00000C0C00040C0C00080C0C000FFC0C00000FFC00040FFC00080FFC000FFFFC0000000FF004000FF008000FF00FF00FF000020FF004020FF008020FF00FF20FF000040FF004040FF008040FF00FF40FF000060FF004060FF008060FF00FF60FF000080FF004080FF008080FF00FF80FF00
310
00A0FF0040A0FF0080A0FF00FFA0FF0000C0FF0040C0FF0080C0FF00FFC0FF0000FFFF0040FFFF0080FFFF00FFFFFF00FFFFFFFFFFFFFFFFFFFFFFFFFFFFFFFFFFFFFFFFFFFFFFFFFFFFFFFFFFFFFFFFFFFFFFFFFFFFFFFFFFFFFFFFFFFFFFFFFFFFFFFFFFFFFFFFFFFFFFFFFFFFFFFFFFFFFFFFFFFFFFFFFFFFFFFFFFFFFF
310
FFFFFFFFFFFFFFFFFFFFFFFFFFFFFFFFFFFFFFFFFFFFFFFFFFFFFFFFFFFFFFFFFFFFFFFFFFFFFFFFFFFFFFFFFFFFFFFFFFFFFFFFFFFFFFFFFFFFFFFFFFFFFFFFFFFFFFFFFFFFFFFFFFFFFFFFFFFFFFFFFFFFFFFFFFFFFFFFFFFFFFFFFFFFFFFFFFFFFFFFFFFFFFFFFFFFFFFFFFFFFFFFFFFFFFFFFFFFFFFFFFFFFFFFFFFFFF
310
FFFFFFFFFFFFFFFFFFFFFFFFFFFFFFFFFFFFFFFFFFFFFFFFFFFFFFFFFFFFFFFFFFFFFFFFFFFFFFFFFFFFFFFFFFFFFFFFFFFFFFFFFFFFFFFFFFFFFFFFFFFFFFFFFFFFFFFFFFFFFFFFFFFFFFFFFFFFFFFFFFFFFFFFFFFFFFFFFFFFFFFFFFFFFFFFFFFFFFFFFFFFFFFFFFFFFFFFFFFFFFFFFFFFFFFFFFFFFFFFFFFFFFFFFFFFFF
310
FFFFFFFFFFFFFFFFFFFFFFFFFFFFFFFFFFFFFFFFFFFFFFFFFFFFFFFFFFFFFFFFFFFFFFFFFFFFFFFFFFFFFFFFFFFFFFFFFFFFFFFFE0FFE0FFFFFFE0FFE0FFFFFFFFE0E0FFFFFFFFE0E0FFFFFFFFE0E0FFFFFFFFFFFFE0E0FFFFFFFFE0E0FFFFFFFFE0E0FFFFFFFFFFE0FFFFFFFFFFE0FFFFFFFFFFFFE0FFFFFFFFFFE0FFFFFF
310
FFFFE0E0FFFFFFFFFFE0FFFFFFFFFFE0FFFFFFFFFFFFFFE0FFFFFFFFFFE0FFFFFFFFFFE0FFFFFFFFFFFFE0FFFFFFFFFFE0FFFFFFFFFFFFE0FFFFFFFFFFE0FFFFFFFFFFFFE0FFFFFFFFFFE0FFFFFFFFFFE0FFFFFFFFFFFFFFE0FFFFFFFFFFE0FFFFFFFFFFE0E0FFFFFFFFFFE0FFFFFFFFFFE0FFFFFFFFFFFFE0FFFFFFFFFFE0
310
FFFFFFFFFFFFE0FFFFFFFFFFE0FFFFFFFFFFE0FFFFFFFFFFE0FFE0FFFFFFE0FFE0FFFFFFFFE0E0FFFFFFFFE0FFE0FFFFFFE0FFE0FFFFFFFFFFFFFFFFFFFFFFFFFFFFFFFFFFFFFFFFFFFFFFFFFFFFFFFFFFFFFFFFFFFFFFFFFFFFFFFFFFFFFFFFFFFFFFFFFFFFFFFFFFFFFFFFFFFFFFFFFFFFFFFFFFFFFFFFFFFFFFFFFFFFFF
310
FFFFFFFFFFFFFFFFFFFFFFFFFFFFFFFFFFFFFFFFFFFFFFFFFFFFFFFFFFFFFFFFFFFFFFFFFFFFFFFFFFFFFFFFFFFFFFFFFFFFFFFFFFFFFFFFFFFFFFFFFFFFFFFFFFFFFFFFFFFFFFFFFFFFFFFFFFFFFFFFFFFFFFFFFFFFFFFFFFFFFFFFFFFFFFFFFFFFFFFFFFFFFFFFFFFFFFFFFFFFFFFFFFFFFFFFFFFFFFFFFFFFFFFFFFFFFF
310
FFFFFFFFFFFFFFFFFFFFFFFFFFFFFFFFFFFFFFFFFFFFFFFFFFFFFFFFFFFFFFFFFFFFFFFFFFFFFFFFFFFFFFFFFFFFFFFFFFFFFFFFFFFFFFFFFFFFFFFFFFFFFFFFFFFFFFFFFFFFFFFFFFFFFFFFFFFFFFFFFFFFFFFFFFFFFFFFFFFFFFFFFFFFFFFFFFFFFFFFFFFFFFFFFFFFFFFFFFFFFFFFFFFFFFFFFFFFFFFFFFFFFFFFFFFFFF
310
FFFFFFFFFFFFFFFFFFFFFFFFFFFFFFFFFFFFFFFFFFFFFFFFFFFFFFFFFFFFFFFFFFFFFFFFFFFFFFFFFFFFFFFFFFFFFFFFFFFFFFFFFFFFFFFF
102
{BLKREFS
331
35D
331
35E
331
3B3
102
}
  0
BLOCK_RECORD
  5
434
330
1
100
AcDbSymbolTableRecord
100
AcDbBlockTableRecord
  2
*D5
340
0
  0
BLOCK_RECORD
  5
440
330
1
100
AcDbSymbolTableRecord
100
AcDbBlockTableRecord
  2
*D6
340
0
  0
BLOCK_RECORD
  5
44C
330
1
100
AcDbSymbolTableRecord
100
AcDbBlockTableRecord
  2
*D7
340
0
  0
BLOCK_RECORD
  5
458
330
1
100
AcDbSymbolTableRecord
100
AcDbBlockTableRecord
  2
*D8
340
0
  0
BLOCK_RECORD
  5
464
330
1
100
AcDbSymbolTableRecord
100
AcDbBlockTableRecord
  2
*D9
340
0
  0
BLOCK_RECORD
  5
472
330
1
100
AcDbSymbolTableRecord
100
AcDbBlockTableRecord
  2
*D10
340
0
  0
BLOCK_RECORD
  5
47E
330
1
100
AcDbSymbolTableRecord
100
AcDbBlockTableRecord
  2
*D11
340
0
  0
BLOCK_RECORD
  5
48A
330
1
100
AcDbSymbolTableRecord
100
AcDbBlockTableRecord
  2
*D12
340
0
  0
BLOCK_RECORD
  5
496
330
1
100
AcDbSymbolTableRecord
100
AcDbBlockTableRecord
  2
*D13
340
0
  0
BLOCK_RECORD
  5
4A4
330
1
100
AcDbSymbolTableRecord
100
AcDbBlockTableRecord
  2
*D14
340
0
  0
BLOCK_RECORD
  5
4B0
330
1
100
AcDbSymbolTableRecord
100
AcDbBlockTableRecord
  2
*D15
340
0
  0
BLOCK_RECORD
  5
4BE
330
1
100
AcDbSymbolTableRecord
100
AcDbBlockTableRecord
  2
*D16
340
0
  0
BLOCK_RECORD
  5
4CA
330
1
100
AcDbSymbolTableRecord
100
AcDbBlockTableRecord
  2
*D17
340
0
  0
BLOCK_RECORD
  5
4D6
330
1
100
AcDbSymbolTableRecord
100
AcDbBlockTableRecord
  2
*D18
340
0
  0
BLOCK_RECORD
  5
4E2
330
1
100
AcDbSymbolTableRecord
100
AcDbBlockTableRecord
  2
*D19
340
0
  0
BLOCK_RECORD
  5
4F0
330
1
100
AcDbSymbolTableRecord
100
AcDbBlockTableRecord
  2
*D20
340
0
  0
BLOCK_RECORD
  5
4FC
330
1
100
AcDbSymbolTableRecord
100
AcDbBlockTableRecord
  2
*D21
340
0
  0
BLOCK_RECORD
  5
50A
330
1
100
AcDbSymbolTableRecord
100
AcDbBlockTableRecord
  2
*D22
340
0
  0
BLOCK_RECORD
  5
516
330
1
100
AcDbSymbolTableRecord
100
AcDbBlockTableRecord
  2
*D23
340
0
  0
BLOCK_RECORD
  5
522
330
1
100
AcDbSymbolTableRecord
100
AcDbBlockTableRecord
  2
*D24
340
0
  0
BLOCK_RECORD
  5
530
330
1
100
AcDbSymbolTableRecord
100
AcDbBlockTableRecord
  2
*D25
340
0
  0
BLOCK_RECORD
  5
53C
330
1
100
AcDbSymbolTableRecord
100
AcDbBlockTableRecord
  2
*D26
340
0
  0
BLOCK_RECORD
  5
54A
330
1
100
AcDbSymbolTableRecord
100
AcDbBlockTableRecord
  2
*D27
340
0
  0
BLOCK_RECORD
  5
558
330
1
100
AcDbSymbolTableRecord
100
AcDbBlockTableRecord
  2
*D28
340
0
  0
BLOCK_RECORD
  5
566
330
1
100
AcDbSymbolTableRecord
100
AcDbBlockTableRecord
  2
*D29
340
0
  0
ENDTAB
  0
ENDSEC
  0
SECTION
  2
BLOCKS
  0
BLOCK
  5
20
330
1F
100
AcDbEntity
  8
0
100
AcDbBlockBegin
  2
*Model_Space
 70
     0
 10
0.0
 20
0.0
 30
0.0
  3
*Model_Space
  1

  0
ENDBLK
  5
21
330
1F
100
AcDbEntity
  8
0
100
AcDbBlockEnd
  0
BLOCK
  5
52
330
50
100
AcDbEntity
 67
     1
  8
0
100
AcDbBlockBegin
  2
*Paper_Space
 70
     0
 10
0.0
 20
0.0
 30
0.0
  3
*Paper_Space
  1

  0
ENDBLK
  5
53
330
50
100
AcDbEntity
 67
     1
  8
0
100
AcDbBlockEnd
  0
BLOCK
  5
57
330
55
100
AcDbEntity
  8
0
100
AcDbBlockBegin
  2
*Paper_Space0
 70
     0
 10
0.0
 20
0.0
 30
0.0
  3
*Paper_Space0
  1

  0
ENDBLK
  5
58
330
55
100
AcDbEntity
  8
0
100
AcDbBlockEnd
  0
BLOCK
  5
88
330
87
100
AcDbEntity
  8
0
100
AcDbBlockBegin
  2
_ORIGIN
 70
     0
 10
0.0
 20
0.0
 30
0.0
  3
_ORIGIN
  1

  0
CIRCLE
  5
89
330
87
100
AcDbEntity
  8
0
  6
ByBlock
 62
     0
100
AcDbCircle
 10
0.0
 20
0.0
 30
0.0
 40
0.5
  0
LINE
  5
8A
330
87
100
AcDbEntity
  8
0
  6
ByBlock
 62
     0
100
AcDbLine
 10
0.0
 20
0.0
 30
0.0
 11
-1.0
 21
0.0
 31
0.0
  0
ENDBLK
  5
8B
330
87
100
AcDbEntity
  8
0
100
AcDbBlockEnd
  0
BLOCK
  5
8D
330
8C
100
AcDbEntity
  8
0
100
AcDbBlockBegin
  2
RM
 70
     0
 10
0.0
 20
0.0
 30
0.0
  3
RM
  1

  0
LINE
  5
8E
330
8C
100
AcDbEntity
  8
ﾊｯﾁﾝｸﾞ
  6
Continuous
100
AcDbLine
 10
360.1652361541055
 20
-91.67026152741163
 30
0.0
 11
388.4949746266939
 21
-120.0000000004656
 31
0.0
  0
LINE
  5
8F
330
8C
100
AcDbEntity
  8
ﾊｯﾁﾝｸﾞ
  6
Continuous
100
AcDbLine
 10
399.7632159003988
 20
-52.07228178094375
 30
0.0
 11
467.690934119746
 21
-120.0000000004074
 31
0.0
  0
LINE
  5
90
330
8C
100
AcDbEntity
  8
ﾊｯﾁﾝｸﾞ
  6
Continuous
100
AcDbLine
 10
372.6395381879993
 20
-0.0000000004074536
 30
0.0
 11
280.9692766605877
 21
-91.67026152741163
 31
0.0
  0
LINE
  5
91
330
8C
100
AcDbEntity
  8
ﾊｯﾁﾝｸﾞ
  6
Continuous
100
AcDbLine
 10
451.8354976810512
 20
-0.0000000004074536
 30
0.0
 11
331.8354976801202
 21
-120.0000000004074
 31
0.0
  0
LINE
  5
92
330
8C
100
AcDbEntity
  8
ﾊｯﾁﾝｸﾞ
  6
Continuous
100
AcDbLine
 10
439.3611956469249
 20
-12.47430203453405
 30
0.0
 11
493.1240446297452
 21
-66.23715101747075
 31
0.0
  0
LINE
  5
93
330
8C
100
AcDbEntity
  8
ﾊｯﾁﾝｸﾞ
  6
Continuous
100
AcDbLine
 10
55.85570021579044
 20
-0.0000000004656613
 30
0.0
 11
-0.0000000002328306
 21
-55.85570021602325
 31
0.0
  0
LINE
  5
94
330
8C
100
AcDbEntity
  8
ﾊｯﾁﾝｸﾞ
  6
Continuous
100
AcDbLine
 10
135.0516597088426
 20
-0.000000000349246
 30
0.0
 11
15.05165970791131
 21
-120.0000000004656
 31
0.0
  0
LINE
  5
95
330
8C
100
AcDbEntity
  8
ﾊｯﾁﾝｸﾞ
  6
Continuous
100
AcDbLine
 10
214.2476192018949
 20
-0.000000000349246
 30
0.0
 11
94.24761920119637
 21
-120.0000000004656
 31
0.0
  0
LINE
  5
96
330
8C
100
AcDbEntity
  8
ﾊｯﾁﾝｸﾞ
  6
Continuous
100
AcDbLine
 10
122.577357674716
 20
-91.67026152741163
 30
0.0
 11
150.9070961475372
 21
-120.0000000004656
 31
0.0
  0
LINE
  5
97
330
8C
100
AcDbEntity
  8
ﾊｯﾁﾝｸﾞ
  6
Continuous
100
AcDbLine
 10
162.1753374212421
 20
-52.07228178094375
 30
0.0
 11
230.1030556405895
 21
-120.0000000004074
 31
0.0
  0
LINE
  5
98
330
8C
100
AcDbEntity
  8
ﾊｯﾁﾝｸﾞ
  6
Continuous
100
AcDbLine
 10
201.7733171675354
 20
-12.47430203453405
 30
0.0
 11
309.2990151336417
 21
-120.0000000004074
 31
0.0
  0
LINE
  5
99
330
8C
100
AcDbEntity
  8
ﾊｯﾁﾝｸﾞ
  6
Continuous
100
AcDbLine
 10
293.4435786949471
 20
-0.0000000002910383
 30
0.0
 11
241.3712969140615
 21
-52.07228178094375
 31
0.0
  0
ENDBLK
  5
9A
330
8C
100
AcDbEntity
  8
0
100
AcDbBlockEnd
  0
BLOCK
  5
9C
330
9B
100
AcDbEntity
  8
0
100
AcDbBlockBegin
  2
RH
 70
     0
 10
0.0
 20
0.0
 30
0.0
  3
RH
  1

  0
LINE
  5
9D
330
9B
100
AcDbEntity
  8
ﾊｯﾁﾝｸﾞ
  6
Continuous
100
AcDbLine
 10
-55.85570021625607
 20
0.0
 30
0.0
 11
-0.0000000002328306
 21
-55.8557002155576
 31
0.0
  0
LINE
  5
9E
330
9B
100
AcDbEntity
  8
ﾊｯﾁﾝｸﾞ
  6
Continuous
100
AcDbLine
 10
-135.0516597093083
 20
0.0000000001164153
 30
0.0
 11
-15.05165970837697
 21
-120.0
 31
0.0
  0
LINE
  5
9F
330
9B
100
AcDbEntity
  8
ﾊｯﾁﾝｸﾞ
  6
Continuous
100
AcDbLine
 10
-214.2476192023605
 20
0.0000000001164153
 30
0.0
 11
-94.24761920166201
 21
-120.0
 31
0.0
  0
LINE
  5
A0
330
9B
100
AcDbEntity
  8
ﾊｯﾁﾝｸﾞ
  6
Continuous
100
AcDbLine
 10
-122.5773576751817
 20
-91.67026152694599
 30
0.0
 11
-150.9070961480029
 21
-120.0
 31
0.0
  0
LINE
  5
A1
330
9B
100
AcDbEntity
  8
ﾊｯﾁﾝｸﾞ
  6
Continuous
100
AcDbLine
 10
-162.1753374217078
 20
-52.07228178047808
 30
0.0
 11
-230.1030556410551
 21
-119.9999999999418
 31
0.0
  0
LINE
  5
A2
330
9B
100
AcDbEntity
  8
ﾊｯﾁﾝｸﾞ
  6
Continuous
100
AcDbLine
 10
-201.7733171680011
 20
-12.47430203406838
 30
0.0
 11
-309.2990151341073
 21
-119.9999999999418
 31
0.0
  0
LINE
  5
A3
330
9B
100
AcDbEntity
  8
ﾊｯﾁﾝｸﾞ
  6
Continuous
100
AcDbLine
 10
-360.1652361545712
 20
-91.67026152694599
 30
0.0
 11
-388.4949746271595
 21
-120.0
 31
0.0
  0
LINE
  5
A4
330
9B
100
AcDbEntity
  8
ﾊｯﾁﾝｸﾞ
  6
Continuous
100
AcDbLine
 10
-399.7632159008645
 20
-52.07228178047808
 30
0.0
 11
-467.6909341202117
 21
-119.9999999999418
 31
0.0
  0
LINE
  5
A5
330
9B
100
AcDbEntity
  8
ﾊｯﾁﾝｸﾞ
  6
Continuous
100
AcDbLine
 10
-293.4435786954127
 20
0.000000000174623
 30
0.0
 11
-241.3712969145272
 21
-52.07228178047808
 31
0.0
  0
LINE
  5
A6
330
9B
100
AcDbEntity
  8
ﾊｯﾁﾝｸﾞ
  6
Continuous
100
AcDbLine
 10
-372.6395381884649
 20
0.0000000000582077
 30
0.0
 11
-280.9692766610533
 21
-91.67026152700421
 31
0.0
  0
LINE
  5
A7
330
9B
100
AcDbEntity
  8
ﾊｯﾁﾝｸﾞ
  6
Continuous
100
AcDbLine
 10
-451.8354976815171
 20
0.0000000000582077
 30
0.0
 11
-331.8354976805858
 21
-119.9999999999418
 31
0.0
  0
LINE
  5
A8
330
9B
100
AcDbEntity
  8
ﾊｯﾁﾝｸﾞ
  6
Continuous
100
AcDbLine
 10
-439.3611956473905
 20
-12.47430203406838
 30
0.0
 11
-493.1240446302108
 21
-66.23715101700509
 31
0.0
  0
ENDBLK
  5
A9
330
9B
100
AcDbEntity
  8
0
100
AcDbBlockEnd
  0
BLOCK
  5
AB
330
AA
100
AcDbEntity
  8
0
100
AcDbBlockBegin
  2
sai450
 70
     0
 10
0.0
 20
0.0
 30
0.0
  3
sai450
  1

  0
LINE
  5
AC
330
AA
100
AcDbEntity
  8
ﾊｯﾁﾝｸﾞ
  6
Continuous
100
AcDbLine
 10
184.9591232701205
 20
0.0
 30
0.0
 11
201.0662565772654
 21
-21.8430756283924
 31
0.0
  0
LINE
  5
AD
330
AA
100
AcDbEntity
  8
ﾊｯﾁﾝｸﾞ
  6
Continuous
100
AcDbLine
 10
168.7806191118434
 20
-77.76344007329317
 30
0.0
 11
181.6189029712695
 21
-100.0
 31
0.0
  0
LINE
  5
AE
330
AA
100
AcDbEntity
  8
ﾊｯﾁﾝｸﾞ
  6
Continuous
100
AcDbLine
 10
155.9423352523008
 20
-100.0
 30
0.0
 11
213.6773621712346
 21
0.0
 31
0.0
  0
LINE
  5
AF
330
AA
100
AcDbEntity
  8
ﾊｯﾁﾝｸﾞ
  6
Continuous
100
AcDbLine
 10
64.33979487384203
 20
-100.0
 30
0.0
 11
122.0748217927758
 21
0.0
 31
0.0
  0
LINE
  5
B0
330
AA
100
AcDbEntity
  8
ﾊｯﾁﾝｸﾞ
  6
Continuous
100
AcDbLine
 10
-27.26274550461676
 20
-100.0
 30
0.0
 11
30.47228141431697
 21
0.0
 31
0.0
  0
LINE
  5
B1
330
AA
100
AcDbEntity
  8
ﾊｯﾁﾝｸﾞ
  6
Continuous
100
AcDbLine
 10
77.17807873338461
 20
-77.76344007329317
 30
0.0
 11
90.01636259281076
 21
-100.0
 31
0.0
  0
LINE
  5
B2
330
AA
100
AcDbEntity
  8
ﾊｯﾁﾝｸﾞ
  6
Continuous
100
AcDbLine
 10
-14.4244616451906
 20
-77.76344007329317
 30
0.0
 11
-1.586177785531615
 21
-100.0
 31
0.0
  0
LINE
  5
B3
330
AA
100
AcDbEntity
  8
ﾊｯﾁﾝｸﾞ
  6
Continuous
100
AcDbLine
 10
1.754042513202874
 20
0.0
 30
0.0
 11
17.86117582034785
 21
-21.8430756283924
 31
0.0
  0
LINE
  5
B4
330
AA
100
AcDbEntity
  8
ﾊｯﾁﾝｸﾞ
  6
Continuous
100
AcDbLine
 10
93.35658289166168
 20
0.0
 30
0.0
 11
109.4637161988066
 21
-21.8430756283924
 31
0.0
  0
LINE
  5
B5
330
AA
100
AcDbEntity
  8
ﾊｯﾁﾝｸﾞ
  6
Continuous
100
AcDbLine
 10
-181.4510382437146
 20
0.0
 30
0.0
 11
-165.3439049364533
 21
-21.8430756283924
 31
0.0
  0
LINE
  5
B6
330
AA
100
AcDbEntity
  8
ﾊｯﾁﾝｸﾞ
  6
Continuous
100
AcDbLine
 10
-197.6295424019918
 20
-77.76344007329317
 30
0.0
 11
-184.7912585424492
 21
-100.0
 31
0.0
  0
LINE
  5
B7
330
AA
100
AcDbEntity
  8
ﾊｯﾁﾝｸﾞ
  6
Continuous
100
AcDbLine
 10
-210.4678262615343
 20
-100.0
 30
0.0
 11
-152.7327993426006
 21
0.0
 31
0.0
  0
LINE
  5
B8
330
AA
100
AcDbEntity
  8
ﾊｯﾁﾝｸﾞ
  6
Continuous
100
AcDbLine
 10
-118.8652858830755
 20
-100.0
 30
0.0
 11
-61.13025896414182
 21
0.0
 31
0.0
  0
LINE
  5
B9
330
AA
100
AcDbEntity
  8
ﾊｯﾁﾝｸﾞ
  6
Continuous
100
AcDbLine
 10
-106.027002023533
 20
-77.76344007329317
 30
0.0
 11
-93.18871816399042
 21
-100.0
 31
0.0
  0
LINE
  5
BA
330
AA
100
AcDbEntity
  8
ﾊｯﾁﾝｸﾞ
  6
Continuous
100
AcDbLine
 10
-89.84849786525591
 20
0.0
 30
0.0
 11
-73.74136455799453
 21
-21.8430756283924
 31
0.0
  0
ENDBLK
  5
BB
330
AA
100
AcDbEntity
  8
0
100
AcDbBlockEnd
  0
BLOCK
  5
43E
330
434
100
AcDbEntity
  8
0
100
AcDbBlockBegin
  2
*D5
 70
     1
 10
0.0
 20
0.0
 30
0.0
  3
*D5
  1

  0
LINE
  5
574
330
434
100
AcDbEntity
  8
寸法
  6
Continuous
370
    -2
100
AcDbLine
 10
35988.87125015842
 20
18389.22569151654
 30
0.0
 11
37192.90539795184
 21
18389.22569151654
 31
0.0
  0
LINE
  5
575
330
434
100
AcDbEntity
  8
寸法
  6
Continuous
370
    -2
100
AcDbLine
 10
35988.87125015842
 20
21039.22569151607
 30
0.0
 11
37192.90539795184
 21
21039.22569151607
 31
0.0
  0
LINE
  5
576
330
434
100
AcDbEntity
  8
寸法
  6
Continuous
370
    -2
100
AcDbLine
 10
37192.90539795184
 20
18449.22569151654
 30
0.0
 11
37192.90539795184
 21
20979.22569151607
 31
0.0
  0
INSERT
  5
577
330
434
100
AcDbEntity
  8
寸法
  6
Continuous
370
    -2
100
AcDbBlockReference
  2
_ORIGIN
 10
37192.90539795184
 20
18389.22569151654
 30
0.0
 41
60.0
 42
60.0
 43
60.0
 50
270.0
  0
INSERT
  5
578
330
434
100
AcDbEntity
  8
寸法
  6
Continuous
370
    -2
100
AcDbBlockReference
  2
_ORIGIN
 10
37192.90539795184
 20
21039.22569151607
 30
0.0
 41
60.0
 42
60.0
 43
60.0
 50
90.0
  0
MTEXT
  5
579
330
434
100
AcDbEntity
  8
寸法
  6
Continuous
100
AcDbMText
 10
36914.33396938041
 20
19714.22569151631
 30
0.0
 40
300.0
 41
0.0
 71
     5
 72
     1
  1
\A1;2,650
  7
1_100
 11
0.0000000000000001
 21
1.0
 31
0.0
 73
     1
 44
1.0
1001
ACAD
1000
MTEXTBEGIN
1070
    73
1070
     1
1070
    44
1040
1.0
1070
    74
1070
     0
1000
MTEXTEND
  0
POINT
  5
57A
330
434
100
AcDbEntity
  8
DEFPOINTS
  6
Continuous
 62
     0
100
AcDbPoint
 10
35688.87125015842
 20
18389.22569151654
 30
0.0
  0
POINT
  5
57B
330
434
100
AcDbEntity
  8
DEFPOINTS
  6
Continuous
 62
     0
100
AcDbPoint
 10
35688.87125015842
 20
21039.22569151607
 30
0.0
  0
POINT
  5
57C
330
434
100
AcDbEntity
  8
DEFPOINTS
  6
Continuous
 62
     0
100
AcDbPoint
 10
37192.90539795184
 20
21039.22569151607
 30
0.0
  0
ENDBLK
  5
43F
330
434
100
AcDbEntity
  8
0
100
AcDbBlockEnd
  0
BLOCK
  5
44A
330
440
100
AcDbEntity
  8
0
100
AcDbBlockBegin
  2
*D6
 70
     1
 10
0.0
 20
0.0
 30
0.0
  3
*D6
  1

  0
LINE
  5
57D
330
440
100
AcDbEntity
  8
寸法
  6
Continuous
370
    -2
100
AcDbLine
 10
35988.87125015842
 20
21099.22569151596
 30
0.0
 11
38192.90539795185
 21
21099.22569151596
 31
0.0
  0
LINE
  5
57E
330
440
100
AcDbEntity
  8
寸法
  6
Continuous
370
    -2
100
AcDbLine
 10
35988.87125015842
 20
13099.22569151607
 30
0.0
 11
38192.90539795185
 21
13099.22569151607
 31
0.0
  0
LINE
  5
57F
330
440
100
AcDbEntity
  8
寸法
  6
Continuous
370
    -2
100
AcDbLine
 10
38192.90539795185
 20
21039.22569151595
 30
0.0
 11
38192.90539795185
 21
13159.22569151607
 31
0.0
  0
INSERT
  5
580
330
440
100
AcDbEntity
  8
寸法
  6
Continuous
370
    -2
100
AcDbBlockReference
  2
_ORIGIN
 10
38192.90539795185
 20
21099.22569151596
 30
0.0
 41
60.0
 42
60.0
 43
60.0
 50
90.0
  0
INSERT
  5
581
330
440
100
AcDbEntity
  8
寸法
  6
Continuous
370
    -2
100
AcDbBlockReference
  2
_ORIGIN
 10
38192.90539795185
 20
13099.22569151607
 30
0.0
 41
60.0
 42
60.0
 43
60.0
 50
270.0
  0
MTEXT
  5
582
330
440
100
AcDbEntity
  8
寸法
  6
Continuous
100
AcDbMText
 10
37914.33396938042
 20
17099.22569151602
 30
0.0
 40
300.0
 41
0.0
 71
     5
 72
     1
  1
\A1;8,000
  7
1_100
 11
0.0000000000000001
 21
1.0
 31
0.0
 73
     1
 44
1.0
1001
ACAD
1000
MTEXTBEGIN
1070
    73
1070
     1
1070
    44
1040
1.0
1070
    74
1070
     0
1000
MTEXTEND
  0
POINT
  5
583
330
440
100
AcDbEntity
  8
DEFPOINTS
  6
Continuous
 62
     0
100
AcDbPoint
 10
35688.87125015842
 20
21099.22569151596
 30
0.0
  0
POINT
  5
584
330
440
100
AcDbEntity
  8
DEFPOINTS
  6
Continuous
 62
     0
100
AcDbPoint
 10
35688.87125015842
 20
13099.22569151607
 30
0.0
  0
POINT
  5
585
330
440
100
AcDbEntity
  8
DEFPOINTS
  6
Continuous
 62
     0
100
AcDbPoint
 10
38192.90539795185
 20
13099.22569151607
 30
0.0
  0
ENDBLK
  5
44B
330
440
100
AcDbEntity
  8
0
100
AcDbBlockEnd
  0
BLOCK
  5
456
330
44C
100
AcDbEntity
  8
0
100
AcDbBlockBegin
  2
*D7
 70
     1
 10
0.0
 20
0.0
 30
0.0
  3
*D7
  1

  0
LINE
  5
586
330
44C
100
AcDbEntity
  8
寸法
  6
Continuous
370
    -2
100
AcDbLine
 10
29488.87125015842
 20
18389.22569151607
 30
0.0
 11
30592.90539795185
 21
18389.22569151607
 31
0.0
  0
LINE
  5
587
330
44C
100
AcDbEntity
  8
寸法
  6
Continuous
370
    -2
100
AcDbLine
 10
29488.87125015842
 20
21039.22569151607
 30
0.0
 11
30592.90539795185
 21
21039.22569151607
 31
0.0
  0
LINE
  5
588
330
44C
100
AcDbEntity
  8
寸法
  6
Continuous
370
    -2
100
AcDbLine
 10
30592.90539795185
 20
18449.22569151607
 30
0.0
 11
30592.90539795185
 21
20979.22569151607
 31
0.0
  0
INSERT
  5
589
330
44C
100
AcDbEntity
  8
寸法
  6
Continuous
370
    -2
100
AcDbBlockReference
  2
_ORIGIN
 10
30592.90539795185
 20
18389.22569151607
 30
0.0
 41
60.0
 42
60.0
 43
60.0
 50
270.0
  0
INSERT
  5
58A
330
44C
100
AcDbEntity
  8
寸法
  6
Continuous
370
    -2
100
AcDbBlockReference
  2
_ORIGIN
 10
30592.90539795185
 20
21039.22569151607
 30
0.0
 41
60.0
 42
60.0
 43
60.0
 50
90.0
  0
MTEXT
  5
58B
330
44C
100
AcDbEntity
  8
寸法
  6
Continuous
100
AcDbMText
 10
30314.33396938042
 20
19714.22569151607
 30
0.0
 40
300.0
 41
0.0
 71
     5
 72
     1
  1
\A1;2,650
  7
1_100
 11
0.0000000000000001
 21
1.0
 31
0.0
 73
     1
 44
1.0
1001
ACAD
1000
MTEXTBEGIN
1070
    73
1070
     1
1070
    44
1040
1.0
1070
    74
1070
     0
1000
MTEXTEND
  0
POINT
  5
58C
330
44C
100
AcDbEntity
  8
DEFPOINTS
  6
Continuous
 62
     0
100
AcDbPoint
 10
29188.87125015842
 20
18389.22569151607
 30
0.0
  0
POINT
  5
58D
330
44C
100
AcDbEntity
  8
DEFPOINTS
  6
Continuous
 62
     0
100
AcDbPoint
 10
29188.87125015842
 20
21039.22569151607
 30
0.0
  0
POINT
  5
58E
330
44C
100
AcDbEntity
  8
DEFPOINTS
  6
Continuous
 62
     0
100
AcDbPoint
 10
30592.90539795185
 20
21039.22569151607
 30
0.0
  0
ENDBLK
  5
457
330
44C
100
AcDbEntity
  8
0
100
AcDbBlockEnd
  0
BLOCK
  5
462
330
458
100
AcDbEntity
  8
0
100
AcDbBlockBegin
  2
*D8
 70
     1
 10
0.0
 20
0.0
 30
0.0
  3
*D8
  1

  0
LINE
  5
58F
330
458
100
AcDbEntity
  8
寸法
  6
Continuous
370
    -2
100
AcDbLine
 10
29488.87125015842
 20
21099.22569151607
 30
0.0
 11
31592.90539795185
 21
21099.22569151607
 31
0.0
  0
LINE
  5
590
330
458
100
AcDbEntity
  8
寸法
  6
Continuous
370
    -2
100
AcDbLine
 10
29488.87125015842
 20
13099.22569151607
 30
0.0
 11
31592.90539795185
 21
13099.22569151607
 31
0.0
  0
LINE
  5
591
330
458
100
AcDbEntity
  8
寸法
  6
Continuous
370
    -2
100
AcDbLine
 10
31592.90539795185
 20
21039.22569151607
 30
0.0
 11
31592.90539795185
 21
13159.22569151607
 31
0.0
  0
INSERT
  5
592
330
458
100
AcDbEntity
  8
寸法
  6
Continuous
370
    -2
100
AcDbBlockReference
  2
_ORIGIN
 10
31592.90539795185
 20
21099.22569151607
 30
0.0
 41
60.0
 42
60.0
 43
60.0
 50
90.0
  0
INSERT
  5
593
330
458
100
AcDbEntity
  8
寸法
  6
Continuous
370
    -2
100
AcDbBlockReference
  2
_ORIGIN
 10
31592.90539795185
 20
13099.22569151607
 30
0.0
 41
60.0
 42
60.0
 43
60.0
 50
270.0
  0
MTEXT
  5
594
330
458
100
AcDbEntity
  8
寸法
  6
Continuous
100
AcDbMText
 10
31314.33396938042
 20
17099.22569151608
 30
0.0
 40
300.0
 41
0.0
 71
     5
 72
     1
  1
\A1;8,000
  7
1_100
 11
0.0000000000000001
 21
1.0
 31
0.0
 73
     1
 44
1.0
1001
ACAD
1000
MTEXTBEGIN
1070
    73
1070
     1
1070
    44
1040
1.0
1070
    74
1070
     0
1000
MTEXTEND
  0
POINT
  5
595
330
458
100
AcDbEntity
  8
DEFPOINTS
  6
Continuous
 62
     0
100
AcDbPoint
 10
29188.87125015842
 20
21099.22569151607
 30
0.0
  0
POINT
  5
596
330
458
100
AcDbEntity
  8
DEFPOINTS
  6
Continuous
 62
     0
100
AcDbPoint
 10
29188.87125015842
 20
13099.22569151607
 30
0.0
  0
POINT
  5
597
330
458
100
AcDbEntity
  8
DEFPOINTS
  6
Continuous
 62
     0
100
AcDbPoint
 10
31592.90539795185
 20
13099.22569151607
 30
0.0
  0
ENDBLK
  5
463
330
458
100
AcDbEntity
  8
0
100
AcDbBlockEnd
  0
BLOCK
  5
470
330
464
100
AcDbEntity
  8
0
100
AcDbBlockBegin
  2
*D9
 70
     1
 10
0.0
 20
0.0
 30
0.0
  3
*D9
  1

  0
LINE
  5
598
330
464
100
AcDbEntity
  8
寸法
  6
Continuous
370
    -2
100
AcDbLine
 10
11938.87125015842
 20
10699.22569151584
 30
0.0
 11
11938.87125015842
 21
9999.225691515723
 31
0.0
  0
LINE
  5
599
330
464
100
AcDbEntity
  8
寸法
  6
Continuous
370
    -2
100
AcDbLine
 10
12438.87125015842
 20
10699.22569151584
 30
0.0
 11
12438.87125015842
 21
9999.225691515723
 31
0.0
  0
LINE
  5
59A
330
464
100
AcDbEntity
  8
寸法
  6
Continuous
370
    -2
100
AcDbLine
 10
11878.87125015842
 20
9999.225691515723
 30
0.0
 11
11818.87125015842
 21
9999.225691515723
 31
0.0
  0
LINE
  5
59B
330
464
100
AcDbEntity
  8
寸法
  6
Continuous
370
    -2
100
AcDbLine
 10
12498.87125015842
 20
9999.225691515723
 30
0.0
 11
12558.87125015842
 21
9999.225691515723
 31
0.0
  0
LINE
  5
59C
330
464
100
AcDbEntity
  8
寸法
  6
Continuous
370
    -2
100
AcDbLine
 10
11938.87125015842
 20
9999.225691515723
 30
0.0
 11
12438.87125015842
 21
9999.225691515723
 31
0.0
  0
INSERT
  5
59D
330
464
100
AcDbEntity
  8
寸法
  6
Continuous
370
    -2
100
AcDbBlockReference
  2
_ORIGIN
 10
11938.87125015842
 20
9999.225691515723
 30
0.0
 41
60.0
 42
60.0
 43
60.0
  0
INSERT
  5
59E
330
464
100
AcDbEntity
  8
寸法
  6
Continuous
370
    -2
100
AcDbBlockReference
  2
_ORIGIN
 10
12438.87125015842
 20
9999.225691515723
 30
0.0
 41
60.0
 42
60.0
 43
60.0
 50
180.0
  0
MTEXT
  5
59F
330
464
100
AcDbEntity
  8
寸法
  6
Continuous
100
AcDbMText
 10
12188.87125015842
 20
9749.225691515723
 30
0.0
 40
300.0
 41
0.0
 71
     5
 72
     1
  1
\A1;□500
  7
1_100
 73
     1
 44
1.0
1001
ACAD
1000
MTEXTBEGIN
1070
    73
1070
     1
1070
    44
1040
1.0
1070
    74
1070
     0
1000
MTEXTEND
  0
POINT
  5
5A0
330
464
100
AcDbEntity
  8
DEFPOINTS
  6
Continuous
 62
     0
100
AcDbPoint
 10
11938.87125015842
 20
10999.22569151584
 30
0.0
  0
POINT
  5
5A1
330
464
100
AcDbEntity
  8
DEFPOINTS
  6
Continuous
 62
     0
100
AcDbPoint
 10
12438.87125015842
 20
10999.22569151584
 30
0.0
  0
POINT
  5
5A2
330
464
100
AcDbEntity
  8
DEFPOINTS
  6
Continuous
 62
     0
100
AcDbPoint
 10
12438.87125015842
 20
9999.225691515723
 30
0.0
  0
ENDBLK
  5
471
330
464
100
AcDbEntity
  8
0
100
AcDbBlockEnd
  0
BLOCK
  5
47C
330
472
100
AcDbEntity
  8
0
100
AcDbBlockBegin
  2
*D10
 70
     1
 10
0.0
 20
0.0
 30
0.0
  3
*D10
  1

  0
LINE
  5
5A3
330
472
100
AcDbEntity
  8
寸法
  6
Continuous
370
    -2
100
AcDbLine
 10
11963.87125015842
 20
10699.22569151584
 30
0.0
 11
11963.87125015842
 21
10399.22569151584
 31
0.0
  0
LINE
  5
5A4
330
472
100
AcDbEntity
  8
寸法
  6
Continuous
370
    -2
100
AcDbLine
 10
12413.87125015842
 20
10699.22569151584
 30
0.0
 11
12413.87125015842
 21
10399.22569151584
 31
0.0
  0
LINE
  5
5A5
330
472
100
AcDbEntity
  8
寸法
  6
Continuous
370
    -2
100
AcDbLine
 10
12023.87125015842
 20
10399.22569151584
 30
0.0
 11
12353.87125015842
 21
10399.22569151584
 31
0.0
  0
MTEXT
  5
5A6
330
472
100
AcDbEntity
  8
寸法
  6
Continuous
100
AcDbMText
 10
11387.48101396417
 20
10580.55935310479
 30
0.0
 40
300.0
 41
0.0
 71
     5
 72
     1
  1
\A1;φ450
  7
1_100
 73
     1
 44
1.0
1001
ACAD
1000
MTEXTBEGIN
1070
    73
1070
     1
1070
    44
1040
1.0
1070
    74
1070
     0
1000
MTEXTEND
  0
INSERT
  5
5A7
330
472
100
AcDbEntity
  8
寸法
  6
Continuous
370
    -2
100
AcDbBlockReference
  2
_ORIGIN
 10
11963.87125015842
 20
10399.22569151584
 30
0.0
 41
60.0
 42
60.0
 43
60.0
 50
180.0
  0
INSERT
  5
5A8
330
472
100
AcDbEntity
  8
寸法
  6
Continuous
370
    -2
100
AcDbBlockReference
  2
_ORIGIN
 10
12413.87125015842
 20
10399.22569151584
 30
0.0
 41
60.0
 42
60.0
 43
60.0
  0
POINT
  5
5A9
330
472
100
AcDbEntity
  8
DEFPOINTS
  6
Continuous
 62
     0
100
AcDbPoint
 10
11963.87125015842
 20
10999.22569151584
 30
0.0
  0
POINT
  5
5AA
330
472
100
AcDbEntity
  8
DEFPOINTS
  6
Continuous
 62
     0
100
AcDbPoint
 10
12413.87125015842
 20
10999.22569151584
 30
0.0
  0
POINT
  5
5AB
330
472
100
AcDbEntity
  8
DEFPOINTS
  6
Continuous
 62
     0
100
AcDbPoint
 10
12413.87125015842
 20
10399.22569151584
 30
0.0
  0
ENDBLK
  5
47D
330
472
100
AcDbEntity
  8
0
100
AcDbBlockEnd
  0
BLOCK
  5
488
330
47E
100
AcDbEntity
  8
0
100
AcDbBlockBegin
  2
*D11
 70
     1
 10
0.0
 20
0.0
 30
0.0
  3
*D11
  1

  0
LINE
  5
5AC
330
47E
100
AcDbEntity
  8
寸法
  6
Continuous
370
    -2
100
AcDbLine
 10
12188.87125015842
 20
9299.22569151572
 30
0.0
 11
12188.87125015842
 21
7999.225691515491
 31
0.0
  0
LINE
  5
5AD
330
47E
100
AcDbEntity
  8
寸法
  6
Continuous
370
    -2
100
AcDbLine
 10
22188.87125015842
 20
10406.75821972254
 30
0.0
 11
22188.87125015842
 21
7999.225691515491
 31
0.0
  0
LINE
  5
5AE
330
47E
100
AcDbEntity
  8
寸法
  6
Continuous
370
    -2
100
AcDbLine
 10
12248.87125015842
 20
7999.225691515491
 30
0.0
 11
22128.87125015842
 21
7999.225691515491
 31
0.0
  0
INSERT
  5
5AF
330
47E
100
AcDbEntity
  8
寸法
  6
Continuous
370
    -2
100
AcDbBlockReference
  2
_ORIGIN
 10
12188.87125015842
 20
7999.225691515491
 30
0.0
 41
60.0
 42
60.0
 43
60.0
 50
180.0
  0
INSERT
  5
5B0
330
47E
100
AcDbEntity
  8
寸法
  6
Continuous
370
    -2
100
AcDbBlockReference
  2
_ORIGIN
 10
22188.87125015842
 20
7999.225691515491
 30
0.0
 41
60.0
 42
60.0
 43
60.0
  0
MTEXT
  5
5B1
330
47E
100
AcDbEntity
  8
寸法
  6
Continuous
100
AcDbMText
 10
17188.87125015842
 20
8277.797120086916
 30
0.0
 40
300.0
 41
0.0
 71
     5
 72
     1
  1
\A1;10,000
  7
1_100
 73
     1
 44
1.0
1001
ACAD
1000
MTEXTBEGIN
1070
    73
1070
     1
1070
    44
1040
1.0
1070
    74
1070
     0
1000
MTEXTEND
  0
POINT
  5
5B2
330
47E
100
AcDbEntity
  8
DEFPOINTS
  6
Continuous
 62
     0
100
AcDbPoint
 10
12188.87125015842
 20
9599.225691515723
 30
0.0
  0
POINT
  5
5B3
330
47E
100
AcDbEntity
  8
DEFPOINTS
  6
Continuous
 62
     0
100
AcDbPoint
 10
22188.87125015842
 20
10706.75821972254
 30
0.0
  0
POINT
  5
5B4
330
47E
100
AcDbEntity
  8
DEFPOINTS
  6
Continuous
 62
     0
100
AcDbPoint
 10
22188.87125015842
 20
7999.225691515491
 30
0.0
  0
ENDBLK
  5
489
330
47E
100
AcDbEntity
  8
0
100
AcDbBlockEnd
  0
BLOCK
  5
494
330
48A
100
AcDbEntity
  8
0
100
AcDbBlockBegin
  2
*D12
 70
     1
 10
0.0
 20
0.0
 30
0.0
  3
*D12
  1

  0
LINE
  5
5B5
330
48A
100
AcDbEntity
  8
寸法
  6
Continuous
370
    -2
100
AcDbLine
 10
35988.87125015842
 20
13099.22569151607
 30
0.0
 11
38192.90539795185
 21
13099.22569151607
 31
0.0
  0
LINE
  5
5B6
330
48A
100
AcDbEntity
  8
寸法
  6
Continuous
370
    -2
100
AcDbLine
 10
35988.87125015842
 20
11099.22569151607
 30
0.0
 11
38192.90539795185
 21
11099.22569151607
 31
0.0
  0
LINE
  5
5B7
330
48A
100
AcDbEntity
  8
寸法
  6
Continuous
370
    -2
100
AcDbLine
 10
38192.90539795185
 20
13039.22569151607
 30
0.0
 11
38192.90539795185
 21
11159.22569151607
 31
0.0
  0
INSERT
  5
5B8
330
48A
100
AcDbEntity
  8
寸法
  6
Continuous
370
    -2
100
AcDbBlockReference
  2
_ORIGIN
 10
38192.90539795185
 20
13099.22569151607
 30
0.0
 41
60.0
 42
60.0
 43
60.0
 50
90.0
  0
INSERT
  5
5B9
330
48A
100
AcDbEntity
  8
寸法
  6
Continuous
370
    -2
100
AcDbBlockReference
  2
_ORIGIN
 10
38192.90539795185
 20
11099.22569151607
 30
0.0
 41
60.0
 42
60.0
 43
60.0
 50
270.0
  0
MTEXT
  5
5BA
330
48A
100
AcDbEntity
  8
寸法
  6
Continuous
100
AcDbMText
 10
37914.33396938042
 20
12099.22569151608
 30
0.0
 40
300.0
 41
0.0
 71
     5
 72
     1
  1
\A1;2,000
  7
1_100
 11
0.0000000000000001
 21
1.0
 31
0.0
 73
     1
 44
1.0
1001
ACAD
1000
MTEXTBEGIN
1070
    73
1070
     1
1070
    44
1040
1.0
1070
    74
1070
     0
1000
MTEXTEND
  0
POINT
  5
5BB
330
48A
100
AcDbEntity
  8
DEFPOINTS
  6
Continuous
 62
     0
100
AcDbPoint
 10
35688.87125015842
 20
13099.22569151607
 30
0.0
  0
POINT
  5
5BC
330
48A
100
AcDbEntity
  8
DEFPOINTS
  6
Continuous
 62
     0
100
AcDbPoint
 10
35688.87125015842
 20
11099.22569151607
 30
0.0
  0
POINT
  5
5BD
330
48A
100
AcDbEntity
  8
DEFPOINTS
  6
Continuous
 62
     0
100
AcDbPoint
 10
38192.90539795185
 20
11099.22569151607
 30
0.0
  0
ENDBLK
  5
495
330
48A
100
AcDbEntity
  8
0
100
AcDbBlockEnd
  0
BLOCK
  5
4A2
330
496
100
AcDbEntity
  8
0
100
AcDbBlockBegin
  2
*D13
 70
     1
 10
0.0
 20
0.0
 30
0.0
  3
*D13
  1

  0
LINE
  5
5BE
330
496
100
AcDbEntity
  8
寸法
  6
Continuous
370
    -2
100
AcDbLine
 10
35988.87125015842
 20
12899.22569151607
 30
0.0
 11
37192.90539795184
 21
12899.22569151607
 31
0.0
  0
LINE
  5
5BF
330
496
100
AcDbEntity
  8
寸法
  6
Continuous
370
    -2
100
AcDbLine
 10
35988.87125015842
 20
13099.22569151607
 30
0.0
 11
37192.90539795184
 21
13099.22569151607
 31
0.0
  0
LINE
  5
5C0
330
496
100
AcDbEntity
  8
寸法
  6
Continuous
370
    -2
100
AcDbLine
 10
37192.90539795184
 20
12839.22569151607
 30
0.0
 11
37192.90539795184
 21
12779.22569151607
 31
0.0
  0
LINE
  5
5C1
330
496
100
AcDbEntity
  8
寸法
  6
Continuous
370
    -2
100
AcDbLine
 10
37192.90539795184
 20
13159.22569151607
 30
0.0
 11
37192.90539795184
 21
13219.22569151607
 31
0.0
  0
MTEXT
  5
5C2
330
496
100
AcDbEntity
  8
寸法
  6
Continuous
100
AcDbMText
 10
37439.31968599908
 20
12732.68880561309
 30
0.0
 40
300.0
 41
0.0
 71
     5
 72
     1
  1
\A1;200
  7
1_100
 11
0.0000000000000001
 21
1.0
 31
0.0
 73
     1
 44
1.0
1001
ACAD
1000
MTEXTBEGIN
1070
    73
1070
     1
1070
    44
1040
1.0
1070
    74
1070
     0
1000
MTEXTEND
  0
LINE
  5
5C3
330
496
100
AcDbEntity
  8
寸法
  6
Continuous
370
    -2
100
AcDbLine
 10
37192.90539795184
 20
12899.22569151607
 30
0.0
 11
37192.90539795184
 21
13099.22569151607
 31
0.0
  0
INSERT
  5
5C4
330
496
100
AcDbEntity
  8
寸法
  6
Continuous
370
    -2
100
AcDbBlockReference
  2
_ORIGIN
 10
37192.90539795184
 20
12899.22569151607
 30
0.0
 41
60.0
 42
60.0
 43
60.0
 50
90.0
  0
INSERT
  5
5C5
330
496
100
AcDbEntity
  8
寸法
  6
Continuous
370
    -2
100
AcDbBlockReference
  2
_ORIGIN
 10
37192.90539795184
 20
13099.22569151607
 30
0.0
 41
60.0
 42
60.0
 43
60.0
 50
270.0
  0
POINT
  5
5C6
330
496
100
AcDbEntity
  8
DEFPOINTS
  6
Continuous
 62
     0
100
AcDbPoint
 10
35688.87125015842
 20
12899.22569151607
 30
0.0
  0
POINT
  5
5C7
330
496
100
AcDbEntity
  8
DEFPOINTS
  6
Continuous
 62
     0
100
AcDbPoint
 10
35688.87125015842
 20
13099.22569151607
 30
0.0
  0
POINT
  5
5C8
330
496
100
AcDbEntity
  8
DEFPOINTS
  6
Continuous
 62
     0
100
AcDbPoint
 10
37192.90539795184
 20
13099.22569151607
 30
0.0
  0
ENDBLK
  5
4A3
330
496
100
AcDbEntity
  8
0
100
AcDbBlockEnd
  0
BLOCK
  5
4AE
330
4A4
100
AcDbEntity
  8
0
100
AcDbBlockBegin
  2
*D14
 70
     1
 10
0.0
 20
0.0
 30
0.0
  3
*D14
  1

  0
LINE
  5
5C9
330
4A4
100
AcDbEntity
  8
寸法
  6
Continuous
370
    -2
100
AcDbLine
 10
35988.87125015842
 20
11099.22569151607
 30
0.0
 11
37192.90539795184
 21
11099.22569151607
 31
0.0
  0
LINE
  5
5CA
330
4A4
100
AcDbEntity
  8
寸法
  6
Continuous
370
    -2
100
AcDbLine
 10
35988.87125015842
 20
12899.22569151607
 30
0.0
 11
37192.90539795184
 21
12899.22569151607
 31
0.0
  0
LINE
  5
5CB
330
4A4
100
AcDbEntity
  8
寸法
  6
Continuous
370
    -2
100
AcDbLine
 10
37192.90539795184
 20
11159.22569151607
 30
0.0
 11
37192.90539795184
 21
12839.22569151607
 31
0.0
  0
INSERT
  5
5CC
330
4A4
100
AcDbEntity
  8
寸法
  6
Continuous
370
    -2
100
AcDbBlockReference
  2
_ORIGIN
 10
37192.90539795184
 20
11099.22569151607
 30
0.0
 41
60.0
 42
60.0
 43
60.0
 50
270.0
  0
INSERT
  5
5CD
330
4A4
100
AcDbEntity
  8
寸法
  6
Continuous
370
    -2
100
AcDbBlockReference
  2
_ORIGIN
 10
37192.90539795184
 20
12899.22569151607
 30
0.0
 41
60.0
 42
60.0
 43
60.0
 50
90.0
  0
MTEXT
  5
5CE
330
4A4
100
AcDbEntity
  8
寸法
  6
Continuous
100
AcDbMText
 10
36914.33396938041
 20
11999.22569151607
 30
0.0
 40
300.0
 41
0.0
 71
     5
 72
     1
  1
\A1;1,800
  7
1_100
 11
0.0000000000000001
 21
1.0
 31
0.0
 73
     1
 44
1.0
1001
ACAD
1000
MTEXTBEGIN
1070
    73
1070
     1
1070
    44
1040
1.0
1070
    74
1070
     0
1000
MTEXTEND
  0
POINT
  5
5CF
330
4A4
100
AcDbEntity
  8
DEFPOINTS
  6
Continuous
 62
     0
100
AcDbPoint
 10
35688.87125015842
 20
11099.22569151607
 30
0.0
  0
POINT
  5
5D0
330
4A4
100
AcDbEntity
  8
DEFPOINTS
  6
Continuous
 62
     0
100
AcDbPoint
 10
35688.87125015842
 20
12899.22569151607
 30
0.0
  0
POINT
  5
5D1
330
4A4
100
AcDbEntity
  8
DEFPOINTS
  6
Continuous
 62
     0
100
AcDbPoint
 10
37192.90539795184
 20
12899.22569151607
 30
0.0
  0
ENDBLK
  5
4AF
330
4A4
100
AcDbEntity
  8
0
100
AcDbBlockEnd
  0
BLOCK
  5
4BC
330
4B0
100
AcDbEntity
  8
0
100
AcDbBlockBegin
  2
*D15
 70
     1
 10
0.0
 20
0.0
 30
0.0
  3
*D15
  1

  0
LINE
  5
5D2
330
4B0
100
AcDbEntity
  8
寸法
  6
Continuous
370
    -2
100
AcDbLine
 10
35988.87125015842
 20
10999.22569151607
 30
0.0
 11
37192.90539795184
 21
10999.22569151607
 31
0.0
  0
LINE
  5
5D3
330
4B0
100
AcDbEntity
  8
寸法
  6
Continuous
370
    -2
100
AcDbLine
 10
35988.87125015842
 20
11099.22569151607
 30
0.0
 11
37192.90539795184
 21
11099.22569151607
 31
0.0
  0
LINE
  5
5D4
330
4B0
100
AcDbEntity
  8
寸法
  6
Continuous
370
    -2
100
AcDbLine
 10
37192.90539795184
 20
10939.22569151607
 30
0.0
 11
37192.90539795184
 21
10879.22569151607
 31
0.0
  0
LINE
  5
5D5
330
4B0
100
AcDbEntity
  8
寸法
  6
Continuous
370
    -2
100
AcDbLine
 10
37192.90539795184
 20
11159.22569151607
 30
0.0
 11
37192.90539795184
 21
11219.22569151607
 31
0.0
  0
MTEXT
  5
5D6
330
4B0
100
AcDbEntity
  8
寸法
  6
Continuous
100
AcDbMText
 10
36920.89698778163
 20
10616.96804888721
 30
0.0
 40
300.0
 41
0.0
 71
     5
 72
     1
  1
\A1;100
  7
1_100
 11
0.0000000000000001
 21
1.0
 31
0.0
 73
     1
 44
1.0
1001
ACAD
1000
MTEXTBEGIN
1070
    73
1070
     1
1070
    44
1040
1.0
1070
    74
1070
     0
1000
MTEXTEND
  0
LINE
  5
5D7
330
4B0
100
AcDbEntity
  8
寸法
  6
Continuous
370
    -2
100
AcDbLine
 10
37192.90539795184
 20
10999.22569151607
 30
0.0
 11
37192.90539795184
 21
11099.22569151607
 31
0.0
  0
INSERT
  5
5D8
330
4B0
100
AcDbEntity
  8
寸法
  6
Continuous
370
    -2
100
AcDbBlockReference
  2
_ORIGIN
 10
37192.90539795184
 20
10999.22569151607
 30
0.0
 41
60.0
 42
60.0
 43
60.0
 50
90.0
  0
INSERT
  5
5D9
330
4B0
100
AcDbEntity
  8
寸法
  6
Continuous
370
    -2
100
AcDbBlockReference
  2
_ORIGIN
 10
37192.90539795184
 20
11099.22569151607
 30
0.0
 41
60.0
 42
60.0
 43
60.0
 50
270.0
  0
POINT
  5
5DA
330
4B0
100
AcDbEntity
  8
DEFPOINTS
  6
Continuous
 62
     0
100
AcDbPoint
 10
35688.87125015842
 20
10999.22569151607
 30
0.0
  0
POINT
  5
5DB
330
4B0
100
AcDbEntity
  8
DEFPOINTS
  6
Continuous
 62
     0
100
AcDbPoint
 10
35688.87125015842
 20
11099.22569151607
 30
0.0
  0
POINT
  5
5DC
330
4B0
100
AcDbEntity
  8
DEFPOINTS
  6
Continuous
 62
     0
100
AcDbPoint
 10
37192.90539795184
 20
11099.22569151607
 30
0.0
  0
ENDBLK
  5
4BD
330
4B0
100
AcDbEntity
  8
0
100
AcDbBlockEnd
  0
BLOCK
  5
4C8
330
4BE
100
AcDbEntity
  8
0
100
AcDbBlockBegin
  2
*D16
 70
     1
 10
0.0
 20
0.0
 30
0.0
  3
*D16
  1

  0
LINE
  5
5DD
330
4BE
100
AcDbEntity
  8
寸法
  6
Continuous
370
    -2
100
AcDbLine
 10
35988.87125015842
 20
13099.22569151607
 30
0.0
 11
37192.90539795184
 21
13099.22569151607
 31
0.0
  0
LINE
  5
5DE
330
4BE
100
AcDbEntity
  8
寸法
  6
Continuous
370
    -2
100
AcDbLine
 10
35988.87125015842
 20
15739.22569151654
 30
0.0
 11
37192.90539795184
 21
15739.22569151653
 31
0.0
  0
LINE
  5
5DF
330
4BE
100
AcDbEntity
  8
寸法
  6
Continuous
370
    -2
100
AcDbLine
 10
37192.90539795184
 20
13159.22569151607
 30
0.0
 11
37192.90539795184
 21
15679.22569151653
 31
0.0
  0
INSERT
  5
5E0
330
4BE
100
AcDbEntity
  8
寸法
  6
Continuous
370
    -2
100
AcDbBlockReference
  2
_ORIGIN
 10
37192.90539795184
 20
13099.22569151607
 30
0.0
 41
60.0
 42
60.0
 43
60.0
 50
270.0
  0
INSERT
  5
5E1
330
4BE
100
AcDbEntity
  8
寸法
  6
Continuous
370
    -2
100
AcDbBlockReference
  2
_ORIGIN
 10
37192.90539795184
 20
15739.22569151653
 30
0.0
 41
60.0
 42
60.0
 43
60.0
 50
90.0
  0
MTEXT
  5
5E2
330
4BE
100
AcDbEntity
  8
寸法
  6
Continuous
100
AcDbMText
 10
36914.33396938041
 20
14419.22569151631
 30
0.0
 40
300.0
 41
0.0
 71
     5
 72
     1
  1
\A1;2,640
  7
1_100
 11
0.0000000000000001
 21
1.0
 31
0.0
 73
     1
 44
1.0
1001
ACAD
1000
MTEXTBEGIN
1070
    73
1070
     1
1070
    44
1040
1.0
1070
    74
1070
     0
1000
MTEXTEND
  0
POINT
  5
5E3
330
4BE
100
AcDbEntity
  8
DEFPOINTS
  6
Continuous
 62
     0
100
AcDbPoint
 10
35688.87125015842
 20
13099.22569151607
 30
0.0
  0
POINT
  5
5E4
330
4BE
100
AcDbEntity
  8
DEFPOINTS
  6
Continuous
 62
     0
100
AcDbPoint
 10
35688.87125015842
 20
15739.22569151654
 30
0.0
  0
POINT
  5
5E5
330
4BE
100
AcDbEntity
  8
DEFPOINTS
  6
Continuous
 62
     0
100
AcDbPoint
 10
37192.90539795184
 20
15739.22569151653
 30
0.0
  0
ENDBLK
  5
4C9
330
4BE
100
AcDbEntity
  8
0
100
AcDbBlockEnd
  0
BLOCK
  5
4D4
330
4CA
100
AcDbEntity
  8
0
100
AcDbBlockBegin
  2
*D17
 70
     1
 10
0.0
 20
0.0
 30
0.0
  3
*D17
  1

  0
LINE
  5
5E6
330
4CA
100
AcDbEntity
  8
寸法
  6
Continuous
370
    -2
100
AcDbLine
 10
35988.87125015842
 20
15739.22569151654
 30
0.0
 11
37192.90539795184
 21
15739.22569151653
 31
0.0
  0
LINE
  5
5E7
330
4CA
100
AcDbEntity
  8
寸法
  6
Continuous
370
    -2
100
AcDbLine
 10
35988.87125015842
 20
18389.22569151654
 30
0.0
 11
37192.90539795184
 21
18389.22569151654
 31
0.0
  0
LINE
  5
5E8
330
4CA
100
AcDbEntity
  8
寸法
  6
Continuous
370
    -2
100
AcDbLine
 10
37192.90539795184
 20
15799.22569151653
 30
0.0
 11
37192.90539795184
 21
18329.22569151654
 31
0.0
  0
INSERT
  5
5E9
330
4CA
100
AcDbEntity
  8
寸法
  6
Continuous
370
    -2
100
AcDbBlockReference
  2
_ORIGIN
 10
37192.90539795184
 20
15739.22569151653
 30
0.0
 41
60.0
 42
60.0
 43
60.0
 50
270.0
  0
INSERT
  5
5EA
330
4CA
100
AcDbEntity
  8
寸法
  6
Continuous
370
    -2
100
AcDbBlockReference
  2
_ORIGIN
 10
37192.90539795184
 20
18389.22569151654
 30
0.0
 41
60.0
 42
60.0
 43
60.0
 50
90.0
  0
MTEXT
  5
5EB
330
4CA
100
AcDbEntity
  8
寸法
  6
Continuous
100
AcDbMText
 10
36914.33396938041
 20
17064.22569151654
 30
0.0
 40
300.0
 41
0.0
 71
     5
 72
     1
  1
\A1;2,650
  7
1_100
 11
0.0000000000000001
 21
1.0
 31
0.0
 73
     1
 44
1.0
1001
ACAD
1000
MTEXTBEGIN
1070
    73
1070
     1
1070
    44
1040
1.0
1070
    74
1070
     0
1000
MTEXTEND
  0
POINT
  5
5EC
330
4CA
100
AcDbEntity
  8
DEFPOINTS
  6
Continuous
 62
     0
100
AcDbPoint
 10
35688.87125015842
 20
15739.22569151654
 30
0.0
  0
POINT
  5
5ED
330
4CA
100
AcDbEntity
  8
DEFPOINTS
  6
Continuous
 62
     0
100
AcDbPoint
 10
35688.87125015842
 20
18389.22569151654
 30
0.0
  0
POINT
  5
5EE
330
4CA
100
AcDbEntity
  8
DEFPOINTS
  6
Continuous
 62
     0
100
AcDbPoint
 10
37192.90539795184
 20
18389.22569151654
 30
0.0
  0
ENDBLK
  5
4D5
330
4CA
100
AcDbEntity
  8
0
100
AcDbBlockEnd
  0
BLOCK
  5
4E0
330
4D6
100
AcDbEntity
  8
0
100
AcDbBlockBegin
  2
*D18
 70
     1
 10
0.0
 20
0.0
 30
0.0
  3
*D18
  1

  0
LINE
  5
5EF
330
4D6
100
AcDbEntity
  8
寸法
  6
Continuous
370
    -2
100
AcDbLine
 10
29488.87125015842
 20
13099.22569151607
 30
0.0
 11
31592.90539795185
 21
13099.22569151607
 31
0.0
  0
LINE
  5
5F0
330
4D6
100
AcDbEntity
  8
寸法
  6
Continuous
370
    -2
100
AcDbLine
 10
29488.87125015842
 20
11099.22569151607
 30
0.0
 11
31592.90539795185
 21
11099.22569151607
 31
0.0
  0
LINE
  5
5F1
330
4D6
100
AcDbEntity
  8
寸法
  6
Continuous
370
    -2
100
AcDbLine
 10
31592.90539795185
 20
13039.22569151607
 30
0.0
 11
31592.90539795185
 21
11159.22569151607
 31
0.0
  0
INSERT
  5
5F2
330
4D6
100
AcDbEntity
  8
寸法
  6
Continuous
370
    -2
100
AcDbBlockReference
  2
_ORIGIN
 10
31592.90539795185
 20
13099.22569151607
 30
0.0
 41
60.0
 42
60.0
 43
60.0
 50
90.0
  0
INSERT
  5
5F3
330
4D6
100
AcDbEntity
  8
寸法
  6
Continuous
370
    -2
100
AcDbBlockReference
  2
_ORIGIN
 10
31592.90539795185
 20
11099.22569151607
 30
0.0
 41
60.0
 42
60.0
 43
60.0
 50
270.0
  0
MTEXT
  5
5F4
330
4D6
100
AcDbEntity
  8
寸法
  6
Continuous
100
AcDbMText
 10
31314.33396938042
 20
12099.22569151608
 30
0.0
 40
300.0
 41
0.0
 71
     5
 72
     1
  1
\A1;2,000
  7
1_100
 11
0.0000000000000001
 21
1.0
 31
0.0
 73
     1
 44
1.0
1001
ACAD
1000
MTEXTBEGIN
1070
    73
1070
     1
1070
    44
1040
1.0
1070
    74
1070
     0
1000
MTEXTEND
  0
POINT
  5
5F5
330
4D6
100
AcDbEntity
  8
DEFPOINTS
  6
Continuous
 62
     0
100
AcDbPoint
 10
29188.87125015842
 20
13099.22569151607
 30
0.0
  0
POINT
  5
5F6
330
4D6
100
AcDbEntity
  8
DEFPOINTS
  6
Continuous
 62
     0
100
AcDbPoint
 10
29188.87125015842
 20
11099.22569151607
 30
0.0
  0
POINT
  5
5F7
330
4D6
100
AcDbEntity
  8
DEFPOINTS
  6
Continuous
 62
     0
100
AcDbPoint
 10
31592.90539795185
 20
11099.22569151607
 30
0.0
  0
ENDBLK
  5
4E1
330
4D6
100
AcDbEntity
  8
0
100
AcDbBlockEnd
  0
BLOCK
  5
4EE
330
4E2
100
AcDbEntity
  8
0
100
AcDbBlockBegin
  2
*D19
 70
     1
 10
0.0
 20
0.0
 30
0.0
  3
*D19
  1

  0
LINE
  5
5F8
330
4E2
100
AcDbEntity
  8
寸法
  6
Continuous
370
    -2
100
AcDbLine
 10
29488.87125015842
 20
12899.22569151607
 30
0.0
 11
30592.90539795185
 21
12899.22569151607
 31
0.0
  0
LINE
  5
5F9
330
4E2
100
AcDbEntity
  8
寸法
  6
Continuous
370
    -2
100
AcDbLine
 10
29488.87125015842
 20
13099.22569151607
 30
0.0
 11
30592.90539795185
 21
13099.22569151607
 31
0.0
  0
LINE
  5
5FA
330
4E2
100
AcDbEntity
  8
寸法
  6
Continuous
370
    -2
100
AcDbLine
 10
30592.90539795185
 20
12839.22569151607
 30
0.0
 11
30592.90539795185
 21
12779.22569151607
 31
0.0
  0
LINE
  5
5FB
330
4E2
100
AcDbEntity
  8
寸法
  6
Continuous
370
    -2
100
AcDbLine
 10
30592.90539795185
 20
13159.22569151607
 30
0.0
 11
30592.90539795185
 21
13219.22569151607
 31
0.0
  0
MTEXT
  5
5FC
330
4E2
100
AcDbEntity
  8
寸法
  6
Continuous
100
AcDbMText
 10
30845.91884800212
 20
12724.7865954095
 30
0.0
 40
300.0
 41
0.0
 71
     5
 72
     1
  1
\A1;200
  7
1_100
 11
0.0000000000000001
 21
1.0
 31
0.0
 73
     1
 44
1.0
1001
ACAD
1000
MTEXTBEGIN
1070
    73
1070
     1
1070
    44
1040
1.0
1070
    74
1070
     0
1000
MTEXTEND
  0
LINE
  5
5FD
330
4E2
100
AcDbEntity
  8
寸法
  6
Continuous
370
    -2
100
AcDbLine
 10
30592.90539795185
 20
12899.22569151607
 30
0.0
 11
30592.90539795185
 21
13099.22569151607
 31
0.0
  0
INSERT
  5
5FE
330
4E2
100
AcDbEntity
  8
寸法
  6
Continuous
370
    -2
100
AcDbBlockReference
  2
_ORIGIN
 10
30592.90539795185
 20
12899.22569151607
 30
0.0
 41
60.0
 42
60.0
 43
60.0
 50
90.0
  0
INSERT
  5
5FF
330
4E2
100
AcDbEntity
  8
寸法
  6
Continuous
370
    -2
100
AcDbBlockReference
  2
_ORIGIN
 10
30592.90539795185
 20
13099.22569151607
 30
0.0
 41
60.0
 42
60.0
 43
60.0
 50
270.0
  0
POINT
  5
600
330
4E2
100
AcDbEntity
  8
DEFPOINTS
  6
Continuous
 62
     0
100
AcDbPoint
 10
29188.87125015842
 20
12899.22569151607
 30
0.0
  0
POINT
  5
601
330
4E2
100
AcDbEntity
  8
DEFPOINTS
  6
Continuous
 62
     0
100
AcDbPoint
 10
29188.87125015842
 20
13099.22569151607
 30
0.0
  0
POINT
  5
602
330
4E2
100
AcDbEntity
  8
DEFPOINTS
  6
Continuous
 62
     0
100
AcDbPoint
 10
30592.90539795185
 20
13099.22569151607
 30
0.0
  0
ENDBLK
  5
4EF
330
4E2
100
AcDbEntity
  8
0
100
AcDbBlockEnd
  0
BLOCK
  5
4FA
330
4F0
100
AcDbEntity
  8
0
100
AcDbBlockBegin
  2
*D20
 70
     1
 10
0.0
 20
0.0
 30
0.0
  3
*D20
  1

  0
LINE
  5
603
330
4F0
100
AcDbEntity
  8
寸法
  6
Continuous
370
    -2
100
AcDbLine
 10
29488.87125015842
 20
11099.22569151607
 30
0.0
 11
30592.90539795185
 21
11099.22569151607
 31
0.0
  0
LINE
  5
604
330
4F0
100
AcDbEntity
  8
寸法
  6
Continuous
370
    -2
100
AcDbLine
 10
29488.87125015842
 20
12899.22569151607
 30
0.0
 11
30592.90539795185
 21
12899.22569151607
 31
0.0
  0
LINE
  5
605
330
4F0
100
AcDbEntity
  8
寸法
  6
Continuous
370
    -2
100
AcDbLine
 10
30592.90539795185
 20
11159.22569151607
 30
0.0
 11
30592.90539795185
 21
12839.22569151607
 31
0.0
  0
INSERT
  5
606
330
4F0
100
AcDbEntity
  8
寸法
  6
Continuous
370
    -2
100
AcDbBlockReference
  2
_ORIGIN
 10
30592.90539795185
 20
11099.22569151607
 30
0.0
 41
60.0
 42
60.0
 43
60.0
 50
270.0
  0
INSERT
  5
607
330
4F0
100
AcDbEntity
  8
寸法
  6
Continuous
370
    -2
100
AcDbBlockReference
  2
_ORIGIN
 10
30592.90539795185
 20
12899.22569151607
 30
0.0
 41
60.0
 42
60.0
 43
60.0
 50
90.0
  0
MTEXT
  5
608
330
4F0
100
AcDbEntity
  8
寸法
  6
Continuous
100
AcDbMText
 10
30314.33396938042
 20
11999.22569151607
 30
0.0
 40
300.0
 41
0.0
 71
     5
 72
     1
  1
\A1;1,800
  7
1_100
 11
0.0000000000000001
 21
1.0
 31
0.0
 73
     1
 44
1.0
1001
ACAD
1000
MTEXTBEGIN
1070
    73
1070
     1
1070
    44
1040
1.0
1070
    74
1070
     0
1000
MTEXTEND
  0
POINT
  5
609
330
4F0
100
AcDbEntity
  8
DEFPOINTS
  6
Continuous
 62
     0
100
AcDbPoint
 10
29188.87125015842
 20
11099.22569151607
 30
0.0
  0
POINT
  5
60A
330
4F0
100
AcDbEntity
  8
DEFPOINTS
  6
Continuous
 62
     0
100
AcDbPoint
 10
29188.87125015842
 20
12899.22569151607
 30
0.0
  0
POINT
  5
60B
330
4F0
100
AcDbEntity
  8
DEFPOINTS
  6
Continuous
 62
     0
100
AcDbPoint
 10
30592.90539795185
 20
12899.22569151607
 30
0.0
  0
ENDBLK
  5
4FB
330
4F0
100
AcDbEntity
  8
0
100
AcDbBlockEnd
  0
BLOCK
  5
508
330
4FC
100
AcDbEntity
  8
0
100
AcDbBlockBegin
  2
*D21
 70
     1
 10
0.0
 20
0.0
 30
0.0
  3
*D21
  1

  0
LINE
  5
60C
330
4FC
100
AcDbEntity
  8
寸法
  6
Continuous
370
    -2
100
AcDbLine
 10
29488.87125015842
 20
10999.22569151607
 30
0.0
 11
30592.90539795185
 21
10999.22569151607
 31
0.0
  0
LINE
  5
60D
330
4FC
100
AcDbEntity
  8
寸法
  6
Continuous
370
    -2
100
AcDbLine
 10
29488.87125015842
 20
11099.22569151607
 30
0.0
 11
30592.90539795185
 21
11099.22569151607
 31
0.0
  0
LINE
  5
60E
330
4FC
100
AcDbEntity
  8
寸法
  6
Continuous
370
    -2
100
AcDbLine
 10
30592.90539795185
 20
10939.22569151607
 30
0.0
 11
30592.90539795185
 21
10879.22569151607
 31
0.0
  0
LINE
  5
60F
330
4FC
100
AcDbEntity
  8
寸法
  6
Continuous
370
    -2
100
AcDbLine
 10
30592.90539795185
 20
11159.22569151607
 30
0.0
 11
30592.90539795185
 21
11219.22569151607
 31
0.0
  0
MTEXT
  5
610
330
4FC
100
AcDbEntity
  8
寸法
  6
Continuous
100
AcDbMText
 10
30333.49806915621
 20
10666.30262278312
 30
0.0
 40
300.0
 41
0.0
 71
     5
 72
     1
  1
\A1;100
  7
1_100
 11
0.0000000000000001
 21
1.0
 31
0.0
 73
     1
 44
1.0
1001
ACAD
1000
MTEXTBEGIN
1070
    73
1070
     1
1070
    44
1040
1.0
1070
    74
1070
     0
1000
MTEXTEND
  0
LINE
  5
611
330
4FC
100
AcDbEntity
  8
寸法
  6
Continuous
370
    -2
100
AcDbLine
 10
30592.90539795185
 20
10999.22569151607
 30
0.0
 11
30592.90539795185
 21
11099.22569151607
 31
0.0
  0
INSERT
  5
612
330
4FC
100
AcDbEntity
  8
寸法
  6
Continuous
370
    -2
100
AcDbBlockReference
  2
_ORIGIN
 10
30592.90539795185
 20
10999.22569151607
 30
0.0
 41
60.0
 42
60.0
 43
60.0
 50
90.0
  0
INSERT
  5
613
330
4FC
100
AcDbEntity
  8
寸法
  6
Continuous
370
    -2
100
AcDbBlockReference
  2
_ORIGIN
 10
30592.90539795185
 20
11099.22569151607
 30
0.0
 41
60.0
 42
60.0
 43
60.0
 50
270.0
  0
POINT
  5
614
330
4FC
100
AcDbEntity
  8
DEFPOINTS
  6
Continuous
 62
     0
100
AcDbPoint
 10
29188.87125015842
 20
10999.22569151607
 30
0.0
  0
POINT
  5
615
330
4FC
100
AcDbEntity
  8
DEFPOINTS
  6
Continuous
 62
     0
100
AcDbPoint
 10
29188.87125015842
 20
11099.22569151607
 30
0.0
  0
POINT
  5
616
330
4FC
100
AcDbEntity
  8
DEFPOINTS
  6
Continuous
 62
     0
100
AcDbPoint
 10
30592.90539795185
 20
11099.22569151607
 30
0.0
  0
ENDBLK
  5
509
330
4FC
100
AcDbEntity
  8
0
100
AcDbBlockEnd
  0
BLOCK
  5
514
330
50A
100
AcDbEntity
  8
0
100
AcDbBlockBegin
  2
*D22
 70
     1
 10
0.0
 20
0.0
 30
0.0
  3
*D22
  1

  0
LINE
  5
617
330
50A
100
AcDbEntity
  8
寸法
  6
Continuous
370
    -2
100
AcDbLine
 10
29488.87125015842
 20
13099.22569151607
 30
0.0
 11
30592.90539795185
 21
13099.22569151607
 31
0.0
  0
LINE
  5
618
330
50A
100
AcDbEntity
  8
寸法
  6
Continuous
370
    -2
100
AcDbLine
 10
29488.87125015842
 20
15739.22569151607
 30
0.0
 11
30592.90539795185
 21
15739.22569151607
 31
0.0
  0
LINE
  5
619
330
50A
100
AcDbEntity
  8
寸法
  6
Continuous
370
    -2
100
AcDbLine
 10
30592.90539795185
 20
13159.22569151607
 30
0.0
 11
30592.90539795185
 21
15679.22569151607
 31
0.0
  0
INSERT
  5
61A
330
50A
100
AcDbEntity
  8
寸法
  6
Continuous
370
    -2
100
AcDbBlockReference
  2
_ORIGIN
 10
30592.90539795185
 20
13099.22569151607
 30
0.0
 41
60.0
 42
60.0
 43
60.0
 50
270.0
  0
INSERT
  5
61B
330
50A
100
AcDbEntity
  8
寸法
  6
Continuous
370
    -2
100
AcDbBlockReference
  2
_ORIGIN
 10
30592.90539795185
 20
15739.22569151607
 30
0.0
 41
60.0
 42
60.0
 43
60.0
 50
90.0
  0
MTEXT
  5
61C
330
50A
100
AcDbEntity
  8
寸法
  6
Continuous
100
AcDbMText
 10
30314.33396938042
 20
14419.22569151607
 30
0.0
 40
300.0
 41
0.0
 71
     5
 72
     1
  1
\A1;2,640
  7
1_100
 11
0.0000000000000001
 21
1.0
 31
0.0
 73
     1
 44
1.0
1001
ACAD
1000
MTEXTBEGIN
1070
    73
1070
     1
1070
    44
1040
1.0
1070
    74
1070
     0
1000
MTEXTEND
  0
POINT
  5
61D
330
50A
100
AcDbEntity
  8
DEFPOINTS
  6
Continuous
 62
     0
100
AcDbPoint
 10
29188.87125015842
 20
13099.22569151607
 30
0.0
  0
POINT
  5
61E
330
50A
100
AcDbEntity
  8
DEFPOINTS
  6
Continuous
 62
     0
100
AcDbPoint
 10
29188.87125015842
 20
15739.22569151607
 30
0.0
  0
POINT
  5
61F
330
50A
100
AcDbEntity
  8
DEFPOINTS
  6
Continuous
 62
     0
100
AcDbPoint
 10
30592.90539795185
 20
15739.22569151607
 30
0.0
  0
ENDBLK
  5
515
330
50A
100
AcDbEntity
  8
0
100
AcDbBlockEnd
  0
BLOCK
  5
520
330
516
100
AcDbEntity
  8
0
100
AcDbBlockBegin
  2
*D23
 70
     1
 10
0.0
 20
0.0
 30
0.0
  3
*D23
  1

  0
LINE
  5
620
330
516
100
AcDbEntity
  8
寸法
  6
Continuous
370
    -2
100
AcDbLine
 10
29488.87125015842
 20
15739.22569151607
 30
0.0
 11
30592.90539795185
 21
15739.22569151607
 31
0.0
  0
LINE
  5
621
330
516
100
AcDbEntity
  8
寸法
  6
Continuous
370
    -2
100
AcDbLine
 10
29488.87125015842
 20
18389.22569151607
 30
0.0
 11
30592.90539795185
 21
18389.22569151607
 31
0.0
  0
LINE
  5
622
330
516
100
AcDbEntity
  8
寸法
  6
Continuous
370
    -2
100
AcDbLine
 10
30592.90539795185
 20
15799.22569151607
 30
0.0
 11
30592.90539795185
 21
18329.22569151607
 31
0.0
  0
INSERT
  5
623
330
516
100
AcDbEntity
  8
寸法
  6
Continuous
370
    -2
100
AcDbBlockReference
  2
_ORIGIN
 10
30592.90539795185
 20
15739.22569151607
 30
0.0
 41
60.0
 42
60.0
 43
60.0
 50
270.0
  0
INSERT
  5
624
330
516
100
AcDbEntity
  8
寸法
  6
Continuous
370
    -2
100
AcDbBlockReference
  2
_ORIGIN
 10
30592.90539795185
 20
18389.22569151607
 30
0.0
 41
60.0
 42
60.0
 43
60.0
 50
90.0
  0
MTEXT
  5
625
330
516
100
AcDbEntity
  8
寸法
  6
Continuous
100
AcDbMText
 10
30314.33396938042
 20
17064.22569151607
 30
0.0
 40
300.0
 41
0.0
 71
     5
 72
     1
  1
\A1;2,650
  7
1_100
 11
0.0000000000000001
 21
1.0
 31
0.0
 73
     1
 44
1.0
1001
ACAD
1000
MTEXTBEGIN
1070
    73
1070
     1
1070
    44
1040
1.0
1070
    74
1070
     0
1000
MTEXTEND
  0
POINT
  5
626
330
516
100
AcDbEntity
  8
DEFPOINTS
  6
Continuous
 62
     0
100
AcDbPoint
 10
29188.87125015842
 20
15739.22569151607
 30
0.0
  0
POINT
  5
627
330
516
100
AcDbEntity
  8
DEFPOINTS
  6
Continuous
 62
     0
100
AcDbPoint
 10
29188.87125015842
 20
18389.22569151607
 30
0.0
  0
POINT
  5
628
330
516
100
AcDbEntity
  8
DEFPOINTS
  6
Continuous
 62
     0
100
AcDbPoint
 10
30592.90539795185
 20
18389.22569151607
 30
0.0
  0
ENDBLK
  5
521
330
516
100
AcDbEntity
  8
0
100
AcDbBlockEnd
  0
BLOCK
  5
52E
330
522
100
AcDbEntity
  8
0
100
AcDbBlockBegin
  2
*D24
 70
     1
 10
0.0
 20
0.0
 30
0.0
  3
*D24
  1

  0
LINE
  5
629
330
522
100
AcDbEntity
  8
寸法
  6
Continuous
370
    -2
100
AcDbLine
 10
33938.87125015841
 20
10699.22569151595
 30
0.0
 11
33938.87125015841
 21
9999.225691515839
 31
0.0
  0
LINE
  5
62A
330
522
100
AcDbEntity
  8
寸法
  6
Continuous
370
    -2
100
AcDbLine
 10
34438.87125015842
 20
10699.22569151595
 30
0.0
 11
34438.87125015842
 21
9999.225691515839
 31
0.0
  0
LINE
  5
62B
330
522
100
AcDbEntity
  8
寸法
  6
Continuous
370
    -2
100
AcDbLine
 10
33878.87125015842
 20
9999.225691515839
 30
0.0
 11
33818.87125015841
 21
9999.225691515839
 31
0.0
  0
LINE
  5
62C
330
522
100
AcDbEntity
  8
寸法
  6
Continuous
370
    -2
100
AcDbLine
 10
34498.87125015842
 20
9999.225691515839
 30
0.0
 11
34558.87125015842
 21
9999.225691515839
 31
0.0
  0
LINE
  5
62D
330
522
100
AcDbEntity
  8
寸法
  6
Continuous
370
    -2
100
AcDbLine
 10
33938.87125015841
 20
9999.225691515839
 30
0.0
 11
34438.87125015842
 21
9999.225691515839
 31
0.0
  0
INSERT
  5
62E
330
522
100
AcDbEntity
  8
寸法
  6
Continuous
370
    -2
100
AcDbBlockReference
  2
_ORIGIN
 10
33938.87125015841
 20
9999.225691515839
 30
0.0
 41
60.0
 42
60.0
 43
60.0
  0
INSERT
  5
62F
330
522
100
AcDbEntity
  8
寸法
  6
Continuous
370
    -2
100
AcDbBlockReference
  2
_ORIGIN
 10
34438.87125015842
 20
9999.225691515839
 30
0.0
 41
60.0
 42
60.0
 43
60.0
 50
180.0
  0
MTEXT
  5
630
330
522
100
AcDbEntity
  8
寸法
  6
Continuous
100
AcDbMText
 10
34188.87125015842
 20
9749.225691515839
 30
0.0
 40
300.0
 41
0.0
 71
     5
 72
     1
  1
\A1;□500
  7
1_100
 73
     1
 44
1.0
1001
ACAD
1000
MTEXTBEGIN
1070
    73
1070
     1
1070
    44
1040
1.0
1070
    74
1070
     0
1000
MTEXTEND
  0
POINT
  5
631
330
522
100
AcDbEntity
  8
DEFPOINTS
  6
Continuous
 62
     0
100
AcDbPoint
 10
33938.87125015841
 20
10999.22569151595
 30
0.0
  0
POINT
  5
632
330
522
100
AcDbEntity
  8
DEFPOINTS
  6
Continuous
 62
     0
100
AcDbPoint
 10
34438.87125015842
 20
10999.22569151595
 30
0.0
  0
POINT
  5
633
330
522
100
AcDbEntity
  8
DEFPOINTS
  6
Continuous
 62
     0
100
AcDbPoint
 10
34438.87125015842
 20
9999.225691515839
 30
0.0
  0
ENDBLK
  5
52F
330
522
100
AcDbEntity
  8
0
100
AcDbBlockEnd
  0
BLOCK
  5
53A
330
530
100
AcDbEntity
  8
0
100
AcDbBlockBegin
  2
*D25
 70
     1
 10
0.0
 20
0.0
 30
0.0
  3
*D25
  1

  0
LINE
  5
634
330
530
100
AcDbEntity
  8
寸法
  6
Continuous
370
    -2
100
AcDbLine
 10
33963.87125015842
 20
10699.22569151595
 30
0.0
 11
33963.87125015842
 21
10399.22569151595
 31
0.0
  0
LINE
  5
635
330
530
100
AcDbEntity
  8
寸法
  6
Continuous
370
    -2
100
AcDbLine
 10
34413.87125015842
 20
10699.22569151595
 30
0.0
 11
34413.87125015842
 21
10399.22569151595
 31
0.0
  0
LINE
  5
636
330
530
100
AcDbEntity
  8
寸法
  6
Continuous
370
    -2
100
AcDbLine
 10
34023.87125015842
 20
10399.22569151595
 30
0.0
 11
34353.87125015842
 21
10399.22569151595
 31
0.0
  0
MTEXT
  5
637
330
530
100
AcDbEntity
  8
寸法
  6
Continuous
100
AcDbMText
 10
33387.48101396417
 20
10580.55935310491
 30
0.0
 40
300.0
 41
0.0
 71
     5
 72
     1
  1
\A1;φ450
  7
1_100
 73
     1
 44
1.0
1001
ACAD
1000
MTEXTBEGIN
1070
    73
1070
     1
1070
    44
1040
1.0
1070
    74
1070
     0
1000
MTEXTEND
  0
INSERT
  5
638
330
530
100
AcDbEntity
  8
寸法
  6
Continuous
370
    -2
100
AcDbBlockReference
  2
_ORIGIN
 10
33963.87125015842
 20
10399.22569151595
 30
0.0
 41
60.0
 42
60.0
 43
60.0
 50
180.0
  0
INSERT
  5
639
330
530
100
AcDbEntity
  8
寸法
  6
Continuous
370
    -2
100
AcDbBlockReference
  2
_ORIGIN
 10
34413.87125015842
 20
10399.22569151595
 30
0.0
 41
60.0
 42
60.0
 43
60.0
  0
POINT
  5
63A
330
530
100
AcDbEntity
  8
DEFPOINTS
  6
Continuous
 62
     0
100
AcDbPoint
 10
33963.87125015842
 20
10999.22569151595
 30
0.0
  0
POINT
  5
63B
330
530
100
AcDbEntity
  8
DEFPOINTS
  6
Continuous
 62
     0
100
AcDbPoint
 10
34413.87125015842
 20
10999.22569151595
 30
0.0
  0
POINT
  5
63C
330
530
100
AcDbEntity
  8
DEFPOINTS
  6
Continuous
 62
     0
100
AcDbPoint
 10
34413.87125015842
 20
10399.22569151595
 30
0.0
  0
ENDBLK
  5
53B
330
530
100
AcDbEntity
  8
0
100
AcDbBlockEnd
  0
BLOCK
  5
548
330
53C
100
AcDbEntity
  8
0
100
AcDbBlockBegin
  2
*D26
 70
     1
 10
0.0
 20
0.0
 30
0.0
  3
*D26
  1

  0
LINE
  5
63D
330
53C
100
AcDbEntity
  8
寸法
  6
Continuous
370
    -2
100
AcDbLine
 10
12080.72125015828
 20
21399.22569151607
 30
0.0
 11
12080.72125015828
 21
21699.22569151607
 31
0.0
  0
LINE
  5
63E
330
53C
100
AcDbEntity
  8
寸法
  6
Continuous
370
    -2
100
AcDbLine
 10
12297.02125015832
 20
21399.22569151607
 30
0.0
 11
12297.02125015832
 21
21699.22569151607
 31
0.0
  0
LINE
  5
63F
330
53C
100
AcDbEntity
  8
寸法
  6
Continuous
370
    -2
100
AcDbLine
 10
12020.72125015828
 20
21699.22569151607
 30
0.0
 11
11960.72125015828
 21
21699.22569151607
 31
0.0
  0
LINE
  5
640
330
53C
100
AcDbEntity
  8
寸法
  6
Continuous
370
    -2
100
AcDbLine
 10
12357.02125015832
 20
21699.22569151607
 30
0.0
 11
12417.02125015832
 21
21699.22569151607
 31
0.0
  0
MTEXT
  5
641
330
53C
100
AcDbEntity
  8
寸法
  6
Continuous
100
AcDbMText
 10
12188.8712501583
 20
21999.22569151607
 30
0.0
 40
300.0
 41
0.0
 71
     5
 72
     1
  1
\A1;φ216.3
  7
1_100
 73
     1
 44
1.0
1001
ACAD
1000
MTEXTBEGIN
1070
    73
1070
     1
1070
    44
1040
1.0
1070
    74
1070
     0
1000
MTEXTEND
  0
LINE
  5
642
330
53C
100
AcDbEntity
  8
寸法
  6
Continuous
370
    -2
100
AcDbLine
 10
12080.72125015828
 20
21699.22569151607
 30
0.0
 11
12297.02125015832
 21
21699.22569151607
 31
0.0
  0
INSERT
  5
643
330
53C
100
AcDbEntity
  8
寸法
  6
Continuous
370
    -2
100
AcDbBlockReference
  2
_ORIGIN
 10
12080.72125015828
 20
21699.22569151607
 30
0.0
 41
60.0
 42
60.0
 43
60.0
  0
INSERT
  5
644
330
53C
100
AcDbEntity
  8
寸法
  6
Continuous
370
    -2
100
AcDbBlockReference
  2
_ORIGIN
 10
12297.02125015832
 20
21699.22569151607
 30
0.0
 41
60.0
 42
60.0
 43
60.0
 50
180.0
  0
POINT
  5
645
330
53C
100
AcDbEntity
  8
DEFPOINTS
  6
Continuous
 62
     0
100
AcDbPoint
 10
12080.72125015828
 20
21099.22569151607
 30
0.0
  0
POINT
  5
646
330
53C
100
AcDbEntity
  8
DEFPOINTS
  6
Continuous
 62
     0
100
AcDbPoint
 10
12297.02125015832
 20
21099.22569151607
 30
0.0
  0
POINT
  5
647
330
53C
100
AcDbEntity
  8
DEFPOINTS
  6
Continuous
 62
     0
100
AcDbPoint
 10
12297.02125015832
 20
21699.22569151607
 30
0.0
  0
ENDBLK
  5
549
330
53C
100
AcDbEntity
  8
0
100
AcDbBlockEnd
  0
BLOCK
  5
556
330
54A
100
AcDbEntity
  8
0
100
AcDbBlockBegin
  2
*D27
 70
     1
 10
0.0
 20
0.0
 30
0.0
  3
*D27
  1

  0
LINE
  5
648
330
54A
100
AcDbEntity
  8
寸法
  6
Continuous
370
    -2
100
AcDbLine
 10
35988.87125015842
 20
21039.22569151607
 30
0.0
 11
37192.90539795184
 21
21039.22569151607
 31
0.0
  0
LINE
  5
649
330
54A
100
AcDbEntity
  8
寸法
  6
Continuous
370
    -2
100
AcDbLine
 10
35988.87125015842
 20
21099.22569151607
 30
0.0
 11
37192.90539795184
 21
21099.22569151607
 31
0.0
  0
LINE
  5
64A
330
54A
100
AcDbEntity
  8
寸法
  6
Continuous
370
    -2
100
AcDbLine
 10
37192.90539795184
 20
20979.22569151607
 30
0.0
 11
37192.90539795184
 21
20919.22569151607
 31
0.0
  0
LINE
  5
64B
330
54A
100
AcDbEntity
  8
寸法
  6
Continuous
370
    -2
100
AcDbLine
 10
37192.90539795184
 20
21159.22569151607
 30
0.0
 11
37192.90539795184
 21
21219.22569151607
 31
0.0
  0
MTEXT
  5
64C
330
54A
100
AcDbEntity
  8
寸法
  6
Continuous
100
AcDbMText
 10
36936.75179636177
 20
21366.7966652849
 30
0.0
 40
300.0
 41
0.0
 71
     5
 72
     1
  1
\A1;60
  7
1_100
 11
0.0000000000000001
 21
1.0
 31
0.0
 73
     1
 44
1.0
1001
ACAD
1000
MTEXTBEGIN
1070
    73
1070
     1
1070
    44
1040
1.0
1070
    74
1070
     0
1000
MTEXTEND
  0
LINE
  5
64D
330
54A
100
AcDbEntity
  8
寸法
  6
Continuous
370
    -2
100
AcDbLine
 10
37192.90539795184
 20
21039.22569151607
 30
0.0
 11
37192.90539795184
 21
21099.22569151607
 31
0.0
  0
INSERT
  5
64E
330
54A
100
AcDbEntity
  8
寸法
  6
Continuous
370
    -2
100
AcDbBlockReference
  2
_ORIGIN
 10
37192.90539795184
 20
21039.22569151607
 30
0.0
 41
60.0
 42
60.0
 43
60.0
 50
90.0
  0
INSERT
  5
64F
330
54A
100
AcDbEntity
  8
寸法
  6
Continuous
370
    -2
100
AcDbBlockReference
  2
_ORIGIN
 10
37192.90539795184
 20
21099.22569151607
 30
0.0
 41
60.0
 42
60.0
 43
60.0
 50
270.0
  0
POINT
  5
650
330
54A
100
AcDbEntity
  8
DEFPOINTS
  6
Continuous
 62
     0
100
AcDbPoint
 10
35688.87125015842
 20
21039.22569151607
 30
0.0
  0
POINT
  5
651
330
54A
100
AcDbEntity
  8
DEFPOINTS
  6
Continuous
 62
     0
100
AcDbPoint
 10
35688.87125015842
 20
21099.22569151607
 30
0.0
  0
POINT
  5
652
330
54A
100
AcDbEntity
  8
DEFPOINTS
  6
Continuous
 62
     0
100
AcDbPoint
 10
37192.90539795184
 20
21099.22569151607
 30
0.0
  0
ENDBLK
  5
557
330
54A
100
AcDbEntity
  8
0
100
AcDbBlockEnd
  0
BLOCK
  5
564
330
558
100
AcDbEntity
  8
0
100
AcDbBlockBegin
  2
*D28
 70
     1
 10
0.0
 20
0.0
 30
0.0
  3
*D28
  1

  0
LINE
  5
653
330
558
100
AcDbEntity
  8
寸法
  6
Continuous
370
    -2
100
AcDbLine
 10
29488.87125015842
 20
21039.22569151607
 30
0.0
 11
30592.90539795185
 21
21039.22569151607
 31
0.0
  0
LINE
  5
654
330
558
100
AcDbEntity
  8
寸法
  6
Continuous
370
    -2
100
AcDbLine
 10
29488.87125015842
 20
21099.22569151607
 30
0.0
 11
30592.90539795185
 21
21099.22569151607
 31
0.0
  0
LINE
  5
655
330
558
100
AcDbEntity
  8
寸法
  6
Continuous
370
    -2
100
AcDbLine
 10
30592.90539795185
 20
20979.22569151607
 30
0.0
 11
30592.90539795185
 21
20919.22569151607
 31
0.0
  0
LINE
  5
656
330
558
100
AcDbEntity
  8
寸法
  6
Continuous
370
    -2
100
AcDbLine
 10
30592.90539795185
 20
21159.22569151607
 30
0.0
 11
30592.90539795185
 21
21219.22569151607
 31
0.0
  0
MTEXT
  5
657
330
558
100
AcDbEntity
  8
寸法
  6
Continuous
100
AcDbMText
 10
30329.49223825406
 20
21370.61390051723
 30
0.0
 40
300.0
 41
0.0
 71
     5
 72
     1
  1
\A1;60
  7
1_100
 11
0.0000000000000001
 21
1.0
 31
0.0
 73
     1
 44
1.0
1001
ACAD
1000
MTEXTBEGIN
1070
    73
1070
     1
1070
    44
1040
1.0
1070
    74
1070
     0
1000
MTEXTEND
  0
LINE
  5
658
330
558
100
AcDbEntity
  8
寸法
  6
Continuous
370
    -2
100
AcDbLine
 10
30592.90539795185
 20
21039.22569151607
 30
0.0
 11
30592.90539795185
 21
21099.22569151607
 31
0.0
  0
INSERT
  5
659
330
558
100
AcDbEntity
  8
寸法
  6
Continuous
370
    -2
100
AcDbBlockReference
  2
_ORIGIN
 10
30592.90539795185
 20
21039.22569151607
 30
0.0
 41
60.0
 42
60.0
 43
60.0
 50
90.0
  0
INSERT
  5
65A
330
558
100
AcDbEntity
  8
寸法
  6
Continuous
370
    -2
100
AcDbBlockReference
  2
_ORIGIN
 10
30592.90539795185
 20
21099.22569151607
 30
0.0
 41
60.0
 42
60.0
 43
60.0
 50
270.0
  0
POINT
  5
65B
330
558
100
AcDbEntity
  8
DEFPOINTS
  6
Continuous
 62
     0
100
AcDbPoint
 10
29188.87125015842
 20
21039.22569151607
 30
0.0
  0
POINT
  5
65C
330
558
100
AcDbEntity
  8
DEFPOINTS
  6
Continuous
 62
     0
100
AcDbPoint
 10
29188.87125015842
 20
21099.22569151607
 30
0.0
  0
POINT
  5
65D
330
558
100
AcDbEntity
  8
DEFPOINTS
  6
Continuous
 62
     0
100
AcDbPoint
 10
30592.90539795185
 20
21099.22569151607
 30
0.0
  0
ENDBLK
  5
565
330
558
100
AcDbEntity
  8
0
100
AcDbBlockEnd
  0
BLOCK
  5
572
330
566
100
AcDbEntity
  8
0
100
AcDbBlockBegin
  2
*D29
 70
     1
 10
0.0
 20
0.0
 30
0.0
  3
*D29
  1

  0
LINE
  5
65E
330
566
100
AcDbEntity
  8
寸法
  6
Continuous
370
    -2
100
AcDbLine
 10
34080.72125015829
 20
21399.22569151654
 30
0.0
 11
34080.72125015829
 21
21699.22569151607
 31
0.0
  0
LINE
  5
65F
330
566
100
AcDbEntity
  8
寸法
  6
Continuous
370
    -2
100
AcDbLine
 10
34297.02125015833
 20
21399.22569151654
 30
0.0
 11
34297.02125015833
 21
21699.22569151607
 31
0.0
  0
LINE
  5
660
330
566
100
AcDbEntity
  8
寸法
  6
Continuous
370
    -2
100
AcDbLine
 10
34020.72125015828
 20
21699.22569151607
 30
0.0
 11
33960.72125015829
 21
21699.22569151607
 31
0.0
  0
LINE
  5
661
330
566
100
AcDbEntity
  8
寸法
  6
Continuous
370
    -2
100
AcDbLine
 10
34357.02125015832
 20
21699.22569151607
 30
0.0
 11
34417.02125015833
 21
21699.22569151607
 31
0.0
  0
MTEXT
  5
662
330
566
100
AcDbEntity
  8
寸法
  6
Continuous
100
AcDbMText
 10
34188.8712501583
 20
21999.22569151607
 30
0.0
 40
300.0
 41
0.0
 71
     5
 72
     1
  1
\A1;φ216.3
  7
1_100
 73
     1
 44
1.0
1001
ACAD
1000
MTEXTBEGIN
1070
    73
1070
     1
1070
    44
1040
1.0
1070
    74
1070
     0
1000
MTEXTEND
  0
LINE
  5
663
330
566
100
AcDbEntity
  8
寸法
  6
Continuous
370
    -2
100
AcDbLine
 10
34080.72125015829
 20
21699.22569151607
 30
0.0
 11
34297.02125015833
 21
21699.22569151607
 31
0.0
  0
INSERT
  5
664
330
566
100
AcDbEntity
  8
寸法
  6
Continuous
370
    -2
100
AcDbBlockReference
  2
_ORIGIN
 10
34080.72125015829
 20
21699.22569151607
 30
0.0
 41
60.0
 42
60.0
 43
60.0
  0
INSERT
  5
665
330
566
100
AcDbEntity
  8
寸法
  6
Continuous
370
    -2
100
AcDbBlockReference
  2
_ORIGIN
 10
34297.02125015833
 20
21699.22569151607
 30
0.0
 41
60.0
 42
60.0
 43
60.0
 50
180.0
  0
POINT
  5
666
330
566
100
AcDbEntity
  8
DEFPOINTS
  6
Continuous
 62
     0
100
AcDbPoint
 10
34080.72125015829
 20
21099.22569151654
 30
0.0
  0
POINT
  5
667
330
566
100
AcDbEntity
  8
DEFPOINTS
  6
Continuous
 62
     0
100
AcDbPoint
 10
34297.02125015833
 20
21099.22569151654
 30
0.0
  0
POINT
  5
668
330
566
100
AcDbEntity
  8
DEFPOINTS
  6
Continuous
 62
     0
100
AcDbPoint
 10
34297.02125015833
 20
21699.22569151607
 30
0.0
  0
ENDBLK
  5
573
330
566
100
AcDbEntity
  8
0
100
AcDbBlockEnd
  0
ENDSEC
  0
SECTION
  2
ENTITIES
  0
LWPOLYLINE
  5
327
330
1F
100
AcDbEntity
  8
図面枠
100
AcDbPolyline
 90
        4
 70
     1
 43
0.0
 10
3655.537916825382
 20
815.8923581827213
 10
42655.53791682537
 20
815.8923581827213
 10
42655.53791682537
 20
26315.89235818272
 10
3655.537916825382
 20
26315.89235818272
  0
LWPOLYLINE
  5
328
330
1F
100
AcDbEntity
  8
図面枠
100
AcDbPolyline
 90
        4
 70
     1
 43
0.0
 10
3655.537916826328
 20
815.8923581827213
 10
42655.53791682632
 20
815.8923581827213
 10
42655.53791682632
 20
26315.89235818272
 10
3655.537916826328
 20
26315.89235818272
  0
MTEXT
  5
329
330
1F
100
AcDbEntity
  8
寸法
  6
Continuous
 62
     3
100
AcDbMText
 10
23155.53791682538
 20
24844.26896951602
 30
0.0
 40
500.0
 41
0.0
 71
     8
 72
     1
  1
防球ネット　ＫＳ－Ⅰ型　Ｈ＝８,０００
  7
MSP明朝
 73
     1
 44
1.0
1001
ACAD
1000
ACAD_MTEXT_DEFINED_HEIGHT_BEGIN
1070
    46
1040
0.0
1000
ACAD_MTEXT_DEFINED_HEIGHT_END
1000
MTEXTBEGIN
1070
    73
1070
     1
1070
    44
1040
1.0
1070
    74
1070
     0
1000
MTEXTEND
  0
LINE
  5
32A
330
1F
100
AcDbEntity
  8
寸法
  6
Continuous
 62
     3
100
AcDbLine
 10
18828.77805022454
 20
24746.71934264505
 30
0.0
 11
27482.29778342812
 21
24746.71934264505
 31
0.0
  0
LINE
  5
32B
330
1F
100
AcDbEntity
  8
寸法
  6
Continuous
 62
     3
100
AcDbLine
 10
18828.77805022454
 20
24686.71934264738
 30
0.0
 11
27482.29778342812
 21
24686.71934264738
 31
0.0
  0
MTEXT
  5
32C
330
1F
100
AcDbEntity
  8
画層1-1
100
AcDbMText
 10
6472.136335197191
 20
5255.825564584406
 30
0.0
 40
300.0
 41
0.0
 71
     1
 72
     5
  1
{\F|c128;・※印表記のネットを使用する場合標準柱スパンは変更になる場合があります}
  7
1_100
 73
     1
 44
1.0
1001
AcDbBlockRepETag
1070
     1
1071
        0
1005
32C
1001
ACAD
1000
MTEXTBEGIN
1070
    73
1070
     1
1070
    44
1040
1.0
1070
    74
1070
     0
1000
MTEXTEND
  0
MTEXT
  5
32D
330
1F
100
AcDbEntity
  8
画層1-1
100
AcDbMText
 10
6472.136335197191
 20
1956.563776132573
 30
0.0
 40
300.0
 41
0.0
 71
     1
 72
     5
  1
・速度圧　q=0.6EVo （N/㎡）　・地表面粗度区分　　　・基礎　普通土質 [B] を選定
  7
1_100
 73
     1
 44
1.0
1001
AcDbBlockRepETag
1070
     1
1071
        1
1005
32D
1001
ACAD
1000
MTEXTBEGIN
1070
    73
1070
     1
1070
    44
1040
1.0
1070
    74
1070
     0
1000
MTEXTEND
  0
MTEXT
  5
32E
330
1F
100
AcDbEntity
  8
画層1-1
100
AcDbMText
 10
6472.136335197191
 20
7055.825564584407
 30
0.0
 40
300.0
 41
0.0
 71
     1
 72
     5
  1
・主柱．端末ポール．バンド金具．ボルトは溶融亜鉛メッキ仕上げとする
  7
1_100
 73
     1
 44
1.0
1001
AcDbBlockRepETag
1070
     1
1071
        2
1005
32E
1001
ACAD
1000
MTEXTBEGIN
1070
    73
1070
     1
1070
    44
1040
1.0
1070
    74
1070
     0
1000
MTEXTEND
  0
MTEXT
  5
32F
330
1F
100
AcDbEntity
  8
画層1-1
100
AcDbMText
 10
6472.136335197191
 20
6455.825564584407
 30
0.0
 40
300.0
 41
0.0
 71
     1
 72
     5
  1
・主柱ポール基礎部（ＧＬ）はＦＲＰ被覆補強とする
  7
1_100
 73
     1
 44
1.0
1001
AcDbBlockRepETag
1070
     1
1071
        3
1005
32F
1001
ACAD
1000
MTEXTBEGIN
1070
    73
1070
     1
1070
    44
1040
1.0
1070
    74
1070
     0
1000
MTEXTEND
  0
MTEXT
  5
330
330
1F
100
AcDbEntity
  8
画層1-1
100
AcDbMText
 10
6472.136335197191
 20
3795.467642569029
 30
0.0
 40
300.0
 41
0.0
 71
     1
 72
     5
  1
・構造計算書．材料承認願いを提出後施工のこと
  7
1_100
 73
     1
 44
1.0
1001
AcDbBlockRepETag
1070
     1
1071
        4
1005
330
1001
ACAD
1000
MTEXTBEGIN
1070
    73
1070
     1
1070
    44
1040
1.0
1070
    74
1070
     0
1000
MTEXTEND
  0
MTEXT
  5
331
330
1F
100
AcDbEntity
  8
画層1-1
100
AcDbMText
 10
6472.136335197191
 20
5855.825564584407
 30
0.0
 40
300.0
 41
0.0
 71
     1
 72
     5
  1
・上部（補強ポール・ネット）下り防止金具付きとする
  7
1_100
 73
     1
 44
1.0
1001
AcDbBlockRepETag
1070
     1
1071
        5
1005
331
1001
ACAD
1000
MTEXTBEGIN
1070
    73
1070
     1
1070
    44
1040
1.0
1070
    74
1070
     0
1000
MTEXTEND
  0
POINT
  5
332
330
1F
100
AcDbEntity
  8
画層1-1
100
AcDbPoint
 10
3655.537932721021
 20
1273.548950735577
 30
0.0
1001
AcDbBlockRepETag
1070
     1
1071
        6
1005
332
  0
MTEXT
  5
333
330
1F
100
AcDbEntity
  8
画層1-1
100
AcDbMText
 10
5972.136335197192
 20
3058.145127202918
 30
0.0
 40
400.0
 41
0.0
 71
     1
 72
     5
  1
設計条件
  7
1_100
 73
     1
 44
1.0
1001
AcDbBlockRepETag
1070
     1
1071
        7
1005
333
1001
ACAD
1000
MTEXTBEGIN
1070
    73
1070
     1
1070
    44
1040
1.0
1070
    74
1070
     0
1000
MTEXTEND
  0
MTEXT
  5
334
330
1F
100
AcDbEntity
  8
画層1-1
100
AcDbMText
 10
5972.136335197192
 20
4446.490743918078
 30
0.0
 40
400.0
 41
0.0
 71
     1
 72
     5
  1
特記
  7
1_100
 73
     1
 44
1.0
1001
AcDbBlockRepETag
1070
     1
1071
        8
1005
334
1001
ACAD
1000
MTEXTBEGIN
1070
    73
1070
     1
1070
    44
1040
1.0
1070
    74
1070
     0
1000
MTEXTEND
  0
MTEXT
  5
335
330
1F
100
AcDbEntity
  8
画層1-1
100
AcDbMText
 10
5972.136335197192
 20
7727.25453252318
 30
0.0
 40
400.0
 41
0.0
 71
     1
 72
     5
  1
仕様について
  7
1_100
 73
     1
 44
1.0
1001
AcDbBlockRepETag
1070
     1
1071
        9
1005
335
1001
ACAD
1000
MTEXTBEGIN
1070
    73
1070
     1
1070
    44
1040
1.0
1070
    74
1070
     0
1000
MTEXTEND
  0
MTEXT
  5
336
330
1F
100
AcDbEntity
  8
画層1-1
100
AcDbMText
 10
13368.86284590022
 20
1894.387294604737
 30
0.0
 40
300.0
 41
0.0
 71
     1
 72
     5
  1
Ⅲ
  7
STYLE1
 73
     1
 44
1.0
1001
AcDbBlockRepETag
1070
     1
1071
       10
1005
336
1001
ACAD
1000
MTEXTBEGIN
1070
    73
1070
     1
1070
    44
1040
1.0
1070
    74
1070
     0
1000
MTEXTEND
  0
MTEXT
  5
337
330
1F
100
AcDbEntity
  8
画層1-1
100
AcDbMText
 10
9455.61430520922
 20
1921.050201481429
 30
0.0
 40
120.0
 41
0.0
 71
     1
 72
     5
  1
2
  7
1_100
 73
     1
 44
1.0
1001
AcDbBlockRepETag
1070
     1
1071
       11
1005
337
1001
ACAD
1000
MTEXTBEGIN
1070
    73
1070
     1
1070
    44
1040
1.0
1070
    74
1070
     0
1000
MTEXTEND
  0
MTEXT
  5
338
330
1F
100
AcDbEntity
  8
画層1-1
100
AcDbMText
 10
6472.136335197191
 20
2446.212055509032
 30
0.0
 40
300.0
 41
0.0
 71
     1
 72
     5
  1
・設計荷重。建築基準法・同施工令（平成12年6月）に基づく風圧力に依る、基準風速。
  7
1_100
 73
     1
 44
1.0
1001
AcDbBlockRepETag
1070
     1
1071
       12
1005
338
1001
ACAD
1000
ACAD_MTEXT_DEFINED_HEIGHT_BEGIN
1070
    46
1040
0.0
1000
ACAD_MTEXT_DEFINED_HEIGHT_END
1000
MTEXTBEGIN
1070
    73
1070
     1
1070
    44
1040
1.0
1070
    74
1070
     0
1000
MTEXTEND
  0
TEXT
  5
339
330
1F
100
AcDbEntity
  8
図面枠
  6
Continuous
 62
     3
100
AcDbText
 10
3996.572417246756
 20
274.447953953547
 30
0.0
 40
300.0
  1
1/100
 41
0.75
  7
1_100
 11
3996.572417246756
 21
274.447953953547
 31
0.0
100
AcDbText
 73
     1
  0
TEXT
  5
33A
330
1F
100
AcDbEntity
  8
図面枠
  6
Continuous
 62
     3
100
AcDbText
 10
5718.944916346224
 20
274.6672014449952
 30
0.0
 40
300.0
  1
KS1-H08
 41
0.75
  7
1_100
 11
5718.944916346224
 21
274.6672014449952
 31
0.0
100
AcDbText
 73
     1
  0
DIMENSION
  5
33B
330
1F
100
AcDbEntity
  8
寸法
  6
Continuous
100
AcDbDimension
  2
*D5
 10
37192.90539795184
 20
21039.22569151607
 30
0.0
 11
36914.33396938041
 21
19714.22569151631
 31
0.0
 70
    32
 71
     5
 42
2649.999999999534
  3
1_100
100
AcDbAlignedDimension
 13
35688.87125015842
 23
18389.22569151654
 33
0.0
 14
35688.87125015842
 24
21039.22569151607
 34
0.0
 50
90.0
100
AcDbRotatedDimension
  0
LINE
  5
33C
330
1F
100
AcDbEntity
  8
通り芯
  6
DASHDOT
 48
100.0
100
AcDbLine
 10
34188.87125015842
 20
10706.75821972301
 30
0.0
 11
34188.87125015842
 21
21159.68835121906
 31
0.0
  0
LINE
  5
33D
330
1F
100
AcDbEntity
  8
画層1
  6
Continuous
100
AcDbLine
 10
34297.02125015833
 20
11099.22569151595
 30
0.0
 11
34297.02125015833
 21
21099.22569151596
 31
0.0
  0
DIMENSION
  5
33E
330
1F
100
AcDbEntity
  8
寸法
  6
Continuous
100
AcDbDimension
  2
*D6
 10
38192.90539795185
 20
13099.22569151607
 30
0.0
 11
37914.33396938042
 21
17099.22569151602
 31
0.0
 70
    32
 71
     5
 42
7999.999999999883
  3
1_100
100
AcDbAlignedDimension
 13
35688.87125015842
 23
21099.22569151596
 33
0.0
 14
35688.87125015842
 24
13099.22569151607
 34
0.0
 50
90.0
100
AcDbRotatedDimension
  0
LINE
  5
33F
330
1F
100
AcDbEntity
  8
画層1
  6
Continuous
100
AcDbLine
 10
34188.87125015842
 20
21079.22569151654
 30
0.0
 11
34188.87125015842
 21
13124.22569151654
 31
0.0
  0
DIMENSION
  5
340
330
1F
100
AcDbEntity
  8
寸法
  6
Continuous
100
AcDbDimension
  2
*D7
 10
30592.90539795185
 20
21039.22569151607
 30
0.0
 11
30314.33396938042
 21
19714.22569151607
 31
0.0
 70
    32
 71
     5
 42
2650.0
  3
1_100
100
AcDbAlignedDimension
 13
29188.87125015842
 23
18389.22569151607
 33
0.0
 14
29188.87125015842
 24
21039.22569151607
 34
0.0
 50
90.0
100
AcDbRotatedDimension
  0
LINE
  5
343
330
1F
100
AcDbEntity
  8
画層1-1
  6
Continuous
100
AcDbLine
 10
22055.72125015851
 20
20989.22569151607
 30
0.0
 11
12322.0012501583
 21
13124.22569151607
 31
0.0
  0
LINE
  5
344
330
1F
100
AcDbEntity
  8
画層1-1
  6
Continuous
100
AcDbLine
 10
12322.02125015832
 20
20989.22569151607
 30
0.0
 11
22055.72125015851
 21
13124.22569151607
 31
0.0
  0
LINE
  5
345
102
{ACAD_REACTORS
330
354
102
}
330
1F
100
AcDbEntity
  8
DEFPOINTS
100
AcDbLine
 10
13967.05811192399
 20
21096.3756915161
 30
0.0
 11
15661.48273550184
 21
13099.22569151595
 31
0.0
  0
LINE
  5
346
330
1F
100
AcDbEntity
  8
画層1
  6
Continuous
100
AcDbLine
 10
12080.72125015851
 20
21099.22569151607
 30
0.0
 11
12080.72125015851
 21
11099.22569151607
 31
0.0
  0
LINE
  5
347
330
1F
100
AcDbEntity
  8
通り芯
  6
DASHDOT
 48
100.0
100
AcDbLine
 10
12188.87125015842
 20
10706.75821972254
 30
0.0
 11
12188.87125015842
 21
21159.68835121871
 31
0.0
  0
LINE
  5
348
102
{ACAD_REACTORS
330
354
102
}
330
1F
100
AcDbEntity
  8
画層1
  6
Continuous
100
AcDbLine
 10
12297.02125015832
 20
11099.22569151607
 30
0.0
 11
12297.02125015832
 21
21099.22569151607
 31
0.0
  0
LINE
  5
349
330
1F
100
AcDbEntity
  8
画層1
  6
Continuous
100
AcDbLine
 10
12188.87125015842
 20
21064.22569151607
 30
0.0
 11
12188.87125015842
 21
13099.22569151607
 31
0.0
  0
LINE
  5
34A
330
1F
100
AcDbEntity
  8
画層1
  6
Continuous
100
AcDbLine
 10
34080.72125015851
 20
21099.22569151596
 30
0.0
 11
34080.72125015851
 21
11099.22569151595
 31
0.0
  0
LINE
  5
34B
330
1F
100
AcDbEntity
  8
画層1
  6
Continuous
100
AcDbLine
 10
22080.72125015851
 20
21099.22569151607
 30
0.0
 11
22080.72125015851
 21
11099.22569151607
 31
0.0
  0
LINE
  5
34C
330
1F
100
AcDbEntity
  8
通り芯
  6
DASHDOT
 48
100.0
100
AcDbLine
 10
22188.87125015842
 20
10706.75821972254
 30
0.0
 11
22188.87125015842
 21
21159.68835121871
 31
0.0
  0
LINE
  5
34D
330
1F
100
AcDbEntity
  8
画層1
  6
Continuous
100
AcDbLine
 10
22297.02125015833
 20
11099.22569151607
 30
0.0
 11
22297.02125015833
 21
21099.22569151607
 31
0.0
  0
DIMENSION
  5
34E
330
1F
100
AcDbEntity
  8
寸法
  6
Continuous
100
AcDbDimension
  2
*D8
 10
31592.90539795185
 20
13099.22569151607
 30
0.0
 11
31314.33396938042
 21
17099.22569151608
 31
0.0
 70
    32
 71
     5
 42
8000.0
  3
1_100
100
AcDbAlignedDimension
 13
29188.87125015842
 23
21099.22569151607
 33
0.0
 14
29188.87125015842
 24
13099.22569151607
 34
0.0
 50
90.0
100
AcDbRotatedDimension
  0
LINE
  5
34F
330
1F
100
AcDbEntity
  8
画層1-1
  6
Continuous
100
AcDbLine
 10
22322.02125015833
 20
20989.22569151607
 30
0.0
 11
28688.87125015842
 21
15844.71000275575
 31
0.0
  0
LINE
  5
350
102
{ACAD_REACTORS
330
353
102
}
330
1F
100
AcDbEntity
  8
DEFPOINTS
100
AcDbLine
 10
25083.37498859247
 20
21039.22569151595
 30
0.0
 11
26765.69075248438
 21
13099.22569151595
 31
0.0
  0
LINE
  5
351
102
{ACAD_REACTORS
330
353
102
}
330
1F
100
AcDbEntity
  8
DEFPOINTS
100
AcDbLine
 10
28688.87125015842
 20
21039.22569151595
 30
0.0
 11
28688.87125015842
 21
13099.22569151607
 31
0.0
  0
LINE
  5
352
330
1F
100
AcDbEntity
  8
画層1-1
  6
DASHED
 48
100.0
100
AcDbLine
 10
34055.72125015851
 20
21039.22569151595
 30
0.0
 11
34055.72125015851
 21
13124.22569151595
 31
0.0
  0
HATCH
  5
353
330
1F
100
AcDbEntity
  8
ﾈｯﾄ
 62
   230
370
    13
100
AcDbHatch
 10
0.0
 20
0.0
 30
0.0
210
0.0
220
0.0
230
1.0
  2
NET
 70
     0
 71
     1
 91
        1
 92
        7
 72
     0
 73
     1
 93
        4
 10
28688.87125015842
 20
21039.22569151595
 10
25083.37498859247
 20
21039.22569151598
 10
26760.39378849227
 20
13124.22569151596
 10
28688.87125015842
 20
13124.22569151595
 97
        4
330
3EA
330
350
330
357
330
351
 75
     0
 76
     1
 52
0.0
 41
1000.0
 77
     0
 78
     2
 53
0.0
 43
-406290.895887926
 44
-240720.5836559452
 45
0.0
 46
125.0
 79
     0
 53
90.0
 43
-406290.895887926
 44
-240720.5836559452
 45
-125.0
 46
0.0000000000000077
 79
     0
 47
66.34394051113419
 98
        1
 10
27635.5263816889
 20
17378.41900702485
  0
HATCH
  5
354
330
1F
100
AcDbEntity
  8
ﾈｯﾄ
 62
   230
370
    13
100
AcDbHatch
 10
0.0
 20
0.0
 30
0.0
210
0.0
220
0.0
230
1.0
  2
NET
 70
     0
 71
     1
 91
        1
 92
        7
 72
     0
 73
     1
 93
       20
 10
13979.16697160994
 20
21039.22569151606
 10
12347.02125015832
 20
21039.22569151607
 10
12347.02125015832
 20
20964.22569151607
 10
12297.02125015832
 20
20964.22569151608
 10
12297.02125015832
 20
18414.22569151607
 10
12347.02125015832
 20
18414.22569151607
 10
12347.02125015832
 20
18364.22569151606
 10
12297.02125015832
 20
18364.22569151606
 10
12297.02125015832
 20
15764.22569151607
 10
12347.02125015832
 20
15764.22569151606
 10
12347.02125015832
 20
15714.22569151607
 10
12297.02125015832
 20
15714.22569151606
 10
12297.02125015832
 20
13149.22569151606
 10
12347.00125015831
 20
13149.22569151607
 10
12347.00125015831
 20
13124.22569151606
 10
12409.67125015846
 20
13124.22569151606
 10
12409.67125015846
 20
13144.00197085471
 10
12564.22125015851
 20
13144.00197085471
 10
12564.22125015851
 20
13124.22569151606
 10
15656.18577150971
 20
13124.22569151604
 97
       14
330
3EA
330
406
330
40C
330
348
330
36D
330
373
330
36C
330
395
330
39B
330
394
330
3A8
330
357
330
3A2
330
345
 75
     0
 76
     1
 52
0.0
 41
1000.0
 77
     0
 78
     2
 53
0.0
 43
-406290.895887926
 44
-240720.5836559452
 45
0.0
 46
125.0
 79
     0
 53
90.0
 43
-406290.895887926
 44
-240720.5836559452
 45
-125.0
 46
0.0000000000000077
 79
     0
 47
66.34394051113419
 98
        1
 10
13825.31475949498
 20
16648.63623600302
  0
LINE
  5
355
330
1F
100
AcDbEntity
  8
画層1-1
  6
Continuous
100
AcDbLine
 10
12188.87125015842
 20
18389.22569151607
 30
0.0
 11
28688.87125015842
 21
18389.22569151595
 31
0.0
  0
LINE
  5
356
330
1F
100
AcDbEntity
  8
画層1-1
  6
Continuous
100
AcDbLine
 10
12188.87125015842
 20
15739.22569151607
 30
0.0
 11
28688.87125015842
 21
15739.22569151595
 31
0.0
  0
LINE
  5
357
102
{ACAD_REACTORS
330
353
330
354
102
}
330
1F
100
AcDbEntity
  8
画層1
  6
Continuous
100
AcDbLine
 10
28688.87125015842
 20
13124.22569151595
 30
0.0
 11
12188.87125015842
 21
13124.22569151607
 31
0.0
  0
LINE
  5
358
102
{ACAD_REACTORS
330
38B
102
}
330
1F
100
AcDbEntity
  8
画層2
  6
Continuous
100
AcDbLine
 10
28688.87125015842
 20
13099.22569151607
 30
0.0
 11
8225.323375445103
 21
13099.22569151595
 31
0.0
  0
LINE
  5
359
330
1F
100
AcDbEntity
  8
画層1-1
  6
Continuous
100
AcDbLine
 10
28688.87125015842
 20
18301.4627653173
 30
0.0
 11
22322.00125015831
 21
13124.22569151607
 31
0.0
  0
LEADER
  5
35A
330
1F
100
AcDbEntity
  8
寸法引出
  6
Continuous
100
AcDbLeader
  3
1_100
 71
     0
 73
     0
 75
     1
 40
346.6666666666666
 41
3117.142857142858
 76
     3
 10
12188.87125015842
 20
17399.76743120188
 30
0.0
 10
11038.76303123451
 20
18355.20916350512
 30
0.0
 10
10978.76303123451
 20
18355.20916350512
 30
0.0
340
35B
  0
MTEXT
  5
35B
102
{ACAD_REACTORS
330
35A
102
}
330
1F
100
AcDbEntity
  8
寸法文字
  6
Continuous
100
AcDbMText
 10
10878.76303123451
 20
18455.20916350512
 30
0.0
 40
300.0
 41
0.0
 71
     9
 72
     1
  1
メッセンワイヤー22m㎡
  7
1_100
 73
     1
 44
1.0
1001
ACAD
1000
MTEXTBEGIN
1070
    73
1070
     1
1070
    44
1040
1.0
1070
    74
1070
     0
1000
MTEXTEND
  0
TEXT
  5
35C
330
1F
100
AcDbEntity
  8
寸法
  6
Continuous
100
AcDbText
 10
8467.065384273196
 20
13179.22569151607
 30
0.0
 40
300.0
  1
▽GL
 41
0.75
  7
1_100
 11
8467.065384273196
 21
13179.22569151607
 31
0.0
100
AcDbText
 73
     1
  0
INSERT
  5
35D
330
1F
100
AcDbEntity
  8
ﾊｯﾁﾝｸﾞ
  6
Continuous
100
AcDbBlockReference
  2
sai450
 10
12188.87125015842
 20
11099.22569151595
 30
0.0
  0
INSERT
  5
35E
330
1F
100
AcDbEntity
  8
ﾊｯﾁﾝｸﾞ
100
AcDbBlockReference
  2
sai450
 10
22188.87125015889
 20
11099.22569151601
 30
0.0
  0
INSERT
  5
35F
330
1F
100
AcDbEntity
  8
ﾊｯﾁﾝｸﾞ
  6
Continuous
100
AcDbBlockReference
  2
RH
 10
11938.87125015888
 20
13099.22569151601
 30
0.0
  0
INSERT
  5
360
330
1F
100
AcDbEntity
  8
ﾊｯﾁﾝｸﾞ
  6
Continuous
100
AcDbBlockReference
  2
RM
 10
12438.87125015888
 20
13099.22569151648
 30
0.0
  0
INSERT
  5
361
330
1F
100
AcDbEntity
  8
ﾊｯﾁﾝｸﾞ
  6
Continuous
100
AcDbBlockReference
  2
RH
 10
21938.87125015888
 20
13099.22569151601
 30
0.0
  0
INSERT
  5
362
330
1F
100
AcDbEntity
  8
ﾊｯﾁﾝｸﾞ
  6
Continuous
100
AcDbBlockReference
  2
RM
 10
22438.87125015889
 20
13099.22569151648
 30
0.0
  0
LINE
  5
363
330
1F
100
AcDbEntity
  8
画層1
  6
Continuous
100
AcDbLine
 10
22030.72125015852
 20
18364.22569151607
 30
0.0
 11
22347.02125015833
 21
18364.22569151607
 31
0.0
  0
LINE
  5
364
330
1F
100
AcDbEntity
  8
画層1
  6
Continuous
100
AcDbLine
 10
22347.02125015833
 20
18414.22569151607
 30
0.0
 11
22030.72125015852
 21
18414.22569151607
 31
0.0
  0
CIRCLE
  5
365
330
1F
100
AcDbEntity
  8
画層1
  6
Continuous
100
AcDbCircle
 10
22055.72125015851
 20
18389.22569151607
 30
0.0
 40
10.9509940156
  0
LINE
  5
366
330
1F
100
AcDbEntity
  8
画層1
  6
Continuous
100
AcDbLine
 10
22030.72125015852
 20
18414.22569151607
 30
0.0
 11
22030.72125015852
 21
18364.22569151607
 31
0.0
  0
LINE
  5
367
330
1F
100
AcDbEntity
  8
画層1
  6
Continuous
100
AcDbLine
 10
22213.87125015842
 20
18364.22569151607
 30
0.0
 11
22213.87125015842
 21
18414.22569151607
 31
0.0
  0
LINE
  5
368
330
1F
100
AcDbEntity
  8
画層1
  6
Continuous
100
AcDbLine
 10
22163.87125015842
 20
18364.22569151607
 30
0.0
 11
22163.87125015842
 21
18414.22569151607
 31
0.0
  0
CIRCLE
  5
369
330
1F
100
AcDbEntity
  8
画層1
  6
Continuous
100
AcDbCircle
 10
22322.02125015833
 20
18389.22569151607
 30
0.0
 40
10.9509940156
  0
LINE
  5
36A
330
1F
100
AcDbEntity
  8
画層1
  6
Continuous
100
AcDbLine
 10
22347.02125015833
 20
18364.22569151607
 30
0.0
 11
22347.02125015833
 21
18414.22569151607
 31
0.0
  0
CIRCLE
  5
36B
330
1F
100
AcDbEntity
  8
画層1
  6
Continuous
100
AcDbCircle
 10
12322.02125015832
 20
18389.22569151607
 30
0.0
 40
10.9509940156
  0
LINE
  5
36C
102
{ACAD_REACTORS
330
354
102
}
330
1F
100
AcDbEntity
  8
画層1
  6
Continuous
100
AcDbLine
 10
12030.72125015851
 20
18364.22569151607
 30
0.0
 11
12347.02125015832
 21
18364.22569151607
 31
0.0
  0
LINE
  5
36D
102
{ACAD_REACTORS
330
354
102
}
330
1F
100
AcDbEntity
  8
画層1
  6
Continuous
100
AcDbLine
 10
12347.02125015832
 20
18414.22569151607
 30
0.0
 11
12030.72125015851
 21
18414.22569151607
 31
0.0
  0
CIRCLE
  5
36E
330
1F
100
AcDbEntity
  8
画層1
  6
Continuous
100
AcDbCircle
 10
12055.72125015851
 20
18389.22569151607
 30
0.0
 40
10.9509940156
  0
LINE
  5
36F
330
1F
100
AcDbEntity
  8
画層1
  6
Continuous
100
AcDbLine
 10
12030.72125015851
 20
18414.22569151607
 30
0.0
 11
12030.72125015851
 21
18364.22569151607
 31
0.0
  0
LINE
  5
370
330
1F
100
AcDbEntity
  8
画層1
  6
Continuous
100
AcDbLine
 10
12213.87125015842
 20
18364.22569151607
 30
0.0
 11
12213.87125015842
 21
18414.22569151607
 31
0.0
  0
LINE
  5
371
330
1F
100
AcDbEntity
  8
画層1
  6
Continuous
100
AcDbLine
 10
12163.87125015842
 20
18364.22569151607
 30
0.0
 11
12163.87125015842
 21
18414.22569151607
 31
0.0
  0
LWPOLYLINE
  5
372
330
1F
100
AcDbEntity
  8
画層1-1
100
AcDbPolyline
 90
        4
 70
     1
 43
0.0
 10
12422.47125015851
 20
18409.22668583004
 10
12577.02125015832
 20
18409.22668583004
 10
12577.02125015832
 20
18369.22668583004
 10
12422.47125015851
 20
18369.22668583004
  0
LINE
  5
373
102
{ACAD_REACTORS
330
354
102
}
330
1F
100
AcDbEntity
  8
画層1
  6
Continuous
100
AcDbLine
 10
12347.02125015832
 20
18364.22569151607
 30
0.0
 11
12347.02125015832
 21
18414.22569151607
 31
0.0
  0
LEADER
  5
374
330
1F
100
AcDbEntity
  8
寸法引出
  6
Continuous
100
AcDbLeader
  3
1_100
 71
     0
 73
     0
 74
     0
 75
     1
 40
696.6666666666665
 41
3117.142857142857
 76
     3
 10
17809.85162293004
 20
17558.49575289525
 30
0.0
 10
18266.98735748442
 20
16956.97277996235
 30
0.0
 10
18326.98735748442
 20
16956.97277996235
 30
0.0
340
375
  0
MTEXT
  5
375
102
{ACAD_REACTORS
330
374
102
}
330
1F
100
AcDbEntity
  8
寸法文字
  6
Continuous
100
AcDbMText
 10
18426.98735748442
 20
17056.97277996235
 30
0.0
 40
300.0
 41
0.0
 71
     7
 72
     1
  1
筋違\Pメッセンワイヤー38m㎡
  7
1_100
 73
     1
 44
0.7
1001
ACAD
1000
MTEXTBEGIN
1070
    73
1070
     1
1070
    44
1040
0.7
1070
    74
1070
     0
1000
MTEXTEND
  0
LINE
  5
376
330
1F
100
AcDbEntity
  8
画層2-1
  6
Continuous
100
AcDbLine
 10
22080.72125015851
 20
12949.22569151607
 30
0.0
 11
22297.02125015833
 21
12949.22569151607
 31
0.0
  0
LEADER
  5
377
330
1F
100
AcDbEntity
  8
寸法引出
  6
Continuous
100
AcDbLeader
  3
1_100
 71
     0
 73
     0
 75
     1
 40
300.0
 41
1319.999999999999
 76
     3
 10
22057.19071702125
 20
15714.22569151607
 30
0.0
 10
21742.99251952466
 20
14997.71278177202
 30
0.0
 10
21682.99251952466
 20
14997.71278177202
 30
0.0
340
378
  0
MTEXT
  5
378
102
{ACAD_REACTORS
330
377
102
}
330
1F
100
AcDbEntity
  8
寸法文字
  6
Continuous
100
AcDbMText
 10
21582.99251952466
 20
15097.71278177202
 30
0.0
 40
300.0
 41
0.0
 71
     9
 72
     1
  1
バンド金具
  7
1_100
 73
     1
 44
1.0
1001
ACAD
1000
MTEXTBEGIN
1070
    73
1070
     1
1070
    44
1040
1.0
1070
    74
1070
     0
1000
MTEXTEND
  0
LINE
  5
379
330
1F
100
AcDbEntity
  8
画層1
  6
Continuous
100
AcDbLine
 10
22030.72125015852
 20
15714.22569151607
 30
0.0
 11
22347.02125015833
 21
15714.22569151607
 31
0.0
  0
LINE
  5
37A
330
1F
100
AcDbEntity
  8
画層1
  6
Continuous
100
AcDbLine
 10
22347.02125015833
 20
15764.22569151607
 30
0.0
 11
22030.72125015852
 21
15764.22569151607
 31
0.0
  0
LINE
  5
37B
330
1F
100
AcDbEntity
  8
画層1
  6
Continuous
100
AcDbLine
 10
22030.72125015852
 20
15764.22569151607
 30
0.0
 11
22030.72125015852
 21
15714.22569151607
 31
0.0
  0
CIRCLE
  5
37C
330
1F
100
AcDbEntity
  8
画層1
  6
Continuous
100
AcDbCircle
 10
22055.72125015851
 20
15739.22569151607
 30
0.0
 40
10.9509940156
  0
LINE
  5
37D
330
1F
100
AcDbEntity
  8
画層1
  6
Continuous
100
AcDbLine
 10
22163.87125015842
 20
15714.22569151607
 30
0.0
 11
22163.87125015842
 21
15764.22569151607
 31
0.0
  0
LINE
  5
37E
330
1F
100
AcDbEntity
  8
画層1
  6
Continuous
100
AcDbLine
 10
22213.87125015842
 20
15714.22569151607
 30
0.0
 11
22213.87125015842
 21
15764.22569151607
 31
0.0
  0
CIRCLE
  5
37F
330
1F
100
AcDbEntity
  8
画層1
  6
Continuous
100
AcDbCircle
 10
22322.02125015833
 20
15739.22569151607
 30
0.0
 40
10.9509940156
  0
LINE
  5
380
330
1F
100
AcDbEntity
  8
画層1
  6
Continuous
100
AcDbLine
 10
22347.02125015833
 20
15714.22569151607
 30
0.0
 11
22347.02125015833
 21
15764.22569151607
 31
0.0
  0
LINE
  5
381
330
1F
100
AcDbEntity
  8
画層2-1
  6
Continuous
100
AcDbLine
 10
22080.72125015851
 20
13199.22569151607
 30
0.0
 11
22297.02125015833
 21
13199.22569151607
 31
0.0
  0
CIRCLE
  5
382
330
1F
100
AcDbEntity
  8
画層1
  6
Continuous
100
AcDbCircle
 10
22055.72125015851
 20
13124.22569151607
 30
0.0
 40
10.9509940156
  0
CIRCLE
  5
383
330
1F
100
AcDbEntity
  8
画層1
  6
Continuous
100
AcDbCircle
 10
22322.00125015831
 20
13124.22569151607
 30
0.0
 40
10.9509940156
  0
LINE
  5
384
330
1F
100
AcDbEntity
  8
画層1
  6
Continuous
100
AcDbLine
 10
22213.87125015842
 20
13099.22569151607
 30
0.0
 11
22213.87125015842
 21
13149.22569151607
 31
0.0
  0
LINE
  5
385
330
1F
100
AcDbEntity
  8
画層1
  6
Continuous
100
AcDbLine
 10
22163.87125015842
 20
13099.22569151607
 30
0.0
 11
22163.87125015842
 21
13149.22569151607
 31
0.0
  0
LWPOLYLINE
  5
386
330
1F
100
AcDbEntity
  8
画層1-1
100
AcDbPolyline
 90
        4
 70
     1
 43
0.0
 10
22004.35713030632
 20
13191.48126183741
 10
21884.44711867628
 20
13288.98660328542
 10
21859.21118429956
 20
13257.95198364649
 10
21979.1211959296
 20
13160.44664219848
  0
LWPOLYLINE
  5
387
330
1F
100
AcDbEntity
  8
画層1-1
100
AcDbPolyline
 90
        4
 70
     1
 43
0.0
 10
22373.42855639687
 20
13191.44589992392
 10
22493.40135477228
 20
13288.873976729
 10
22518.61729182956
 20
13257.82310688088
 10
22398.64449345391
 20
13160.3950300758
  0
LWPOLYLINE
  5
388
330
1F
100
AcDbEntity
  8
画層1
  6
Continuous
100
AcDbPolyline
 90
        4
 70
     1
 43
0.0
 10
22030.72125015852
 20
13149.22569151607
 10
22347.00125015831
 20
13149.22569151607
 10
22347.00125015831
 20
13099.22569151607
 10
22030.72125015852
 20
13099.22569151607
  0
LWPOLYLINE
  5
389
102
{ACAD_REACTORS
330
38B
102
}
330
1F
100
AcDbEntity
  8
画層2
100
AcDbPolyline
 90
        8
 70
     0
 43
0.0
 10
21938.87125015888
 20
13099.22569151601
 10
21938.87125015888
 20
12899.22569151601
 10
21963.87125015889
 20
12899.22569151601
 10
21963.87125015889
 20
10999.22569151601
 10
22413.87125015889
 20
10999.22569151601
 10
22413.87125015889
 20
12899.22569151601
 10
22438.87125015889
 20
12899.22569151601
 10
22438.87125015889
 20
13099.22569151648
  0
LINE
  5
38A
102
{ACAD_REACTORS
330
38B
102
}
330
1F
100
AcDbEntity
  8
画層2
100
AcDbLine
 10
22413.87125015889
 20
11099.22569151601
 30
0.0
 11
21963.87125015889
 21
11099.22569151601
 31
0.0
  0
HATCH
  5
38B
330
1F
100
AcDbEntity
  8
ﾊｯﾁﾝｸﾞ
100
AcDbHatch
 10
0.0
 20
0.0
 30
0.0
210
0.0
220
0.0
230
1.0
  2
PLAST
 70
     0
 71
     1
 91
        1
 92
        7
 72
     0
 73
     1
 93
        8
 10
22413.87125015888
 20
12899.22569151601
 10
22438.87125015889
 20
12899.22569151601
 10
22438.87125015889
 20
13099.22569151603
 10
21938.87125015888
 20
13099.22569151603
 10
21938.87125015888
 20
12899.22569151601
 10
21963.87125015889
 20
12899.22569151601
 10
21963.87125015889
 20
11099.22569151601
 10
22413.87125015889
 20
11099.22569151601
 97
        3
330
389
330
358
330
38A
 75
     0
 76
     1
 52
45.0
 41
2000.0
 77
     0
 78
     3
 53
45.0
 43
-1058528.36349593
 44
-419936.0837018971
 45
-353.5533905932737
 46
353.5533905932738
 79
     0
 53
45.0
 43
-1058572.557669754
 44
-419891.8895280733
 45
-353.5533905932737
 46
353.5533905932738
 79
     0
 53
45.0
 43
-1058616.751843578
 44
-419847.6953542489
 45
-353.5533905932737
 46
353.5533905932738
 79
     0
 47
22.03862637277746
 98
        1
 10
22194.2831550867
 20
12335.46670596383
  0
LEADER
  5
38C
330
1F
100
AcDbEntity
  8
寸法引出
  6
Continuous
100
AcDbLeader
  3
1_100
 71
     0
 73
     0
 74
     0
 75
     1
 40
300.0
 41
495.0
 76
     3
 10
12413.87125015842
 20
11049.22569151607
 30
0.0
 10
12846.58990396863
 20
11467.24831915472
 30
0.0
 10
12906.58990396863
 20
11467.24831915472
 30
0.0
340
38D
  0
MTEXT
  5
38D
102
{ACAD_REACTORS
330
38C
102
}
330
1F
100
AcDbEntity
  8
寸法文字
  6
Continuous
100
AcDbMText
 10
13006.58990396863
 20
11567.24831915472
 30
0.0
 40
300.0
 41
0.0
 71
     7
 72
     1
  1
砕石
  7
1_100
 73
     1
 44
1.0
1001
ACAD
1000
MTEXTBEGIN
1070
    73
1070
     1
1070
    44
1040
1.0
1070
    74
1070
     0
1000
MTEXTEND
  0
LEADER
  5
38E
330
1F
100
AcDbEntity
  8
寸法引出
  6
Continuous
100
AcDbLeader
  3
1_100
 71
     0
 73
     0
 74
     0
 75
     1
 40
300.0
 41
1547.142857142856
 76
     3
 10
12413.87125015842
 20
11809.52792349539
 30
0.0
 10
12881.36097078073
 20
12250.1311459454
 30
0.0
 10
12941.36097078073
 20
12250.1311459454
 30
0.0
340
38F
  0
MTEXT
  5
38F
102
{ACAD_REACTORS
330
38E
102
}
330
1F
100
AcDbEntity
  8
寸法文字
  6
Continuous
100
AcDbMText
 10
13041.36097078073
 20
12350.1311459454
 30
0.0
 40
300.0
 41
0.0
 71
     7
 72
     1
  1
コンクリート
  7
1_100
 73
     1
 44
1.0
1001
ACAD
1000
MTEXTBEGIN
1070
    73
1070
     1
1070
    44
1040
1.0
1070
    74
1070
     0
1000
MTEXTEND
  0
LINE
  5
390
330
1F
100
AcDbEntity
  8
画層2-1
  6
Continuous
100
AcDbLine
 10
12080.72125015851
 20
12949.22569151607
 30
0.0
 11
12297.02125015832
 21
12949.22569151607
 31
0.0
  0
DIMENSION
  5
391
330
1F
100
AcDbEntity
  8
寸法
  6
Continuous
100
AcDbDimension
  2
*D9
 10
12438.87125015842
 20
9999.225691515723
 30
0.0
 11
12188.87125015842
 21
9749.225691515723
 31
0.0
 70
    32
  1
□<>
 71
     5
 42
500.0
  3
1_100
100
AcDbAlignedDimension
 13
11938.87125015842
 23
10999.22569151584
 33
0.0
 14
12438.87125015842
 24
10999.22569151584
 34
0.0
100
AcDbRotatedDimension
1001
ACAD
1000
DSTYLE
1002
{
1070
    77
1070
     2
1070
   174
1070
     1
1002
}
  0
DIMENSION
  5
392
330
1F
100
AcDbEntity
  8
寸法
  6
Continuous
100
AcDbDimension
  2
*D10
 10
12413.87125015842
 20
10399.22569151584
 30
0.0
 11
11387.48101396417
 21
10580.55935310479
 31
0.0
 70
   160
  1
φ<>
 71
     5
 42
450.0
  3
1_100
100
AcDbAlignedDimension
 13
11963.87125015842
 23
10999.22569151584
 33
0.0
 14
12413.87125015842
 24
10999.22569151584
 34
0.0
100
AcDbRotatedDimension
  0
CIRCLE
  5
393
330
1F
100
AcDbEntity
  8
画層1
  6
Continuous
100
AcDbCircle
 10
12322.02125015832
 20
15739.22569151607
 30
0.0
 40
10.9509940156
  0
LINE
  5
394
102
{ACAD_REACTORS
330
354
102
}
330
1F
100
AcDbEntity
  8
画層1
  6
Continuous
100
AcDbLine
 10
12030.72125015851
 20
15714.22569151607
 30
0.0
 11
12347.02125015832
 21
15714.22569151607
 31
0.0
  0
LINE
  5
395
102
{ACAD_REACTORS
330
354
102
}
330
1F
100
AcDbEntity
  8
画層1
  6
Continuous
100
AcDbLine
 10
12347.02125015832
 20
15764.22569151607
 30
0.0
 11
12030.72125015851
 21
15764.22569151607
 31
0.0
  0
CIRCLE
  5
396
330
1F
100
AcDbEntity
  8
画層1
  6
Continuous
100
AcDbCircle
 10
12055.72125015851
 20
15739.22569151607
 30
0.0
 40
10.9509940156
  0
LINE
  5
397
330
1F
100
AcDbEntity
  8
画層1
  6
Continuous
100
AcDbLine
 10
12030.72125015851
 20
15764.22569151607
 30
0.0
 11
12030.72125015851
 21
15714.22569151607
 31
0.0
  0
LINE
  5
398
330
1F
100
AcDbEntity
  8
画層1
  6
Continuous
100
AcDbLine
 10
12213.87125015842
 20
15714.22569151607
 30
0.0
 11
12213.87125015842
 21
15764.22569151607
 31
0.0
  0
LINE
  5
399
330
1F
100
AcDbEntity
  8
画層1
  6
Continuous
100
AcDbLine
 10
12163.87125015842
 20
15714.22569151607
 30
0.0
 11
12163.87125015842
 21
15764.22569151607
 31
0.0
  0
LWPOLYLINE
  5
39A
330
1F
100
AcDbEntity
  8
画層1-1
100
AcDbPolyline
 90
        4
 70
     1
 43
0.0
 10
12422.47125015851
 20
15759.22668583005
 10
12577.02125015832
 20
15759.22668583005
 10
12577.02125015832
 20
15719.22668583004
 10
12422.47125015851
 20
15719.22668583004
  0
LINE
  5
39B
102
{ACAD_REACTORS
330
354
102
}
330
1F
100
AcDbEntity
  8
画層1
  6
Continuous
100
AcDbLine
 10
12347.02125015832
 20
15714.22569151607
 30
0.0
 11
12347.02125015832
 21
15764.22569151607
 31
0.0
  0
LWPOLYLINE
  5
39C
330
1F
100
AcDbEntity
  8
画層1
100
AcDbPolyline
 90
        4
 70
     1
 43
0.0
 10
12169.9901116991
 20
13479.22569151607
 10
12209.9901116991
 20
13479.22569151607
 10
12209.9901116991
 20
13299.22569151607
 10
12169.9901116991
 20
13299.22569151607
  0
LINE
  5
39D
330
1F
100
AcDbEntity
  8
画層2-1
  6
Continuous
100
AcDbLine
 10
12080.72125015851
 20
13199.22569151607
 30
0.0
 11
12297.02125015832
 21
13199.22569151607
 31
0.0
  0
CIRCLE
  5
39E
330
1F
100
AcDbEntity
  8
画層1
  6
Continuous
100
AcDbCircle
 10
12322.0012501583
 20
13124.22569151607
 30
0.0
 40
10.9509940156
  0
CIRCLE
  5
39F
330
1F
100
AcDbEntity
  8
画層1
  6
Continuous
100
AcDbCircle
 10
12055.72125015851
 20
13124.22569151607
 30
0.0
 40
10.9509940156
  0
LINE
  5
3A0
330
1F
100
AcDbEntity
  8
画層1
  6
Continuous
100
AcDbLine
 10
12213.87125015842
 20
13099.22569151607
 30
0.0
 11
12213.87125015842
 21
13149.22569151607
 31
0.0
  0
LINE
  5
3A1
330
1F
100
AcDbEntity
  8
画層1
  6
Continuous
100
AcDbLine
 10
12163.87125015842
 20
13099.22569151607
 30
0.0
 11
12163.87125015842
 21
13149.22569151607
 31
0.0
  0
LWPOLYLINE
  5
3A2
102
{ACAD_REACTORS
330
354
102
}
330
1F
100
AcDbEntity
  8
画層1
100
AcDbPolyline
 90
        4
 70
     1
 43
0.0
 10
12409.67125015846
 20
13144.00197085471
 10
12564.22125015851
 20
13144.00197085471
 10
12564.22125015851
 20
13104.00197085471
 10
12409.67125015846
 20
13104.00197085471
  0
LWPOLYLINE
  5
3A3
330
1F
100
AcDbEntity
  8
画層1-1
100
AcDbPolyline
 90
        4
 70
     1
 43
0.0
 10
12373.42855639687
 20
13191.44589992392
 10
12493.40135477228
 20
13288.873976729
 10
12518.61729182956
 20
13257.82310688088
 10
12398.64449345391
 20
13160.3950300758
  0
LEADER
  5
3A4
330
1F
100
AcDbEntity
  8
寸法引出
  6
Continuous
100
AcDbLeader
  3
1_100
 71
     0
 73
     0
 75
     1
 40
300.0
 41
1095.0
 76
     3
 10
12102.4931283563
 20
13158.57322191948
 30
0.0
 10
11142.78329903121
 20
13926.51780886634
 30
0.0
 10
11082.78329903121
 20
13926.51780886634
 30
0.0
340
3A5
  0
MTEXT
  5
3A5
102
{ACAD_REACTORS
330
3A4
102
}
330
1F
100
AcDbEntity
  8
寸法文字
  6
Continuous
100
AcDbMText
 10
10982.78329903121
 20
14026.51780886634
 30
0.0
 40
300.0
 41
0.0
 71
     9
 72
     1
  1
FRP被覆
  7
1_100
 73
     1
 44
1.0
1001
ACAD
1000
MTEXTBEGIN
1070
    73
1070
     1
1070
    44
1040
1.0
1070
    74
1070
     0
1000
MTEXTEND
  0
MTEXT
  5
3A6
330
1F
100
AcDbEntity
  8
寸法文字
  6
Continuous
100
AcDbMText
 10
10941.26984066354
 20
13769.70618354122
 30
0.0
 40
300.0
 41
0.0
 71
     3
 72
     1
  1
（250）
  7
1_100
 73
     1
 44
1.0
1001
ACAD
1000
MTEXTBEGIN
1070
    73
1070
     1
1070
    44
1040
1.0
1070
    74
1070
     0
1000
MTEXTEND
  0
LINE
  5
3A7
330
1F
100
AcDbEntity
  8
寸法引出
  6
Continuous
100
AcDbLine
 10
16126.9081263363
 20
15739.22569151607
 30
0.0
 11
17218.87415491744
 21
13694.0729262291
 31
0.0
  0
LWPOLYLINE
  5
3A8
102
{ACAD_REACTORS
330
354
102
}
330
1F
100
AcDbEntity
  8
画層1
  6
Continuous
100
AcDbPolyline
 90
        4
 70
     1
 43
0.0
 10
12030.72125015851
 20
13149.22569151607
 10
12347.00125015831
 20
13149.22569151607
 10
12347.00125015831
 20
13099.22569151607
 10
12030.72125015851
 20
13099.22569151607
  0
LWPOLYLINE
  5
3A9
330
1F
100
AcDbEntity
  8
画層2
100
AcDbPolyline
 90
        8
 70
     0
 43
0.0
 10
11938.87125015842
 20
13099.22569151595
 10
11938.87125015842
 20
12899.22569151595
 10
11963.87125015842
 20
12899.22569151595
 10
11963.87125015842
 20
10999.22569151595
 10
12413.87125015842
 20
10999.22569151595
 10
12413.87125015842
 20
12899.22569151595
 10
12438.87125015842
 20
12899.22569151595
 10
12438.87125015842
 20
13099.22569151642
  0
LINE
  5
3AA
330
1F
100
AcDbEntity
  8
画層2
100
AcDbLine
 10
12413.87125015842
 20
11099.22569151595
 30
0.0
 11
11963.87125015842
 21
11099.22569151595
 31
0.0
  0
HATCH
  5
3AB
330
1F
100
AcDbEntity
  8
ﾊｯﾁﾝｸﾞ
100
AcDbHatch
 10
0.0
 20
0.0
 30
0.0
210
0.0
220
0.0
230
1.0
  2
PLAST
 70
     0
 71
     0
 91
        2
 92
        7
 72
     0
 73
     1
 93
        6
 10
12413.87125015842
 20
12899.22569151595
 10
12438.87125015842
 20
12899.22569151601
 10
12438.87125015842
 20
13099.22569151601
 10
12188.87125015842
 20
13099.22569151607
 10
12188.87125015842
 20
11099.22569151595
 10
12413.87125015842
 20
11099.22569151595
 97
        0
 92
        7
 72
     0
 73
     1
 93
        6
 10
12188.87125015842
 20
13099.22569151601
 10
11938.87125015842
 20
13099.22569151601
 10
11938.87125015842
 20
12899.22569151595
 10
11963.87125015842
 20
12899.22569151595
 10
11963.87125015842
 20
11099.22569151595
 10
12188.87125015842
 20
11099.22569151595
 97
        0
 75
     0
 76
     1
 52
45.0
 41
2000.0
 77
     0
 78
     3
 53
45.0
 43
-1058528.36349593
 44
-419936.0837018971
 45
-353.5533905932737
 46
353.5533905932738
 79
     0
 53
45.0
 43
-1058572.557669754
 44
-419891.8895280733
 45
-353.5533905932737
 46
353.5533905932738
 79
     0
 53
45.0
 43
-1058616.751843578
 44
-419847.6953542489
 45
-353.5533905932737
 46
353.5533905932738
 79
     0
 47
17.75677060322959
 98
        2
 10
12404.60243498139
 20
12579.28187470546
 10
12084.73240189605
 20
12419.47002804081
  0
DIMENSION
  5
3AC
330
1F
100
AcDbEntity
  8
寸法
  6
Continuous
100
AcDbDimension
  2
*D11
 10
22188.87125015842
 20
7999.225691515491
 30
0.0
 11
17188.87125015842
 21
8277.797120086916
 31
0.0
 70
    32
 71
     5
 42
10000.0
  3
1_100
100
AcDbAlignedDimension
 13
12188.87125015842
 23
9599.225691515723
 33
0.0
 14
22188.87125015842
 24
10706.75821972254
 34
0.0
100
AcDbRotatedDimension
  0
LEADER
  5
3AD
330
1F
100
AcDbEntity
  8
寸法引出
  6
Continuous
100
AcDbLeader
  3
1_100
 71
     0
 73
     0
 75
     1
 40
300.0
 41
2603.571428571428
 76
     3
 10
21915.77696749849
 20
13211.95527386281
 30
0.0
 10
21405.6674928174
 20
12222.72113175201
 30
0.0
 10
21345.6674928174
 20
12222.72113175201
 30
0.0
340
3AE
  0
MTEXT
  5
3AE
102
{ACAD_REACTORS
330
3AD
102
}
330
1F
100
AcDbEntity
  8
寸法文字
  6
Continuous
100
AcDbMText
 10
21245.6674928174
 20
12322.72113175201
 30
0.0
 40
300.0
 41
0.0
 71
     9
 72
     1
  1
タンバックル12mm
  7
1_100
 73
     1
 44
1.0
1001
ACAD
1000
MTEXTBEGIN
1070
    73
1070
     1
1070
    44
1040
1.0
1070
    74
1070
     0
1000
MTEXTEND
  0
LEADER
  5
3AF
330
1F
100
AcDbEntity
  8
寸法引出
  6
Continuous
100
AcDbLeader
  3
1_100
 71
     0
 73
     0
 74
     0
 75
     1
 40
346.6666666666666
 41
3117.142857142858
 76
     3
 10
16911.2978385517
 20
13124.22569151607
 30
0.0
 10
17218.87415491744
 20
13694.0729262291
 30
0.0
 10
17278.87415491744
 20
13694.0729262291
 30
0.0
340
3B0
  0
MTEXT
  5
3B0
102
{ACAD_REACTORS
330
3AF
102
}
330
1F
100
AcDbEntity
  8
寸法文字
  6
Continuous
100
AcDbMText
 10
17378.87415491744
 20
13794.0729262291
 30
0.0
 40
300.0
 41
0.0
 71
     7
 72
     1
  1
メッセンワイヤー22m㎡
  7
1_100
 73
     1
 44
1.0
1001
ACAD
1000
MTEXTBEGIN
1070
    73
1070
     1
1070
    44
1040
1.0
1070
    74
1070
     0
1000
MTEXTEND
  0
LINE
  5
3B1
330
1F
100
AcDbEntity
  8
寸法引出
  6
Continuous
100
AcDbLine
 10
18266.98735748442
 20
16956.97277996235
 30
0.0
 11
17865.34595543799
 21
16510.1222871556
 31
0.0
  0
LINE
  5
3B2
330
1F
100
AcDbEntity
  8
寸法引出
  6
Continuous
100
AcDbLine
 10
16207.96120917844
 20
18389.22569151607
 30
0.0
 11
17218.87415491744
 21
13694.0729262291
 31
0.0
  0
INSERT
  5
3B3
330
1F
100
AcDbEntity
  8
ﾊｯﾁﾝｸﾞ
  6
Continuous
100
AcDbBlockReference
  2
sai450
 10
34182.11639279524
 20
11099.2256915159
 30
0.0
  0
INSERT
  5
3B4
330
1F
100
AcDbEntity
  8
ﾊｯﾁﾝｸﾞ
  6
Continuous
100
AcDbBlockReference
  2
RM
 10
34438.87125015888
 20
13099.22569151648
 30
0.0
  0
INSERT
  5
3B5
330
1F
100
AcDbEntity
  8
ﾊｯﾁﾝｸﾞ
  6
Continuous
100
AcDbBlockReference
  2
RH
 10
33938.87125015888
 20
13099.22569151601
 30
0.0
  0
LINE
  5
3B6
330
1F
100
AcDbEntity
  8
画層1
  6
Continuous
100
AcDbLine
 10
34213.87125015842
 20
18364.22569151595
 30
0.0
 11
34297.02125015833
 21
18364.22569151595
 31
0.0
  0
LINE
  5
3B7
330
1F
100
AcDbEntity
  8
画層1
  6
Continuous
100
AcDbLine
 10
34297.02125015833
 20
18414.22569151595
 30
0.0
 11
34213.87125015842
 21
18414.22569151595
 31
0.0
  0
LINE
  5
3B8
330
1F
100
AcDbEntity
  8
画層1
  6
Continuous
100
AcDbLine
 10
34163.87125015842
 20
18364.22569151595
 30
0.0
 11
34163.87125015842
 21
18414.22569151595
 31
0.0
  0
LINE
  5
3B9
330
1F
100
AcDbEntity
  8
画層1
  6
Continuous
100
AcDbLine
 10
34213.87125015842
 20
18364.22569151595
 30
0.0
 11
34213.87125015842
 21
18414.22569151595
 31
0.0
  0
LINE
  5
3BA
330
1F
100
AcDbEntity
  8
画層1
  6
Continuous
100
AcDbLine
 10
34126.07125015837
 20
18389.22569151654
 30
0.0
 11
34238.87125015842
 21
18389.22569151654
 31
0.0
  0
DIMENSION
  5
3BB
330
1F
100
AcDbEntity
  8
寸法
  6
Continuous
100
AcDbDimension
  2
*D12
 10
38192.90539795185
 20
11099.22569151607
 30
0.0
 11
37914.33396938042
 21
12099.22569151608
 31
0.0
 70
    32
 71
     5
 42
2000.0
  3
1_100
100
AcDbAlignedDimension
 13
35688.87125015842
 23
13099.22569151607
 33
0.0
 14
35688.87125015842
 24
11099.22569151607
 34
0.0
 50
90.0
100
AcDbRotatedDimension
  0
DIMENSION
  5
3BC
330
1F
100
AcDbEntity
  8
寸法
  6
Continuous
100
AcDbDimension
  2
*D13
 10
37192.90539795184
 20
13099.22569151607
 30
0.0
 11
37439.31968599908
 21
12732.68880561309
 31
0.0
 70
   160
 71
     5
 42
200.0
  3
1_100
100
AcDbAlignedDimension
 13
35688.87125015842
 23
12899.22569151607
 33
0.0
 14
35688.87125015842
 24
13099.22569151607
 34
0.0
 50
90.0
100
AcDbRotatedDimension
  0
DIMENSION
  5
3BD
330
1F
100
AcDbEntity
  8
寸法
  6
Continuous
100
AcDbDimension
  2
*D14
 10
37192.90539795184
 20
12899.22569151607
 30
0.0
 11
36914.33396938041
 21
11999.22569151607
 31
0.0
 70
    32
 71
     5
 42
1800.0
  3
1_100
100
AcDbAlignedDimension
 13
35688.87125015842
 23
11099.22569151607
 33
0.0
 14
35688.87125015842
 24
12899.22569151607
 34
0.0
 50
90.0
100
AcDbRotatedDimension
  0
DIMENSION
  5
3BE
330
1F
100
AcDbEntity
  8
寸法
  6
Continuous
100
AcDbDimension
  2
*D15
 10
37192.90539795184
 20
11099.22569151607
 30
0.0
 11
36920.89698778163
 21
10616.96804888721
 31
0.0
 70
   160
 71
     5
 42
100.0
  3
1_100
100
AcDbAlignedDimension
 13
35688.87125015842
 23
10999.22569151607
 33
0.0
 14
35688.87125015842
 24
11099.22569151607
 34
0.0
 50
90.0
100
AcDbRotatedDimension
  0
LINE
  5
3BF
330
1F
100
AcDbEntity
  8
画層1
  6
Continuous
100
AcDbLine
 10
34297.02125015833
 20
15764.22569151595
 30
0.0
 11
34213.87125015842
 21
15764.22569151595
 31
0.0
  0
LINE
  5
3C0
330
1F
100
AcDbEntity
  8
画層1
  6
Continuous
100
AcDbLine
 10
34213.87125015842
 20
15714.22569151595
 30
0.0
 11
34297.02125015833
 21
15714.22569151595
 31
0.0
  0
LINE
  5
3C1
330
1F
100
AcDbEntity
  8
画層1
  6
Continuous
100
AcDbLine
 10
34163.87125015842
 20
15714.22569151595
 30
0.0
 11
34163.87125015842
 21
15764.22569151595
 31
0.0
  0
LINE
  5
3C2
330
1F
100
AcDbEntity
  8
画層1
  6
Continuous
100
AcDbLine
 10
34213.87125015842
 20
15714.22569151595
 30
0.0
 11
34213.87125015842
 21
15764.22569151595
 31
0.0
  0
LINE
  5
3C3
330
1F
100
AcDbEntity
  8
画層1
  6
Continuous
100
AcDbLine
 10
34138.87125015842
 20
15739.22569151654
 30
0.0
 11
34238.87125015842
 21
15739.22569151654
 31
0.0
  0
LWPOLYLINE
  5
3C4
330
1F
100
AcDbEntity
  8
画層1
100
AcDbPolyline
 90
        4
 70
     1
 43
0.0
 10
34169.99011169933
 20
13479.22569151595
 10
34209.99011169933
 20
13479.22569151595
 10
34209.99011169933
 20
13299.22569151595
 10
34169.99011169933
 20
13299.22569151595
  0
LINE
  5
3C5
330
1F
100
AcDbEntity
  8
画層1
  6
Continuous
100
AcDbLine
 10
34297.02125015833
 20
13149.22569151595
 30
0.0
 11
34213.87125015842
 21
13149.22569151595
 31
0.0
  0
LINE
  5
3C6
330
1F
100
AcDbEntity
  8
画層1
  6
Continuous
100
AcDbLine
 10
34163.87125015842
 20
13099.22569151595
 30
0.0
 11
34163.87125015842
 21
13149.22569151595
 31
0.0
  0
LINE
  5
3C7
330
1F
100
AcDbEntity
  8
画層1
  6
Continuous
100
AcDbLine
 10
34213.87125015842
 20
13099.22569151595
 30
0.0
 11
34213.87125015842
 21
13149.22569151595
 31
0.0
  0
LINE
  5
3C8
330
1F
100
AcDbEntity
  8
画層1
  6
Continuous
100
AcDbLine
 10
34138.87125015842
 20
13124.22569151654
 30
0.0
 11
34238.87125015842
 21
13124.22569151654
 31
0.0
  0
DIMENSION
  5
3C9
330
1F
100
AcDbEntity
  8
寸法
  6
Continuous
100
AcDbDimension
  2
*D16
 10
37192.90539795184
 20
15739.22569151653
 30
0.0
 11
36914.33396938041
 21
14419.22569151631
 31
0.0
 70
    32
 71
     5
 42
2640.000000000466
  3
1_100
100
AcDbAlignedDimension
 13
35688.87125015842
 23
13099.22569151607
 33
0.0
 14
35688.87125015842
 24
15739.22569151654
 34
0.0
 50
90.0
100
AcDbRotatedDimension
  0
LINE
  5
3CA
330
1F
100
AcDbEntity
  8
画層1
  6
Continuous
100
AcDbLine
 10
34297.02125015833
 20
13099.22569151654
 30
0.0
 11
34213.87125015842
 21
13099.22569151654
 31
0.0
  0
DIMENSION
  5
3CB
330
1F
100
AcDbEntity
  8
寸法
  6
Continuous
100
AcDbDimension
  2
*D17
 10
37192.90539795184
 20
18389.22569151654
 30
0.0
 11
36914.33396938041
 21
17064.22569151654
 31
0.0
 70
    32
 71
     5
 42
2650.0
  3
1_100
100
AcDbAlignedDimension
 13
35688.87125015842
 23
15739.22569151654
 33
0.0
 14
35688.87125015842
 24
18389.22569151654
 34
0.0
 50
90.0
100
AcDbRotatedDimension
  0
LINE
  5
3CC
330
1F
100
AcDbEntity
  8
画層1
  6
Continuous
100
AcDbLine
 10
34030.72125015851
 20
18389.22569151654
 30
0.0
 11
34080.72125015851
 21
18389.22569151654
 31
0.0
  0
LINE
  5
3CD
330
1F
100
AcDbEntity
  8
画層1
  6
Continuous
100
AcDbLine
 10
34030.72125015851
 20
18414.22569151595
 30
0.0
 11
34030.72125015851
 21
18364.22569151595
 31
0.0
  0
DIMENSION
  5
3CE
330
1F
100
AcDbEntity
  8
寸法
  6
Continuous
100
AcDbDimension
  2
*D18
 10
31592.90539795185
 20
11099.22569151607
 30
0.0
 11
31314.33396938042
 21
12099.22569151608
 31
0.0
 70
    32
 71
     5
 42
2000.0
  3
1_100
100
AcDbAlignedDimension
 13
29188.87125015842
 23
13099.22569151607
 33
0.0
 14
29188.87125015842
 24
11099.22569151607
 34
0.0
 50
90.0
100
AcDbRotatedDimension
  0
DIMENSION
  5
3CF
330
1F
100
AcDbEntity
  8
寸法
  6
Continuous
100
AcDbDimension
  2
*D19
 10
30592.90539795185
 20
13099.22569151607
 30
0.0
 11
30845.91884800212
 21
12724.7865954095
 31
0.0
 70
   160
 71
     5
 42
200.0
  3
1_100
100
AcDbAlignedDimension
 13
29188.87125015842
 23
12899.22569151607
 33
0.0
 14
29188.87125015842
 24
13099.22569151607
 34
0.0
 50
90.0
100
AcDbRotatedDimension
  0
DIMENSION
  5
3D0
330
1F
100
AcDbEntity
  8
寸法
  6
Continuous
100
AcDbDimension
  2
*D20
 10
30592.90539795185
 20
12899.22569151607
 30
0.0
 11
30314.33396938042
 21
11999.22569151607
 31
0.0
 70
    32
 71
     5
 42
1800.0
  3
1_100
100
AcDbAlignedDimension
 13
29188.87125015842
 23
11099.22569151607
 33
0.0
 14
29188.87125015842
 24
12899.22569151607
 34
0.0
 50
90.0
100
AcDbRotatedDimension
  0
DIMENSION
  5
3D1
330
1F
100
AcDbEntity
  8
寸法
  6
Continuous
100
AcDbDimension
  2
*D21
 10
30592.90539795185
 20
11099.22569151607
 30
0.0
 11
30333.49806915621
 21
10666.30262278312
 31
0.0
 70
   160
 71
     5
 42
100.0
  3
1_100
100
AcDbAlignedDimension
 13
29188.87125015842
 23
10999.22569151607
 33
0.0
 14
29188.87125015842
 24
11099.22569151607
 34
0.0
 50
90.0
100
AcDbRotatedDimension
  0
TEXT
  5
3D2
330
1F
100
AcDbEntity
  8
寸法
  6
Continuous
100
AcDbText
 10
25212.02583180346
 20
8126.521900047668
 30
0.0
 40
300.0
  1
10,000
 41
0.75
  7
1_100
100
AcDbText
  0
DIMENSION
  5
3D3
330
1F
100
AcDbEntity
  8
寸法
  6
Continuous
100
AcDbDimension
  2
*D22
 10
30592.90539795185
 20
15739.22569151607
 30
0.0
 11
30314.33396938042
 21
14419.22569151607
 31
0.0
 70
    32
 71
     5
 42
2640.0
  3
1_100
100
AcDbAlignedDimension
 13
29188.87125015842
 23
13099.22569151607
 33
0.0
 14
29188.87125015842
 24
15739.22569151607
 34
0.0
 50
90.0
100
AcDbRotatedDimension
  0
LINE
  5
3D4
330
1F
100
AcDbEntity
  8
画層1
  6
Continuous
100
AcDbLine
 10
34030.72125015851
 20
15739.22569151654
 30
0.0
 11
34080.72125015851
 21
15739.22569151654
 31
0.0
  0
LINE
  5
3D5
330
1F
100
AcDbEntity
  8
画層1
  6
Continuous
100
AcDbLine
 10
34030.72125015851
 20
15764.22569151595
 30
0.0
 11
34030.72125015851
 21
15714.22569151595
 31
0.0
  0
LINE
  5
3D6
330
1F
100
AcDbEntity
  8
画層1
  6
Continuous
100
AcDbLine
 10
34030.72125015851
 20
13124.22569151654
 30
0.0
 11
34080.72125015851
 21
13124.22569151654
 31
0.0
  0
LINE
  5
3D7
330
1F
100
AcDbEntity
  8
画層1
  6
Continuous
100
AcDbLine
 10
34030.72125015851
 20
13149.22569151595
 30
0.0
 11
34030.72125015851
 21
13099.22569151595
 31
0.0
  0
TEXT
  5
3D8
330
1F
100
AcDbEntity
  8
寸法
  6
Continuous
100
AcDbText
 10
32846.78512820253
 20
13179.22569151607
 30
0.0
 40
300.0
  1
▽GL
 41
0.75
  7
1_100
 11
32846.78512820253
 21
13179.22569151607
 31
0.0
100
AcDbText
 73
     1
  0
DIMENSION
  5
3D9
330
1F
100
AcDbEntity
  8
寸法
  6
Continuous
100
AcDbDimension
  2
*D23
 10
30592.90539795185
 20
18389.22569151607
 30
0.0
 11
30314.33396938042
 21
17064.22569151607
 31
0.0
 70
    32
 71
     5
 42
2650.0
  3
1_100
100
AcDbAlignedDimension
 13
29188.87125015842
 23
15739.22569151607
 33
0.0
 14
29188.87125015842
 24
18389.22569151607
 34
0.0
 50
90.0
100
AcDbRotatedDimension
  0
LINE
  5
3DA
330
1F
100
AcDbEntity
  8
画層2-1
  6
Continuous
100
AcDbLine
 10
34080.72125015851
 20
12949.22569151595
 30
0.0
 11
34297.02125015833
 21
12949.22569151595
 31
0.0
  0
DIMENSION
  5
3DB
330
1F
100
AcDbEntity
  8
寸法
  6
Continuous
100
AcDbDimension
  2
*D24
 10
34438.87125015842
 20
9999.225691515839
 30
0.0
 11
34188.87125015842
 21
9749.225691515839
 31
0.0
 70
    32
  1
□<>
 71
     5
 42
500.0
  3
1_100
100
AcDbAlignedDimension
 13
33938.87125015841
 23
10999.22569151595
 33
0.0
 14
34438.87125015842
 24
10999.22569151595
 34
0.0
100
AcDbRotatedDimension
1001
ACAD
1000
DSTYLE
1002
{
1070
    77
1070
     2
1070
   174
1070
     1
1002
}
  0
DIMENSION
  5
3DC
330
1F
100
AcDbEntity
  8
寸法
  6
Continuous
100
AcDbDimension
  2
*D25
 10
34413.87125015842
 20
10399.22569151595
 30
0.0
 11
33387.48101396417
 21
10580.55935310491
 31
0.0
 70
   160
  1
φ<>
 71
     5
 42
450.0
  3
1_100
100
AcDbAlignedDimension
 13
33963.87125015842
 23
10999.22569151595
 33
0.0
 14
34413.87125015842
 24
10999.22569151595
 34
0.0
100
AcDbRotatedDimension
  0
LINE
  5
3DD
330
1F
100
AcDbEntity
  8
画層1
  6
Continuous
100
AcDbLine
 10
34163.87125015842
 20
15764.22569151595
 30
0.0
 11
34080.72125015851
 21
15764.22569151595
 31
0.0
  0
LINE
  5
3DE
330
1F
100
AcDbEntity
  8
画層1
  6
Continuous
100
AcDbLine
 10
34080.72125015851
 20
15714.22569151595
 30
0.0
 11
34163.87125015842
 21
15714.22569151595
 31
0.0
  0
LINE
  5
3DF
330
1F
100
AcDbEntity
  8
画層1
  6
Continuous
100
AcDbLine
 10
34080.72125015851
 20
18364.22569151595
 30
0.0
 11
34163.87125015842
 21
18364.22569151595
 31
0.0
  0
LINE
  5
3E0
330
1F
100
AcDbEntity
  8
画層1
  6
Continuous
100
AcDbLine
 10
34163.87125015842
 20
18414.22569151595
 30
0.0
 11
34080.72125015851
 21
18414.22569151595
 31
0.0
  0
LINE
  5
3E1
330
1F
100
AcDbEntity
  8
画層2-1
  6
Continuous
100
AcDbLine
 10
34080.72125015851
 20
13199.22569151595
 30
0.0
 11
34297.02125015833
 21
13199.22569151595
 31
0.0
  0
LINE
  5
3E2
330
1F
100
AcDbEntity
  8
画層1
  6
Continuous
100
AcDbLine
 10
34163.87125015842
 20
13149.22569151595
 30
0.0
 11
34080.72125015851
 21
13149.22569151595
 31
0.0
  0
LINE
  5
3E3
330
1F
100
AcDbEntity
  8
画層1
  6
Continuous
100
AcDbLine
 10
34163.87125015842
 20
13099.22569151654
 30
0.0
 11
34080.72125015851
 21
13099.22569151654
 31
0.0
  0
LWPOLYLINE
  5
3E4
102
{ACAD_REACTORS
330
3E7
102
}
330
1F
100
AcDbEntity
  8
画層2
100
AcDbPolyline
 90
        8
 70
     0
 43
0.0
 10
33938.87125015841
 20
13099.22569151595
 10
33938.87125015841
 20
12899.22569151595
 10
33963.87125015842
 20
12899.22569151595
 10
33963.87125015842
 20
10999.22569151595
 10
34413.87125015842
 20
10999.22569151595
 10
34413.87125015842
 20
12899.22569151595
 10
34438.87125015842
 20
12899.22569151595
 10
34438.87125015842
 20
13099.22569151642
  0
LINE
  5
3E5
102
{ACAD_REACTORS
330
3E7
102
}
330
1F
100
AcDbEntity
  8
画層2
100
AcDbLine
 10
34413.87125015842
 20
11099.22569151595
 30
0.0
 11
33963.87125015842
 21
11099.22569151595
 31
0.0
  0
LINE
  5
3E6
102
{ACAD_REACTORS
330
3E7
102
}
330
1F
100
AcDbEntity
  8
画層2
100
AcDbLine
 10
32683.57204498864
 20
13099.22569151607
 30
0.0
 11
35244.98188975338
 21
13099.22569151607
 31
0.0
  0
HATCH
  5
3E7
330
1F
100
AcDbEntity
  8
ﾊｯﾁﾝｸﾞ
100
AcDbHatch
 10
0.0
 20
0.0
 30
0.0
210
0.0
220
0.0
230
1.0
  2
PLAST
 70
     0
 71
     1
 91
        1
 92
        7
 72
     0
 73
     1
 93
        8
 10
33963.87125015842
 20
11099.22569151595
 10
34413.87125015842
 20
11099.22569151596
 10
34413.87125015842
 20
12899.22569151595
 10
34438.87125015842
 20
12899.22569151595
 10
34438.87125015842
 20
13099.22569151607
 10
33938.87125015841
 20
13099.22569151607
 10
33938.87125015841
 20
12899.22569151596
 10
33963.87125015842
 20
12899.22569151595
 97
        3
330
3E4
330
3E6
330
3E5
 75
     0
 76
     1
 52
45.0
 41
2000.0
 77
     0
 78
     3
 53
45.0
 43
-1058528.36349593
 44
-419936.0837018971
 45
-353.5533905932737
 46
353.5533905932738
 79
     0
 53
45.0
 43
-1058572.557669754
 44
-419891.8895280733
 45
-353.5533905932737
 46
353.5533905932738
 79
     0
 53
45.0
 43
-1058616.751843578
 44
-419847.6953542489
 45
-353.5533905932737
 46
353.5533905932738
 79
     0
 47
21.52181355055363
 98
        1
 10
34172.59106124311
 20
12251.63700910576
  0
LEADER
  5
3E8
330
1F
100
AcDbEntity
  8
寸法引出
  6
Continuous
100
AcDbLeader
  3
1_100
 71
     0
 73
     0
 74
     0
 75
     1
 40
846.6666666666665
 41
5162.142857142854
 76
     3
 10
23841.26536241547
 20
21039.22569151595
 30
0.0
 10
24397.74670669886
 20
22196.5583996219
 30
0.0
 10
24457.74670669886
 20
22196.5583996219
 30
0.0
340
3E9
  0
MTEXT
  5
3E9
102
{ACAD_REACTORS
330
3E8
102
}
330
1F
100
AcDbEntity
  8
寸法文字
  6
Continuous
100
AcDbMText
 10
24557.74670669886
 20
22296.5583996219
 30
0.0
 40
300.0
 41
0.0
 71
     7
 72
     1
  1
ネット上下6mm合繊ロープに4mm合繊\Pロープにて38m㎡ワイヤーに巻付
  7
1_100
 73
     1
 44
1.0
1001
ACAD
1000
MTEXTBEGIN
1070
    73
1070
     1
1070
    44
1040
1.0
1070
    74
1070
     0
1000
MTEXTEND
  0
LINE
  5
3EA
102
{ACAD_REACTORS
330
353
330
354
102
}
330
1F
100
AcDbEntity
  8
画層1
  6
Continuous
100
AcDbLine
 10
28688.87125015842
 20
21039.22569151595
 30
0.0
 11
12188.87125015842
 21
21039.22569151607
 31
0.0
  0
MTEXT
  5
3EB
330
1F
100
AcDbEntity
  8
寸法文字
  6
Continuous
100
AcDbMText
 10
10007.98778715707
 20
20252.72134297539
 30
0.0
 40
300.0
 41
0.0
 71
     3
 72
     1
  1
（STKT-590鋼管）
  7
1_100
 73
     1
 44
1.0
1001
ACAD
1000
MTEXTBEGIN
1070
    73
1070
     1
1070
    44
1040
1.0
1070
    74
1070
     0
1000
MTEXTEND
  0
LEADER
  5
3EC
330
1F
100
AcDbEntity
  8
寸法引出
  6
Continuous
100
AcDbLeader
  3
1_100
 71
     0
 73
     0
 75
     1
 40
300.0
 41
4699.285714285712
 76
     3
 10
12080.72125015851
 20
19540.76682557969
 30
0.0
 10
11036.4973572041
 20
20414.08471287391
 30
0.0
 10
10976.4973572041
 20
20414.08471287391
 30
0.0
340
3ED
  0
MTEXT
  5
3ED
102
{ACAD_REACTORS
330
3EC
102
}
330
1F
100
AcDbEntity
  8
寸法文字
  6
Continuous
100
AcDbMText
 10
10876.4973572041
 20
20514.08471287392
 30
0.0
 40
300.0
 41
0.0
 71
     9
 72
     1
  1
主柱KSポールφ216.3厚さ3.5mm
  7
1_100
 73
     1
 44
1.0
1001
ACAD
1000
ACAD_MTEXT_DEFINED_HEIGHT_BEGIN
1070
    46
1040
0.0
1000
ACAD_MTEXT_DEFINED_HEIGHT_END
1000
MTEXTBEGIN
1070
    73
1070
     1
1070
    44
1040
1.0
1070
    74
1070
     0
1000
MTEXTEND
  0
LEADER
  5
3EE
330
1F
100
AcDbEntity
  8
寸法引出
  6
Continuous
100
AcDbLeader
  3
1_100
 71
     0
 73
     0
 75
     1
 40
300.0
 41
2940.000000000001
 76
     3
 10
12188.87125015842
 20
21099.22569151607
 30
0.0
 10
11090.66766608018
 20
22081.75031834073
 30
0.0
 10
11030.66766608018
 20
22081.75031834073
 30
0.0
340
3EF
  0
MTEXT
  5
3EF
102
{ACAD_REACTORS
330
3EE
102
}
330
1F
100
AcDbEntity
  8
寸法文字
  6
Continuous
100
AcDbMText
 10
10930.66766608018
 20
22181.75031834073
 30
0.0
 40
300.0
 41
0.0
 71
     9
 72
     1
  1
上部ネット下り防止付き
  7
1_100
 73
     1
 44
1.0
1001
ACAD
1000
MTEXTBEGIN
1070
    73
1070
     1
1070
    44
1040
1.0
1070
    74
1070
     0
1000
MTEXTEND
  0
LINE
  5
3F0
330
1F
100
AcDbEntity
  8
画層1-1
  6
Continuous
100
AcDbLine
 10
22030.72125015852
 20
20989.22569151607
 30
0.0
 11
21980.72125015851
 21
20989.22569151607
 31
0.0
  0
LINE
  5
3F1
330
1F
100
AcDbEntity
  8
画層1
  6
Continuous
100
AcDbLine
 10
22347.02125015833
 20
21014.22569151607
 30
0.0
 11
22030.72125015852
 21
21014.22569151607
 31
0.0
  0
LINE
  5
3F2
330
1F
100
AcDbEntity
  8
画層1
  6
Continuous
100
AcDbLine
 10
22030.72125015852
 20
20964.22569151607
 30
0.0
 11
22347.02125015833
 21
20964.22569151607
 31
0.0
  0
LINE
  5
3F3
330
1F
100
AcDbEntity
  8
画層1
  6
Continuous
100
AcDbLine
 10
22347.02125015833
 20
20964.22569151607
 30
0.0
 11
22347.02125015833
 21
21014.22569151607
 31
0.0
  0
CIRCLE
  5
3F4
330
1F
100
AcDbEntity
  8
画層1
  6
Continuous
100
AcDbCircle
 10
22322.02125015833
 20
20989.22569151607
 30
0.0
 40
10.9509940156
  0
LINE
  5
3F5
330
1F
100
AcDbEntity
  8
画層1
  6
Continuous
100
AcDbLine
 10
22163.87125015842
 20
20964.22569151607
 30
0.0
 11
22163.87125015842
 21
21014.22569151607
 31
0.0
  0
LINE
  5
3F6
330
1F
100
AcDbEntity
  8
画層1
  6
Continuous
100
AcDbLine
 10
22213.87125015842
 20
20964.22569151607
 30
0.0
 11
22213.87125015842
 21
21014.22569151607
 31
0.0
  0
CIRCLE
  5
3F7
330
1F
100
AcDbEntity
  8
画層1
  6
Continuous
100
AcDbCircle
 10
22055.72125015851
 20
20989.22569151607
 30
0.0
 40
10.9509940156
  0
LINE
  5
3F8
330
1F
100
AcDbEntity
  8
画層1
  6
Continuous
100
AcDbLine
 10
22030.72125015852
 20
21014.22569151607
 30
0.0
 11
22030.72125015852
 21
20964.22569151607
 31
0.0
  0
LINE
  5
3F9
330
1F
100
AcDbEntity
  8
画層1
  6
Continuous
100
AcDbLine
 10
22347.02125015833
 20
21064.22569151607
 30
0.0
 11
22030.72125015852
 21
21064.22569151607
 31
0.0
  0
LINE
  5
3FA
330
1F
100
AcDbEntity
  8
画層1
  6
Continuous
100
AcDbLine
 10
22030.72125015852
 20
21014.22569151607
 30
0.0
 11
22347.02125015833
 21
21014.22569151607
 31
0.0
  0
LINE
  5
3FB
330
1F
100
AcDbEntity
  8
画層1
  6
Continuous
100
AcDbLine
 10
22030.72125015852
 20
21064.22569151607
 30
0.0
 11
22030.72125015852
 21
21014.22569151607
 31
0.0
  0
CIRCLE
  5
3FC
330
1F
100
AcDbEntity
  8
画層1
  6
Continuous
100
AcDbCircle
 10
22055.72125015851
 20
21039.22569151607
 30
0.0
 40
10.9509940156
  0
LINE
  5
3FD
330
1F
100
AcDbEntity
  8
画層1
  6
Continuous
100
AcDbLine
 10
22213.87125015842
 20
21014.22569151607
 30
0.0
 11
22213.87125015842
 21
21064.22569151607
 31
0.0
  0
LINE
  5
3FE
330
1F
100
AcDbEntity
  8
画層1
  6
Continuous
100
AcDbLine
 10
22163.87125015842
 20
21014.22569151607
 30
0.0
 11
22163.87125015842
 21
21064.22569151607
 31
0.0
  0
CIRCLE
  5
3FF
330
1F
100
AcDbEntity
  8
画層1
  6
Continuous
100
AcDbCircle
 10
22322.02125015833
 20
21039.22569151607
 30
0.0
 40
10.9509940156
  0
LINE
  5
400
330
1F
100
AcDbEntity
  8
画層1
  6
Continuous
100
AcDbLine
 10
22080.72125015851
 20
21099.22569151607
 30
0.0
 11
22297.02125015833
 21
21099.22569151607
 31
0.0
  0
LINE
  5
401
330
1F
100
AcDbEntity
  8
画層1
  6
Continuous
100
AcDbLine
 10
22080.72125015851
 20
21079.22569151607
 30
0.0
 11
22297.02125015833
 21
21079.22569151607
 31
0.0
  0
LINE
  5
402
330
1F
100
AcDbEntity
  8
画層1
  6
Continuous
100
AcDbLine
 10
22347.02125015833
 20
21014.22569151607
 30
0.0
 11
22347.02125015833
 21
21064.22569151607
 31
0.0
  0
DIMENSION
  5
403
330
1F
100
AcDbEntity
  8
寸法
  6
Continuous
100
AcDbDimension
  2
*D26
 10
12297.02125015832
 20
21699.22569151607
 30
0.0
 11
12188.8712501583
 21
21999.22569151607
 31
0.0
 70
    32
  1
φ<>
 71
     5
 42
216.3000000000466
  3
1_100
100
AcDbAlignedDimension
 13
12080.72125015828
 23
21099.22569151607
 33
0.0
 14
12297.02125015832
 24
21099.22569151607
 34
0.0
100
AcDbRotatedDimension
  0
LINE
  5
404
330
1F
100
AcDbEntity
  8
画層1-1
  6
Continuous
100
AcDbLine
 10
12397.02125015832
 20
20989.22569151607
 30
0.0
 11
12347.02125015832
 21
20989.22569151607
 31
0.0
  0
CIRCLE
  5
405
330
1F
100
AcDbEntity
  8
画層1
  6
Continuous
100
AcDbCircle
 10
12322.02125015832
 20
20989.22569151607
 30
0.0
 40
10.9509940156
  0
LINE
  5
406
102
{ACAD_REACTORS
330
354
102
}
330
1F
100
AcDbEntity
  8
画層1
  6
Continuous
100
AcDbLine
 10
12347.02125015832
 20
20964.22569151607
 30
0.0
 11
12347.02125015832
 21
21014.22569151607
 31
0.0
  0
CIRCLE
  5
407
330
1F
100
AcDbEntity
  8
画層1
  6
Continuous
100
AcDbCircle
 10
12055.72125015851
 20
20989.22569151607
 30
0.0
 40
10.9509940156
  0
LINE
  5
408
330
1F
100
AcDbEntity
  8
画層1
  6
Continuous
100
AcDbLine
 10
12163.87125015842
 20
20964.22569151607
 30
0.0
 11
12163.87125015842
 21
21014.22569151607
 31
0.0
  0
LINE
  5
409
330
1F
100
AcDbEntity
  8
画層1
  6
Continuous
100
AcDbLine
 10
12030.72125015851
 20
21014.22569151607
 30
0.0
 11
12030.72125015851
 21
20964.22569151607
 31
0.0
  0
LINE
  5
40A
330
1F
100
AcDbEntity
  8
画層1
  6
Continuous
100
AcDbLine
 10
12213.87125015842
 20
20964.22569151607
 30
0.0
 11
12213.87125015842
 21
21014.22569151607
 31
0.0
  0
LINE
  5
40B
330
1F
100
AcDbEntity
  8
画層1
  6
Continuous
100
AcDbLine
 10
12347.02125015832
 20
21014.22569151607
 30
0.0
 11
12030.72125015851
 21
21014.22569151607
 31
0.0
  0
LINE
  5
40C
102
{ACAD_REACTORS
330
354
102
}
330
1F
100
AcDbEntity
  8
画層1
  6
Continuous
100
AcDbLine
 10
12030.72125015851
 20
20964.22569151607
 30
0.0
 11
12347.02125015832
 21
20964.22569151607
 31
0.0
  0
CIRCLE
  5
40D
330
1F
100
AcDbEntity
  8
画層1
  6
Continuous
100
AcDbCircle
 10
12322.02125015832
 20
21039.22569151607
 30
0.0
 40
10.9509940156
  0
LINE
  5
40E
330
1F
100
AcDbEntity
  8
画層1
  6
Continuous
100
AcDbLine
 10
12347.02125015832
 20
21064.22569151607
 30
0.0
 11
12030.72125015851
 21
21064.22569151607
 31
0.0
  0
LINE
  5
40F
330
1F
100
AcDbEntity
  8
画層1
  6
Continuous
100
AcDbLine
 10
12030.72125015851
 20
21014.22569151607
 30
0.0
 11
12347.02125015832
 21
21014.22569151607
 31
0.0
  0
LINE
  5
410
330
1F
100
AcDbEntity
  8
画層1
  6
Continuous
100
AcDbLine
 10
12213.87125015842
 20
21014.22569151607
 30
0.0
 11
12213.87125015842
 21
21064.22569151607
 31
0.0
  0
LINE
  5
411
330
1F
100
AcDbEntity
  8
画層1
  6
Continuous
100
AcDbLine
 10
12030.72125015851
 20
21064.22569151607
 30
0.0
 11
12030.72125015851
 21
21014.22569151607
 31
0.0
  0
LINE
  5
412
330
1F
100
AcDbEntity
  8
画層1
  6
Continuous
100
AcDbLine
 10
12163.87125015842
 20
21014.22569151607
 30
0.0
 11
12163.87125015842
 21
21064.22569151607
 31
0.0
  0
CIRCLE
  5
413
330
1F
100
AcDbEntity
  8
画層1
  6
Continuous
100
AcDbCircle
 10
12055.72125015851
 20
21039.22569151607
 30
0.0
 40
10.9509940156
  0
LINE
  5
414
330
1F
100
AcDbEntity
  8
画層1
  6
Continuous
100
AcDbLine
 10
12080.72125015851
 20
21099.22569151607
 30
0.0
 11
12297.02125015832
 21
21099.22569151607
 31
0.0
  0
LINE
  5
415
330
1F
100
AcDbEntity
  8
画層1
  6
Continuous
100
AcDbLine
 10
12080.72125015851
 20
21079.22569151607
 30
0.0
 11
12297.02125015832
 21
21079.22569151607
 31
0.0
  0
LINE
  5
416
330
1F
100
AcDbEntity
  8
画層1
  6
Continuous
100
AcDbLine
 10
12422.47125015851
 20
21039.22569151607
 30
0.0
 11
12347.02125015832
 21
21039.22569151607
 31
0.0
  0
LWPOLYLINE
  5
417
330
1F
100
AcDbEntity
  8
画層1
100
AcDbPolyline
 90
        4
 70
     1
 43
0.0
 10
12422.47125015851
 20
21059.00197085471
 10
12577.02125015832
 20
21059.00197085471
 10
12577.02125015832
 20
21019.00197085471
 10
12422.47125015851
 20
21019.00197085471
  0
LINE
  5
418
330
1F
100
AcDbEntity
  8
画層1
  6
Continuous
100
AcDbLine
 10
12347.02125015832
 20
21014.22569151607
 30
0.0
 11
12347.02125015832
 21
21064.22569151607
 31
0.0
  0
LWPOLYLINE
  5
41A
330
1F
100
AcDbEntity
  8
画層1-1
  6
Continuous
100
AcDbPolyline
 90
        4
 70
     1
 43
0.0
 10
21980.72125015851
 20
21046.3756915161
 10
12397.02125015832
 20
21046.3756915161
 10
12397.02125015832
 20
20932.07569151605
 10
21980.72125015851
 20
20932.07569151605
  0
LEADER
  5
41B
330
1F
100
AcDbEntity
  8
寸法引出
  6
Continuous
100
AcDbLeader
  3
1_100
 71
     0
 73
     0
 74
     0
 75
     1
 40
300.0
 41
5880.0
 76
     3
 10
16411.34607635416
 20
20989.77115723165
 30
0.0
 10
17338.69828667995
 20
22856.07703807133
 30
0.0
 10
17398.69828667995
 20
22856.07703807133
 30
0.0
340
41C
  0
MTEXT
  5
41C
102
{ACAD_REACTORS
330
41B
102
}
330
1F
100
AcDbEntity
  8
寸法文字
  6
Continuous
100
AcDbMText
 10
17498.69828667995
 20
22956.07703807133
 30
0.0
 40
300.0
 41
0.0
 71
     7
 72
     1
  1
端末・コーナー補強ポールφ114.3×3.0mm
  7
1_100
 73
     1
 44
1.0
1001
ACAD
1000
ACAD_MTEXT_DEFINED_HEIGHT_BEGIN
1070
    46
1040
0.0
1000
ACAD_MTEXT_DEFINED_HEIGHT_END
1000
MTEXTBEGIN
1070
    73
1070
     1
1070
    44
1040
1.0
1070
    74
1070
     0
1000
MTEXTEND
  0
MTEXT
  5
41D
102
{ACAD_REACTORS
330
41E
102
}
330
1F
100
AcDbEntity
  8
寸法文字
  6
Continuous
100
AcDbMText
 10
19867.95723098682
 20
21794.77483541688
 30
0.0
 40
300.0
 41
0.0
 71
     7
 72
     1
  1
メッセンワイヤー38m㎡
  7
1_100
 73
     1
 44
1.0
1001
ACAD
1000
MTEXTBEGIN
1070
    73
1070
     1
1070
    44
1040
1.0
1070
    74
1070
     0
1000
MTEXTEND
  0
LEADER
  5
41E
330
1F
100
AcDbEntity
  8
寸法引出
  6
Continuous
100
AcDbLeader
  3
1_100
 71
     0
 73
     0
 74
     0
 75
     1
 40
346.6666666666666
 41
3117.142857142857
 76
     3
 10
19362.49917542236
 20
21039.22569151607
 30
0.0
 10
19707.95723098682
 20
21694.77483541689
 30
0.0
 10
19767.95723098682
 20
21694.77483541689
 30
0.0
340
41D
  0
MTEXT
  5
41F
330
1F
100
AcDbEntity
  8
寸法文字
  6
Continuous
100
AcDbMText
 10
17938.98228731533
 20
22690.91999042847
 30
0.0
 40
300.0
 41
0.0
 71
     1
 72
     1
  1
（STK-540鋼管）
  7
1_100
 73
     1
 44
1.0
1001
ACAD
1000
ACAD_MTEXT_DEFINED_HEIGHT_BEGIN
1070
    46
1040
0.0
1000
ACAD_MTEXT_DEFINED_HEIGHT_END
1000
MTEXTBEGIN
1070
    73
1070
     1
1070
    44
1040
1.0
1070
    74
1070
     0
1000
MTEXTEND
  0
MTEXT
  5
420
330
1F
100
AcDbEntity
  8
寸法文字
  6
Continuous
100
AcDbMText
 10
35775.99639566431
 20
22649.28129912482
 30
0.0
 40
300.0
 41
0.0
 71
     1
 72
     1
  1
（溶融亜鉛メッキ450g/㎡）
  7
1_100
 73
     1
 44
1.0
1001
ACAD
1000
MTEXTBEGIN
1070
    73
1070
     1
1070
    44
1040
1.0
1070
    74
1070
     0
1000
MTEXTEND
  0
LEADER
  5
421
330
1F
100
AcDbEntity
  8
寸法引出
  6
Continuous
100
AcDbLeader
  3
1_100
 71
     0
 73
     0
 74
     0
 75
     1
 40
300.0
 41
4699.285714285712
 76
     3
 10
34297.02125015833
 20
20688.11552938517
 30
0.0
 10
35453.4767892554
 20
22732.59715653002
 30
0.0
 10
35513.4767892554
 20
22732.59715653002
 30
0.0
340
422
  0
MTEXT
  5
422
102
{ACAD_REACTORS
330
421
102
}
330
1F
100
AcDbEntity
  8
寸法文字
  6
Continuous
100
AcDbMText
 10
35613.4767892554
 20
22832.59715653002
 30
0.0
 40
300.0
 41
0.0
 71
     7
 72
     1
  1
主柱KSポールφ216.3厚さ3.5mm
  7
1_100
 73
     1
 44
1.0
1001
ACAD
1000
ACAD_MTEXT_DEFINED_HEIGHT_BEGIN
1070
    46
1040
0.0
1000
ACAD_MTEXT_DEFINED_HEIGHT_END
1000
MTEXTBEGIN
1070
    73
1070
     1
1070
    44
1040
1.0
1070
    74
1070
     0
1000
MTEXTEND
  0
DIMENSION
  5
423
330
1F
100
AcDbEntity
  8
寸法
  6
Continuous
100
AcDbDimension
  2
*D27
 10
37192.90539795184
 20
21099.22569151607
 30
0.0
 11
36936.75179636177
 21
21366.7966652849
 31
0.0
 70
   160
 71
     5
 42
60.0
  3
1_100
100
AcDbAlignedDimension
 13
35688.87125015842
 23
21039.22569151607
 33
0.0
 14
35688.87125015842
 24
21099.22569151607
 34
0.0
 50
90.0
100
AcDbRotatedDimension
  0
LINE
  5
424
330
1F
100
AcDbEntity
  8
画層1
  6
Continuous
100
AcDbLine
 10
34297.02125015833
 20
21064.22569151596
 30
0.0
 11
34213.87125015842
 21
21064.22569151596
 31
0.0
  0
LINE
  5
425
330
1F
100
AcDbEntity
  8
画層1
  6
Continuous
100
AcDbLine
 10
34213.87125015842
 20
21014.22569151595
 30
0.0
 11
34297.02125015833
 21
21014.22569151595
 31
0.0
  0
LINE
  5
426
330
1F
100
AcDbEntity
  8
画層1
  6
Continuous
100
AcDbLine
 10
34126.07125015837
 20
21039.22569151654
 30
0.0
 11
34238.87125015842
 21
21039.22569151654
 31
0.0
  0
LINE
  5
427
330
1F
100
AcDbEntity
  8
画層1
  6
Continuous
100
AcDbLine
 10
34163.87125015842
 20
21014.22569151595
 30
0.0
 11
34163.87125015842
 21
21064.22569151596
 31
0.0
  0
LINE
  5
428
330
1F
100
AcDbEntity
  8
画層1
  6
Continuous
100
AcDbLine
 10
34213.87125015842
 20
21014.22569151595
 30
0.0
 11
34213.87125015842
 21
21064.22569151596
 31
0.0
  0
DIMENSION
  5
429
330
1F
100
AcDbEntity
  8
寸法
  6
Continuous
100
AcDbDimension
  2
*D28
 10
30592.90539795185
 20
21099.22569151607
 30
0.0
 11
30329.49223825406
 21
21370.61390051723
 31
0.0
 70
   160
 71
     5
 42
60.0
  3
1_100
100
AcDbAlignedDimension
 13
29188.87125015842
 23
21039.22569151607
 33
0.0
 14
29188.87125015842
 24
21099.22569151607
 34
0.0
 50
90.0
100
AcDbRotatedDimension
  0
LINE
  5
42A
330
1F
100
AcDbEntity
  8
画層1
  6
Continuous
100
AcDbLine
 10
34030.72125015851
 20
21039.22569151654
 30
0.0
 11
34080.72125015851
 21
21039.22569151654
 31
0.0
  0
LINE
  5
42B
330
1F
100
AcDbEntity
  8
画層1
  6
Continuous
100
AcDbLine
 10
34030.72125015851
 20
21064.22569151596
 30
0.0
 11
34030.72125015851
 21
21014.22569151595
 31
0.0
  0
DIMENSION
  5
42C
330
1F
100
AcDbEntity
  8
寸法
  6
Continuous
100
AcDbDimension
  2
*D29
 10
34297.02125015833
 20
21699.22569151607
 30
0.0
 11
34188.8712501583
 21
21999.22569151607
 31
0.0
 70
    32
  1
φ<>
 71
     5
 42
216.3000000000466
  3
1_100
100
AcDbAlignedDimension
 13
34080.72125015829
 23
21099.22569151654
 33
0.0
 14
34297.02125015833
 24
21099.22569151654
 34
0.0
100
AcDbRotatedDimension
  0
LINE
  5
42D
330
1F
100
AcDbEntity
  8
画層1
  6
Continuous
100
AcDbLine
 10
34163.87125015842
 20
21064.22569151596
 30
0.0
 11
34080.72125015851
 21
21064.22569151596
 31
0.0
  0
LINE
  5
42E
330
1F
100
AcDbEntity
  8
画層1
  6
Continuous
100
AcDbLine
 10
34080.72125015851
 20
21079.22569151595
 30
0.0
 11
34297.02125015833
 21
21079.22569151595
 31
0.0
  0
LINE
  5
42F
330
1F
100
AcDbEntity
  8
画層1
  6
Continuous
100
AcDbLine
 10
34080.72125015851
 20
21099.22569151596
 30
0.0
 11
34297.02125015833
 21
21099.22569151596
 31
0.0
  0
LINE
  5
430
330
1F
100
AcDbEntity
  8
画層1
  6
Continuous
100
AcDbLine
 10
34080.72125015851
 20
21014.22569151595
 30
0.0
 11
34163.87125015842
 21
21014.22569151595
 31
0.0
  0
LWPOLYLINE
  5
431
330
1F
100
AcDbEntity
  8
寸法引出
100
AcDbPolyline
 90
        2
 70
     0
 43
0.0
 10
28681.68489755854
 20
7999.225691515606
 10
22188.87125015842
 20
7999.225691515491
1001
ACAD
1000
DSTYLE
1002
{
1070
    41
1040
3.0
1070
   341
1005
0
1002
}
  0
LINE
  5
432
330
1F
100
AcDbEntity
  8
寸法引出
  6
ByBlock
100
AcDbLine
 10
28381.68489755854
 20
8079.6104485156
 30
0.0
 11
28681.68489755854
 21
7999.225691515606
 31
0.0
  0
LINE
  5
433
330
1F
100
AcDbEntity
  8
寸法引出
  6
ByBlock
100
AcDbLine
 10
28681.68489755854
 20
7999.225691515606
 30
0.0
 11
28381.68489755854
 21
7918.8409345156
 31
0.0
  0
MTEXT
  5
9E9
330
1F
100
AcDbEntity
  8
寸法文字
  6
Continuous
100
AcDbMText
 10
14875.79087873715
 20
19965.71886131782
 30
0.0
 40
200.0
 41
0.0
 71
     1
 72
     1
  1
※KRP-40　1100D18本40mm目（再生ポリエステル100%）\P※KSP-24　37.5mm目（ｽｰﾊﾟｰﾎﾟﾘｴﾁﾚﾝ）
  7
1_100
 73
     1
 44
1.0
1001
ACAD
1000
MTEXTBEGIN
1070
    73
1070
     1
1070
    44
1040
1.0
1070
    74
1070
     0
1000
MTEXTEND
  0
MTEXT
  5
9EA
330
1F
100
AcDbEntity
  8
寸法文字
  6
Continuous
100
AcDbMText
 10
14851.22202643456
 20
20147.49177945252
 30
0.0
 40
300.0
 41
0.0
 71
     7
 72
     1
  1
ネット\Pクレモナ250D/80本×37.5mm目
  7
1_100
 73
     1
 44
0.6
1001
ACAD
1000
MTEXTBEGIN
1070
    73
1070
     1
1070
    44
1040
0.6
1070
    74
1070
     0
1000
MTEXTEND
  0
LEADER
  5
9EB
330
1F
100
AcDbEntity
  8
寸法引出
100
AcDbLeader
  3
1_50
 71
     0
 76
     3
 10
14325.2106287529
 20
19406.00873148543
 30
0.0
 10
14651.22202643456
 20
20047.49177945253
 30
0.0
 10
20570.32960654894
 20
20047.49177945253
 30
0.0
1001
ACAD
1000
DSTYLE
1002
{
1070
    41
1040
1.0
1070
   341
1005
87
1070
   147
1040
0.625
1070
    77
1070
     0
1002
}
  0
ENDSEC
  0
SECTION
  2
OBJECTS
  0
DICTIONARY
  5
C
330
0
100
AcDbDictionary
281
     1
  3
ACAD_COLOR
350
6B
  3
ACAD_GROUP
350
D
  3
ACAD_LAYOUT
350
1A
  3
ACAD_MATERIAL
350
6A
  3
ACAD_MLINESTYLE
350
17
  3
ACAD_PLOTSETTINGS
350
19
  3
ACAD_PLOTSTYLENAME
350
E
  3
ACAD_TABLESTYLE
350
6F3
  3
ACDBHEADERROUNDTRIPXREC
350
CE0
  3
AcDbVariableDictionary
350
5E
  3
ADE_QUERY_LIBRARY
350
9F0
  3
AEC_CLASSIFICATION_SYSTEM_DEFS
350
9E7
  3
AEC_VARS
350
720
  3
ASE_INDEX_DICTIONARY
350
9EE
  3
Autodesk_MAP
350
722
  3
DWGPROPS
350
CDF
  3
Root
350
A06
1001
ADE
1000
ADE02C004
1000
[Query]
1000
CaseSensitiveMatch=0
1000
SaveCurrQueryInSession=1
1000
MkSelSetWithQryObj=0
1000
ShowBlockAsInsPt=0
1000
CreateAssociativeHatchObjects=0
1000
ReferenceBoundaryForAreaLocation=1
1000
ShowImageAsBoundary=1
1000
DefaultJoinOperator=2
1000
ColorForAdd=red
1000
ColorForRemove=red
1000
BlockLocnForQuery=1
1000
TextLocnForQuery=1
1000
IncludeAllObjectsInGroups=0
1000
AlwaysUseLibraryDefinitions=0
1000
PreviewDefinitionsFrom=2
1000
[Save Back]
1000
RedefineBlockDefinitions=1
1000
RedefineLayerDefinitions=1
1000
RedefineTextStyleDefinitions=1
1000
RemoveUnusedGroups=1
1000
EraseSavedBackObjects=1
1000
RemoveLockAfterSave=1
1000
CreateHistoryFileOfChanges=0
1000
CreateBackupFileOfSourceDwg=1
1000
DontAddObjectsToSaveSet=0
1000
MarkObjectsForEditingWithoutPrompting=0
1000
[Coordinate Transformation]
1000
RestoreLastActiveDwgsOnStartup=1
1000
ActivateDwgsOnAttach=1
1000
AdjustSizesAndScalesForChangesInUnits=1
1000
AdjustRotationsForMapDistortions=1
1000
AdjustSizesAndScalesForMapDistortions=1
1000
AdjustElevations=1
1000
AdjustZeroRotationObjects=1
1000
ReconnectDbOnWSOpen=1
1000
NoOfSQLConditionsInHistory=10
  0
DICTIONARY
  5
6B
102
{ACAD_REACTORS
330
C
102
}
330
C
100
AcDbDictionary
281
     1
  0
DICTIONARY
  5
D
102
{ACAD_REACTORS
330
C
102
}
330
C
100
AcDbDictionary
281
     1
  0
DICTIONARY
  5
1A
102
{ACAD_REACTORS
330
C
102
}
330
C
100
AcDbDictionary
281
     1
  3
Model
350
22
  3
レイアウト1
350
51
  3
レイアウト2
350
56
  0
DICTIONARY
  5
6A
102
{ACAD_REACTORS
330
C
102
}
330
C
100
AcDbDictionary
281
     1
  0
DICTIONARY
  5
17
102
{ACAD_REACTORS
330
C
102
}
330
C
100
AcDbDictionary
281
     1
  3
Standard
350
18
  0
DICTIONARY
  5
19
102
{ACAD_REACTORS
330
C
102
}
330
C
100
AcDbDictionary
281
     1
  0
ACDBDICTIONARYWDFLT
  5
E
102
{ACAD_REACTORS
330
C
102
}
330
C
100
AcDbDictionary
281
     1
  3
Normal
350
F
100
AcDbDictionaryWithDefault
340
F
  0
DICTIONARY
  5
6F3
102
{ACAD_REACTORS
330
C
102
}
330
C
100
AcDbDictionary
281
     1
  3
Legend
350
726
  3
Standard
350
6F4
  0
DICTIONARY
  5
CE0
102
{ACAD_REACTORS
330
C
102
}
330
C
100
AcDbDictionary
281
     1
  0
DICTIONARY
  5
5E
102
{ACAD_REACTORS
330
C
102
}
330
C
100
AcDbDictionary
281
     1
  3
CTABLESTYLE
350
9F2
  3
DIMASSOC
350
5F
  3
HIDETEXT
350
63
  3
PROJECTNAME
350
699
  0
DICTIONARY
  5
9F0
102
{ACAD_REACTORS
330
C
102
}
330
C
100
AcDbDictionary
281
     1
  3
_CurrQry
350
CDD
  0
DICTIONARY
  5
9E7
102
{ACAD_REACTORS
330
C
102
}
330
C
100
AcDbDictionary
281
     1
  0
DICTIONARY
  5
720
102
{ACAD_REACTORS
330
C
102
}
330
C
100
AcDbDictionary
281
     1
  3
AEC_VARS_DWG_SETUP
350
A2B
  0
DICTIONARY
  5
9EE
102
{ACAD_REACTORS
330
C
102
}
330
C
100
AcDbDictionary
281
     1
  3
ASEBlockHierarchyIndexRecord
350
9EF
1001
DCO15
1040
1621577234.322
  0
DICTIONARY
  5
722
102
{ACAD_REACTORS
330
C
102
}
330
C
100
AcDbDictionary
281
     1
  3
MAP_DISPLAY_MANAGEMENT_DICTIONARY
350
723
  3
MAP_DISPLAY_STYLELIBRARY_DICTIONARY
350
724
  0
XRECORD
  5
CDF
102
{ACAD_REACTORS
330
C
102
}
330
C
100
AcDbXrecord
280
     1
  1
DWGPROPS COOKIE
  2

  3

  4

  6

  7

  8

  9

300
=
301
=
302
=
303
=
304
=
305
=
306
=
307
=
308
=
309
=
 40
0.0307433101851852
 41
2454357.829296505
 42
2454571.466878727
  1

 90
        0
  0
LAYOUT
  5
22
102
{ACAD_XDICTIONARY
360
CE1
102
}
102
{ACAD_REACTORS
330
1A
102
}
330
1A
100
AcDbPlotSettings
  1

  2
EPSON PM-3000C
  4
A4
  6

 40
3.757083177566528
 41
14.7637300491333
 42
3.757080078125
 43
3.757080078125
 44
209.9733276367186
 45
296.9683227539062
 46
0.0
 47
0.0
 48
0.0
 49
0.0
140
0.0
141
0.0
142
1.0
143
143.6333590027718
 70
 11952
 72
     1
 73
     1
 74
     0
  7
2.ctb
 75
     0
147
0.006962170953481
148
-3485.068841108728
149
1294.66184852566
100
AcDbLayout
  1
Model
 70
     1
 71
     0
 10
0.0
 20
0.0
 11
12.0
 21
9.0
 12
0.0
 22
0.0
 32
0.0
 14
0.0
 24
0.0
 34
0.0
 15
0.0
 25
0.0
 35
0.0
146
0.0
 13
0.0
 23
0.0
 33
0.0
 16
1.0
 26
0.0
 36
0.0
 17
0.0
 27
1.0
 37
0.0
 76
     0
330
1F
  0
LAYOUT
  5
51
102
{ACAD_XDICTIONARY
360
CE3
102
}
102
{ACAD_REACTORS
330
1A
102
}
330
1A
100
AcDbPlotSettings
  1

  2
None
  4

  6

 40
0.0
 41
0.0
 42
0.0
 43
0.0
 44
0.0
 45
0.0
 46
0.0
 47
0.0
 48
0.0
 49
0.0
140
0.0
141
0.0
142
1.0
143
1.0
 70
   688
 72
     0
 73
     0
 74
     5
  7

 75
    16
147
1.0
148
0.0
149
0.0
100
AcDbLayout
  1
レイアウト1
 70
     1
 71
     1
 10
0.0
 20
0.0
 11
12.0
 21
9.0
 12
0.0
 22
0.0
 32
0.0
 14
0.0
 24
0.0
 34
0.0
 15
0.0
 25
0.0
 35
0.0
146
0.0
 13
0.0
 23
0.0
 33
0.0
 16
1.0
 26
0.0
 36
0.0
 17
0.0
 27
1.0
 37
0.0
 76
     0
330
50
  0
LAYOUT
  5
56
102
{ACAD_XDICTIONARY
360
CE5
102
}
102
{ACAD_REACTORS
330
1A
102
}
330
1A
100
AcDbPlotSettings
  1

  2
None
  4

  6

 40
0.0
 41
0.0
 42
0.0
 43
0.0
 44
0.0
 45
0.0
 46
0.0
 47
0.0
 48
0.0
 49
0.0
140
0.0
141
0.0
142
1.0
143
1.0
 70
   688
 72
     0
 73
     0
 74
     5
  7

 75
    16
147
1.0
148
0.0
149
0.0
100
AcDbLayout
  1
レイアウト2
 70
     1
 71
     2
 10
0.0
 20
0.0
 11
12.0
 21
9.0
 12
0.0
 22
0.0
 32
0.0
 14
0.0
 24
0.0
 34
0.0
 15
0.0
 25
0.0
 35
0.0
146
0.0
 13
0.0
 23
0.0
 33
0.0
 16
1.0
 26
0.0
 36
0.0
 17
0.0
 27
1.0
 37
0.0
 76
     0
330
55
  0
MLINESTYLE
  5
18
102
{ACAD_REACTORS
330
17
102
}
330
17
100
AcDbMlineStyle
  2
STANDARD
 70
     0
  3

 62
   256
 51
90.0
 52
90.0
 71
     2
 49
0.5
 62
   256
  6
BYLAYER
 49
-0.5
 62
   256
  6
BYLAYER
  0
ACDBPLACEHOLDER
  5
F
102
{ACAD_REACTORS
330
E
102
}
330
E
  0
TABLESTYLE
  5
726
102
{ACAD_REACTORS
330
6F3
102
}
330
6F3
100
AcDbTableStyle
  3

 70
     0
 71
     1
 40
0.06
 41
0.06
280
     0
281
     0
  7
Standard
140
0.4
170
     4
 62
     0
 63
     7
283
     0
274
    -2
284
     0
 64
     0
275
    -2
285
     0
 65
     0
276
    -2
286
     1
 66
     0
277
    -2
287
     1
 67
     0
278
    -2
288
     0
 68
     0
279
    -2
289
     1
 69
     0
  7
Standard
140
0.5
170
     5
 62
     0
 63
     7
283
     0
274
    -2
284
     1
 64
     0
275
    -2
285
     0
 65
     0
276
    -2
286
     1
 66
     0
277
    -2
287
     1
 67
     0
278
    -2
288
     0
 68
     0
279
    -2
289
     1
 69
     0
  7
Standard
140
0.4
170
     4
 62
     0
 63
     7
283
     0
274
    -2
284
     1
 64
     0
275
    -2
285
     0
 65
     0
276
    -2
286
     1
 66
     0
277
    -2
287
     1
 67
     0
278
    -2
288
     0
 68
     0
279
    -2
289
     1
 69
     0
  0
TABLESTYLE
  5
6F4
102
{ACAD_REACTORS
330
6F3
102
}
330
6F3
100
AcDbTableStyle
  3
Standard
 70
     0
 71
     0
 40
1.5
 41
1.5
280
     0
281
     0
  7
Standard
140
4.5
170
     2
 62
     0
 63
     7
283
     0
274
    -2
284
     1
 64
     0
275
    -2
285
     1
 65
     0
276
    -2
286
     1
 66
     0
277
    -2
287
     1
 67
     0
278
    -2
288
     1
 68
     0
279
    -2
289
     1
 69
     0
  7
Standard
140
6.0
170
     5
 62
     0
 63
     7
283
     0
274
    -2
284
     1
 64
     0
275
    -2
285
     1
 65
     0
276
    -2
286
     1
 66
     0
277
    -2
287
     1
 67
     0
278
    -2
288
     1
 68
     0
279
    -2
289
     1
 69
     0
  7
Standard
140
4.5
170
     5
 62
     0
 63
     7
283
     0
274
    -2
284
     1
 64
     0
275
    -2
285
     1
 65
     0
276
    -2
286
     1
 66
     0
277
    -2
287
     1
 67
     0
278
    -2
288
     1
 68
     0
279
    -2
289
     1
 69
     0
  0
DICTIONARYVAR
  5
9F2
102
{ACAD_REACTORS
330
5E
102
}
330
5E
100
DictionaryVariables
280
     0
  1
STANDARD
  0
DICTIONARYVAR
  5
5F
102
{ACAD_REACTORS
330
5E
102
}
330
5E
100
DictionaryVariables
280
     0
  1
2
  0
DICTIONARYVAR
  5
63
102
{ACAD_REACTORS
330
5E
102
}
330
5E
100
DictionaryVariables
280
     0
  1
1
  0
DICTIONARYVAR
  5
699
102
{ACAD_REACTORS
330
5E
102
}
330
5E
100
DictionaryVariables
280
     0
  1

  0
XRECORD
  5
CDD
102
{ACAD_REACTORS
330
9F0
102
}
330
9F0
100
AcDbXrecord
280
     1
1000
ADE02C001
1070
     1
1070
     0
1002
{
1002
}
1002
{
1002
}
1002
{
1002
}
1000

  0
XRECORD
  5
9EF
102
{ACAD_REACTORS
330
9EE
102
}
330
9EE
100
AcDbXrecord
280
     1
330
360
330
361
330
362
330
3B3
330
3B4
330
3B5
330
35D
330
35E
330
35F
330
577
330
578
330
580
330
581
330
589
330
58A
330
592
330
593
330
59D
330
59E
330
5A7
330
5A8
330
5AF
330
5B0
330
5B8
330
5B9
330
5C4
330
5C5
330
5CC
330
5CD
330
5D8
330
5D9
330
5E0
330
5E1
330
5E9
330
5EA
330
5F2
330
5F3
330
5FE
330
5FF
330
606
330
607
330
612
330
613
330
61A
330
61B
330
623
330
624
330
62E
330
62F
330
638
330
639
330
643
330
644
330
64E
330
64F
330
659
330
65A
330
664
330
665
  0
DMMAPMANAGER
  5
723
102
{ACAD_REACTORS
330
722
102
}
330
722
100
AcDbDictionary
281
     1
  3
DisplayMap1
350
725
100
AcDbDictionaryWithDefault
340
725
100
AcMapDMMapManager
 70
     1
340
725
  0
DMSTYLELIBRARY
  5
724
102
{ACAD_REACTORS
330
722
102
}
330
722
100
AcMapDMStyleLibrary
 70
     1
 70
     1
360
72A
  0
DICTIONARY
  5
CE1
330
22
100
AcDbDictionary
280
     1
281
     1
  3
ACAD_XREC_ROUNDTRIP
360
CE2
  0
DICTIONARY
  5
CE3
330
51
100
AcDbDictionary
280
     1
281
     1
  3
ACAD_XREC_ROUNDTRIP
360
CE4
  0
DICTIONARY
  5
CE5
330
56
100
AcDbDictionary
280
     1
281
     1
  3
ACAD_XREC_ROUNDTRIP
360
CE6
  0
DMMAP
  5
725
102
{ACAD_REACTORS
330
723
330
727
102
}
330
723
100
AcMapDMMap
 70
     1
  1
既定値
 70
     1
330
0
100
AcMapDMMap
 70
     1
 90
        1
360
727
 90
        1
 40
1.797693134862314E+99
 70
     1
100
AcMapDMMap
 70
     2
 70
     0
 40
1.797693134862314E+99
290
     0
290
     1
 40
1.0
 40
3.0
  1
Legend
 90
        1
 40
1.797693134862314E+99
  1

 70
     0
 40
1.0
 70
     1
 90
        0
 90
        1
360
728
  0
DMSTYLECATEGORY
  5
72A
102
{ACAD_REACTORS
330
724
102
}
330
724
100
AcMapDMStyleCategory
 70
     1
  1
スタイルを表示
 70
     0
  0
XRECORD
  5
CE2
102
{ACAD_REACTORS
330
CE1
102
}
330
CE1
100
AcDbXrecord
280
     1
102
SHADEPLOT
 70
     0
102
SHADEPLOTRESLEVEL
 70
     2
102
SHADEPLOTCUSTOMDPI
 70
   300
  0
XRECORD
  5
CE4
102
{ACAD_REACTORS
330
CE3
102
}
330
CE3
100
AcDbXrecord
280
     1
102
SHADEPLOT
 70
     0
102
SHADEPLOTRESLEVEL
 70
     2
102
SHADEPLOTCUSTOMDPI
 70
   300
  0
XRECORD
  5
CE6
102
{ACAD_REACTORS
330
CE5
102
}
330
CE5
100
AcDbXrecord
280
     1
102
SHADEPLOT
 70
     0
102
SHADEPLOTRESLEVEL
 70
     2
102
SHADEPLOTCUSTOMDPI
 70
   300
  0
DMBASEELEMENT
  5
727
102
{ACAD_REACTORS
330
725
102
}
330
725
100
AcMapDMBaseElement
 70
     1
  1
マップ ベース
 70
     1
330
725
100
AcMapDMBaseElement
 70
     1
  1

 70
     2
  1

 70
     1
 40
1.797693134862314E+99
 70
     1
 70
     1
 70
     1
 70
     1
360
729
100
AcMapDMBaseElement
 70
     1
  0
DMDEFAULTSTYLE
  5
728
102
{ACAD_REACTORS
330
725
102
}
330
725
100
AcMapDMDefaultStyle
 70
     1
 90
        1
  1
既定値
100
AcMapDMDefaultStyle
 70
     1
280
   100
 90
     0
  0
DMSTYLEREFERENCE
  5
729
330
727
100
AcMapDMStyleReference
 70
     1
 70
     0
340
728
330
725
  0
ENDSEC
  0
EOF
