  0
SECTION
  2
HEADER
  9
$ACADVER
  1
AC1015
  9
$ACADMAINTVER
 70
    20
  9
$DWGCODEPAGE
  3
ANSI_932
  9
$INSBASE
 10
0.0
 20
0.0
 30
0.0
  9
$EXTMIN
 10
791.1515853702149
 20
457.8441956652168
 30
-0.0015258207003583
  9
$EXTMAX
 10
39793.15931726684
 20
26601.23126898227
 30
0.0000000349246037
  9
$LIMMIN
 10
0.0
 20
0.0
  9
$LIMMAX
 10
420.0
 20
297.0
  9
$ORTHOMODE
 70
     0
  9
$REGENMODE
 70
     1
  9
$FILLMODE
 70
     1
  9
$QTEXTMODE
 70
     0
  9
$MIRRTEXT
 70
     0
  9
$LTSCALE
 40
1.0
  9
$ATTMODE
 70
     1
  9
$TEXTSIZE
 40
2.5
  9
$TRACEWID
 40
1.0
  9
$TEXTSTYLE
  7
Standard
  9
$CLAYER
  8
0
  9
$CELTYPE
  6
ByLayer
  9
$CECOLOR
 62
   256
  9
$CELTSCALE
 40
1.0
  9
$DISPSILH
 70
     0
  9
$DIMSCALE
 40
500.0
  9
$DIMASZ
 40
2.5
  9
$DIMEXO
 40
0.625
  9
$DIMDLI
 40
3.75
  9
$DIMRND
 40
0.0
  9
$DIMDLE
 40
0.0
  9
$DIMEXE
 40
1.25
  9
$DIMTP
 40
0.0
  9
$DIMTM
 40
0.0
  9
$DIMTXT
 40
2.5
  9
$DIMCEN
 40
2.5
  9
$DIMTSZ
 40
0.0
  9
$DIMTOL
 70
     0
  9
$DIMLIM
 70
     0
  9
$DIMTIH
 70
     0
  9
$DIMTOH
 70
     0
  9
$DIMSE1
 70
     0
  9
$DIMSE2
 70
     0
  9
$DIMTAD
 70
     1
  9
$DIMZIN
 70
     8
  9
$DIMBLK
  1

  9
$DIMASO
 70
     1
  9
$DIMSHO
 70
     1
  9
$DIMPOST
  1

  9
$DIMAPOST
  1

  9
$DIMALT
 70
     0
  9
$DIMALTD
 70
     3
  9
$DIMALTF
 40
0.03937007874016
  9
$DIMLFAC
 40
1.0
  9
$DIMTOFL
 70
     1
  9
$DIMTVP
 40
0.0
  9
$DIMTIX
 70
     0
  9
$DIMSOXD
 70
     0
  9
$DIMSAH
 70
     0
  9
$DIMBLK1
  1

  9
$DIMBLK2
  1

  9
$DIMSTYLE
  2
ISO-25
  9
$DIMCLRD
 70
     0
  9
$DIMCLRE
 70
     0
  9
$DIMCLRT
 70
     0
  9
$DIMTFAC
 40
1.0
  9
$DIMGAP
 40
0.625
  9
$DIMJUST
 70
     0
  9
$DIMSD1
 70
     0
  9
$DIMSD2
 70
     0
  9
$DIMTOLJ
 70
     0
  9
$DIMTZIN
 70
     8
  9
$DIMALTZ
 70
     0
  9
$DIMALTTZ
 70
     0
  9
$DIMUPT
 70
     0
  9
$DIMDEC
 70
     2
  9
$DIMTDEC
 70
     2
  9
$DIMALTU
 70
     2
  9
$DIMALTTD
 70
     3
  9
$DIMTXSTY
  7
Standard
  9
$DIMAUNIT
 70
     0
  9
$DIMADEC
 70
     0
  9
$DIMALTRND
 40
0.0
  9
$DIMAZIN
 70
     0
  9
$DIMDSEP
 70
    44
  9
$DIMATFIT
 70
     3
  9
$DIMFRAC
 70
     0
  9
$DIMLDRBLK
  1

  9
$DIMLUNIT
 70
     2
  9
$DIMLWD
 70
    -2
  9
$DIMLWE
 70
    -2
  9
$DIMTMOVE
 70
     0
  9
$LUNITS
 70
     2
  9
$LUPREC
 70
     4
  9
$SKETCHINC
 40
1.0
  9
$FILLETRAD
 40
0.0
  9
$AUNITS
 70
     0
  9
$AUPREC
 70
     0
  9
$MENU
  1
.
  9
$ELEVATION
 40
0.0
  9
$PELEVATION
 40
0.0
  9
$THICKNESS
 40
0.0
  9
$LIMCHECK
 70
     0
  9
$CHAMFERA
 40
0.0
  9
$CHAMFERB
 40
0.0
  9
$CHAMFERC
 40
0.0
  9
$CHAMFERD
 40
0.0
  9
$SKPOLY
 70
     0
  9
$TDCREATE
 40
2454357.831240046
  9
$TDUCREATE
 40
2454357.456240046
  9
$TDUPDATE
 40
2454571.429661088
  9
$TDUUPDATE
 40
2454571.054661088
  9
$TDINDWG
 40
0.0395820833
  9
$TDUSRTIMER
 40
0.0395792014
  9
$USRTIMER
 70
     1
  9
$ANGBASE
 50
0.0
  9
$ANGDIR
 70
     0
  9
$PDMODE
 70
     0
  9
$PDSIZE
 40
0.0
  9
$PLINEWID
 40
0.0
  9
$SPLFRAME
 70
     0
  9
$SPLINETYPE
 70
     6
  9
$SPLINESEGS
 70
     8
  9
$HANDSEED
  5
A06
  9
$SURFTAB1
 70
     6
  9
$SURFTAB2
 70
     6
  9
$SURFTYPE
 70
     6
  9
$SURFU
 70
     6
  9
$SURFV
 70
     6
  9
$UCSBASE
  2

  9
$UCSNAME
  2

  9
$UCSORG
 10
0.0
 20
0.0
 30
0.0
  9
$UCSXDIR
 10
1.0
 20
0.0
 30
0.0
  9
$UCSYDIR
 10
0.0
 20
1.0
 30
0.0
  9
$UCSORTHOREF
  2

  9
$UCSORTHOVIEW
 70
     0
  9
$UCSORGTOP
 10
0.0
 20
0.0
 30
0.0
  9
$UCSORGBOTTOM
 10
0.0
 20
0.0
 30
0.0
  9
$UCSORGLEFT
 10
0.0
 20
0.0
 30
0.0
  9
$UCSORGRIGHT
 10
0.0
 20
0.0
 30
0.0
  9
$UCSORGFRONT
 10
0.0
 20
0.0
 30
0.0
  9
$UCSORGBACK
 10
0.0
 20
0.0
 30
0.0
  9
$PUCSBASE
  2

  9
$PUCSNAME
  2

  9
$PUCSORG
 10
0.0
 20
0.0
 30
0.0
  9
$PUCSXDIR
 10
1.0
 20
0.0
 30
0.0
  9
$PUCSYDIR
 10
0.0
 20
1.0
 30
0.0
  9
$PUCSORTHOREF
  2

  9
$PUCSORTHOVIEW
 70
     0
  9
$PUCSORGTOP
 10
0.0
 20
0.0
 30
0.0
  9
$PUCSORGBOTTOM
 10
0.0
 20
0.0
 30
0.0
  9
$PUCSORGLEFT
 10
0.0
 20
0.0
 30
0.0
  9
$PUCSORGRIGHT
 10
0.0
 20
0.0
 30
0.0
  9
$PUCSORGFRONT
 10
0.0
 20
0.0
 30
0.0
  9
$PUCSORGBACK
 10
0.0
 20
0.0
 30
0.0
  9
$USERI1
 70
     0
  9
$USERI2
 70
     0
  9
$USERI3
 70
     0
  9
$USERI4
 70
     0
  9
$USERI5
 70
     0
  9
$USERR1
 40
0.0
  9
$USERR2
 40
0.0
  9
$USERR3
 40
0.0
  9
$USERR4
 40
0.0
  9
$USERR5
 40
0.0
  9
$WORLDVIEW
 70
     1
  9
$SHADEDGE
 70
     3
  9
$SHADEDIF
 70
    70
  9
$TILEMODE
 70
     1
  9
$MAXACTVP
 70
    64
  9
$PINSBASE
 10
0.0
 20
0.0
 30
0.0
  9
$PLIMCHECK
 70
     0
  9
$PEXTMIN
 10
0.0
 20
0.0
 30
0.0
  9
$PEXTMAX
 10
0.0
 20
0.0
 30
0.0
  9
$PLIMMIN
 10
0.0
 20
0.0
  9
$PLIMMAX
 10
12.0
 20
9.0
  9
$UNITMODE
 70
     0
  9
$VISRETAIN
 70
     1
  9
$PLINEGEN
 70
     0
  9
$PSLTSCALE
 70
     1
  9
$TREEDEPTH
 70
  3020
  9
$CMLSTYLE
  2
Standard
  9
$CMLJUST
 70
     0
  9
$CMLSCALE
 40
20.0
  9
$PROXYGRAPHICS
 70
     1
  9
$MEASUREMENT
 70
     1
  9
$CELWEIGHT
370
    -1
  9
$ENDCAPS
280
     0
  9
$JOINSTYLE
280
     0
  9
$LWDISPLAY
290
     0
  9
$INSUNITS
 70
     6
  9
$HYPERLINKBASE
  1

  9
$STYLESHEET
  1
2.CTB
  9
$XEDIT
290
     1
  9
$CEPSNTYPE
380
     0
  9
$PSTYLEMODE
290
     1
  9
$FINGERPRINTGUID
  2
{FDEAD578-A652-11D2-9A35-0060089B3A3F}
  9
$VERSIONGUID
  2
{ACD43263-7591-426A-BA78-4A356982991F}
  9
$EXTNAMES
290
     1
  9
$PSVPSCALE
 40
0.0
  9
$OLESTARTUP
290
     0
  0
ENDSEC
  0
SECTION
  2
CLASSES
  0
CLASS
  1
ACDBDICTIONARYWDFLT
  2
AcDbDictionaryWithDefault
  3
ObjectDBX Classes
 90
        0
280
     0
281
     0
  0
CLASS
  1
ACDBPLACEHOLDER
  2
AcDbPlaceHolder
  3
ObjectDBX Classes
 90
        0
280
     0
281
     0
  0
CLASS
  1
LAYOUT
  2
AcDbLayout
  3
ObjectDBX Classes
 90
        0
280
     0
281
     0
  0
CLASS
  1
DICTIONARYVAR
  2
AcDbDictionaryVar
  3
ObjectDBX Classes
 90
        0
280
     0
281
     0
  0
CLASS
  1
TABLESTYLE
  2
AcDbTableStyle
  3
ObjectDBX Classes
 90
     2047
280
     0
281
     0
  0
CLASS
  1
DMMAPMANAGER
  2
AcMapDMMapManager
  3
AcMapDisplayManagement
 90
     1024
280
     0
281
     0
  0
CLASS
  1
DMSTYLELIBRARY
  2
AcMapDMStyleLibrary
  3
AcMapDisplayManagement
 90
     1024
280
     0
281
     0
  0
CLASS
  1
DMMAP
  2
AcMapDMMap
  3
AcMapDisplayManagement
 90
     1024
280
     0
281
     0
  0
CLASS
  1
DMBASEELEMENT
  2
AcMapDMBaseElement
  3
AcMapDisplayManagement
 90
     1024
280
     0
281
     0
  0
CLASS
  1
DMDEFAULTSTYLE
  2
AcMapDMDefaultStyle
  3
AcMapDisplayManagement
 90
     1024
280
     0
281
     0
  0
CLASS
  1
DMSTYLEREFERENCE
  2
AcMapDMStyleReference
  3
AcMapDisplayManagement
 90
     1024
280
     0
281
     0
  0
CLASS
  1
DMSTYLECATEGORY
  2
AcMapDMStyleCategory
  3
AcMapDisplayManagement
 90
     1024
280
     0
281
     0
  0
CLASS
  1
AECC_TREE_NODE
  2
AeccDbTreeNode
  3
AeccvBase10|Product Desc: Autodesk Civil 3D |Company: Autodesk,Inc. |WEB Address: www.autodesk.com
 90
     1023
280
     0
281
     0
  0
CLASS
  1
AECC_CLASS_NODE
  2
AeccDbClassNode
  3
AeccLand10|Product Desc: Autodesk Civil 3D |Company: Autodesk,Inc. |WEB Address: www.autodesk.com
 90
     1023
280
     0
281
     0
  0
CLASS
  1
AECC_ROOT_SETTINGS_NODE
  2
AeccDbRootSettingsNode
  3
AeccvBase10|Product Desc: Autodesk Civil 3D |Company: Autodesk,Inc. |WEB Address: www.autodesk.com
 90
     1023
280
     0
281
     0
  0
CLASS
  1
AEC_VARS_DWG_SETUP
  2
AecDbVarsDwgSetup
  3
AecBase40|Product Desc: Autodesk Architectural Desktop 2005 |Company: Autodesk,Inc. |WEB Address: www.autodesk.com
 90
      129
280
     0
281
     0
  0
CLASS
  1
AECC_SETTINGS_NODE
  2
AeccDbSettingsNode
  3
AeccvBase10|Product Desc: Autodesk Civil 3D |Company: Autodesk,Inc. |WEB Address: www.autodesk.com
 90
     1023
280
     0
281
     0
  0
CLASS
  1
AECC_PROFILE_VIEW_STYLE
  2
AeccDbGraphStyleProfile
  3
AeccLand10|Product Desc: Autodesk Civil 3D |Company: Autodesk,Inc. |WEB Address: www.autodesk.com
 90
      129
280
     0
281
     0
  0
CLASS
  1
AECC_PROFILE_VIEW_BAND_STYLE_SET
  2
AeccDbGraphProfileBandStyleSet
  3
AeccLand10|Product Desc: Autodesk Civil 3D |Company: Autodesk,Inc. |WEB Address: www.autodesk.com
 90
      129
280
     0
281
     0
  0
CLASS
  1
AECC_PROFILE_VIEW_DATA_BAND_STYLE
  2
AeccDbGraphStyleProfileDataBands
  3
AeccLand10|Product Desc: Autodesk Civil 3D |Company: Autodesk,Inc. |WEB Address: www.autodesk.com
 90
      129
280
     0
281
     0
  0
CLASS
  1
AECC_LABEL_NODE
  2
AeccDbLabelNode
  3
AeccLand10|Product Desc: Autodesk Civil 3D |Company: Autodesk,Inc. |WEB Address: www.autodesk.com
 90
     1023
280
     0
281
     0
  0
CLASS
  1
AECC_LABEL_COLLECTOR_STYLE
  2
AeccDbLabelStyleCollector
  3
AeccLand10|Product Desc: Autodesk Civil 3D |Company: Autodesk,Inc. |WEB Address: www.autodesk.com
 90
     1023
280
     0
281
     0
  0
CLASS
  1
AECC_LABEL_TEXT_STYLE
  2
AeccDbLabelStyleText
  3
AeccLand10|Product Desc: Autodesk Civil 3D |Company: Autodesk,Inc. |WEB Address: www.autodesk.com
 90
     1023
280
     0
281
     0
  0
CLASS
  1
AECC_PROFILE_VIEW_HORIZONTAL_GEOMETRY_BAND_STYLE
  2
AeccDbGraphStyleHorGeometryBands
  3
AeccLand10|Product Desc: Autodesk Civil 3D |Company: Autodesk,Inc. |WEB Address: www.autodesk.com
 90
      129
280
     0
281
     0
  0
CLASS
  1
AECC_PROFILE_VIEW_VERTICAL_GEOMETRY_BAND_STYLE
  2
AeccDbGraphStyleVertGeometryBands
  3
AeccLand10|Product Desc: Autodesk Civil 3D |Company: Autodesk,Inc. |WEB Address: www.autodesk.com
 90
      129
280
     0
281
     0
  0
CLASS
  1
AECC_LABEL_RADIAL_LINE_STYLE
  2
AeccDbLabelStyleRadialLine
  3
AeccLand10|Product Desc: Autodesk Civil 3D |Company: Autodesk,Inc. |WEB Address: www.autodesk.com
 90
     1023
280
     0
281
     0
  0
CLASS
  1
AECC_POINT_STYLE
  2
AeccDbPointStyle
  3
AeccLand10|Product Desc: Autodesk Civil 3D |Company: Autodesk,Inc. |WEB Address: www.autodesk.com
 90
      895
280
     0
281
     0
  0
CLASS
  1
AECC_PROFILE_LABEL_SET
  2
AeccDbVAlignStnLabelsDlgTemplate
  3
AeccLand10|Product Desc: Autodesk Civil 3D |Company: Autodesk,Inc. |WEB Address: www.autodesk.com
 90
     1023
280
     0
281
     0
  0
CLASS
  1
AECC_SECTION_VIEW_STYLE
  2
AeccDbGraphStyleCrossSection
  3
AeccLand10|Product Desc: Autodesk Civil 3D |Company: Autodesk,Inc. |WEB Address: www.autodesk.com
 90
      129
280
     0
281
     0
  0
CLASS
  1
AECC_SECTION_VIEW_BAND_STYLE_SET
  2
AeccDbGraphSectionBandStyleSet
  3
AeccLand10|Product Desc: Autodesk Civil 3D |Company: Autodesk,Inc. |WEB Address: www.autodesk.com
 90
      129
280
     0
281
     0
  0
CLASS
  1
AECC_SECTION_VIEW_DATA_BAND_STYLE
  2
AeccDbGraphStyleSectionDataBands
  3
AeccLand10|Product Desc: Autodesk Civil 3D |Company: Autodesk,Inc. |WEB Address: www.autodesk.com
 90
      129
280
     0
281
     0
  0
CLASS
  1
AECC_SECTION_LABEL_SET
  2
AeccDbSectionLabelsDlgTemplate
  3
AeccLand10|Product Desc: Autodesk Civil 3D |Company: Autodesk,Inc. |WEB Address: www.autodesk.com
 90
     1023
280
     0
281
     0
  0
CLASS
  1
AECC_ALIGNMENT_STYLE
  2
AeccDbAlignmentStyle
  3
AeccLand10|Product Desc: Autodesk Civil 3D |Company: Autodesk,Inc. |WEB Address: www.autodesk.com
 90
     1023
280
     0
281
     0
  0
CLASS
  1
AECC_LABEL_VECTOR_ARROW_STYLE
  2
AeccDbLabelStyleVectorArrow
  3
AeccLand10|Product Desc: Autodesk Civil 3D |Company: Autodesk,Inc. |WEB Address: www.autodesk.com
 90
     1023
280
     0
281
     0
  0
CLASS
  1
AECC_ALIGNMENT_LABEL_SET
  2
AeccDbAlignStnLabelsDlgTemplate
  3
AeccLand10|Product Desc: Autodesk Civil 3D |Company: Autodesk,Inc. |WEB Address: www.autodesk.com
 90
     1023
280
     0
281
     0
  0
CLASS
  1
AECC_SURFACE_STYLE
  2
AeccDbSurfaceStyle
  3
AeccLand10|Product Desc: Autodesk Civil 3D |Company: Autodesk,Inc. |WEB Address: www.autodesk.com
 90
      129
280
     0
281
     0
  0
CLASS
  1
AECC_LEGEND_TABLE_STYLE
  2
AeccDbLegendScheduleTableStyle
  3
AeccLand10|Product Desc: Autodesk Civil 3D |Company: Autodesk,Inc. |WEB Address: www.autodesk.com
 90
     1023
280
     0
281
     0
  0
CLASS
  1
AECC_SECTION_STYLE
  2
AeccDbSectionStyle
  3
AeccLand10|Product Desc: Autodesk Civil 3D |Company: Autodesk,Inc. |WEB Address: www.autodesk.com
 90
     1023
280
     0
281
     0
  0
CLASS
  1
AECC_GRADING_STYLE
  2
AeccDbGradingStyle
  3
AeccLand10|Product Desc: Autodesk Civil 3D |Company: Autodesk,Inc. |WEB Address: www.autodesk.com
 90
     1023
280
     0
281
     0
  0
CLASS
  1
AECC_GRADING_CRITERIA
  2
AeccDbGradingCriteria
  3
AeccLand10|Product Desc: Autodesk Civil 3D |Company: Autodesk,Inc. |WEB Address: www.autodesk.com
 90
     1023
280
     0
281
     0
  0
CLASS
  1
AECC_PARCEL_STYLE
  2
AeccDbParcelStyle
  3
AeccLand10|Product Desc: Autodesk Civil 3D |Company: Autodesk,Inc. |WEB Address: www.autodesk.com
 90
      129
280
     0
281
     0
  0
CLASS
  1
AECC_SAMPLE_LINE_GROUP_STYLE
  2
AeccDbSampleLineGroupStyle
  3
AeccLand10|Product Desc: Autodesk Civil 3D |Company: Autodesk,Inc. |WEB Address: www.autodesk.com
 90
      129
280
     0
281
     0
  0
CLASS
  1
AECC_SHEET_STYLE
  2
AeccDbSheetStyle
  3
AeccLand10|Product Desc: Autodesk Civil 3D |Company: Autodesk,Inc. |WEB Address: www.autodesk.com
 90
      129
280
     0
281
     0
  0
CLASS
  1
AECC_SAMPLE_LINE_STYLE
  2
AeccDbSampleLineStyle
  3
AeccLand10|Product Desc: Autodesk Civil 3D |Company: Autodesk,Inc. |WEB Address: www.autodesk.com
 90
     1023
280
     0
281
     0
  0
CLASS
  1
AECC_PROFILE_STYLE
  2
AeccDbVAlignmentStyle
  3
AeccLand10|Product Desc: Autodesk Civil 3D |Company: Autodesk,Inc. |WEB Address: www.autodesk.com
 90
     1023
280
     0
281
     0
  0
CLASS
  1
AECC_STATION_FORMAT_STYLE
  2
AeccDbStationFormatStyle
  3
AeccLand10|Product Desc: Autodesk Civil 3D |Company: Autodesk,Inc. |WEB Address: www.autodesk.com
 90
     1023
280
     0
281
     0
  0
CLASS
  1
AECC_TABLE_STYLE
  2
AeccDbScheduleTableStyle
  3
AeccLand10|Product Desc: Autodesk Civil 3D |Company: Autodesk,Inc. |WEB Address: www.autodesk.com
 90
     1023
280
     0
281
     0
  0
CLASS
  1
AECC_GRADING_CRITERIA_SET
  2
AeccDbGradingCriteriaSet
  3
AeccLand10|Product Desc: Autodesk Civil 3D |Company: Autodesk,Inc. |WEB Address: www.autodesk.com
 90
     1023
280
     0
281
     0
  0
CLASS
  1
AECC_FORMAT_MANAGER_OBJECT
  2
AeccDbFormatManagerObject
  3
AeccLand10|Product Desc: Autodesk Civil 3D |Company: Autodesk,Inc. |WEB Address: www.autodesk.com
 90
     1023
280
     0
281
     0
  0
CLASS
  1
AECC_POINT_DESCRIPTION_KEY_SET_NODE
  2
AeccDbPointDescKeySetsNode
  3
AeccvBase10|Product Desc: Autodesk Civil 3D |Company: Autodesk,Inc. |WEB Address: www.autodesk.com
 90
     1023
280
     0
281
     0
  0
ENDSEC
  0
SECTION
  2
TABLES
  0
TABLE
  2
VPORT
  5
8
330
0
100
AcDbSymbolTable
 70
     2
  0
VPORT
  5
9FD
330
8
100
AcDbSymbolTableRecord
100
AcDbViewportTableRecord
  2
*Active
 70
     0
 10
0.0
 20
0.0
 11
1.0
 21
1.0
 12
19896.57965863341
 22
13300.61563449113
 13
0.0
 23
0.0
 14
10.0
 24
10.0
 15
10.0
 25
10.0
 16
0.0
 26
0.0
 36
1.0
 17
0.0
 27
0.0
 37
0.0
 40
64172.96474829144
 41
0.6282940360610265
 42
50.0
 43
0.0
 44
0.0
 50
0.0
 51
0.0
 71
     0
 72
  1000
 73
     1
 74
     1
 75
     0
 76
     0
 77
     0
 78
     0
281
     0
 65
     1
110
0.0
120
0.0
130
0.0
111
1.0
121
0.0
131
0.0
112
0.0
122
1.0
132
0.0
 79
     0
146
0.0
  0
ENDTAB
  0
TABLE
  2
LTYPE
  5
5
330
0
100
AcDbSymbolTable
 70
     3
  0
LTYPE
  5
14
330
5
100
AcDbSymbolTableRecord
100
AcDbLinetypeTableRecord
  2
ByBlock
 70
     0
  3

 72
    65
 73
     0
 40
0.0
  0
LTYPE
  5
15
330
5
100
AcDbSymbolTableRecord
100
AcDbLinetypeTableRecord
  2
ByLayer
 70
     0
  3

 72
    65
 73
     0
 40
0.0
  0
LTYPE
  5
16
330
5
100
AcDbSymbolTableRecord
100
AcDbLinetypeTableRecord
  2
Continuous
 70
     0
  3
Solid line
 72
    65
 73
     0
 40
0.0
  0
LTYPE
  5
1FC
330
5
100
AcDbSymbolTableRecord
100
AcDbLinetypeTableRecord
  2
DASHED
 70
     0
  3
__ __ __ __ __ __ __ __ __ __ __ __ __ __ __
 72
    65
 73
     2
 40
3.0
 49
2.0
 74
     0
 49
-1.0
 74
     0
  0
LTYPE
  5
1FD
330
5
100
AcDbSymbolTableRecord
100
AcDbLinetypeTableRecord
  2
DASHDOT
 70
     0
  3
__ . __ . __ . __ . __ . __ . __ . __ . __ . __
 72
    65
 73
     4
 40
8.5
 49
6.0
 74
     0
 49
-1.0
 74
     0
 49
0.5
 74
     0
 49
-1.0
 74
     0
  0
ENDTAB
  0
TABLE
  2
LAYER
  5
2
330
0
100
AcDbSymbolTable
 70
    13
  0
LAYER
  5
10
330
2
100
AcDbSymbolTableRecord
100
AcDbLayerTableRecord
  2
0
 70
     0
 62
     7
  6
Continuous
370
    -3
390
F
  0
LAYER
  5
1FE
330
2
100
AcDbSymbolTableRecord
100
AcDbLayerTableRecord
  2
DEFPOINTS
 70
     0
 62
     4
  6
Continuous
290
     0
370
    -3
390
F
  0
LAYER
  5
1FF
330
2
100
AcDbSymbolTableRecord
100
AcDbLayerTableRecord
  2
寸法
 70
     0
 62
     6
  6
Continuous
370
    -3
390
F
  0
LAYER
  5
200
330
2
100
AcDbSymbolTableRecord
100
AcDbLayerTableRecord
  2
画層1-1
 70
     0
 62
    82
  6
Continuous
370
    -3
390
F
  0
LAYER
  5
201
330
2
100
AcDbSymbolTableRecord
100
AcDbLayerTableRecord
  2
図面枠
 70
     0
 62
     7
  6
Continuous
370
    -3
390
F
  0
LAYER
  5
202
330
2
100
AcDbSymbolTableRecord
100
AcDbLayerTableRecord
  2
ﾊｯﾁﾝｸﾞ
 70
     0
 62
     1
  6
Continuous
370
    -3
390
F
  0
LAYER
  5
203
330
2
100
AcDbSymbolTableRecord
100
AcDbLayerTableRecord
  2
画層1
 70
     0
 62
     7
  6
Continuous
370
    -3
390
F
  0
LAYER
  5
204
330
2
100
AcDbSymbolTableRecord
100
AcDbLayerTableRecord
  2
画層2
 70
     0
 62
    40
  6
Continuous
370
    -3
390
F
  0
LAYER
  5
205
330
2
100
AcDbSymbolTableRecord
100
AcDbLayerTableRecord
  2
通り芯
 70
     0
 62
     4
  6
Continuous
370
    13
390
F
  0
LAYER
  5
206
330
2
100
AcDbSymbolTableRecord
100
AcDbLayerTableRecord
  2
ﾈｯﾄ
 70
     0
 62
   230
  6
Continuous
370
    13
390
F
  0
LAYER
  5
207
330
2
100
AcDbSymbolTableRecord
100
AcDbLayerTableRecord
  2
画層2-1
 70
     0
 62
     7
  6
Continuous
370
    -3
390
F
  0
LAYER
  5
208
330
2
100
AcDbSymbolTableRecord
100
AcDbLayerTableRecord
  2
寸法文字
 70
     0
 62
     6
  6
Continuous
370
    -3
390
F
  0
LAYER
  5
209
330
2
100
AcDbSymbolTableRecord
100
AcDbLayerTableRecord
  2
寸法引出
 70
     0
 62
     3
  6
Continuous
370
    -3
390
F
  0
ENDTAB
  0
TABLE
  2
STYLE
  5
3
330
0
100
AcDbSymbolTable
 70
     4
  0
STYLE
  5
11
330
3
100
AcDbSymbolTableRecord
100
AcDbTextStyleTableRecord
  2
Standard
 70
     0
 40
0.0
 41
1.0
 50
0.0
 71
     0
 42
2.5
  3
txt
  4

  0
STYLE
  5
20A
330
3
100
AcDbSymbolTableRecord
100
AcDbTextStyleTableRecord
  2
1_100
 70
     0
 40
0.0
 41
0.75
 50
0.0
 71
     0
 42
2.5
  3
romans.shx
  4
extfont2.shx
  0
STYLE
  5
20B
330
3
100
AcDbSymbolTableRecord
100
AcDbTextStyleTableRecord
  2
STYLE1
 70
     0
 40
0.0
 41
0.75
 50
0.0
 71
     0
 42
0.2
  3
HGRSKP.TTF
  4

1001
ACAD
1000
HGSeikaishotaiPRO
1071
    32833
  0
STYLE
  5
20C
330
3
100
AcDbSymbolTableRecord
100
AcDbTextStyleTableRecord
  2
MSP明朝
 70
     0
 40
0.0
 41
0.75
 50
0.0
 71
     0
 42
0.2
  3
MS PMincho.ttf
  4

1001
ACAD
1000
MS PMincho
1071
    32786
  0
ENDTAB
  0
TABLE
  2
VIEW
  5
6
330
0
100
AcDbSymbolTable
 70
     0
  0
ENDTAB
  0
TABLE
  2
UCS
  5
7
330
0
100
AcDbSymbolTable
 70
     0
  0
ENDTAB
  0
TABLE
  2
APPID
  5
9
330
0
100
AcDbSymbolTable
 70
     3
  0
APPID
  5
12
330
9
100
AcDbSymbolTableRecord
100
AcDbRegAppTableRecord
  2
ACAD
 70
     0
  0
APPID
  5
9E8
330
9
100
AcDbSymbolTableRecord
100
AcDbRegAppTableRecord
  2
ADE
 70
     0
  0
APPID
  5
9E9
330
9
100
AcDbSymbolTableRecord
100
AcDbRegAppTableRecord
  2
DCO15
 70
     0
  0
ENDTAB
  0
TABLE
  2
DIMSTYLE
  5
A
330
0
100
AcDbSymbolTable
 70
     4
100
AcDbDimStyleTable
 71
     0
  0
DIMSTYLE
105
27
330
A
100
AcDbSymbolTableRecord
100
AcDbDimStyleTableRecord
  2
ISO-25
 70
     0
 41
2.5
 42
0.625
 43
3.75
 44
1.25
 73
     0
 74
     0
 77
     1
 78
     8
140
2.5
141
2.5
143
0.03937007874016
147
0.625
171
     3
172
     1
271
     2
272
     2
274
     3
278
    44
283
     0
284
     8
340
11
  0
DIMSTYLE
105
20D
330
A
100
AcDbSymbolTableRecord
100
AcDbDimStyleTableRecord
  2
STANDARD
 70
     0
340
11
  0
DIMSTYLE
105
20E
102
{ACAD_REACTORS
330
339
330
33A
330
350
330
354
330
35F
330
365
330
366
330
394
330
395
330
3AA
330
3AB
330
3AC
330
3AD
330
3B0
330
3B1
330
3B2
330
3C2
330
3C3
330
3C4
330
3DA
330
3DB
330
40B
330
425
330
431
330
432
102
}
330
A
100
AcDbSymbolTableRecord
100
AcDbDimStyleTableRecord
  2
1_100
 70
     0
 40
100.0
 41
0.6
 42
3.0
 43
10.0
 44
0.0
 73
     0
 74
     0
 77
     1
 78
     8
140
3.0
141
0.0
147
1.0
172
     1
173
     1
176
   256
177
   256
178
   256
271
     1
272
     1
277
     6
279
     2
284
     8
340
20A
341
87
343
87
344
87
  0
DIMSTYLE
105
9E7
330
A
100
AcDbSymbolTableRecord
100
AcDbDimStyleTableRecord
  2
1_50
 70
     0
 40
50.0
 41
1.0
 42
3.0
 43
10.0
 44
0.0
 73
     0
 74
     0
 77
     1
 78
    12
140
3.0
141
0.0
147
1.0
172
     1
173
     1
176
   256
177
   256
178
   256
271
     1
272
     1
277
     6
279
     2
340
20A
341
87
343
87
344
87
  0
ENDTAB
  0
TABLE
  2
BLOCK_RECORD
  5
1
330
0
100
AcDbSymbolTable
 70
    31
  0
BLOCK_RECORD
  5
1F
330
1
100
AcDbSymbolTableRecord
100
AcDbBlockTableRecord
  2
*Model_Space
340
22
  0
BLOCK_RECORD
  5
50
330
1
100
AcDbSymbolTableRecord
100
AcDbBlockTableRecord
  2
*Paper_Space
340
51
  0
BLOCK_RECORD
  5
55
330
1
100
AcDbSymbolTableRecord
100
AcDbBlockTableRecord
  2
*Paper_Space0
340
56
  0
BLOCK_RECORD
  5
87
330
1
100
AcDbSymbolTableRecord
100
AcDbBlockTableRecord
  2
_ORIGIN
340
0
102
{BLKREFS
331
576
331
577
331
57F
331
580
331
588
331
589
331
591
331
592
331
59A
331
59B
331
5A4
331
5A5
331
5AE
331
5AF
331
5B7
331
5B8
331
5C0
331
5C1
331
5CA
331
5CB
331
5D4
331
5D5
331
5E0
331
5E1
331
5EB
331
5EC
331
5F3
331
5F4
331
5FF
331
600
331
607
331
608
331
610
331
611
331
619
331
61A
331
625
331
626
331
62D
331
62E
331
636
331
637
331
642
331
643
331
64D
331
64E
331
658
331
659
331
663
331
664
102
}
  0
BLOCK_RECORD
  5
8C
330
1
100
AcDbSymbolTableRecord
100
AcDbBlockTableRecord
  2
RM
340
0
310
28000000200000002000000001000800000000000004000000000000000000000000000000000000000000004000000080000000FF000000002000004020000080200000FF200000004000004040000080400000FF400000006000004060000080600000FF600000008000004080000080800000FF80000000A0000040A000
310
0080A00000FFA0000000C0000040C0000080C00000FFC0000000FF000040FF000080FF0000FFFF0000000020004000200080002000FF002000002020004020200080202000FF202000004020004040200080402000FF402000006020004060200080602000FF602000008020004080200080802000FF80200000A0200040A0
310
200080A02000FFA0200000C0200040C0200080C02000FFC0200000FF200040FF200080FF2000FFFF2000000040004000400080004000FF004000002040004020400080204000FF204000004040004040400080404000FF404000006040004060400080604000FF604000008040004080400080804000FF80400000A0400040
310
A0400080A04000FFA0400000C0400040C0400080C04000FFC0400000FF400040FF400080FF4000FFFF4000000060004000600080006000FF006000002060004020600080206000FF206000004060004040600080406000FF406000006060004060600080606000FF606000008060004080600080806000FF80600000A06000
310
40A0600080A06000FFA0600000C0600040C0600080C06000FFC0600000FF600040FF600080FF6000FFFF6000000080004000800080008000FF008000002080004020800080208000FF208000004080004040800080408000FF408000006080004060800080608000FF608000008080004080800080808000FF80800000A080
310
0040A0800080A08000FFA0800000C0800040C0800080C08000FFC0800000FF800040FF800080FF8000FFFF80000000A0004000A0008000A000FF00A0000020A0004020A0008020A000FF20A0000040A0004040A0008040A000FF40A0000060A0004060A0008060A000FF60A0000080A0004080A0008080A000FF80A00000A0
310
A00040A0A00080A0A000FFA0A00000C0A00040C0A00080C0A000FFC0A00000FFA00040FFA00080FFA000FFFFA0000000C0004000C0008000C000FF00C0000020C0004020C0008020C000FF20C0000040C0004040C0008040C000FF40C0000060C0004060C0008060C000FF60C0000080C0004080C0008080C000FF80C00000
310
A0C00040A0C00080A0C000FFA0C00000C0C00040C0C00080C0C000FFC0C00000FFC00040FFC00080FFC000FFFFC0000000FF004000FF008000FF00FF00FF000020FF004020FF008020FF00FF20FF000040FF004040FF008040FF00FF40FF000060FF004060FF008060FF00FF60FF000080FF004080FF008080FF00FF80FF00
310
00A0FF0040A0FF0080A0FF00FFA0FF0000C0FF0040C0FF0080C0FF00FFC0FF0000FFFF0040FFFF0080FFFF00FFFFFF00FFFFFFFFFFFFFFFFFFFFFFFFFFFFFFFFFFFFFFFFFFFFFFFFFFFFFFFFFFFFFFFFFFFFFFFFFFFFFFFFFFFFFFFFFFFFFFFFFFFFFFFFFFFFFFFFFFFFFFFFFFFFFFFFFFFFFFFFFFFFFFFFFFFFFFFFFFFFFF
310
FFFFFFFFFFFFFFFFFFFFFFFFFFFFFFFFFFFFFFFFFFFFFFFFFFFFFFFFFFFFFFFFFFFFFFFFFFFFFFFFFFFFFFFFFFFFFFFFFFFFFFFFFFFFFFFFFFFFFFFFFFFFFFFFFFFFFFFFFFFFFFFFFFFFFFFFFFFFFFFFFFFFFFFFFFFFFFFFFFFFFFFFFFFFFFFFFFFFFFFFFFFFFFFFFFFFFFFFFFFFFFFFFFFFFFFFFFFFFFFFFFFFFFFFFFFFFF
310
FFFFFFFFFFFFFFFFFFFFFFFFFFFFFFFFFFFFFFFFFFFFFFFFFFFFFFFFFFFFFFFFFFFFFFFFFFFFFFFFFFFFFFFFFFFFFFFFFFFFFFFFFFFFFFFFFFFFFFFFFFFFFFFFFFFFFFFFFFFFFFFFFFFFFFFFFFFFFFFFFFFFFFFFFFFFFFFFFFFFFFFFFFFFFFFFFFFFFFFFFFFFFFFFFFFFFFFFFFFFFFFFFFFFFFFFFFFFFFFFFFFFFFFFFFFFFF
310
FFFFFFFFFFFFFFFFFFFFFFFFFFFFFFFFFFFFFFFFFFFFFFFFFFFFFFFFFFFFFFFFFFFFFFFFFFFFFFFFFFFFFFFFFFFFFFFFFFFFFFFFFFE0FFFFFFFFE0FFFFE0FFFFFFFFE0FFFFFFE0E0FFFFFFE0FFFFFFE0FFFFFFFFFFFFE0FFFFFFFFE0E0FFFFFFFFE0FFFFFFE0FFFFE0FFE0FFFFFFE0FFFFFFFFFFFFFFFFE0FFFFFFE0E0FFFF
310
FFE0FFFFFFE0FFFFFFFFE0FFFFFFE0FFFFFFFFFFFFFFFFFFFFE0FFFFFFFFE0FFE0FFFFFFE0FFE0FFFFFFFFE0FFE0FFFFFFFFE0FFFFE0FFFFFFFFE0FFFFFFFFE0FFFFFFE0FFFFFFE0E0FFFFFFE0FFFFFFFFE0FFFFFFFFE0E0FFFFFFE0FFFFFFFFE0FFE0FFE0FFFFFFFFE0FFFFFFE0FFFFE0FFFFFFFFFFFFFFE0FFFFFFE0FFFF
310
FFFFE0FFFFFFE0FFFFFFFFE0FFFFFFE0E0FFFFFFFFFFFFFFFFFFE0FFFFFFE0FFFFFFFFE0FFFFFFE0FFFFFFFFE0FFFFFFE0FFFFFFFFFFFFFFFFFFFFFFFFFFFFFFFFFFFFFFFFFFFFFFFFFFFFFFFFFFFFFFFFFFFFFFFFFFFFFFFFFFFFFFFFFFFFFFFFFFFFFFFFFFFFFFFFFFFFFFFFFFFFFFFFFFFFFFFFFFFFFFFFFFFFFFFFFFFF
310
FFFFFFFFFFFFFFFFFFFFFFFFFFFFFFFFFFFFFFFFFFFFFFFFFFFFFFFFFFFFFFFFFFFFFFFFFFFFFFFFFFFFFFFFFFFFFFFFFFFFFFFFFFFFFFFFFFFFFFFFFFFFFFFFFFFFFFFFFFFFFFFFFFFFFFFFFFFFFFFFFFFFFFFFFFFFFFFFFFFFFFFFFFFFFFFFFFFFFFFFFFFFFFFFFFFFFFFFFFFFFFFFFFFFFFFFFFFFFFFFFFFFFFFFFFFFFF
310
FFFFFFFFFFFFFFFFFFFFFFFFFFFFFFFFFFFFFFFFFFFFFFFFFFFFFFFFFFFFFFFFFFFFFFFFFFFFFFFFFFFFFFFFFFFFFFFFFFFFFFFFFFFFFFFFFFFFFFFFFFFFFFFFFFFFFFFFFFFFFFFFFFFFFFFFFFFFFFFFFFFFFFFFFFFFFFFFFFFFFFFFFFFFFFFFFFFFFFFFFFFFFFFFFFFFFFFFFFFFFFFFFFFFFFFFFFFFFFFFFFFFFFFFFFFFFF
310
FFFFFFFFFFFFFFFFFFFFFFFFFFFFFFFFFFFFFFFFFFFFFFFFFFFFFFFFFFFFFFFFFFFFFFFFFFFFFFFFFFFFFFFFFFFFFFFFFFFFFFFFFFFFFFFF
102
{BLKREFS
331
36E
331
3A7
331
3C5
102
}
  0
BLOCK_RECORD
  5
9B
330
1
100
AcDbSymbolTableRecord
100
AcDbBlockTableRecord
  2
RH
340
0
310
28000000200000002000000001000800000000000004000000000000000000000000000000000000000000004000000080000000FF000000002000004020000080200000FF200000004000004040000080400000FF400000006000004060000080600000FF600000008000004080000080800000FF80000000A0000040A000
310
0080A00000FFA0000000C0000040C0000080C00000FFC0000000FF000040FF000080FF0000FFFF0000000020004000200080002000FF002000002020004020200080202000FF202000004020004040200080402000FF402000006020004060200080602000FF602000008020004080200080802000FF80200000A0200040A0
310
200080A02000FFA0200000C0200040C0200080C02000FFC0200000FF200040FF200080FF2000FFFF2000000040004000400080004000FF004000002040004020400080204000FF204000004040004040400080404000FF404000006040004060400080604000FF604000008040004080400080804000FF80400000A0400040
310
A0400080A04000FFA0400000C0400040C0400080C04000FFC0400000FF400040FF400080FF4000FFFF4000000060004000600080006000FF006000002060004020600080206000FF206000004060004040600080406000FF406000006060004060600080606000FF606000008060004080600080806000FF80600000A06000
310
40A0600080A06000FFA0600000C0600040C0600080C06000FFC0600000FF600040FF600080FF6000FFFF6000000080004000800080008000FF008000002080004020800080208000FF208000004080004040800080408000FF408000006080004060800080608000FF608000008080004080800080808000FF80800000A080
310
0040A0800080A08000FFA0800000C0800040C0800080C08000FFC0800000FF800040FF800080FF8000FFFF80000000A0004000A0008000A000FF00A0000020A0004020A0008020A000FF20A0000040A0004040A0008040A000FF40A0000060A0004060A0008060A000FF60A0000080A0004080A0008080A000FF80A00000A0
310
A00040A0A00080A0A000FFA0A00000C0A00040C0A00080C0A000FFC0A00000FFA00040FFA00080FFA000FFFFA0000000C0004000C0008000C000FF00C0000020C0004020C0008020C000FF20C0000040C0004040C0008040C000FF40C0000060C0004060C0008060C000FF60C0000080C0004080C0008080C000FF80C00000
310
A0C00040A0C00080A0C000FFA0C00000C0C00040C0C00080C0C000FFC0C00000FFC00040FFC00080FFC000FFFFC0000000FF004000FF008000FF00FF00FF000020FF004020FF008020FF00FF20FF000040FF004040FF008040FF00FF40FF000060FF004060FF008060FF00FF60FF000080FF004080FF008080FF00FF80FF00
310
00A0FF0040A0FF0080A0FF00FFA0FF0000C0FF0040C0FF0080C0FF00FFC0FF0000FFFF0040FFFF0080FFFF00FFFFFF00FFFFFFFFFFFFFFFFFFFFFFFFFFFFFFFFFFFFFFFFFFFFFFFFFFFFFFFFFFFFFFFFFFFFFFFFFFFFFFFFFFFFFFFFFFFFFFFFFFFFFFFFFFFFFFFFFFFFFFFFFFFFFFFFFFFFFFFFFFFFFFFFFFFFFFFFFFFFFF
310
FFFFFFFFFFFFFFFFFFFFFFFFFFFFFFFFFFFFFFFFFFFFFFFFFFFFFFFFFFFFFFFFFFFFFFFFFFFFFFFFFFFFFFFFFFFFFFFFFFFFFFFFFFFFFFFFFFFFFFFFFFFFFFFFFFFFFFFFFFFFFFFFFFFFFFFFFFFFFFFFFFFFFFFFFFFFFFFFFFFFFFFFFFFFFFFFFFFFFFFFFFFFFFFFFFFFFFFFFFFFFFFFFFFFFFFFFFFFFFFFFFFFFFFFFFFFFF
310
FFFFFFFFFFFFFFFFFFFFFFFFFFFFFFFFFFFFFFFFFFFFFFFFFFFFFFFFFFFFFFFFFFFFFFFFFFFFFFFFFFFFFFFFFFFFFFFFFFFFFFFFFFFFFFFFFFFFFFFFFFFFFFFFFFFFFFFFFFFFFFFFFFFFFFFFFFFFFFFFFFFFFFFFFFFFFFFFFFFFFFFFFFFFFFFFFFFFFFFFFFFFFFFFFFFFFFFFFFFFFFFFFFFFFFFFFFFFFFFFFFFFFFFFFFFFFF
310
FFFFFFFFFFFFFFFFFFFFFFFFFFFFFFFFFFFFFFFFFFFFFFFFFFFFFFFFFFFFFFFFFFFFFFFFFFFFFFFFFFFFFFFFFFFFFFFFFFFFFFFFFFFFE0FFFFFFE0FFFFFFE0E0FFFFFFE0FFFFFFFFE0FFFFE0FFFFFFFFE0FFFFFFFFFFFFE0FFFFFFE0FFE0FFFFE0FFFFFFE0FFFFFFFFE0E0FFFFFFFFE0FFFFFFFFFFFFFFFFE0FFFFFFE0FFFF
310
FFFFE0FFFFFFE0FFFFFFE0E0FFFFFFE0FFFFFFFFFFE0FFFFFFFFE0FFE0FFFFFFFFE0FFE0FFFFFFE0FFE0FFFFFFFFE0FFFFFFFFFFFFFFE0FFFFFFFFE0FFFFFFE0E0FFFFFFE0FFFFFFE0FFFFFFFFE0FFFFFFFFE0FFFFFFFFE0FFFFE0FFFFFFE0FFFFFFFFE0FFE0FFE0FFFFFFFFE0FFFFFFE0E0FFFFFFFFFFFFE0E0FFFFFFE0FF
310
FFFFFFE0FFFFFFE0FFFFFFFFE0FFFFFFE0FFFFFFFFFFFFFFFFE0FFFFFFE0FFFFFFFFE0FFFFFFE0FFFFFFFFE0FFFFFFE0FFFFFFFFFFFFFFFFFFFFFFFFFFFFFFFFFFFFFFFFFFFFFFFFFFFFFFFFFFFFFFFFFFFFFFFFFFFFFFFFFFFFFFFFFFFFFFFFFFFFFFFFFFFFFFFFFFFFFFFFFFFFFFFFFFFFFFFFFFFFFFFFFFFFFFFFFFFFFF
310
FFFFFFFFFFFFFFFFFFFFFFFFFFFFFFFFFFFFFFFFFFFFFFFFFFFFFFFFFFFFFFFFFFFFFFFFFFFFFFFFFFFFFFFFFFFFFFFFFFFFFFFFFFFFFFFFFFFFFFFFFFFFFFFFFFFFFFFFFFFFFFFFFFFFFFFFFFFFFFFFFFFFFFFFFFFFFFFFFFFFFFFFFFFFFFFFFFFFFFFFFFFFFFFFFFFFFFFFFFFFFFFFFFFFFFFFFFFFFFFFFFFFFFFFFFFFFF
310
FFFFFFFFFFFFFFFFFFFFFFFFFFFFFFFFFFFFFFFFFFFFFFFFFFFFFFFFFFFFFFFFFFFFFFFFFFFFFFFFFFFFFFFFFFFFFFFFFFFFFFFFFFFFFFFFFFFFFFFFFFFFFFFFFFFFFFFFFFFFFFFFFFFFFFFFFFFFFFFFFFFFFFFFFFFFFFFFFFFFFFFFFFFFFFFFFFFFFFFFFFFFFFFFFFFFFFFFFFFFFFFFFFFFFFFFFFFFFFFFFFFFFFFFFFFFFF
310
FFFFFFFFFFFFFFFFFFFFFFFFFFFFFFFFFFFFFFFFFFFFFFFFFFFFFFFFFFFFFFFFFFFFFFFFFFFFFFFFFFFFFFFFFFFFFFFFFFFFFFFFFFFFFFFF
102
{BLKREFS
331
377
331
3A8
331
3C6
102
}
  0
BLOCK_RECORD
  5
AA
330
1
100
AcDbSymbolTableRecord
100
AcDbBlockTableRecord
  2
sai450
340
0
310
28000000200000002000000001000800000000000004000000000000000000000000000000000000000000004000000080000000FF000000002000004020000080200000FF200000004000004040000080400000FF400000006000004060000080600000FF600000008000004080000080800000FF80000000A0000040A000
310
0080A00000FFA0000000C0000040C0000080C00000FFC0000000FF000040FF000080FF0000FFFF0000000020004000200080002000FF002000002020004020200080202000FF202000004020004040200080402000FF402000006020004060200080602000FF602000008020004080200080802000FF80200000A0200040A0
310
200080A02000FFA0200000C0200040C0200080C02000FFC0200000FF200040FF200080FF2000FFFF2000000040004000400080004000FF004000002040004020400080204000FF204000004040004040400080404000FF404000006040004060400080604000FF604000008040004080400080804000FF80400000A0400040
310
A0400080A04000FFA0400000C0400040C0400080C04000FFC0400000FF400040FF400080FF4000FFFF4000000060004000600080006000FF006000002060004020600080206000FF206000004060004040600080406000FF406000006060004060600080606000FF606000008060004080600080806000FF80600000A06000
310
40A0600080A06000FFA0600000C0600040C0600080C06000FFC0600000FF600040FF600080FF6000FFFF6000000080004000800080008000FF008000002080004020800080208000FF208000004080004040800080408000FF408000006080004060800080608000FF608000008080004080800080808000FF80800000A080
310
0040A0800080A08000FFA0800000C0800040C0800080C08000FFC0800000FF800040FF800080FF8000FFFF80000000A0004000A0008000A000FF00A0000020A0004020A0008020A000FF20A0000040A0004040A0008040A000FF40A0000060A0004060A0008060A000FF60A0000080A0004080A0008080A000FF80A00000A0
310
A00040A0A00080A0A000FFA0A00000C0A00040C0A00080C0A000FFC0A00000FFA00040FFA00080FFA000FFFFA0000000C0004000C0008000C000FF00C0000020C0004020C0008020C000FF20C0000040C0004040C0008040C000FF40C0000060C0004060C0008060C000FF60C0000080C0004080C0008080C000FF80C00000
310
A0C00040A0C00080A0C000FFA0C00000C0C00040C0C00080C0C000FFC0C00000FFC00040FFC00080FFC000FFFFC0000000FF004000FF008000FF00FF00FF000020FF004020FF008020FF00FF20FF000040FF004040FF008040FF00FF40FF000060FF004060FF008060FF00FF60FF000080FF004080FF008080FF00FF80FF00
310
00A0FF0040A0FF0080A0FF00FFA0FF0000C0FF0040C0FF0080C0FF00FFC0FF0000FFFF0040FFFF0080FFFF00FFFFFF00FFFFFFFFFFFFFFFFFFFFFFFFFFFFFFFFFFFFFFFFFFFFFFFFFFFFFFFFFFFFFFFFFFFFFFFFFFFFFFFFFFFFFFFFFFFFFFFFFFFFFFFFFFFFFFFFFFFFFFFFFFFFFFFFFFFFFFFFFFFFFFFFFFFFFFFFFFFFFF
310
FFFFFFFFFFFFFFFFFFFFFFFFFFFFFFFFFFFFFFFFFFFFFFFFFFFFFFFFFFFFFFFFFFFFFFFFFFFFFFFFFFFFFFFFFFFFFFFFFFFFFFFFFFFFFFFFFFFFFFFFFFFFFFFFFFFFFFFFFFFFFFFFFFFFFFFFFFFFFFFFFFFFFFFFFFFFFFFFFFFFFFFFFFFFFFFFFFFFFFFFFFFFFFFFFFFFFFFFFFFFFFFFFFFFFFFFFFFFFFFFFFFFFFFFFFFFFF
310
FFFFFFFFFFFFFFFFFFFFFFFFFFFFFFFFFFFFFFFFFFFFFFFFFFFFFFFFFFFFFFFFFFFFFFFFFFFFFFFFFFFFFFFFFFFFFFFFFFFFFFFFFFFFFFFFFFFFFFFFFFFFFFFFFFFFFFFFFFFFFFFFFFFFFFFFFFFFFFFFFFFFFFFFFFFFFFFFFFFFFFFFFFFFFFFFFFFFFFFFFFFFFFFFFFFFFFFFFFFFFFFFFFFFFFFFFFFFFFFFFFFFFFFFFFFFFF
310
FFFFFFFFFFFFFFFFFFFFFFFFFFFFFFFFFFFFFFFFFFFFFFFFFFFFFFFFFFFFFFFFFFFFFFFFFFFFFFFFFFFFFFFFFFFFFFFFFFFFFFFFE0FFE0FFFFFFE0FFE0FFFFFFFFE0E0FFFFFFFFE0E0FFFFFFFFE0E0FFFFFFFFFFFFE0E0FFFFFFFFE0E0FFFFFFFFE0E0FFFFFFFFFFE0FFFFFFFFFFE0FFFFFFFFFFFFE0FFFFFFFFFFE0FFFFFF
310
FFFFE0E0FFFFFFFFFFE0FFFFFFFFFFE0FFFFFFFFFFFFFFE0FFFFFFFFFFE0FFFFFFFFFFE0FFFFFFFFFFFFE0FFFFFFFFFFE0FFFFFFFFFFFFE0FFFFFFFFFFE0FFFFFFFFFFFFE0FFFFFFFFFFE0FFFFFFFFFFE0FFFFFFFFFFFFFFE0FFFFFFFFFFE0FFFFFFFFFFE0E0FFFFFFFFFFE0FFFFFFFFFFE0FFFFFFFFFFFFE0FFFFFFFFFFE0
310
FFFFFFFFFFFFE0FFFFFFFFFFE0FFFFFFFFFFE0FFFFFFFFFFE0FFE0FFFFFFE0FFE0FFFFFFFFE0E0FFFFFFFFE0FFE0FFFFFFE0FFE0FFFFFFFFFFFFFFFFFFFFFFFFFFFFFFFFFFFFFFFFFFFFFFFFFFFFFFFFFFFFFFFFFFFFFFFFFFFFFFFFFFFFFFFFFFFFFFFFFFFFFFFFFFFFFFFFFFFFFFFFFFFFFFFFFFFFFFFFFFFFFFFFFFFFFF
310
FFFFFFFFFFFFFFFFFFFFFFFFFFFFFFFFFFFFFFFFFFFFFFFFFFFFFFFFFFFFFFFFFFFFFFFFFFFFFFFFFFFFFFFFFFFFFFFFFFFFFFFFFFFFFFFFFFFFFFFFFFFFFFFFFFFFFFFFFFFFFFFFFFFFFFFFFFFFFFFFFFFFFFFFFFFFFFFFFFFFFFFFFFFFFFFFFFFFFFFFFFFFFFFFFFFFFFFFFFFFFFFFFFFFFFFFFFFFFFFFFFFFFFFFFFFFFF
310
FFFFFFFFFFFFFFFFFFFFFFFFFFFFFFFFFFFFFFFFFFFFFFFFFFFFFFFFFFFFFFFFFFFFFFFFFFFFFFFFFFFFFFFFFFFFFFFFFFFFFFFFFFFFFFFFFFFFFFFFFFFFFFFFFFFFFFFFFFFFFFFFFFFFFFFFFFFFFFFFFFFFFFFFFFFFFFFFFFFFFFFFFFFFFFFFFFFFFFFFFFFFFFFFFFFFFFFFFFFFFFFFFFFFFFFFFFFFFFFFFFFFFFFFFFFFFF
310
FFFFFFFFFFFFFFFFFFFFFFFFFFFFFFFFFFFFFFFFFFFFFFFFFFFFFFFFFFFFFFFFFFFFFFFFFFFFFFFFFFFFFFFFFFFFFFFFFFFFFFFFFFFFFFFF
102
{BLKREFS
331
37C
331
3A9
331
3C7
102
}
  0
BLOCK_RECORD
  5
433
330
1
100
AcDbSymbolTableRecord
100
AcDbBlockTableRecord
  2
*D5
340
0
  0
BLOCK_RECORD
  5
43F
330
1
100
AcDbSymbolTableRecord
100
AcDbBlockTableRecord
  2
*D6
340
0
  0
BLOCK_RECORD
  5
44B
330
1
100
AcDbSymbolTableRecord
100
AcDbBlockTableRecord
  2
*D7
340
0
  0
BLOCK_RECORD
  5
457
330
1
100
AcDbSymbolTableRecord
100
AcDbBlockTableRecord
  2
*D8
340
0
  0
BLOCK_RECORD
  5
463
330
1
100
AcDbSymbolTableRecord
100
AcDbBlockTableRecord
  2
*D9
340
0
  0
BLOCK_RECORD
  5
46F
330
1
100
AcDbSymbolTableRecord
100
AcDbBlockTableRecord
  2
*D10
340
0
  0
BLOCK_RECORD
  5
47B
330
1
100
AcDbSymbolTableRecord
100
AcDbBlockTableRecord
  2
*D11
340
0
  0
BLOCK_RECORD
  5
489
330
1
100
AcDbSymbolTableRecord
100
AcDbBlockTableRecord
  2
*D12
340
0
  0
BLOCK_RECORD
  5
495
330
1
100
AcDbSymbolTableRecord
100
AcDbBlockTableRecord
  2
*D13
340
0
  0
BLOCK_RECORD
  5
4A1
330
1
100
AcDbSymbolTableRecord
100
AcDbBlockTableRecord
  2
*D14
340
0
  0
BLOCK_RECORD
  5
4AD
330
1
100
AcDbSymbolTableRecord
100
AcDbBlockTableRecord
  2
*D15
340
0
  0
BLOCK_RECORD
  5
4BB
330
1
100
AcDbSymbolTableRecord
100
AcDbBlockTableRecord
  2
*D16
340
0
  0
BLOCK_RECORD
  5
4C9
330
1
100
AcDbSymbolTableRecord
100
AcDbBlockTableRecord
  2
*D17
340
0
  0
BLOCK_RECORD
  5
4D7
330
1
100
AcDbSymbolTableRecord
100
AcDbBlockTableRecord
  2
*D18
340
0
  0
BLOCK_RECORD
  5
4E3
330
1
100
AcDbSymbolTableRecord
100
AcDbBlockTableRecord
  2
*D19
340
0
  0
BLOCK_RECORD
  5
4F1
330
1
100
AcDbSymbolTableRecord
100
AcDbBlockTableRecord
  2
*D20
340
0
  0
BLOCK_RECORD
  5
4FD
330
1
100
AcDbSymbolTableRecord
100
AcDbBlockTableRecord
  2
*D21
340
0
  0
BLOCK_RECORD
  5
509
330
1
100
AcDbSymbolTableRecord
100
AcDbBlockTableRecord
  2
*D22
340
0
  0
BLOCK_RECORD
  5
515
330
1
100
AcDbSymbolTableRecord
100
AcDbBlockTableRecord
  2
*D23
340
0
  0
BLOCK_RECORD
  5
523
330
1
100
AcDbSymbolTableRecord
100
AcDbBlockTableRecord
  2
*D24
340
0
  0
BLOCK_RECORD
  5
52F
330
1
100
AcDbSymbolTableRecord
100
AcDbBlockTableRecord
  2
*D25
340
0
  0
BLOCK_RECORD
  5
53B
330
1
100
AcDbSymbolTableRecord
100
AcDbBlockTableRecord
  2
*D26
340
0
  0
BLOCK_RECORD
  5
549
330
1
100
AcDbSymbolTableRecord
100
AcDbBlockTableRecord
  2
*D27
340
0
  0
BLOCK_RECORD
  5
557
330
1
100
AcDbSymbolTableRecord
100
AcDbBlockTableRecord
  2
*D28
340
0
  0
BLOCK_RECORD
  5
565
330
1
100
AcDbSymbolTableRecord
100
AcDbBlockTableRecord
  2
*D29
340
0
  0
ENDTAB
  0
ENDSEC
  0
SECTION
  2
BLOCKS
  0
BLOCK
  5
20
330
1F
100
AcDbEntity
  8
0
100
AcDbBlockBegin
  2
*Model_Space
 70
     0
 10
0.0
 20
0.0
 30
0.0
  3
*Model_Space
  1

  0
ENDBLK
  5
21
330
1F
100
AcDbEntity
  8
0
100
AcDbBlockEnd
  0
BLOCK
  5
52
330
50
100
AcDbEntity
 67
     1
  8
0
100
AcDbBlockBegin
  2
*Paper_Space
 70
     0
 10
0.0
 20
0.0
 30
0.0
  3
*Paper_Space
  1

  0
ENDBLK
  5
53
330
50
100
AcDbEntity
 67
     1
  8
0
100
AcDbBlockEnd
  0
BLOCK
  5
57
330
55
100
AcDbEntity
  8
0
100
AcDbBlockBegin
  2
*Paper_Space0
 70
     0
 10
0.0
 20
0.0
 30
0.0
  3
*Paper_Space0
  1

  0
ENDBLK
  5
58
330
55
100
AcDbEntity
  8
0
100
AcDbBlockEnd
  0
BLOCK
  5
88
330
87
100
AcDbEntity
  8
0
100
AcDbBlockBegin
  2
_ORIGIN
 70
     0
 10
0.0
 20
0.0
 30
0.0
  3
_ORIGIN
  1

  0
CIRCLE
  5
89
330
87
100
AcDbEntity
  8
0
  6
ByBlock
 62
     0
100
AcDbCircle
 10
0.0
 20
0.0
 30
0.0
 40
0.5
  0
LINE
  5
8A
330
87
100
AcDbEntity
  8
0
  6
ByBlock
 62
     0
100
AcDbLine
 10
0.0
 20
0.0
 30
0.0
 11
-1.0
 21
0.0
 31
0.0
  0
ENDBLK
  5
8B
330
87
100
AcDbEntity
  8
0
100
AcDbBlockEnd
  0
BLOCK
  5
8D
330
8C
100
AcDbEntity
  8
0
100
AcDbBlockBegin
  2
RM
 70
     0
 10
0.0
 20
0.0
 30
0.0
  3
RM
  1

  0
LINE
  5
8E
330
8C
100
AcDbEntity
  8
ﾊｯﾁﾝｸﾞ
  6
Continuous
100
AcDbLine
 10
360.1652361541055
 20
-91.67026152741163
 30
0.0
 11
388.4949746266939
 21
-120.0000000004656
 31
0.0
  0
LINE
  5
8F
330
8C
100
AcDbEntity
  8
ﾊｯﾁﾝｸﾞ
  6
Continuous
100
AcDbLine
 10
399.7632159003988
 20
-52.07228178094375
 30
0.0
 11
467.690934119746
 21
-120.0000000004074
 31
0.0
  0
LINE
  5
90
330
8C
100
AcDbEntity
  8
ﾊｯﾁﾝｸﾞ
  6
Continuous
100
AcDbLine
 10
372.6395381879993
 20
-0.0000000004074536
 30
0.0
 11
280.9692766605877
 21
-91.67026152741163
 31
0.0
  0
LINE
  5
91
330
8C
100
AcDbEntity
  8
ﾊｯﾁﾝｸﾞ
  6
Continuous
100
AcDbLine
 10
451.8354976810513
 20
-0.0000000004074536
 30
0.0
 11
331.8354976801202
 21
-120.0000000004074
 31
0.0
  0
LINE
  5
92
330
8C
100
AcDbEntity
  8
ﾊｯﾁﾝｸﾞ
  6
Continuous
100
AcDbLine
 10
439.3611956469249
 20
-12.47430203453405
 30
0.0
 11
493.1240446297452
 21
-66.23715101747075
 31
0.0
  0
LINE
  5
93
330
8C
100
AcDbEntity
  8
ﾊｯﾁﾝｸﾞ
  6
Continuous
100
AcDbLine
 10
55.85570021579043
 20
-0.0000000004656613
 30
0.0
 11
-0.0000000002328306
 21
-55.85570021602325
 31
0.0
  0
LINE
  5
94
330
8C
100
AcDbEntity
  8
ﾊｯﾁﾝｸﾞ
  6
Continuous
100
AcDbLine
 10
135.0516597088426
 20
-0.000000000349246
 30
0.0
 11
15.05165970791131
 21
-120.0000000004656
 31
0.0
  0
LINE
  5
95
330
8C
100
AcDbEntity
  8
ﾊｯﾁﾝｸﾞ
  6
Continuous
100
AcDbLine
 10
214.2476192018949
 20
-0.000000000349246
 30
0.0
 11
94.24761920119637
 21
-120.0000000004656
 31
0.0
  0
LINE
  5
96
330
8C
100
AcDbEntity
  8
ﾊｯﾁﾝｸﾞ
  6
Continuous
100
AcDbLine
 10
122.577357674716
 20
-91.67026152741163
 30
0.0
 11
150.9070961475372
 21
-120.0000000004656
 31
0.0
  0
LINE
  5
97
330
8C
100
AcDbEntity
  8
ﾊｯﾁﾝｸﾞ
  6
Continuous
100
AcDbLine
 10
162.1753374212421
 20
-52.07228178094375
 30
0.0
 11
230.1030556405895
 21
-120.0000000004074
 31
0.0
  0
LINE
  5
98
330
8C
100
AcDbEntity
  8
ﾊｯﾁﾝｸﾞ
  6
Continuous
100
AcDbLine
 10
201.7733171675354
 20
-12.47430203453405
 30
0.0
 11
309.2990151336417
 21
-120.0000000004074
 31
0.0
  0
LINE
  5
99
330
8C
100
AcDbEntity
  8
ﾊｯﾁﾝｸﾞ
  6
Continuous
100
AcDbLine
 10
293.4435786949471
 20
-0.0000000002910383
 30
0.0
 11
241.3712969140615
 21
-52.07228178094375
 31
0.0
  0
ENDBLK
  5
9A
330
8C
100
AcDbEntity
  8
0
100
AcDbBlockEnd
  0
BLOCK
  5
9C
330
9B
100
AcDbEntity
  8
0
100
AcDbBlockBegin
  2
RH
 70
     0
 10
0.0
 20
0.0
 30
0.0
  3
RH
  1

  0
LINE
  5
9D
330
9B
100
AcDbEntity
  8
ﾊｯﾁﾝｸﾞ
  6
Continuous
100
AcDbLine
 10
-55.85570021625607
 20
0.0
 30
0.0
 11
-0.0000000002328306
 21
-55.8557002155576
 31
0.0
  0
LINE
  5
9E
330
9B
100
AcDbEntity
  8
ﾊｯﾁﾝｸﾞ
  6
Continuous
100
AcDbLine
 10
-135.0516597093083
 20
0.0000000001164153
 30
0.0
 11
-15.05165970837697
 21
-120.0
 31
0.0
  0
LINE
  5
9F
330
9B
100
AcDbEntity
  8
ﾊｯﾁﾝｸﾞ
  6
Continuous
100
AcDbLine
 10
-214.2476192023605
 20
0.0000000001164153
 30
0.0
 11
-94.24761920166201
 21
-120.0
 31
0.0
  0
LINE
  5
A0
330
9B
100
AcDbEntity
  8
ﾊｯﾁﾝｸﾞ
  6
Continuous
100
AcDbLine
 10
-122.5773576751817
 20
-91.67026152694599
 30
0.0
 11
-150.9070961480029
 21
-120.0
 31
0.0
  0
LINE
  5
A1
330
9B
100
AcDbEntity
  8
ﾊｯﾁﾝｸﾞ
  6
Continuous
100
AcDbLine
 10
-162.1753374217078
 20
-52.07228178047808
 30
0.0
 11
-230.1030556410551
 21
-119.9999999999418
 31
0.0
  0
LINE
  5
A2
330
9B
100
AcDbEntity
  8
ﾊｯﾁﾝｸﾞ
  6
Continuous
100
AcDbLine
 10
-201.7733171680011
 20
-12.47430203406838
 30
0.0
 11
-309.2990151341073
 21
-119.9999999999418
 31
0.0
  0
LINE
  5
A3
330
9B
100
AcDbEntity
  8
ﾊｯﾁﾝｸﾞ
  6
Continuous
100
AcDbLine
 10
-360.1652361545712
 20
-91.67026152694599
 30
0.0
 11
-388.4949746271595
 21
-120.0
 31
0.0
  0
LINE
  5
A4
330
9B
100
AcDbEntity
  8
ﾊｯﾁﾝｸﾞ
  6
Continuous
100
AcDbLine
 10
-399.7632159008645
 20
-52.07228178047808
 30
0.0
 11
-467.6909341202117
 21
-119.9999999999418
 31
0.0
  0
LINE
  5
A5
330
9B
100
AcDbEntity
  8
ﾊｯﾁﾝｸﾞ
  6
Continuous
100
AcDbLine
 10
-293.4435786954127
 20
0.000000000174623
 30
0.0
 11
-241.3712969145272
 21
-52.07228178047808
 31
0.0
  0
LINE
  5
A6
330
9B
100
AcDbEntity
  8
ﾊｯﾁﾝｸﾞ
  6
Continuous
100
AcDbLine
 10
-372.6395381884649
 20
0.0000000000582077
 30
0.0
 11
-280.9692766610533
 21
-91.67026152700421
 31
0.0
  0
LINE
  5
A7
330
9B
100
AcDbEntity
  8
ﾊｯﾁﾝｸﾞ
  6
Continuous
100
AcDbLine
 10
-451.8354976815171
 20
0.0000000000582077
 30
0.0
 11
-331.8354976805858
 21
-119.9999999999418
 31
0.0
  0
LINE
  5
A8
330
9B
100
AcDbEntity
  8
ﾊｯﾁﾝｸﾞ
  6
Continuous
100
AcDbLine
 10
-439.3611956473905
 20
-12.47430203406838
 30
0.0
 11
-493.1240446302108
 21
-66.23715101700509
 31
0.0
  0
ENDBLK
  5
A9
330
9B
100
AcDbEntity
  8
0
100
AcDbBlockEnd
  0
BLOCK
  5
AB
330
AA
100
AcDbEntity
  8
0
100
AcDbBlockBegin
  2
sai450
 70
     0
 10
0.0
 20
0.0
 30
0.0
  3
sai450
  1

  0
LINE
  5
AC
330
AA
100
AcDbEntity
  8
ﾊｯﾁﾝｸﾞ
  6
Continuous
100
AcDbLine
 10
184.9591232701205
 20
0.0
 30
0.0
 11
201.0662565772654
 21
-21.8430756283924
 31
0.0
  0
LINE
  5
AD
330
AA
100
AcDbEntity
  8
ﾊｯﾁﾝｸﾞ
  6
Continuous
100
AcDbLine
 10
168.7806191118434
 20
-77.76344007329317
 30
0.0
 11
181.6189029712695
 21
-100.0
 31
0.0
  0
LINE
  5
AE
330
AA
100
AcDbEntity
  8
ﾊｯﾁﾝｸﾞ
  6
Continuous
100
AcDbLine
 10
155.9423352523008
 20
-100.0
 30
0.0
 11
213.6773621712346
 21
0.0
 31
0.0
  0
LINE
  5
AF
330
AA
100
AcDbEntity
  8
ﾊｯﾁﾝｸﾞ
  6
Continuous
100
AcDbLine
 10
64.33979487384203
 20
-100.0
 30
0.0
 11
122.0748217927758
 21
0.0
 31
0.0
  0
LINE
  5
B0
330
AA
100
AcDbEntity
  8
ﾊｯﾁﾝｸﾞ
  6
Continuous
100
AcDbLine
 10
-27.26274550461676
 20
-100.0
 30
0.0
 11
30.47228141431697
 21
0.0
 31
0.0
  0
LINE
  5
B1
330
AA
100
AcDbEntity
  8
ﾊｯﾁﾝｸﾞ
  6
Continuous
100
AcDbLine
 10
77.17807873338461
 20
-77.76344007329317
 30
0.0
 11
90.01636259281076
 21
-100.0
 31
0.0
  0
LINE
  5
B2
330
AA
100
AcDbEntity
  8
ﾊｯﾁﾝｸﾞ
  6
Continuous
100
AcDbLine
 10
-14.4244616451906
 20
-77.76344007329317
 30
0.0
 11
-1.586177785531616
 21
-100.0
 31
0.0
  0
LINE
  5
B3
330
AA
100
AcDbEntity
  8
ﾊｯﾁﾝｸﾞ
  6
Continuous
100
AcDbLine
 10
1.754042513202874
 20
0.0
 30
0.0
 11
17.86117582034785
 21
-21.8430756283924
 31
0.0
  0
LINE
  5
B4
330
AA
100
AcDbEntity
  8
ﾊｯﾁﾝｸﾞ
  6
Continuous
100
AcDbLine
 10
93.35658289166168
 20
0.0
 30
0.0
 11
109.4637161988066
 21
-21.8430756283924
 31
0.0
  0
LINE
  5
B5
330
AA
100
AcDbEntity
  8
ﾊｯﾁﾝｸﾞ
  6
Continuous
100
AcDbLine
 10
-181.4510382437146
 20
0.0
 30
0.0
 11
-165.3439049364533
 21
-21.8430756283924
 31
0.0
  0
LINE
  5
B6
330
AA
100
AcDbEntity
  8
ﾊｯﾁﾝｸﾞ
  6
Continuous
100
AcDbLine
 10
-197.6295424019918
 20
-77.76344007329317
 30
0.0
 11
-184.7912585424492
 21
-100.0
 31
0.0
  0
LINE
  5
B7
330
AA
100
AcDbEntity
  8
ﾊｯﾁﾝｸﾞ
  6
Continuous
100
AcDbLine
 10
-210.4678262615343
 20
-100.0
 30
0.0
 11
-152.7327993426006
 21
0.0
 31
0.0
  0
LINE
  5
B8
330
AA
100
AcDbEntity
  8
ﾊｯﾁﾝｸﾞ
  6
Continuous
100
AcDbLine
 10
-118.8652858830755
 20
-100.0
 30
0.0
 11
-61.13025896414182
 21
0.0
 31
0.0
  0
LINE
  5
B9
330
AA
100
AcDbEntity
  8
ﾊｯﾁﾝｸﾞ
  6
Continuous
100
AcDbLine
 10
-106.027002023533
 20
-77.76344007329317
 30
0.0
 11
-93.18871816399042
 21
-100.0
 31
0.0
  0
LINE
  5
BA
330
AA
100
AcDbEntity
  8
ﾊｯﾁﾝｸﾞ
  6
Continuous
100
AcDbLine
 10
-89.84849786525591
 20
0.0
 30
0.0
 11
-73.74136455799453
 21
-21.8430756283924
 31
0.0
  0
ENDBLK
  5
BB
330
AA
100
AcDbEntity
  8
0
100
AcDbBlockEnd
  0
BLOCK
  5
43D
330
433
100
AcDbEntity
  8
0
100
AcDbBlockBegin
  2
*D5
 70
     1
 10
0.0
 20
0.0
 30
0.0
  3
*D5
  1

  0
LINE
  5
573
330
433
100
AcDbEntity
  8
寸法
  6
Continuous
370
    -2
100
AcDbLine
 10
26625.28853807034
 20
19343.75329148588
 30
0.0
 11
27325.28853807034
 21
19343.75329148588
 31
0.0
  0
LINE
  5
574
330
433
100
AcDbEntity
  8
寸法
  6
Continuous
370
    -2
100
AcDbLine
 10
26625.28853807034
 20
22323.75329148542
 30
0.0
 11
27325.28853807034
 21
22323.75329148542
 31
0.0
  0
LINE
  5
575
330
433
100
AcDbEntity
  8
寸法
  6
Continuous
370
    -2
100
AcDbLine
 10
27325.28853807034
 20
19403.75329148588
 30
0.0
 11
27325.28853807034
 21
22263.75329148542
 31
0.0
  0
INSERT
  5
576
330
433
100
AcDbEntity
  8
寸法
  6
Continuous
370
    -2
100
AcDbBlockReference
  2
_ORIGIN
 10
27325.28853807034
 20
19343.75329148588
 30
0.0
 41
60.0
 42
60.0
 43
60.0
 50
270.0
  0
INSERT
  5
577
330
433
100
AcDbEntity
  8
寸法
  6
Continuous
370
    -2
100
AcDbBlockReference
  2
_ORIGIN
 10
27325.28853807034
 20
22323.75329148542
 30
0.0
 41
60.0
 42
60.0
 43
60.0
 50
90.0
  0
MTEXT
  5
578
330
433
100
AcDbEntity
  8
寸法
  6
Continuous
100
AcDbMText
 10
27046.71710949891
 20
20833.75329148566
 30
0.0
 40
300.0
 41
0.0
 71
     5
 72
     1
  1
\A1;2,980
  7
1_100
 11
0.0000000000000001
 21
1.0
 31
0.0
 73
     1
 44
1.0
1001
ACAD
1000
MTEXTBEGIN
1070
    73
1070
     1
1070
    44
1040
1.0
1070
    74
1070
     0
1000
MTEXTEND
  0
POINT
  5
579
330
433
100
AcDbEntity
  8
DEFPOINTS
  6
Continuous
 62
     0
100
AcDbPoint
 10
26325.28853807034
 20
19343.75329148588
 30
0.0
  0
POINT
  5
57A
330
433
100
AcDbEntity
  8
DEFPOINTS
  6
Continuous
 62
     0
100
AcDbPoint
 10
26325.28853807034
 20
22323.75329148542
 30
0.0
  0
POINT
  5
57B
330
433
100
AcDbEntity
  8
DEFPOINTS
  6
Continuous
 62
     0
100
AcDbPoint
 10
27325.28853807034
 20
22323.75329148542
 30
0.0
  0
ENDBLK
  5
43E
330
433
100
AcDbEntity
  8
0
100
AcDbBlockEnd
  0
BLOCK
  5
449
330
43F
100
AcDbEntity
  8
0
100
AcDbBlockBegin
  2
*D6
 70
     1
 10
0.0
 20
0.0
 30
0.0
  3
*D6
  1

  0
LINE
  5
57C
330
43F
100
AcDbEntity
  8
寸法
  6
Continuous
370
    -2
100
AcDbLine
 10
33125.28853807035
 20
19343.75329148588
 30
0.0
 11
33925.28853807035
 21
19343.75329148588
 31
0.0
  0
LINE
  5
57D
330
43F
100
AcDbEntity
  8
寸法
  6
Continuous
370
    -2
100
AcDbLine
 10
33125.28853807035
 20
22323.75329148542
 30
0.0
 11
33925.28853807035
 21
22323.75329148542
 31
0.0
  0
LINE
  5
57E
330
43F
100
AcDbEntity
  8
寸法
  6
Continuous
370
    -2
100
AcDbLine
 10
33925.28853807035
 20
19403.75329148588
 30
0.0
 11
33925.28853807035
 21
22263.75329148542
 31
0.0
  0
INSERT
  5
57F
330
43F
100
AcDbEntity
  8
寸法
  6
Continuous
370
    -2
100
AcDbBlockReference
  2
_ORIGIN
 10
33925.28853807035
 20
19343.75329148588
 30
0.0
 41
60.0
 42
60.0
 43
60.0
 50
270.0
  0
INSERT
  5
580
330
43F
100
AcDbEntity
  8
寸法
  6
Continuous
370
    -2
100
AcDbBlockReference
  2
_ORIGIN
 10
33925.28853807035
 20
22323.75329148542
 30
0.0
 41
60.0
 42
60.0
 43
60.0
 50
90.0
  0
MTEXT
  5
581
330
43F
100
AcDbEntity
  8
寸法
  6
Continuous
100
AcDbMText
 10
33646.71710949891
 20
20833.75329148566
 30
0.0
 40
300.0
 41
0.0
 71
     5
 72
     1
  1
\A1;2,980
  7
1_100
 11
0.0000000000000001
 21
1.0
 31
0.0
 73
     1
 44
1.0
1001
ACAD
1000
MTEXTBEGIN
1070
    73
1070
     1
1070
    44
1040
1.0
1070
    74
1070
     0
1000
MTEXTEND
  0
POINT
  5
582
330
43F
100
AcDbEntity
  8
DEFPOINTS
  6
Continuous
 62
     0
100
AcDbPoint
 10
32825.28853807034
 20
19343.75329148588
 30
0.0
  0
POINT
  5
583
330
43F
100
AcDbEntity
  8
DEFPOINTS
  6
Continuous
 62
     0
100
AcDbPoint
 10
32825.28853807034
 20
22323.75329148542
 30
0.0
  0
POINT
  5
584
330
43F
100
AcDbEntity
  8
DEFPOINTS
  6
Continuous
 62
     0
100
AcDbPoint
 10
33925.28853807035
 20
22323.75329148542
 30
0.0
  0
ENDBLK
  5
44A
330
43F
100
AcDbEntity
  8
0
100
AcDbBlockEnd
  0
BLOCK
  5
455
330
44B
100
AcDbEntity
  8
0
100
AcDbBlockBegin
  2
*D7
 70
     1
 10
0.0
 20
0.0
 30
0.0
  3
*D7
  1

  0
LINE
  5
585
330
44B
100
AcDbEntity
  8
寸法
  6
Continuous
370
    -2
100
AcDbLine
 10
26625.28853807034
 20
22383.75329148542
 30
0.0
 11
28325.28853807034
 21
22383.75329148542
 31
0.0
  0
LINE
  5
586
330
44B
100
AcDbEntity
  8
寸法
  6
Continuous
370
    -2
100
AcDbLine
 10
26625.28853807034
 20
13383.7532914853
 30
0.0
 11
28325.28853807034
 21
13383.7532914853
 31
0.0
  0
LINE
  5
587
330
44B
100
AcDbEntity
  8
寸法
  6
Continuous
370
    -2
100
AcDbLine
 10
28325.28853807034
 20
22323.75329148542
 30
0.0
 11
28325.28853807034
 21
13443.7532914853
 31
0.0
  0
INSERT
  5
588
330
44B
100
AcDbEntity
  8
寸法
  6
Continuous
370
    -2
100
AcDbBlockReference
  2
_ORIGIN
 10
28325.28853807034
 20
22383.75329148542
 30
0.0
 41
60.0
 42
60.0
 43
60.0
 50
90.0
  0
INSERT
  5
589
330
44B
100
AcDbEntity
  8
寸法
  6
Continuous
370
    -2
100
AcDbBlockReference
  2
_ORIGIN
 10
28325.28853807034
 20
13383.7532914853
 30
0.0
 41
60.0
 42
60.0
 43
60.0
 50
270.0
  0
MTEXT
  5
58A
330
44B
100
AcDbEntity
  8
寸法
  6
Continuous
100
AcDbMText
 10
28046.71710949891
 20
17883.75329148537
 30
0.0
 40
300.0
 41
0.0
 71
     5
 72
     1
  1
\A1;9,000
  7
1_100
 11
0.0000000000000001
 21
1.0
 31
0.0
 73
     1
 44
1.0
1001
ACAD
1000
MTEXTBEGIN
1070
    73
1070
     1
1070
    44
1040
1.0
1070
    74
1070
     0
1000
MTEXTEND
  0
POINT
  5
58B
330
44B
100
AcDbEntity
  8
DEFPOINTS
  6
Continuous
 62
     0
100
AcDbPoint
 10
26325.28853807034
 20
22383.75329148542
 30
0.0
  0
POINT
  5
58C
330
44B
100
AcDbEntity
  8
DEFPOINTS
  6
Continuous
 62
     0
100
AcDbPoint
 10
26325.28853807034
 20
13383.7532914853
 30
0.0
  0
POINT
  5
58D
330
44B
100
AcDbEntity
  8
DEFPOINTS
  6
Continuous
 62
     0
100
AcDbPoint
 10
28325.28853807034
 20
13383.7532914853
 30
0.0
  0
ENDBLK
  5
456
330
44B
100
AcDbEntity
  8
0
100
AcDbBlockEnd
  0
BLOCK
  5
461
330
457
100
AcDbEntity
  8
0
100
AcDbBlockBegin
  2
*D8
 70
     1
 10
0.0
 20
0.0
 30
0.0
  3
*D8
  1

  0
LINE
  5
58E
330
457
100
AcDbEntity
  8
寸法
  6
Continuous
370
    -2
100
AcDbLine
 10
33125.28853807035
 20
22383.75329148542
 30
0.0
 11
34925.28853807035
 21
22383.75329148542
 31
0.0
  0
LINE
  5
58F
330
457
100
AcDbEntity
  8
寸法
  6
Continuous
370
    -2
100
AcDbLine
 10
33125.28853807035
 20
13383.7532914853
 30
0.0
 11
34925.28853807034
 21
13383.7532914853
 31
0.0
  0
LINE
  5
590
330
457
100
AcDbEntity
  8
寸法
  6
Continuous
370
    -2
100
AcDbLine
 10
34925.28853807035
 20
22323.75329148542
 30
0.0
 11
34925.28853807034
 21
13443.7532914853
 31
0.0
  0
INSERT
  5
591
330
457
100
AcDbEntity
  8
寸法
  6
Continuous
370
    -2
100
AcDbBlockReference
  2
_ORIGIN
 10
34925.28853807035
 20
22383.75329148542
 30
0.0
 41
60.0
 42
60.0
 43
60.0
 50
90.0
  0
INSERT
  5
592
330
457
100
AcDbEntity
  8
寸法
  6
Continuous
370
    -2
100
AcDbBlockReference
  2
_ORIGIN
 10
34925.28853807034
 20
13383.7532914853
 30
0.0
 41
60.0
 42
60.0
 43
60.0
 50
270.0
  0
MTEXT
  5
593
330
457
100
AcDbEntity
  8
寸法
  6
Continuous
100
AcDbMText
 10
34646.71710949893
 20
17883.75329148536
 30
0.0
 40
300.0
 41
0.0
 71
     5
 72
     1
  1
\A1;9,000
  7
1_100
 11
0.0000000000000001
 21
1.0
 31
0.0
 73
     1
 44
1.0
1001
ACAD
1000
MTEXTBEGIN
1070
    73
1070
     1
1070
    44
1040
1.0
1070
    74
1070
     0
1000
MTEXTEND
  0
POINT
  5
594
330
457
100
AcDbEntity
  8
DEFPOINTS
  6
Continuous
 62
     0
100
AcDbPoint
 10
32825.28853807034
 20
22383.75329148542
 30
0.0
  0
POINT
  5
595
330
457
100
AcDbEntity
  8
DEFPOINTS
  6
Continuous
 62
     0
100
AcDbPoint
 10
32825.28853807034
 20
13383.7532914853
 30
0.0
  0
POINT
  5
596
330
457
100
AcDbEntity
  8
DEFPOINTS
  6
Continuous
 62
     0
100
AcDbPoint
 10
34925.28853807034
 20
13383.7532914853
 30
0.0
  0
ENDBLK
  5
462
330
457
100
AcDbEntity
  8
0
100
AcDbBlockEnd
  0
BLOCK
  5
46D
330
463
100
AcDbEntity
  8
0
100
AcDbBlockBegin
  2
*D9
 70
     1
 10
0.0
 20
0.0
 30
0.0
  3
*D9
  1

  0
LINE
  5
597
330
463
100
AcDbEntity
  8
寸法
  6
Continuous
370
    -2
100
AcDbLine
 10
9325.288538070342
 20
9716.699717064329
 30
0.0
 11
9325.288538070342
 21
8283.753291484256
 31
0.0
  0
LINE
  5
598
330
463
100
AcDbEntity
  8
寸法
  6
Continuous
370
    -2
100
AcDbLine
 10
19325.28853807022
 20
10841.28581969189
 30
0.0
 11
19325.28853807022
 21
8283.753291484256
 31
0.0
  0
LINE
  5
599
330
463
100
AcDbEntity
  8
寸法
  6
Continuous
370
    -2
100
AcDbLine
 10
9385.288538070341
 20
8283.753291484256
 30
0.0
 11
19265.28853807022
 21
8283.753291484256
 31
0.0
  0
INSERT
  5
59A
330
463
100
AcDbEntity
  8
寸法
  6
Continuous
370
    -2
100
AcDbBlockReference
  2
_ORIGIN
 10
9325.288538070342
 20
8283.753291484256
 30
0.0
 41
60.0
 42
60.0
 43
60.0
 50
180.0
  0
INSERT
  5
59B
330
463
100
AcDbEntity
  8
寸法
  6
Continuous
370
    -2
100
AcDbBlockReference
  2
_ORIGIN
 10
19325.28853807022
 20
8283.753291484256
 30
0.0
 41
60.0
 42
60.0
 43
60.0
  0
MTEXT
  5
59C
330
463
100
AcDbEntity
  8
寸法
  6
Continuous
100
AcDbMText
 10
14325.28853807028
 20
8562.324720055686
 30
0.0
 40
300.0
 41
0.0
 71
     5
 72
     1
  1
\A1;10,000
  7
1_100
 73
     1
 44
1.0
1001
ACAD
1000
MTEXTBEGIN
1070
    73
1070
     1
1070
    44
1040
1.0
1070
    74
1070
     0
1000
MTEXTEND
  0
POINT
  5
59D
330
463
100
AcDbEntity
  8
DEFPOINTS
  6
Continuous
 62
     0
100
AcDbPoint
 10
9325.288538070342
 20
10016.69971706432
 30
0.0
  0
POINT
  5
59E
330
463
100
AcDbEntity
  8
DEFPOINTS
  6
Continuous
 62
     0
100
AcDbPoint
 10
19325.28853807022
 20
11141.28581969189
 30
0.0
  0
POINT
  5
59F
330
463
100
AcDbEntity
  8
DEFPOINTS
  6
Continuous
 62
     0
100
AcDbPoint
 10
19325.28853807022
 20
8283.753291484256
 30
0.0
  0
ENDBLK
  5
46E
330
463
100
AcDbEntity
  8
0
100
AcDbBlockEnd
  0
BLOCK
  5
479
330
46F
100
AcDbEntity
  8
0
100
AcDbBlockBegin
  2
*D10
 70
     1
 10
0.0
 20
0.0
 30
0.0
  3
*D10
  1

  0
LINE
  5
5A0
330
46F
100
AcDbEntity
  8
寸法
  6
Continuous
370
    -2
100
AcDbLine
 10
9100.288538070225
 20
10893.75329148519
 30
0.0
 11
9100.288538070225
 21
10683.75329148542
 31
0.0
  0
LINE
  5
5A1
330
46F
100
AcDbEntity
  8
寸法
  6
Continuous
370
    -2
100
AcDbLine
 10
9550.288538070109
 20
10893.75329148519
 30
0.0
 11
9550.288538070109
 21
10683.75329148542
 31
0.0
  0
LINE
  5
5A2
330
46F
100
AcDbEntity
  8
寸法
  6
Continuous
370
    -2
100
AcDbLine
 10
9160.288538070224
 20
10683.75329148542
 30
0.0
 11
9490.288538070108
 21
10683.75329148542
 31
0.0
  0
MTEXT
  5
5A3
330
46F
100
AcDbEntity
  8
寸法
  6
Continuous
100
AcDbMText
 10
8478.008501337553
 20
10845.3149389539
 30
0.0
 40
300.0
 41
0.0
 71
     5
 72
     1
  1
\A1;φ450
  7
1_100
 73
     1
 44
1.0
1001
ACAD
1000
MTEXTBEGIN
1070
    73
1070
     1
1070
    44
1040
1.0
1070
    74
1070
     0
1000
MTEXTEND
  0
INSERT
  5
5A4
330
46F
100
AcDbEntity
  8
寸法
  6
Continuous
370
    -2
100
AcDbBlockReference
  2
_ORIGIN
 10
9100.288538070225
 20
10683.75329148542
 30
0.0
 41
60.0
 42
60.0
 43
60.0
 50
180.0
  0
INSERT
  5
5A5
330
46F
100
AcDbEntity
  8
寸法
  6
Continuous
370
    -2
100
AcDbBlockReference
  2
_ORIGIN
 10
9550.288538070109
 20
10683.75329148542
 30
0.0
 41
60.0
 42
60.0
 43
60.0
  0
POINT
  5
5A6
330
46F
100
AcDbEntity
  8
DEFPOINTS
  6
Continuous
 62
     0
100
AcDbPoint
 10
9100.288538070225
 20
11193.75329148518
 30
0.0
  0
POINT
  5
5A7
330
46F
100
AcDbEntity
  8
DEFPOINTS
  6
Continuous
 62
     0
100
AcDbPoint
 10
9550.288538070109
 20
11193.75329148518
 30
0.0
  0
POINT
  5
5A8
330
46F
100
AcDbEntity
  8
DEFPOINTS
  6
Continuous
 62
     0
100
AcDbPoint
 10
9550.288538070109
 20
10683.75329148542
 30
0.0
  0
ENDBLK
  5
47A
330
46F
100
AcDbEntity
  8
0
100
AcDbBlockEnd
  0
BLOCK
  5
487
330
47B
100
AcDbEntity
  8
0
100
AcDbBlockBegin
  2
*D11
 70
     1
 10
0.0
 20
0.0
 30
0.0
  3
*D11
  1

  0
LINE
  5
5A9
330
47B
100
AcDbEntity
  8
寸法
  6
Continuous
370
    -2
100
AcDbLine
 10
9075.288538070225
 20
10893.75329148519
 30
0.0
 11
9075.288538070225
 21
10283.75329148507
 31
0.0
  0
LINE
  5
5AA
330
47B
100
AcDbEntity
  8
寸法
  6
Continuous
370
    -2
100
AcDbLine
 10
9575.288538070225
 20
10893.75329148519
 30
0.0
 11
9575.288538070225
 21
10283.75329148507
 31
0.0
  0
LINE
  5
5AB
330
47B
100
AcDbEntity
  8
寸法
  6
Continuous
370
    -2
100
AcDbLine
 10
9015.288538070224
 20
10283.75329148507
 30
0.0
 11
8955.288538070226
 21
10283.75329148507
 31
0.0
  0
LINE
  5
5AC
330
47B
100
AcDbEntity
  8
寸法
  6
Continuous
370
    -2
100
AcDbLine
 10
9635.288538070225
 20
10283.75329148507
 30
0.0
 11
9695.288538070224
 21
10283.75329148507
 31
0.0
  0
LINE
  5
5AD
330
47B
100
AcDbEntity
  8
寸法
  6
Continuous
370
    -2
100
AcDbLine
 10
9075.288538070225
 20
10283.75329148507
 30
0.0
 11
9575.288538070225
 21
10283.75329148507
 31
0.0
  0
INSERT
  5
5AE
330
47B
100
AcDbEntity
  8
寸法
  6
Continuous
370
    -2
100
AcDbBlockReference
  2
_ORIGIN
 10
9075.288538070225
 20
10283.75329148507
 30
0.0
 41
60.0
 42
60.0
 43
60.0
  0
INSERT
  5
5AF
330
47B
100
AcDbEntity
  8
寸法
  6
Continuous
370
    -2
100
AcDbBlockReference
  2
_ORIGIN
 10
9575.288538070225
 20
10283.75329148507
 30
0.0
 41
60.0
 42
60.0
 43
60.0
 50
180.0
  0
MTEXT
  5
5B0
330
47B
100
AcDbEntity
  8
寸法
  6
Continuous
100
AcDbMText
 10
9325.288538070225
 20
10033.75329148507
 30
0.0
 40
300.0
 41
0.0
 71
     5
 72
     1
  1
\A1;□500
  7
1_100
 73
     1
 44
1.0
1001
ACAD
1000
MTEXTBEGIN
1070
    73
1070
     1
1070
    44
1040
1.0
1070
    74
1070
     0
1000
MTEXTEND
  0
POINT
  5
5B1
330
47B
100
AcDbEntity
  8
DEFPOINTS
  6
Continuous
 62
     0
100
AcDbPoint
 10
9075.288538070225
 20
11193.75329148518
 30
0.0
  0
POINT
  5
5B2
330
47B
100
AcDbEntity
  8
DEFPOINTS
  6
Continuous
 62
     0
100
AcDbPoint
 10
9575.288538070225
 20
11193.75329148518
 30
0.0
  0
POINT
  5
5B3
330
47B
100
AcDbEntity
  8
DEFPOINTS
  6
Continuous
 62
     0
100
AcDbPoint
 10
9575.288538070225
 20
10283.75329148507
 30
0.0
  0
ENDBLK
  5
488
330
47B
100
AcDbEntity
  8
0
100
AcDbBlockEnd
  0
BLOCK
  5
493
330
489
100
AcDbEntity
  8
0
100
AcDbBlockBegin
  2
*D12
 70
     1
 10
0.0
 20
0.0
 30
0.0
  3
*D12
  1

  0
LINE
  5
5B4
330
489
100
AcDbEntity
  8
寸法
  6
Continuous
370
    -2
100
AcDbLine
 10
26625.28853807034
 20
13383.7532914853
 30
0.0
 11
27325.28853807034
 21
13383.7532914853
 31
0.0
  0
LINE
  5
5B5
330
489
100
AcDbEntity
  8
寸法
  6
Continuous
370
    -2
100
AcDbLine
 10
26625.28853807034
 20
16363.75329148588
 30
0.0
 11
27325.28853807034
 21
16363.75329148588
 31
0.0
  0
LINE
  5
5B6
330
489
100
AcDbEntity
  8
寸法
  6
Continuous
370
    -2
100
AcDbLine
 10
27325.28853807034
 20
13443.7532914853
 30
0.0
 11
27325.28853807034
 21
16303.75329148589
 31
0.0
  0
INSERT
  5
5B7
330
489
100
AcDbEntity
  8
寸法
  6
Continuous
370
    -2
100
AcDbBlockReference
  2
_ORIGIN
 10
27325.28853807034
 20
13383.7532914853
 30
0.0
 41
60.0
 42
60.0
 43
60.0
 50
270.0
  0
INSERT
  5
5B8
330
489
100
AcDbEntity
  8
寸法
  6
Continuous
370
    -2
100
AcDbBlockReference
  2
_ORIGIN
 10
27325.28853807034
 20
16363.75329148588
 30
0.0
 41
60.0
 42
60.0
 43
60.0
 50
90.0
  0
MTEXT
  5
5B9
330
489
100
AcDbEntity
  8
寸法
  6
Continuous
100
AcDbMText
 10
27046.71710949891
 20
14873.7532914856
 30
0.0
 40
300.0
 41
0.0
 71
     5
 72
     1
  1
\A1;2,980
  7
1_100
 11
0.0000000000000001
 21
1.0
 31
0.0
 73
     1
 44
1.0
1001
ACAD
1000
MTEXTBEGIN
1070
    73
1070
     1
1070
    44
1040
1.0
1070
    74
1070
     0
1000
MTEXTEND
  0
POINT
  5
5BA
330
489
100
AcDbEntity
  8
DEFPOINTS
  6
Continuous
 62
     0
100
AcDbPoint
 10
26325.28853807034
 20
13383.7532914853
 30
0.0
  0
POINT
  5
5BB
330
489
100
AcDbEntity
  8
DEFPOINTS
  6
Continuous
 62
     0
100
AcDbPoint
 10
26325.28853807034
 20
16363.75329148588
 30
0.0
  0
POINT
  5
5BC
330
489
100
AcDbEntity
  8
DEFPOINTS
  6
Continuous
 62
     0
100
AcDbPoint
 10
27325.28853807034
 20
16363.75329148588
 30
0.0
  0
ENDBLK
  5
494
330
489
100
AcDbEntity
  8
0
100
AcDbBlockEnd
  0
BLOCK
  5
49F
330
495
100
AcDbEntity
  8
0
100
AcDbBlockBegin
  2
*D13
 70
     1
 10
0.0
 20
0.0
 30
0.0
  3
*D13
  1

  0
LINE
  5
5BD
330
495
100
AcDbEntity
  8
寸法
  6
Continuous
370
    -2
100
AcDbLine
 10
33125.28853807035
 20
13383.7532914853
 30
0.0
 11
33925.28853807035
 21
13383.7532914853
 31
0.0
  0
LINE
  5
5BE
330
495
100
AcDbEntity
  8
寸法
  6
Continuous
370
    -2
100
AcDbLine
 10
33125.28853807035
 20
16363.75329148588
 30
0.0
 11
33925.28853807035
 21
16363.75329148588
 31
0.0
  0
LINE
  5
5BF
330
495
100
AcDbEntity
  8
寸法
  6
Continuous
370
    -2
100
AcDbLine
 10
33925.28853807035
 20
13443.7532914853
 30
0.0
 11
33925.28853807035
 21
16303.75329148589
 31
0.0
  0
INSERT
  5
5C0
330
495
100
AcDbEntity
  8
寸法
  6
Continuous
370
    -2
100
AcDbBlockReference
  2
_ORIGIN
 10
33925.28853807035
 20
13383.7532914853
 30
0.0
 41
60.0
 42
60.0
 43
60.0
 50
270.0
  0
INSERT
  5
5C1
330
495
100
AcDbEntity
  8
寸法
  6
Continuous
370
    -2
100
AcDbBlockReference
  2
_ORIGIN
 10
33925.28853807035
 20
16363.75329148588
 30
0.0
 41
60.0
 42
60.0
 43
60.0
 50
90.0
  0
MTEXT
  5
5C2
330
495
100
AcDbEntity
  8
寸法
  6
Continuous
100
AcDbMText
 10
33646.71710949893
 20
14873.7532914856
 30
0.0
 40
300.0
 41
0.0
 71
     5
 72
     1
  1
\A1;2,980
  7
1_100
 11
0.0000000000000001
 21
1.0
 31
0.0
 73
     1
 44
1.0
1001
ACAD
1000
MTEXTBEGIN
1070
    73
1070
     1
1070
    44
1040
1.0
1070
    74
1070
     0
1000
MTEXTEND
  0
POINT
  5
5C3
330
495
100
AcDbEntity
  8
DEFPOINTS
  6
Continuous
 62
     0
100
AcDbPoint
 10
32825.28853807034
 20
13383.7532914853
 30
0.0
  0
POINT
  5
5C4
330
495
100
AcDbEntity
  8
DEFPOINTS
  6
Continuous
 62
     0
100
AcDbPoint
 10
32825.28853807034
 20
16363.75329148588
 30
0.0
  0
POINT
  5
5C5
330
495
100
AcDbEntity
  8
DEFPOINTS
  6
Continuous
 62
     0
100
AcDbPoint
 10
33925.28853807035
 20
16363.75329148588
 30
0.0
  0
ENDBLK
  5
4A0
330
495
100
AcDbEntity
  8
0
100
AcDbBlockEnd
  0
BLOCK
  5
4AB
330
4A1
100
AcDbEntity
  8
0
100
AcDbBlockBegin
  2
*D14
 70
     1
 10
0.0
 20
0.0
 30
0.0
  3
*D14
  1

  0
LINE
  5
5C6
330
4A1
100
AcDbEntity
  8
寸法
  6
Continuous
370
    -2
100
AcDbLine
 10
31100.28853807034
 20
10893.7532914853
 30
0.0
 11
31100.28853807034
 21
10683.7532914839
 31
0.0
  0
LINE
  5
5C7
330
4A1
100
AcDbEntity
  8
寸法
  6
Continuous
370
    -2
100
AcDbLine
 10
31550.28853807011
 20
10893.7532914853
 30
0.0
 11
31550.28853807011
 21
10683.7532914839
 31
0.0
  0
LINE
  5
5C8
330
4A1
100
AcDbEntity
  8
寸法
  6
Continuous
370
    -2
100
AcDbLine
 10
31160.28853807034
 20
10683.7532914839
 30
0.0
 11
31490.28853807011
 21
10683.7532914839
 31
0.0
  0
MTEXT
  5
5C9
330
4A1
100
AcDbEntity
  8
寸法
  6
Continuous
100
AcDbMText
 10
30508.42748440366
 20
10839.47945995157
 30
0.0
 40
300.0
 41
0.0
 71
     5
 72
     1
  1
\A1;φ450
  7
1_100
 73
     1
 44
1.0
1001
ACAD
1000
MTEXTBEGIN
1070
    73
1070
     1
1070
    44
1040
1.0
1070
    74
1070
     0
1000
MTEXTEND
  0
INSERT
  5
5CA
330
4A1
100
AcDbEntity
  8
寸法
  6
Continuous
370
    -2
100
AcDbBlockReference
  2
_ORIGIN
 10
31100.28853807034
 20
10683.7532914839
 30
0.0
 41
60.0
 42
60.0
 43
60.0
 50
180.0
  0
INSERT
  5
5CB
330
4A1
100
AcDbEntity
  8
寸法
  6
Continuous
370
    -2
100
AcDbBlockReference
  2
_ORIGIN
 10
31550.28853807011
 20
10683.7532914839
 30
0.0
 41
60.0
 42
60.0
 43
60.0
  0
POINT
  5
5CC
330
4A1
100
AcDbEntity
  8
DEFPOINTS
  6
Continuous
 62
     0
100
AcDbPoint
 10
31100.28853807034
 20
11193.7532914853
 30
0.0
  0
POINT
  5
5CD
330
4A1
100
AcDbEntity
  8
DEFPOINTS
  6
Continuous
 62
     0
100
AcDbPoint
 10
31550.28853807011
 20
11193.7532914853
 30
0.0
  0
POINT
  5
5CE
330
4A1
100
AcDbEntity
  8
DEFPOINTS
  6
Continuous
 62
     0
100
AcDbPoint
 10
31550.28853807011
 20
10683.7532914839
 30
0.0
  0
ENDBLK
  5
4AC
330
4A1
100
AcDbEntity
  8
0
100
AcDbBlockEnd
  0
BLOCK
  5
4B9
330
4AD
100
AcDbEntity
  8
0
100
AcDbBlockBegin
  2
*D15
 70
     1
 10
0.0
 20
0.0
 30
0.0
  3
*D15
  1

  0
LINE
  5
5CF
330
4AD
100
AcDbEntity
  8
寸法
  6
Continuous
370
    -2
100
AcDbLine
 10
31075.28853807034
 20
10893.7532914853
 30
0.0
 11
31075.28853807034
 21
10283.75329148367
 31
0.0
  0
LINE
  5
5D0
330
4AD
100
AcDbEntity
  8
寸法
  6
Continuous
370
    -2
100
AcDbLine
 10
31575.28853807034
 20
10893.75329148519
 30
0.0
 11
31575.28853807034
 21
10283.75329148367
 31
0.0
  0
LINE
  5
5D1
330
4AD
100
AcDbEntity
  8
寸法
  6
Continuous
370
    -2
100
AcDbLine
 10
31015.28853807034
 20
10283.75329148367
 30
0.0
 11
30955.28853807034
 21
10283.75329148367
 31
0.0
  0
LINE
  5
5D2
330
4AD
100
AcDbEntity
  8
寸法
  6
Continuous
370
    -2
100
AcDbLine
 10
31635.28853807034
 20
10283.75329148367
 30
0.0
 11
31695.28853807034
 21
10283.75329148367
 31
0.0
  0
LINE
  5
5D3
330
4AD
100
AcDbEntity
  8
寸法
  6
Continuous
370
    -2
100
AcDbLine
 10
31075.28853807034
 20
10283.75329148367
 30
0.0
 11
31575.28853807034
 21
10283.75329148367
 31
0.0
  0
INSERT
  5
5D4
330
4AD
100
AcDbEntity
  8
寸法
  6
Continuous
370
    -2
100
AcDbBlockReference
  2
_ORIGIN
 10
31075.28853807034
 20
10283.75329148367
 30
0.0
 41
60.0
 42
60.0
 43
60.0
  0
INSERT
  5
5D5
330
4AD
100
AcDbEntity
  8
寸法
  6
Continuous
370
    -2
100
AcDbBlockReference
  2
_ORIGIN
 10
31575.28853807034
 20
10283.75329148367
 30
0.0
 41
60.0
 42
60.0
 43
60.0
 50
180.0
  0
MTEXT
  5
5D6
330
4AD
100
AcDbEntity
  8
寸法
  6
Continuous
100
AcDbMText
 10
31325.28853807034
 20
10033.75329148367
 30
0.0
 40
300.0
 41
0.0
 71
     5
 72
     1
  1
\A1;□500
  7
1_100
 73
     1
 44
1.0
1001
ACAD
1000
MTEXTBEGIN
1070
    73
1070
     1
1070
    44
1040
1.0
1070
    74
1070
     0
1000
MTEXTEND
  0
POINT
  5
5D7
330
4AD
100
AcDbEntity
  8
DEFPOINTS
  6
Continuous
 62
     0
100
AcDbPoint
 10
31075.28853807034
 20
11193.7532914853
 30
0.0
  0
POINT
  5
5D8
330
4AD
100
AcDbEntity
  8
DEFPOINTS
  6
Continuous
 62
     0
100
AcDbPoint
 10
31575.28853807034
 20
11193.75329148518
 30
0.0
  0
POINT
  5
5D9
330
4AD
100
AcDbEntity
  8
DEFPOINTS
  6
Continuous
 62
     0
100
AcDbPoint
 10
31575.28853807034
 20
10283.75329148367
 30
0.0
  0
ENDBLK
  5
4BA
330
4AD
100
AcDbEntity
  8
0
100
AcDbBlockEnd
  0
BLOCK
  5
4C7
330
4BB
100
AcDbEntity
  8
0
100
AcDbBlockBegin
  2
*D16
 70
     1
 10
0.0
 20
0.0
 30
0.0
  3
*D16
  1

  0
LINE
  5
5DA
330
4BB
100
AcDbEntity
  8
寸法
  6
Continuous
370
    -2
100
AcDbLine
 10
26625.28853807034
 20
11283.75329148542
 30
0.0
 11
27325.28853807034
 21
11283.75329148542
 31
0.0
  0
LINE
  5
5DB
330
4BB
100
AcDbEntity
  8
寸法
  6
Continuous
370
    -2
100
AcDbLine
 10
26625.28853807034
 20
11383.75329148542
 30
0.0
 11
27325.28853807034
 21
11383.75329148542
 31
0.0
  0
LINE
  5
5DC
330
4BB
100
AcDbEntity
  8
寸法
  6
Continuous
370
    -2
100
AcDbLine
 10
27325.28853807034
 20
11223.75329148542
 30
0.0
 11
27325.28853807034
 21
11163.75329148542
 31
0.0
  0
LINE
  5
5DD
330
4BB
100
AcDbEntity
  8
寸法
  6
Continuous
370
    -2
100
AcDbLine
 10
27325.28853807034
 20
11443.75329148542
 30
0.0
 11
27325.28853807034
 21
11503.75329148542
 31
0.0
  0
MTEXT
  5
5DE
330
4BB
100
AcDbEntity
  8
寸法
  6
Continuous
100
AcDbMText
 10
27046.99908824027
 20
10924.40997118752
 30
0.0
 40
300.0
 41
0.0
 71
     5
 72
     1
  1
\A1;100
  7
1_100
 11
0.0000000000000001
 21
1.0
 31
0.0
 73
     1
 44
1.0
1001
ACAD
1000
MTEXTBEGIN
1070
    73
1070
     1
1070
    44
1040
1.0
1070
    74
1070
     0
1000
MTEXTEND
  0
LINE
  5
5DF
330
4BB
100
AcDbEntity
  8
寸法
  6
Continuous
370
    -2
100
AcDbLine
 10
27325.28853807034
 20
11283.75329148542
 30
0.0
 11
27325.28853807034
 21
11383.75329148542
 31
0.0
  0
INSERT
  5
5E0
330
4BB
100
AcDbEntity
  8
寸法
  6
Continuous
370
    -2
100
AcDbBlockReference
  2
_ORIGIN
 10
27325.28853807034
 20
11283.75329148542
 30
0.0
 41
60.0
 42
60.0
 43
60.0
 50
90.0
  0
INSERT
  5
5E1
330
4BB
100
AcDbEntity
  8
寸法
  6
Continuous
370
    -2
100
AcDbBlockReference
  2
_ORIGIN
 10
27325.28853807034
 20
11383.75329148542
 30
0.0
 41
60.0
 42
60.0
 43
60.0
 50
270.0
  0
POINT
  5
5E2
330
4BB
100
AcDbEntity
  8
DEFPOINTS
  6
Continuous
 62
     0
100
AcDbPoint
 10
26325.28853807034
 20
11283.75329148542
 30
0.0
  0
POINT
  5
5E3
330
4BB
100
AcDbEntity
  8
DEFPOINTS
  6
Continuous
 62
     0
100
AcDbPoint
 10
26325.28853807034
 20
11383.75329148542
 30
0.0
  0
POINT
  5
5E4
330
4BB
100
AcDbEntity
  8
DEFPOINTS
  6
Continuous
 62
     0
100
AcDbPoint
 10
27325.28853807034
 20
11383.75329148542
 30
0.0
  0
ENDBLK
  5
4C8
330
4BB
100
AcDbEntity
  8
0
100
AcDbBlockEnd
  0
BLOCK
  5
4D5
330
4C9
100
AcDbEntity
  8
0
100
AcDbBlockBegin
  2
*D17
 70
     1
 10
0.0
 20
0.0
 30
0.0
  3
*D17
  1

  0
LINE
  5
5E5
330
4C9
100
AcDbEntity
  8
寸法
  6
Continuous
370
    -2
100
AcDbLine
 10
33125.28853807035
 20
11283.75329148542
 30
0.0
 11
33925.28853807035
 21
11283.75329148542
 31
0.0
  0
LINE
  5
5E6
330
4C9
100
AcDbEntity
  8
寸法
  6
Continuous
370
    -2
100
AcDbLine
 10
33125.28853807035
 20
11383.75329148542
 30
0.0
 11
33925.28853807035
 21
11383.75329148542
 31
0.0
  0
LINE
  5
5E7
330
4C9
100
AcDbEntity
  8
寸法
  6
Continuous
370
    -2
100
AcDbLine
 10
33925.28853807035
 20
11223.75329148542
 30
0.0
 11
33925.28853807035
 21
11163.75329148542
 31
0.0
  0
LINE
  5
5E8
330
4C9
100
AcDbEntity
  8
寸法
  6
Continuous
370
    -2
100
AcDbLine
 10
33925.28853807035
 20
11443.75329148542
 30
0.0
 11
33925.28853807035
 21
11503.75329148542
 31
0.0
  0
MTEXT
  5
5E9
330
4C9
100
AcDbEntity
  8
寸法
  6
Continuous
100
AcDbMText
 10
33646.99908824027
 20
10924.40997118752
 30
0.0
 40
300.0
 41
0.0
 71
     5
 72
     1
  1
\A1;100
  7
1_100
 11
0.0000000000000001
 21
1.0
 31
0.0
 73
     1
 44
1.0
1001
ACAD
1000
MTEXTBEGIN
1070
    73
1070
     1
1070
    44
1040
1.0
1070
    74
1070
     0
1000
MTEXTEND
  0
LINE
  5
5EA
330
4C9
100
AcDbEntity
  8
寸法
  6
Continuous
370
    -2
100
AcDbLine
 10
33925.28853807035
 20
11283.75329148542
 30
0.0
 11
33925.28853807035
 21
11383.75329148542
 31
0.0
  0
INSERT
  5
5EB
330
4C9
100
AcDbEntity
  8
寸法
  6
Continuous
370
    -2
100
AcDbBlockReference
  2
_ORIGIN
 10
33925.28853807035
 20
11283.75329148542
 30
0.0
 41
60.0
 42
60.0
 43
60.0
 50
90.0
  0
INSERT
  5
5EC
330
4C9
100
AcDbEntity
  8
寸法
  6
Continuous
370
    -2
100
AcDbBlockReference
  2
_ORIGIN
 10
33925.28853807035
 20
11383.75329148542
 30
0.0
 41
60.0
 42
60.0
 43
60.0
 50
270.0
  0
POINT
  5
5ED
330
4C9
100
AcDbEntity
  8
DEFPOINTS
  6
Continuous
 62
     0
100
AcDbPoint
 10
32825.28853807034
 20
11283.75329148542
 30
0.0
  0
POINT
  5
5EE
330
4C9
100
AcDbEntity
  8
DEFPOINTS
  6
Continuous
 62
     0
100
AcDbPoint
 10
32825.28853807034
 20
11383.75329148542
 30
0.0
  0
POINT
  5
5EF
330
4C9
100
AcDbEntity
  8
DEFPOINTS
  6
Continuous
 62
     0
100
AcDbPoint
 10
33925.28853807035
 20
11383.75329148542
 30
0.0
  0
ENDBLK
  5
4D6
330
4C9
100
AcDbEntity
  8
0
100
AcDbBlockEnd
  0
BLOCK
  5
4E1
330
4D7
100
AcDbEntity
  8
0
100
AcDbBlockBegin
  2
*D18
 70
     1
 10
0.0
 20
0.0
 30
0.0
  3
*D18
  1

  0
LINE
  5
5F0
330
4D7
100
AcDbEntity
  8
寸法
  6
Continuous
370
    -2
100
AcDbLine
 10
26625.28853807034
 20
11383.75329148542
 30
0.0
 11
27325.28853807034
 21
11383.75329148542
 31
0.0
  0
LINE
  5
5F1
330
4D7
100
AcDbEntity
  8
寸法
  6
Continuous
370
    -2
100
AcDbLine
 10
26625.28853807034
 20
13183.75329148542
 30
0.0
 11
27325.28853807034
 21
13183.75329148542
 31
0.0
  0
LINE
  5
5F2
330
4D7
100
AcDbEntity
  8
寸法
  6
Continuous
370
    -2
100
AcDbLine
 10
27325.28853807034
 20
11443.75329148542
 30
0.0
 11
27325.28853807034
 21
13123.75329148542
 31
0.0
  0
INSERT
  5
5F3
330
4D7
100
AcDbEntity
  8
寸法
  6
Continuous
370
    -2
100
AcDbBlockReference
  2
_ORIGIN
 10
27325.28853807034
 20
11383.75329148542
 30
0.0
 41
60.0
 42
60.0
 43
60.0
 50
270.0
  0
INSERT
  5
5F4
330
4D7
100
AcDbEntity
  8
寸法
  6
Continuous
370
    -2
100
AcDbBlockReference
  2
_ORIGIN
 10
27325.28853807034
 20
13183.75329148542
 30
0.0
 41
60.0
 42
60.0
 43
60.0
 50
90.0
  0
MTEXT
  5
5F5
330
4D7
100
AcDbEntity
  8
寸法
  6
Continuous
100
AcDbMText
 10
27046.71710949891
 20
12283.75329148542
 30
0.0
 40
300.0
 41
0.0
 71
     5
 72
     1
  1
\A1;1,800
  7
1_100
 11
0.0000000000000001
 21
1.0
 31
0.0
 73
     1
 44
1.0
1001
ACAD
1000
MTEXTBEGIN
1070
    73
1070
     1
1070
    44
1040
1.0
1070
    74
1070
     0
1000
MTEXTEND
  0
POINT
  5
5F6
330
4D7
100
AcDbEntity
  8
DEFPOINTS
  6
Continuous
 62
     0
100
AcDbPoint
 10
26325.28853807034
 20
11383.75329148542
 30
0.0
  0
POINT
  5
5F7
330
4D7
100
AcDbEntity
  8
DEFPOINTS
  6
Continuous
 62
     0
100
AcDbPoint
 10
26325.28853807034
 20
13183.75329148542
 30
0.0
  0
POINT
  5
5F8
330
4D7
100
AcDbEntity
  8
DEFPOINTS
  6
Continuous
 62
     0
100
AcDbPoint
 10
27325.28853807034
 20
13183.75329148542
 30
0.0
  0
ENDBLK
  5
4E2
330
4D7
100
AcDbEntity
  8
0
100
AcDbBlockEnd
  0
BLOCK
  5
4EF
330
4E3
100
AcDbEntity
  8
0
100
AcDbBlockBegin
  2
*D19
 70
     1
 10
0.0
 20
0.0
 30
0.0
  3
*D19
  1

  0
LINE
  5
5F9
330
4E3
100
AcDbEntity
  8
寸法
  6
Continuous
370
    -2
100
AcDbLine
 10
26625.28853807034
 20
13183.75329148542
 30
0.0
 11
27325.28853807034
 21
13183.75329148542
 31
0.0
  0
LINE
  5
5FA
330
4E3
100
AcDbEntity
  8
寸法
  6
Continuous
370
    -2
100
AcDbLine
 10
26625.28853807034
 20
13383.7532914853
 30
0.0
 11
27325.28853807034
 21
13383.7532914853
 31
0.0
  0
LINE
  5
5FB
330
4E3
100
AcDbEntity
  8
寸法
  6
Continuous
370
    -2
100
AcDbLine
 10
27325.28853807034
 20
13123.75329148542
 30
0.0
 11
27325.28853807034
 21
13063.75329148542
 31
0.0
  0
LINE
  5
5FC
330
4E3
100
AcDbEntity
  8
寸法
  6
Continuous
370
    -2
100
AcDbLine
 10
27325.28853807034
 20
13443.7532914853
 30
0.0
 11
27325.28853807034
 21
13503.7532914853
 31
0.0
  0
MTEXT
  5
5FD
330
4E3
100
AcDbEntity
  8
寸法
  6
Continuous
100
AcDbMText
 10
27576.62095875847
 20
13031.98956108948
 30
0.0
 40
300.0
 41
0.0
 71
     5
 72
     1
  1
\A1;200
  7
1_100
 11
0.0000000000000001
 21
1.0
 31
0.0
 73
     1
 44
1.0
1001
ACAD
1000
MTEXTBEGIN
1070
    73
1070
     1
1070
    44
1040
1.0
1070
    74
1070
     0
1000
MTEXTEND
  0
LINE
  5
5FE
330
4E3
100
AcDbEntity
  8
寸法
  6
Continuous
370
    -2
100
AcDbLine
 10
27325.28853807034
 20
13183.75329148542
 30
0.0
 11
27325.28853807034
 21
13383.7532914853
 31
0.0
  0
INSERT
  5
5FF
330
4E3
100
AcDbEntity
  8
寸法
  6
Continuous
370
    -2
100
AcDbBlockReference
  2
_ORIGIN
 10
27325.28853807034
 20
13183.75329148542
 30
0.0
 41
60.0
 42
60.0
 43
60.0
 50
90.0
  0
INSERT
  5
600
330
4E3
100
AcDbEntity
  8
寸法
  6
Continuous
370
    -2
100
AcDbBlockReference
  2
_ORIGIN
 10
27325.28853807034
 20
13383.7532914853
 30
0.0
 41
60.0
 42
60.0
 43
60.0
 50
270.0
  0
POINT
  5
601
330
4E3
100
AcDbEntity
  8
DEFPOINTS
  6
Continuous
 62
     0
100
AcDbPoint
 10
26325.28853807034
 20
13183.75329148542
 30
0.0
  0
POINT
  5
602
330
4E3
100
AcDbEntity
  8
DEFPOINTS
  6
Continuous
 62
     0
100
AcDbPoint
 10
26325.28853807034
 20
13383.7532914853
 30
0.0
  0
POINT
  5
603
330
4E3
100
AcDbEntity
  8
DEFPOINTS
  6
Continuous
 62
     0
100
AcDbPoint
 10
27325.28853807034
 20
13383.7532914853
 30
0.0
  0
ENDBLK
  5
4F0
330
4E3
100
AcDbEntity
  8
0
100
AcDbBlockEnd
  0
BLOCK
  5
4FB
330
4F1
100
AcDbEntity
  8
0
100
AcDbBlockBegin
  2
*D20
 70
     1
 10
0.0
 20
0.0
 30
0.0
  3
*D20
  1

  0
LINE
  5
604
330
4F1
100
AcDbEntity
  8
寸法
  6
Continuous
370
    -2
100
AcDbLine
 10
26625.28853807034
 20
13383.7532914853
 30
0.0
 11
28325.28853807034
 21
13383.7532914853
 31
0.0
  0
LINE
  5
605
330
4F1
100
AcDbEntity
  8
寸法
  6
Continuous
370
    -2
100
AcDbLine
 10
26625.28853807034
 20
11383.75329148542
 30
0.0
 11
28325.28853807034
 21
11383.75329148542
 31
0.0
  0
LINE
  5
606
330
4F1
100
AcDbEntity
  8
寸法
  6
Continuous
370
    -2
100
AcDbLine
 10
28325.28853807034
 20
13323.7532914853
 30
0.0
 11
28325.28853807034
 21
11443.75329148542
 31
0.0
  0
INSERT
  5
607
330
4F1
100
AcDbEntity
  8
寸法
  6
Continuous
370
    -2
100
AcDbBlockReference
  2
_ORIGIN
 10
28325.28853807034
 20
13383.7532914853
 30
0.0
 41
60.0
 42
60.0
 43
60.0
 50
90.0
  0
INSERT
  5
608
330
4F1
100
AcDbEntity
  8
寸法
  6
Continuous
370
    -2
100
AcDbBlockReference
  2
_ORIGIN
 10
28325.28853807034
 20
11383.75329148542
 30
0.0
 41
60.0
 42
60.0
 43
60.0
 50
270.0
  0
MTEXT
  5
609
330
4F1
100
AcDbEntity
  8
寸法
  6
Continuous
100
AcDbMText
 10
28046.71710949891
 20
12383.75329148536
 30
0.0
 40
300.0
 41
0.0
 71
     5
 72
     1
  1
\A1;2,000
  7
1_100
 11
0.0000000000000001
 21
1.0
 31
0.0
 73
     1
 44
1.0
1001
ACAD
1000
MTEXTBEGIN
1070
    73
1070
     1
1070
    44
1040
1.0
1070
    74
1070
     0
1000
MTEXTEND
  0
POINT
  5
60A
330
4F1
100
AcDbEntity
  8
DEFPOINTS
  6
Continuous
 62
     0
100
AcDbPoint
 10
26325.28853807034
 20
13383.7532914853
 30
0.0
  0
POINT
  5
60B
330
4F1
100
AcDbEntity
  8
DEFPOINTS
  6
Continuous
 62
     0
100
AcDbPoint
 10
26325.28853807034
 20
11383.75329148542
 30
0.0
  0
POINT
  5
60C
330
4F1
100
AcDbEntity
  8
DEFPOINTS
  6
Continuous
 62
     0
100
AcDbPoint
 10
28325.28853807034
 20
11383.75329148542
 30
0.0
  0
ENDBLK
  5
4FC
330
4F1
100
AcDbEntity
  8
0
100
AcDbBlockEnd
  0
BLOCK
  5
507
330
4FD
100
AcDbEntity
  8
0
100
AcDbBlockBegin
  2
*D21
 70
     1
 10
0.0
 20
0.0
 30
0.0
  3
*D21
  1

  0
LINE
  5
60D
330
4FD
100
AcDbEntity
  8
寸法
  6
Continuous
370
    -2
100
AcDbLine
 10
33125.28853807035
 20
11383.75329148542
 30
0.0
 11
33925.28853807035
 21
11383.75329148542
 31
0.0
  0
LINE
  5
60E
330
4FD
100
AcDbEntity
  8
寸法
  6
Continuous
370
    -2
100
AcDbLine
 10
33125.28853807035
 20
13183.75329148542
 30
0.0
 11
33925.28853807035
 21
13183.75329148542
 31
0.0
  0
LINE
  5
60F
330
4FD
100
AcDbEntity
  8
寸法
  6
Continuous
370
    -2
100
AcDbLine
 10
33925.28853807035
 20
11443.75329148542
 30
0.0
 11
33925.28853807035
 21
13123.75329148542
 31
0.0
  0
INSERT
  5
610
330
4FD
100
AcDbEntity
  8
寸法
  6
Continuous
370
    -2
100
AcDbBlockReference
  2
_ORIGIN
 10
33925.28853807035
 20
11383.75329148542
 30
0.0
 41
60.0
 42
60.0
 43
60.0
 50
270.0
  0
INSERT
  5
611
330
4FD
100
AcDbEntity
  8
寸法
  6
Continuous
370
    -2
100
AcDbBlockReference
  2
_ORIGIN
 10
33925.28853807035
 20
13183.75329148542
 30
0.0
 41
60.0
 42
60.0
 43
60.0
 50
90.0
  0
MTEXT
  5
612
330
4FD
100
AcDbEntity
  8
寸法
  6
Continuous
100
AcDbMText
 10
33646.71710949893
 20
12283.75329148542
 30
0.0
 40
300.0
 41
0.0
 71
     5
 72
     1
  1
\A1;1,800
  7
1_100
 11
0.0000000000000001
 21
1.0
 31
0.0
 73
     1
 44
1.0
1001
ACAD
1000
MTEXTBEGIN
1070
    73
1070
     1
1070
    44
1040
1.0
1070
    74
1070
     0
1000
MTEXTEND
  0
POINT
  5
613
330
4FD
100
AcDbEntity
  8
DEFPOINTS
  6
Continuous
 62
     0
100
AcDbPoint
 10
32825.28853807034
 20
11383.75329148542
 30
0.0
  0
POINT
  5
614
330
4FD
100
AcDbEntity
  8
DEFPOINTS
  6
Continuous
 62
     0
100
AcDbPoint
 10
32825.28853807034
 20
13183.75329148542
 30
0.0
  0
POINT
  5
615
330
4FD
100
AcDbEntity
  8
DEFPOINTS
  6
Continuous
 62
     0
100
AcDbPoint
 10
33925.28853807035
 20
13183.75329148542
 30
0.0
  0
ENDBLK
  5
508
330
4FD
100
AcDbEntity
  8
0
100
AcDbBlockEnd
  0
BLOCK
  5
513
330
509
100
AcDbEntity
  8
0
100
AcDbBlockBegin
  2
*D22
 70
     1
 10
0.0
 20
0.0
 30
0.0
  3
*D22
  1

  0
LINE
  5
616
330
509
100
AcDbEntity
  8
寸法
  6
Continuous
370
    -2
100
AcDbLine
 10
33125.28853807035
 20
13383.7532914853
 30
0.0
 11
34925.28853807034
 21
13383.7532914853
 31
0.0
  0
LINE
  5
617
330
509
100
AcDbEntity
  8
寸法
  6
Continuous
370
    -2
100
AcDbLine
 10
33125.28853807035
 20
11383.75329148542
 30
0.0
 11
34925.28853807034
 21
11383.75329148542
 31
0.0
  0
LINE
  5
618
330
509
100
AcDbEntity
  8
寸法
  6
Continuous
370
    -2
100
AcDbLine
 10
34925.28853807034
 20
13323.7532914853
 30
0.0
 11
34925.28853807034
 21
11443.75329148542
 31
0.0
  0
INSERT
  5
619
330
509
100
AcDbEntity
  8
寸法
  6
Continuous
370
    -2
100
AcDbBlockReference
  2
_ORIGIN
 10
34925.28853807034
 20
13383.7532914853
 30
0.0
 41
60.0
 42
60.0
 43
60.0
 50
90.0
  0
INSERT
  5
61A
330
509
100
AcDbEntity
  8
寸法
  6
Continuous
370
    -2
100
AcDbBlockReference
  2
_ORIGIN
 10
34925.28853807034
 20
11383.75329148542
 30
0.0
 41
60.0
 42
60.0
 43
60.0
 50
270.0
  0
MTEXT
  5
61B
330
509
100
AcDbEntity
  8
寸法
  6
Continuous
100
AcDbMText
 10
34646.71710949893
 20
12383.75329148537
 30
0.0
 40
300.0
 41
0.0
 71
     5
 72
     1
  1
\A1;2,000
  7
1_100
 11
0.0000000000000001
 21
1.0
 31
0.0
 73
     1
 44
1.0
1001
ACAD
1000
MTEXTBEGIN
1070
    73
1070
     1
1070
    44
1040
1.0
1070
    74
1070
     0
1000
MTEXTEND
  0
POINT
  5
61C
330
509
100
AcDbEntity
  8
DEFPOINTS
  6
Continuous
 62
     0
100
AcDbPoint
 10
32825.28853807034
 20
13383.7532914853
 30
0.0
  0
POINT
  5
61D
330
509
100
AcDbEntity
  8
DEFPOINTS
  6
Continuous
 62
     0
100
AcDbPoint
 10
32825.28853807034
 20
11383.75329148542
 30
0.0
  0
POINT
  5
61E
330
509
100
AcDbEntity
  8
DEFPOINTS
  6
Continuous
 62
     0
100
AcDbPoint
 10
34925.28853807034
 20
11383.75329148542
 30
0.0
  0
ENDBLK
  5
514
330
509
100
AcDbEntity
  8
0
100
AcDbBlockEnd
  0
BLOCK
  5
521
330
515
100
AcDbEntity
  8
0
100
AcDbBlockBegin
  2
*D23
 70
     1
 10
0.0
 20
0.0
 30
0.0
  3
*D23
  1

  0
LINE
  5
61F
330
515
100
AcDbEntity
  8
寸法
  6
Continuous
370
    -2
100
AcDbLine
 10
33125.28853807035
 20
13183.75329148542
 30
0.0
 11
33925.28853807035
 21
13183.75329148542
 31
0.0
  0
LINE
  5
620
330
515
100
AcDbEntity
  8
寸法
  6
Continuous
370
    -2
100
AcDbLine
 10
33125.28853807035
 20
13383.7532914853
 30
0.0
 11
33925.28853807035
 21
13383.7532914853
 31
0.0
  0
LINE
  5
621
330
515
100
AcDbEntity
  8
寸法
  6
Continuous
370
    -2
100
AcDbLine
 10
33925.28853807035
 20
13123.75329148542
 30
0.0
 11
33925.28853807035
 21
13063.75329148542
 31
0.0
  0
LINE
  5
622
330
515
100
AcDbEntity
  8
寸法
  6
Continuous
370
    -2
100
AcDbLine
 10
33925.28853807035
 20
13443.7532914853
 30
0.0
 11
33925.28853807035
 21
13503.7532914853
 31
0.0
  0
MTEXT
  5
623
330
515
100
AcDbEntity
  8
寸法
  6
Continuous
100
AcDbMText
 10
34176.62095875847
 20
13031.98956108948
 30
0.0
 40
300.0
 41
0.0
 71
     5
 72
     1
  1
\A1;200
  7
1_100
 11
0.0000000000000001
 21
1.0
 31
0.0
 73
     1
 44
1.0
1001
ACAD
1000
MTEXTBEGIN
1070
    73
1070
     1
1070
    44
1040
1.0
1070
    74
1070
     0
1000
MTEXTEND
  0
LINE
  5
624
330
515
100
AcDbEntity
  8
寸法
  6
Continuous
370
    -2
100
AcDbLine
 10
33925.28853807035
 20
13183.75329148542
 30
0.0
 11
33925.28853807035
 21
13383.7532914853
 31
0.0
  0
INSERT
  5
625
330
515
100
AcDbEntity
  8
寸法
  6
Continuous
370
    -2
100
AcDbBlockReference
  2
_ORIGIN
 10
33925.28853807035
 20
13183.75329148542
 30
0.0
 41
60.0
 42
60.0
 43
60.0
 50
90.0
  0
INSERT
  5
626
330
515
100
AcDbEntity
  8
寸法
  6
Continuous
370
    -2
100
AcDbBlockReference
  2
_ORIGIN
 10
33925.28853807035
 20
13383.7532914853
 30
0.0
 41
60.0
 42
60.0
 43
60.0
 50
270.0
  0
POINT
  5
627
330
515
100
AcDbEntity
  8
DEFPOINTS
  6
Continuous
 62
     0
100
AcDbPoint
 10
32825.28853807034
 20
13183.75329148542
 30
0.0
  0
POINT
  5
628
330
515
100
AcDbEntity
  8
DEFPOINTS
  6
Continuous
 62
     0
100
AcDbPoint
 10
32825.28853807034
 20
13383.7532914853
 30
0.0
  0
POINT
  5
629
330
515
100
AcDbEntity
  8
DEFPOINTS
  6
Continuous
 62
     0
100
AcDbPoint
 10
33925.28853807035
 20
13383.7532914853
 30
0.0
  0
ENDBLK
  5
522
330
515
100
AcDbEntity
  8
0
100
AcDbBlockEnd
  0
BLOCK
  5
52D
330
523
100
AcDbEntity
  8
0
100
AcDbBlockBegin
  2
*D24
 70
     1
 10
0.0
 20
0.0
 30
0.0
  3
*D24
  1

  0
LINE
  5
62A
330
523
100
AcDbEntity
  8
寸法
  6
Continuous
370
    -2
100
AcDbLine
 10
26625.28853807034
 20
16363.75329148588
 30
0.0
 11
27325.28853807034
 21
16363.75329148588
 31
0.0
  0
LINE
  5
62B
330
523
100
AcDbEntity
  8
寸法
  6
Continuous
370
    -2
100
AcDbLine
 10
26625.28853807034
 20
19343.75329148588
 30
0.0
 11
27325.28853807034
 21
19343.75329148588
 31
0.0
  0
LINE
  5
62C
330
523
100
AcDbEntity
  8
寸法
  6
Continuous
370
    -2
100
AcDbLine
 10
27325.28853807034
 20
16423.75329148588
 30
0.0
 11
27325.28853807034
 21
19283.75329148588
 31
0.0
  0
INSERT
  5
62D
330
523
100
AcDbEntity
  8
寸法
  6
Continuous
370
    -2
100
AcDbBlockReference
  2
_ORIGIN
 10
27325.28853807034
 20
16363.75329148588
 30
0.0
 41
60.0
 42
60.0
 43
60.0
 50
270.0
  0
INSERT
  5
62E
330
523
100
AcDbEntity
  8
寸法
  6
Continuous
370
    -2
100
AcDbBlockReference
  2
_ORIGIN
 10
27325.28853807034
 20
19343.75329148588
 30
0.0
 41
60.0
 42
60.0
 43
60.0
 50
90.0
  0
MTEXT
  5
62F
330
523
100
AcDbEntity
  8
寸法
  6
Continuous
100
AcDbMText
 10
27046.71710949891
 20
17853.75329148589
 30
0.0
 40
300.0
 41
0.0
 71
     5
 72
     1
  1
\A1;2,980
  7
1_100
 11
0.0000000000000001
 21
1.0
 31
0.0
 73
     1
 44
1.0
1001
ACAD
1000
MTEXTBEGIN
1070
    73
1070
     1
1070
    44
1040
1.0
1070
    74
1070
     0
1000
MTEXTEND
  0
POINT
  5
630
330
523
100
AcDbEntity
  8
DEFPOINTS
  6
Continuous
 62
     0
100
AcDbPoint
 10
26325.28853807034
 20
16363.75329148588
 30
0.0
  0
POINT
  5
631
330
523
100
AcDbEntity
  8
DEFPOINTS
  6
Continuous
 62
     0
100
AcDbPoint
 10
26325.28853807034
 20
19343.75329148588
 30
0.0
  0
POINT
  5
632
330
523
100
AcDbEntity
  8
DEFPOINTS
  6
Continuous
 62
     0
100
AcDbPoint
 10
27325.28853807034
 20
19343.75329148588
 30
0.0
  0
ENDBLK
  5
52E
330
523
100
AcDbEntity
  8
0
100
AcDbBlockEnd
  0
BLOCK
  5
539
330
52F
100
AcDbEntity
  8
0
100
AcDbBlockBegin
  2
*D25
 70
     1
 10
0.0
 20
0.0
 30
0.0
  3
*D25
  1

  0
LINE
  5
633
330
52F
100
AcDbEntity
  8
寸法
  6
Continuous
370
    -2
100
AcDbLine
 10
33125.28853807035
 20
16363.75329148588
 30
0.0
 11
33925.28853807034
 21
16363.75329148588
 31
0.0
  0
LINE
  5
634
330
52F
100
AcDbEntity
  8
寸法
  6
Continuous
370
    -2
100
AcDbLine
 10
33125.28853807035
 20
19343.75329148588
 30
0.0
 11
33925.28853807035
 21
19343.75329148588
 31
0.0
  0
LINE
  5
635
330
52F
100
AcDbEntity
  8
寸法
  6
Continuous
370
    -2
100
AcDbLine
 10
33925.28853807035
 20
16423.75329148588
 30
0.0
 11
33925.28853807035
 21
19283.75329148588
 31
0.0
  0
INSERT
  5
636
330
52F
100
AcDbEntity
  8
寸法
  6
Continuous
370
    -2
100
AcDbBlockReference
  2
_ORIGIN
 10
33925.28853807034
 20
16363.75329148588
 30
0.0
 41
60.0
 42
60.0
 43
60.0
 50
270.0
  0
INSERT
  5
637
330
52F
100
AcDbEntity
  8
寸法
  6
Continuous
370
    -2
100
AcDbBlockReference
  2
_ORIGIN
 10
33925.28853807035
 20
19343.75329148588
 30
0.0
 41
60.0
 42
60.0
 43
60.0
 50
90.0
  0
MTEXT
  5
638
330
52F
100
AcDbEntity
  8
寸法
  6
Continuous
100
AcDbMText
 10
33646.71710949891
 20
17853.75329148589
 30
0.0
 40
300.0
 41
0.0
 71
     5
 72
     1
  1
\A1;2,980
  7
1_100
 11
0.0000000000000001
 21
1.0
 31
0.0
 73
     1
 44
1.0
1001
ACAD
1000
MTEXTBEGIN
1070
    73
1070
     1
1070
    44
1040
1.0
1070
    74
1070
     0
1000
MTEXTEND
  0
POINT
  5
639
330
52F
100
AcDbEntity
  8
DEFPOINTS
  6
Continuous
 62
     0
100
AcDbPoint
 10
32825.28853807034
 20
16363.75329148588
 30
0.0
  0
POINT
  5
63A
330
52F
100
AcDbEntity
  8
DEFPOINTS
  6
Continuous
 62
     0
100
AcDbPoint
 10
32825.28853807034
 20
19343.75329148588
 30
0.0
  0
POINT
  5
63B
330
52F
100
AcDbEntity
  8
DEFPOINTS
  6
Continuous
 62
     0
100
AcDbPoint
 10
33925.28853807035
 20
19343.75329148588
 30
0.0
  0
ENDBLK
  5
53A
330
52F
100
AcDbEntity
  8
0
100
AcDbBlockEnd
  0
BLOCK
  5
547
330
53B
100
AcDbEntity
  8
0
100
AcDbBlockBegin
  2
*D26
 70
     1
 10
0.0
 20
0.0
 30
0.0
  3
*D26
  1

  0
LINE
  5
63C
330
53B
100
AcDbEntity
  8
寸法
  6
Continuous
370
    -2
100
AcDbLine
 10
9217.138538070202
 20
22683.7532914853
 30
0.0
 11
9217.138538070202
 21
22983.75329148542
 31
0.0
  0
LINE
  5
63D
330
53B
100
AcDbEntity
  8
寸法
  6
Continuous
370
    -2
100
AcDbLine
 10
9433.438538070248
 20
22683.7532914853
 30
0.0
 11
9433.438538070248
 21
22983.75329148542
 31
0.0
  0
LINE
  5
63E
330
53B
100
AcDbEntity
  8
寸法
  6
Continuous
370
    -2
100
AcDbLine
 10
9157.138538070199
 20
22983.75329148542
 30
0.0
 11
9097.138538070202
 21
22983.75329148542
 31
0.0
  0
LINE
  5
63F
330
53B
100
AcDbEntity
  8
寸法
  6
Continuous
370
    -2
100
AcDbLine
 10
9493.438538070249
 20
22983.75329148542
 30
0.0
 11
9553.438538070247
 21
22983.75329148542
 31
0.0
  0
MTEXT
  5
640
330
53B
100
AcDbEntity
  8
寸法
  6
Continuous
100
AcDbMText
 10
9325.288538070225
 20
23283.75329148542
 30
0.0
 40
300.0
 41
0.0
 71
     5
 72
     1
  1
\A1;φ216.3
  7
1_100
 73
     1
 44
1.0
1001
ACAD
1000
MTEXTBEGIN
1070
    73
1070
     1
1070
    44
1040
1.0
1070
    74
1070
     0
1000
MTEXTEND
  0
LINE
  5
641
330
53B
100
AcDbEntity
  8
寸法
  6
Continuous
370
    -2
100
AcDbLine
 10
9217.138538070202
 20
22983.75329148542
 30
0.0
 11
9433.438538070248
 21
22983.75329148542
 31
0.0
  0
INSERT
  5
642
330
53B
100
AcDbEntity
  8
寸法
  6
Continuous
370
    -2
100
AcDbBlockReference
  2
_ORIGIN
 10
9217.138538070202
 20
22983.75329148542
 30
0.0
 41
60.0
 42
60.0
 43
60.0
  0
INSERT
  5
643
330
53B
100
AcDbEntity
  8
寸法
  6
Continuous
370
    -2
100
AcDbBlockReference
  2
_ORIGIN
 10
9433.438538070248
 20
22983.75329148542
 30
0.0
 41
60.0
 42
60.0
 43
60.0
 50
180.0
  0
POINT
  5
644
330
53B
100
AcDbEntity
  8
DEFPOINTS
  6
Continuous
 62
     0
100
AcDbPoint
 10
9217.138538070202
 20
22383.75329148531
 30
0.0
  0
POINT
  5
645
330
53B
100
AcDbEntity
  8
DEFPOINTS
  6
Continuous
 62
     0
100
AcDbPoint
 10
9433.438538070248
 20
22383.75329148531
 30
0.0
  0
POINT
  5
646
330
53B
100
AcDbEntity
  8
DEFPOINTS
  6
Continuous
 62
     0
100
AcDbPoint
 10
9433.438538070248
 20
22983.75329148542
 30
0.0
  0
ENDBLK
  5
548
330
53B
100
AcDbEntity
  8
0
100
AcDbBlockEnd
  0
BLOCK
  5
555
330
549
100
AcDbEntity
  8
0
100
AcDbBlockBegin
  2
*D27
 70
     1
 10
0.0
 20
0.0
 30
0.0
  3
*D27
  1

  0
LINE
  5
647
330
549
100
AcDbEntity
  8
寸法
  6
Continuous
370
    -2
100
AcDbLine
 10
26625.28853807034
 20
22323.75329148542
 30
0.0
 11
27325.28853807034
 21
22323.75329148542
 31
0.0
  0
LINE
  5
648
330
549
100
AcDbEntity
  8
寸法
  6
Continuous
370
    -2
100
AcDbLine
 10
26625.28853807034
 20
22383.75329148542
 30
0.0
 11
27325.28853807034
 21
22383.75329148542
 31
0.0
  0
LINE
  5
649
330
549
100
AcDbEntity
  8
寸法
  6
Continuous
370
    -2
100
AcDbLine
 10
27325.28853807034
 20
22263.75329148542
 30
0.0
 11
27325.28853807034
 21
22203.75329148542
 31
0.0
  0
LINE
  5
64A
330
549
100
AcDbEntity
  8
寸法
  6
Continuous
370
    -2
100
AcDbLine
 10
27325.28853807034
 20
22443.75329148542
 30
0.0
 11
27325.28853807034
 21
22503.75329148542
 31
0.0
  0
MTEXT
  5
64B
330
549
100
AcDbEntity
  8
寸法
  6
Continuous
100
AcDbMText
 10
27056.85718927294
 20
22649.55768607923
 30
0.0
 40
300.0
 41
0.0
 71
     5
 72
     1
  1
\A1;60
  7
1_100
 11
0.0000000000000001
 21
1.0
 31
0.0
 73
     1
 44
1.0
1001
ACAD
1000
MTEXTBEGIN
1070
    73
1070
     1
1070
    44
1040
1.0
1070
    74
1070
     0
1000
MTEXTEND
  0
LINE
  5
64C
330
549
100
AcDbEntity
  8
寸法
  6
Continuous
370
    -2
100
AcDbLine
 10
27325.28853807034
 20
22323.75329148542
 30
0.0
 11
27325.28853807034
 21
22383.75329148542
 31
0.0
  0
INSERT
  5
64D
330
549
100
AcDbEntity
  8
寸法
  6
Continuous
370
    -2
100
AcDbBlockReference
  2
_ORIGIN
 10
27325.28853807034
 20
22323.75329148542
 30
0.0
 41
60.0
 42
60.0
 43
60.0
 50
90.0
  0
INSERT
  5
64E
330
549
100
AcDbEntity
  8
寸法
  6
Continuous
370
    -2
100
AcDbBlockReference
  2
_ORIGIN
 10
27325.28853807034
 20
22383.75329148542
 30
0.0
 41
60.0
 42
60.0
 43
60.0
 50
270.0
  0
POINT
  5
64F
330
549
100
AcDbEntity
  8
DEFPOINTS
  6
Continuous
 62
     0
100
AcDbPoint
 10
26325.28853807034
 20
22323.75329148542
 30
0.0
  0
POINT
  5
650
330
549
100
AcDbEntity
  8
DEFPOINTS
  6
Continuous
 62
     0
100
AcDbPoint
 10
26325.28853807034
 20
22383.75329148542
 30
0.0
  0
POINT
  5
651
330
549
100
AcDbEntity
  8
DEFPOINTS
  6
Continuous
 62
     0
100
AcDbPoint
 10
27325.28853807034
 20
22383.75329148542
 30
0.0
  0
ENDBLK
  5
556
330
549
100
AcDbEntity
  8
0
100
AcDbBlockEnd
  0
BLOCK
  5
563
330
557
100
AcDbEntity
  8
0
100
AcDbBlockBegin
  2
*D28
 70
     1
 10
0.0
 20
0.0
 30
0.0
  3
*D28
  1

  0
LINE
  5
652
330
557
100
AcDbEntity
  8
寸法
  6
Continuous
370
    -2
100
AcDbLine
 10
31217.1385380702
 20
22683.7532914853
 30
0.0
 11
31217.1385380702
 21
22983.7532914853
 31
0.0
  0
LINE
  5
653
330
557
100
AcDbEntity
  8
寸法
  6
Continuous
370
    -2
100
AcDbLine
 10
31433.43853807025
 20
22683.7532914853
 30
0.0
 11
31433.43853807025
 21
22983.7532914853
 31
0.0
  0
LINE
  5
654
330
557
100
AcDbEntity
  8
寸法
  6
Continuous
370
    -2
100
AcDbLine
 10
31157.1385380702
 20
22983.7532914853
 30
0.0
 11
31097.1385380702
 21
22983.7532914853
 31
0.0
  0
LINE
  5
655
330
557
100
AcDbEntity
  8
寸法
  6
Continuous
370
    -2
100
AcDbLine
 10
31493.43853807025
 20
22983.7532914853
 30
0.0
 11
31553.43853807025
 21
22983.7532914853
 31
0.0
  0
MTEXT
  5
656
330
557
100
AcDbEntity
  8
寸法
  6
Continuous
100
AcDbMText
 10
31325.28853807023
 20
23283.7532914853
 30
0.0
 40
300.0
 41
0.0
 71
     5
 72
     1
  1
\A1;φ216.3
  7
1_100
 73
     1
 44
1.0
1001
ACAD
1000
MTEXTBEGIN
1070
    73
1070
     1
1070
    44
1040
1.0
1070
    74
1070
     0
1000
MTEXTEND
  0
LINE
  5
657
330
557
100
AcDbEntity
  8
寸法
  6
Continuous
370
    -2
100
AcDbLine
 10
31217.1385380702
 20
22983.7532914853
 30
0.0
 11
31433.43853807025
 21
22983.7532914853
 31
0.0
  0
INSERT
  5
658
330
557
100
AcDbEntity
  8
寸法
  6
Continuous
370
    -2
100
AcDbBlockReference
  2
_ORIGIN
 10
31217.1385380702
 20
22983.7532914853
 30
0.0
 41
60.0
 42
60.0
 43
60.0
  0
INSERT
  5
659
330
557
100
AcDbEntity
  8
寸法
  6
Continuous
370
    -2
100
AcDbBlockReference
  2
_ORIGIN
 10
31433.43853807025
 20
22983.7532914853
 30
0.0
 41
60.0
 42
60.0
 43
60.0
 50
180.0
  0
POINT
  5
65A
330
557
100
AcDbEntity
  8
DEFPOINTS
  6
Continuous
 62
     0
100
AcDbPoint
 10
31217.1385380702
 20
22383.75329148531
 30
0.0
  0
POINT
  5
65B
330
557
100
AcDbEntity
  8
DEFPOINTS
  6
Continuous
 62
     0
100
AcDbPoint
 10
31433.43853807025
 20
22383.75329148531
 30
0.0
  0
POINT
  5
65C
330
557
100
AcDbEntity
  8
DEFPOINTS
  6
Continuous
 62
     0
100
AcDbPoint
 10
31433.43853807025
 20
22983.7532914853
 30
0.0
  0
ENDBLK
  5
564
330
557
100
AcDbEntity
  8
0
100
AcDbBlockEnd
  0
BLOCK
  5
571
330
565
100
AcDbEntity
  8
0
100
AcDbBlockBegin
  2
*D29
 70
     1
 10
0.0
 20
0.0
 30
0.0
  3
*D29
  1

  0
LINE
  5
65D
330
565
100
AcDbEntity
  8
寸法
  6
Continuous
370
    -2
100
AcDbLine
 10
33125.28853807035
 20
22323.75329148542
 30
0.0
 11
33925.28853807035
 21
22323.75329148542
 31
0.0
  0
LINE
  5
65E
330
565
100
AcDbEntity
  8
寸法
  6
Continuous
370
    -2
100
AcDbLine
 10
33125.28853807035
 20
22383.75329148542
 30
0.0
 11
33925.28853807035
 21
22383.75329148542
 31
0.0
  0
LINE
  5
65F
330
565
100
AcDbEntity
  8
寸法
  6
Continuous
370
    -2
100
AcDbLine
 10
33925.28853807035
 20
22263.75329148542
 30
0.0
 11
33925.28853807035
 21
22203.75329148542
 31
0.0
  0
LINE
  5
660
330
565
100
AcDbEntity
  8
寸法
  6
Continuous
370
    -2
100
AcDbLine
 10
33925.28853807035
 20
22443.75329148542
 30
0.0
 11
33925.28853807035
 21
22503.75329148542
 31
0.0
  0
MTEXT
  5
661
330
565
100
AcDbEntity
  8
寸法
  6
Continuous
100
AcDbMText
 10
33656.85718927295
 20
22649.55768607923
 30
0.0
 40
300.0
 41
0.0
 71
     5
 72
     1
  1
\A1;60
  7
1_100
 11
0.0000000000000001
 21
1.0
 31
0.0
 73
     1
 44
1.0
1001
ACAD
1000
MTEXTBEGIN
1070
    73
1070
     1
1070
    44
1040
1.0
1070
    74
1070
     0
1000
MTEXTEND
  0
LINE
  5
662
330
565
100
AcDbEntity
  8
寸法
  6
Continuous
370
    -2
100
AcDbLine
 10
33925.28853807035
 20
22323.75329148542
 30
0.0
 11
33925.28853807035
 21
22383.75329148542
 31
0.0
  0
INSERT
  5
663
330
565
100
AcDbEntity
  8
寸法
  6
Continuous
370
    -2
100
AcDbBlockReference
  2
_ORIGIN
 10
33925.28853807035
 20
22323.75329148542
 30
0.0
 41
60.0
 42
60.0
 43
60.0
 50
90.0
  0
INSERT
  5
664
330
565
100
AcDbEntity
  8
寸法
  6
Continuous
370
    -2
100
AcDbBlockReference
  2
_ORIGIN
 10
33925.28853807035
 20
22383.75329148542
 30
0.0
 41
60.0
 42
60.0
 43
60.0
 50
270.0
  0
POINT
  5
665
330
565
100
AcDbEntity
  8
DEFPOINTS
  6
Continuous
 62
     0
100
AcDbPoint
 10
32825.28853807034
 20
22323.75329148542
 30
0.0
  0
POINT
  5
666
330
565
100
AcDbEntity
  8
DEFPOINTS
  6
Continuous
 62
     0
100
AcDbPoint
 10
32825.28853807034
 20
22383.75329148542
 30
0.0
  0
POINT
  5
667
330
565
100
AcDbEntity
  8
DEFPOINTS
  6
Continuous
 62
     0
100
AcDbPoint
 10
33925.28853807035
 20
22383.75329148542
 30
0.0
  0
ENDBLK
  5
572
330
565
100
AcDbEntity
  8
0
100
AcDbBlockEnd
  0
ENDSEC
  0
SECTION
  2
ENTITIES
  0
LWPOLYLINE
  5
325
330
1F
100
AcDbEntity
  8
図面枠
100
AcDbPolyline
 90
        4
 70
     1
 43
0.0
 10
791.9448708312306
 20
1100.419426669392
 10
39791.94487083124
 20
1100.419426669392
 10
39791.94487083124
 20
26600.41942666939
 10
791.9448708312306
 20
26600.41942666939
  0
LWPOLYLINE
  5
326
330
1F
100
AcDbEntity
  8
図面枠
100
AcDbPolyline
 90
        4
 70
     1
 43
0.0
 10
791.9448708302605
 20
1100.419426669392
 10
39791.94487083027
 20
1100.419426669392
 10
39791.94487083027
 20
26600.41942666939
 10
791.9448708302605
 20
26600.41942666939
  0
MTEXT
  5
327
330
1F
100
AcDbEntity
  8
画層1-1
100
AcDbMText
 10
3608.543295417268
 20
2623.479304472971
 30
0.0
 40
300.0
 41
0.0
 71
     1
 72
     5
  1
・設計荷重。建築基準法・同施工令（平成12年6月）に基づく風圧力に依る、基準風速。
  7
1_100
 73
     1
 44
1.0
1001
ACAD
1000
ACAD_MTEXT_DEFINED_HEIGHT_BEGIN
1070
    46
1040
0.0
1000
ACAD_MTEXT_DEFINED_HEIGHT_END
1000
MTEXTBEGIN
1070
    73
1070
     1
1070
    44
1040
1.0
1070
    74
1070
     0
1000
MTEXTEND
  0
MTEXT
  5
328
330
1F
100
AcDbEntity
  8
画層1-1
100
AcDbMText
 10
3608.54329541727
 20
5986.898658232542
 30
0.0
 40
300.0
 41
0.0
 71
     1
 72
     5
  1
・上部（補強ポール・ネット）下り防止金具付きとする
  7
1_100
 73
     1
 44
1.0
1001
ACAD
1000
MTEXTBEGIN
1070
    73
1070
     1
1070
    44
1040
1.0
1070
    74
1070
     0
1000
MTEXTEND
  0
MTEXT
  5
329
330
1F
100
AcDbEntity
  8
画層1-1
100
AcDbMText
 10
3608.54329541727
 20
3926.540736217165
 30
0.0
 40
300.0
 41
0.0
 71
     1
 72
     5
  1
・構造計算書．材料承認願いを提出後施工のこと
  7
1_100
 73
     1
 44
1.0
1001
ACAD
1000
MTEXTBEGIN
1070
    73
1070
     1
1070
    44
1040
1.0
1070
    74
1070
     0
1000
MTEXTEND
  0
MTEXT
  5
32A
330
1F
100
AcDbEntity
  8
画層1-1
100
AcDbMText
 10
3608.54329541727
 20
6586.898658232541
 30
0.0
 40
300.0
 41
0.0
 71
     1
 72
     5
  1
・主柱ポール基礎部（ＧＬ）はＦＲＰ被覆補強とする
  7
1_100
 73
     1
 44
1.0
1001
ACAD
1000
MTEXTBEGIN
1070
    73
1070
     1
1070
    44
1040
1.0
1070
    74
1070
     0
1000
MTEXTEND
  0
MTEXT
  5
32B
330
1F
100
AcDbEntity
  8
画層1-1
100
AcDbMText
 10
3608.54329541727
 20
7186.898658232542
 30
0.0
 40
300.0
 41
0.0
 71
     1
 72
     5
  1
・主柱．端末ポール．バンド金具．ボルトは溶融亜鉛メッキ仕上げとする
  7
1_100
 73
     1
 44
1.0
1001
ACAD
1000
MTEXTBEGIN
1070
    73
1070
     1
1070
    44
1040
1.0
1070
    74
1070
     0
1000
MTEXTEND
  0
MTEXT
  5
32C
330
1F
100
AcDbEntity
  8
画層1-1
100
AcDbMText
 10
3608.54329541727
 20
2064.924173173113
 30
0.0
 40
300.0
 41
0.0
 71
     1
 72
     5
  1
・速度圧　q=0.6EVo （N/㎡）　・地表面粗度区分　　　・基礎　普通土質 [B] を選定
  7
1_100
 73
     1
 44
1.0
1001
ACAD
1000
MTEXTBEGIN
1070
    73
1070
     1
1070
    44
1040
1.0
1070
    74
1070
     0
1000
MTEXTEND
  0
MTEXT
  5
32D
330
1F
100
AcDbEntity
  8
画層1-1
100
AcDbMText
 10
3608.54329541727
 20
5386.898658232542
 30
0.0
 40
300.0
 41
0.0
 71
     1
 72
     5
  1
{\F|c128;・※印表記のネットを使用する場合標準柱スパンは変更になる場合があります}
  7
1_100
 73
     1
 44
1.0
1001
ACAD
1000
ACAD_MTEXT_DEFINED_HEIGHT_BEGIN
1070
    46
1040
0.0
1000
ACAD_MTEXT_DEFINED_HEIGHT_END
1000
MTEXTBEGIN
1070
    73
1070
     1
1070
    44
1040
1.0
1070
    74
1070
     0
1000
MTEXTEND
  0
TEXT
  5
32E
330
1F
100
AcDbEntity
  8
図面枠
  6
Continuous
 62
     3
100
AcDbText
 10
1132.978758619782
 20
558.9743759775526
 30
0.0
 40
300.0
  1
1/100
 41
0.75
  7
1_100
 11
1132.978758619782
 21
558.9743759775526
 31
0.0
100
AcDbText
 73
     1
  0
POINT
  5
32F
330
1F
100
AcDbEntity
  8
画層1-1
100
AcDbPoint
 10
791.9448929410976
 20
1100.419414079235
 30
0.0
  0
POINT
  5
330
330
1F
100
AcDbEntity
  8
0
100
AcDbPoint
 10
791.9448770464023
 20
1100.419418428621
 30
0.0
  0
MTEXT
  5
331
330
1F
100
AcDbEntity
  8
画層1-1
100
AcDbMText
 10
3108.543295417269
 20
3189.218220851053
 30
0.0
 40
400.0
 41
0.0
 71
     1
 72
     5
  1
設計条件
  7
1_100
 73
     1
 44
1.0
1001
ACAD
1000
MTEXTBEGIN
1070
    73
1070
     1
1070
    44
1040
1.0
1070
    74
1070
     0
1000
MTEXTEND
  0
TEXT
  5
332
330
1F
100
AcDbEntity
  8
図面枠
  6
Continuous
 62
     3
100
AcDbText
 10
2855.351257719249
 20
559.1936234690007
 30
0.0
 40
300.0
  1
KS1-H09-1
 41
0.75
  7
1_100
 11
2855.351257719249
 21
559.1936234690007
 31
0.0
100
AcDbText
 73
     1
  0
MTEXT
  5
333
330
1F
100
AcDbEntity
  8
画層1-1
100
AcDbMText
 10
3108.543295417269
 20
4577.563837566213
 30
0.0
 40
400.0
 41
0.0
 71
     1
 72
     5
  1
特記
  7
1_100
 73
     1
 44
1.0
1001
ACAD
1000
MTEXTBEGIN
1070
    73
1070
     1
1070
    44
1040
1.0
1070
    74
1070
     0
1000
MTEXTEND
  0
MTEXT
  5
334
330
1F
100
AcDbEntity
  8
画層1-1
100
AcDbMText
 10
6592.021265429295
 20
2029.410598521968
 30
0.0
 40
120.0
 41
0.0
 71
     1
 72
     5
  1
2
  7
1_100
 73
     1
 44
1.0
1001
ACAD
1000
MTEXTBEGIN
1070
    73
1070
     1
1070
    44
1040
1.0
1070
    74
1070
     0
1000
MTEXTEND
  0
MTEXT
  5
335
330
1F
100
AcDbEntity
  8
画層1-1
100
AcDbMText
 10
10505.26980612029
 20
2002.747691645276
 30
0.0
 40
300.0
 41
0.0
 71
     1
 72
     5
  1
Ⅲ
  7
STYLE1
 73
     1
 44
1.0
1001
ACAD
1000
MTEXTBEGIN
1070
    73
1070
     1
1070
    44
1040
1.0
1070
    74
1070
     0
1000
MTEXTEND
  0
MTEXT
  5
336
330
1F
100
AcDbEntity
  8
寸法文字
  6
Continuous
100
AcDbMText
 10
32925.28853807011
 20
23654.84826269391
 30
0.0
 40
300.0
 41
0.0
 71
     1
 72
     1
  1
（溶融亜鉛メッキ450g/㎡）
  7
1_100
 73
     1
 44
1.0
1001
ACAD
1000
MTEXTBEGIN
1070
    73
1070
     1
1070
    44
1040
1.0
1070
    74
1070
     0
1000
MTEXTEND
  0
MTEXT
  5
337
102
{ACAD_REACTORS
330
338
102
}
330
1F
100
AcDbEntity
  8
寸法文字
  6
Continuous
100
AcDbMText
 10
32825.28853807034
 20
23863.11672534205
 30
0.0
 40
300.0
 41
0.0
 71
     7
 72
     1
  1
主柱KSポールφ216.3厚さ4.0mm
  7
1_100
 73
     1
 44
1.0
1001
ACAD
1000
ACAD_MTEXT_DEFINED_HEIGHT_BEGIN
1070
    46
1040
0.0
1000
ACAD_MTEXT_DEFINED_HEIGHT_END
1000
MTEXTBEGIN
1070
    73
1070
     1
1070
    44
1040
1.0
1070
    74
1070
     0
1000
MTEXTEND
  0
LEADER
  5
338
330
1F
100
AcDbEntity
  8
寸法引出
  6
Continuous
100
AcDbLeader
  3
1_100
 71
     0
 73
     0
 74
     0
 75
     1
 40
300.0
 41
4699.285714285712
 76
     3
 10
31433.43853807025
 20
21647.03645459766
 30
0.0
 10
32665.28853807035
 20
23763.11672534205
 30
0.0
 10
32725.28853807035
 20
23763.11672534205
 30
0.0
340
337
  0
DIMENSION
  5
339
330
1F
100
AcDbEntity
  8
寸法
  6
Continuous
100
AcDbDimension
  2
*D5
 10
27325.28853807034
 20
22323.75329148542
 30
0.0
 11
27046.71710949891
 21
20833.75329148566
 31
0.0
 70
    32
 71
     5
 42
2979.999999999535
  3
1_100
100
AcDbAlignedDimension
 13
26325.28853807034
 23
19343.75329148588
 33
0.0
 14
26325.28853807034
 24
22323.75329148542
 34
0.0
 50
90.0
100
AcDbRotatedDimension
  0
DIMENSION
  5
33A
330
1F
100
AcDbEntity
  8
寸法
  6
Continuous
100
AcDbDimension
  2
*D6
 10
33925.28853807035
 20
22323.75329148542
 30
0.0
 11
33646.71710949891
 21
20833.75329148566
 31
0.0
 70
    32
 71
     5
 42
2979.999999999535
  3
1_100
100
AcDbAlignedDimension
 13
32825.28853807034
 23
19343.75329148588
 33
0.0
 14
32825.28853807034
 24
22323.75329148542
 34
0.0
 50
90.0
100
AcDbRotatedDimension
  0
MTEXT
  5
33C
330
1F
100
AcDbEntity
  8
寸法文字
  6
Continuous
100
AcDbMText
 10
7131.450126917046
 20
21572.58698312932
 30
0.0
 40
300.0
 41
0.0
 71
     3
 72
     1
  1
（STKT-590鋼管）
  7
1_100
 73
     1
 44
1.0
1001
ACAD
1000
MTEXTBEGIN
1070
    73
1070
     1
1070
    44
1040
1.0
1070
    74
1070
     0
1000
MTEXTEND
  0
LEADER
  5
33D
330
1F
100
AcDbEntity
  8
寸法引出
  6
Continuous
100
AcDbLeader
  3
1_100
 71
     0
 73
     0
 75
     1
 40
300.0
 41
4699.285714285712
 76
     3
 10
9217.138538070202
 20
20717.24007843685
 30
0.0
 10
8031.157560469063
 20
21694.44631408731
 30
0.0
 10
7971.157560469062
 20
21694.44631408731
 30
0.0
340
33E
  0
MTEXT
  5
33E
102
{ACAD_REACTORS
330
33D
102
}
330
1F
100
AcDbEntity
  8
寸法文字
  6
Continuous
100
AcDbMText
 10
7871.157560469062
 20
21794.44631408731
 30
0.0
 40
300.0
 41
0.0
 71
     9
 72
     1
  1
主柱KSポールφ216.3厚さ4.0mm
  7
1_100
 73
     1
 44
1.0
1001
ACAD
1000
ACAD_MTEXT_DEFINED_HEIGHT_BEGIN
1070
    46
1040
0.0
1000
ACAD_MTEXT_DEFINED_HEIGHT_END
1000
MTEXTBEGIN
1070
    73
1070
     1
1070
    44
1040
1.0
1070
    74
1070
     0
1000
MTEXTEND
  0
HATCH
  5
33F
330
1F
100
AcDbEntity
  8
ﾈｯﾄ
 62
   230
370
    13
100
AcDbHatch
 10
0.0
 20
0.0
 30
0.0
210
0.0
220
0.0
230
1.0
  2
NET
 70
     0
 71
     1
 91
        1
 92
        7
 72
     0
 73
     1
 93
        4
 10
25825.28853807034
 20
22323.75329148529
 10
21660.76439324366
 20
22323.75329148529
 10
23402.88603943751
 20
13408.7532914852
 10
25825.28853807034
 20
13408.75329148518
 97
        4
330
3F5
330
342
330
35C
330
34D
 75
     0
 76
     1
 52
0.0
 41
1000.0
 77
     0
 78
     2
 53
0.0
 43
-359154.4786000141
 44
-240436.0560559759
 45
0.0
 46
125.0
 79
     0
 53
90.0
 43
-359154.4786000141
 44
-240436.0560559759
 45
-125.0
 46
0.0000000000000077
 79
     0
 47
69.02036445132363
 98
        1
 10
24453.03344867932
 20
18000.91044167889
  0
LINE
  5
340
330
1F
100
AcDbEntity
  8
画層1-1
  6
Continuous
100
AcDbLine
 10
19458.43853807036
 20
22273.7532914853
 30
0.0
 11
25825.28853807034
 21
16475.13516295893
 31
0.0
  0
HATCH
  5
341
330
1F
100
AcDbEntity
  8
ﾈｯﾄ
 62
   230
370
    13
100
AcDbHatch
 10
0.0
 20
0.0
 30
0.0
210
0.0
220
0.0
230
1.0
  2
NET
 70
     0
 71
     0
 91
        1
 92
        7
 72
     0
 73
     1
 93
       10
 10
11352.60186746259
 20
22323.75329148529
 10
9483.438538070364
 20
22323.75329148529
 10
9483.438538070371
 20
22248.75329148531
 10
9433.438538070365
 20
22248.75329148531
 10
9433.438538070356
 20
13433.7532914853
 10
9483.418538070344
 20
13433.7532914853
 10
9546.088538070273
 20
13428.52957082394
 10
9700.638538070318
 20
13428.52957082394
 10
9700.638538070323
 20
13408.7532914853
 10
13094.72351365628
 20
13408.75329148528
 97
        0
 75
     0
 76
     1
 52
0.0
 41
1000.0
 77
     0
 78
     2
 53
0.0
 43
-359154.4786000141
 44
-240436.0560559759
 45
0.0
 46
125.0
 79
     0
 53
90.0
 43
-359154.4786000141
 44
-240436.0560559759
 45
-125.0
 46
0.0000000000000077
 79
     0
 47
69.02036445132363
 98
        1
 10
11674.39102240181
 20
17448.74783368286
  0
LINE
  5
342
102
{ACAD_REACTORS
330
33F
102
}
330
1F
100
AcDbEntity
  8
DEFPOINTS
100
AcDbLine
 10
21660.76439324365
 20
22323.75329148529
 30
0.0
 11
23407.77140580368
 21
13383.75329148542
 31
0.0
  0
LINE
  5
343
330
1F
100
AcDbEntity
  8
DEFPOINTS
100
AcDbLine
 10
11341.4339199494
 20
22380.90329148533
 30
0.0
 11
13099.60888002248
 21
13383.7532914853
 31
0.0
  0
LINE
  5
344
330
1F
100
AcDbEntity
  8
画層1
  6
Continuous
100
AcDbLine
 10
9325.288538070342
 20
22348.7532914853
 30
0.0
 11
9325.288538070342
 21
13383.7532914853
 31
0.0
  0
LINE
  5
345
330
1F
100
AcDbEntity
  8
画層1-1
  6
Continuous
100
AcDbLine
 10
9458.438538070366
 20
22273.7532914853
 30
0.0
 11
19192.13853807032
 21
13408.7532914853
 31
0.0
  0
LINE
  5
346
330
1F
100
AcDbEntity
  8
画層1-1
  6
Continuous
100
AcDbLine
 10
19192.13853807032
 20
22273.7532914853
 30
0.0
 11
9458.418538070345
 21
13408.7532914853
 31
0.0
  0
LINE
  5
347
330
1F
100
AcDbEntity
  8
画層1
  6
Continuous
100
AcDbLine
 10
9433.438538070365
 20
11383.7532914853
 30
0.0
 11
9433.438538070365
 21
22383.75329148531
 31
0.0
  0
LINE
  5
348
330
1F
100
AcDbEntity
  8
画層1
  6
Continuous
100
AcDbLine
 10
9217.138538070321
 20
22383.75329148531
 30
0.0
 11
9217.138538070321
 21
11383.7532914853
 31
0.0
  0
LINE
  5
349
330
1F
100
AcDbEntity
  8
画層1
  6
Continuous
100
AcDbLine
 10
19433.43853807036
 20
11383.7532914853
 30
0.0
 11
19433.43853807036
 21
22383.75329148531
 31
0.0
  0
LINE
  5
34A
330
1F
100
AcDbEntity
  8
画層1
  6
Continuous
100
AcDbLine
 10
19217.13853807032
 20
22383.75329148531
 30
0.0
 11
19217.13853807032
 21
11383.7532914853
 31
0.0
  0
LINE
  5
34B
330
1F
100
AcDbEntity
  8
通り芯
  6
DASHDOT
 48
100.0
100
AcDbLine
 10
19325.28853807034
 20
11141.28581969189
 30
0.0
 11
19325.28853807034
 21
22444.21595118794
 31
0.0
  0
LINE
  5
34C
330
1F
100
AcDbEntity
  8
通り芯
  6
DASHDOT
 48
100.0
100
AcDbLine
 10
9325.288538070342
 20
11131.28581969131
 30
0.0
 11
9325.288538070342
 21
22444.21595118794
 31
0.0
  0
LINE
  5
34D
102
{ACAD_REACTORS
330
33F
102
}
330
1F
100
AcDbEntity
  8
DEFPOINTS
100
AcDbLine
 10
25825.28853807034
 20
22323.75329148529
 30
0.0
 11
25825.28853807034
 21
13383.75329148542
 31
0.0
  0
LINE
  5
34E
330
1F
100
AcDbEntity
  8
画層1
  6
Continuous
100
AcDbLine
 10
31325.28853807034
 20
22363.75329148577
 30
0.0
 11
31325.28853807034
 21
13408.75329148577
 31
0.0
  0
LINE
  5
34F
330
1F
100
AcDbEntity
  8
画層1-1
  6
DASHED
 48
100.0
100
AcDbLine
 10
31192.1385380702
 20
22323.75329148529
 30
0.0
 11
31192.1385380702
 21
13408.7532914853
 31
0.0
  0
DIMENSION
  5
350
330
1F
100
AcDbEntity
  8
寸法
  6
Continuous
100
AcDbDimension
  2
*D7
 10
28325.28853807034
 20
13383.7532914853
 30
0.0
 11
28046.71710949891
 21
17883.75329148537
 31
0.0
 70
    32
 71
     5
 42
9000.000000000119
  3
1_100
100
AcDbAlignedDimension
 13
26325.28853807034
 23
22383.75329148542
 33
0.0
 14
26325.28853807034
 24
13383.7532914853
 34
0.0
 50
90.0
100
AcDbRotatedDimension
  0
LINE
  5
351
330
1F
100
AcDbEntity
  8
通り芯
  6
DASHDOT
 48
100.0
100
AcDbLine
 10
31325.28853807034
 20
11141.28581969224
 30
0.0
 11
31325.28853807034
 21
22444.21595118841
 31
0.0
  0
LINE
  5
352
330
1F
100
AcDbEntity
  8
画層1
  6
Continuous
100
AcDbLine
 10
31217.1385380702
 20
22383.75329148531
 30
0.0
 11
31217.1385380702
 21
11383.7532914853
 31
0.0
  0
LINE
  5
353
330
1F
100
AcDbEntity
  8
画層1
  6
Continuous
100
AcDbLine
 10
31433.43853807025
 20
11383.7532914853
 30
0.0
 11
31433.43853807025
 21
22383.75329148531
 31
0.0
  0
DIMENSION
  5
354
330
1F
100
AcDbEntity
  8
寸法
  6
Continuous
100
AcDbDimension
  2
*D8
 10
34925.28853807034
 20
13383.7532914853
 30
0.0
 11
34646.71710949893
 21
17883.75329148536
 31
0.0
 70
    32
 71
     5
 42
9000.000000000117
  3
1_100
100
AcDbAlignedDimension
 13
32825.28853807034
 23
22383.75329148542
 33
0.0
 14
32825.28853807034
 24
13383.7532914853
 34
0.0
 50
90.0
100
AcDbRotatedDimension
  0
LINE
  5
355
330
1F
100
AcDbEntity
  8
画層1-1
  6
Continuous
100
AcDbLine
 10
9325.288538070342
 20
19343.7532914853
 30
0.0
 11
25825.28853807034
 21
19343.7532914853
 31
0.0
  0
MTEXT
  5
356
102
{ACAD_REACTORS
330
357
102
}
330
1F
100
AcDbEntity
  8
寸法文字
  6
Continuous
100
AcDbMText
 10
14294.97317590512
 20
14206.86006909044
 30
0.0
 40
300.0
 41
0.0
 71
     7
 72
     1
  1
メッセンワイヤー22m㎡
  7
1_100
 73
     1
 44
1.0
1001
ACAD
1000
MTEXTBEGIN
1070
    73
1070
     1
1070
    44
1040
1.0
1070
    74
1070
     0
1000
MTEXTEND
  0
LEADER
  5
357
330
1F
100
AcDbEntity
  8
寸法引出
  6
Continuous
100
AcDbLeader
  3
1_100
 71
     0
 73
     0
 74
     0
 75
     1
 40
346.6666666666666
 41
3117.142857142858
 76
     3
 10
13749.39704545116
 20
13408.7532914853
 30
0.0
 10
14134.97317590512
 20
14106.86006909044
 30
0.0
 10
14194.97317590512
 20
14106.86006909044
 30
0.0
340
356
  0
MTEXT
  5
358
102
{ACAD_REACTORS
330
359
102
}
330
1F
100
AcDbEntity
  8
寸法文字
  6
Continuous
100
AcDbMText
 10
18381.53161576385
 20
12609.15236976573
 30
0.0
 40
300.0
 41
0.0
 71
     9
 72
     1
  1
タンバックル12mm
  7
1_100
 73
     1
 44
1.0
1001
ACAD
1000
MTEXTBEGIN
1070
    73
1070
     1
1070
    44
1040
1.0
1070
    74
1070
     0
1000
MTEXTEND
  0
LEADER
  5
359
330
1F
100
AcDbEntity
  8
寸法引出
  6
Continuous
100
AcDbLeader
  3
1_100
 71
     0
 73
     0
 75
     1
 40
300.0
 41
2603.571428571428
 76
     3
 10
19056.00193925336
 20
13506.01447588141
 30
0.0
 10
18541.53161576385
 20
12509.15236976573
 30
0.0
 10
18481.53161576385
 20
12509.15236976573
 30
0.0
340
358
  0
MTEXT
  5
35A
102
{ACAD_REACTORS
330
35B
102
}
330
1F
100
AcDbEntity
  8
寸法文字
  6
Continuous
100
AcDbMText
 10
15642.6048260624
 20
17926.85824112727
 30
0.0
 40
300.0
 41
0.0
 71
     7
 72
     1
  1
筋違\Pメッセンワイヤー38m㎡
  7
1_100
 73
     1
 44
0.7
1001
ACAD
1000
MTEXTBEGIN
1070
    73
1070
     1
1070
    44
1040
0.7
1070
    74
1070
     0
1000
MTEXTEND
  0
LEADER
  5
35B
330
1F
100
AcDbEntity
  8
寸法引出
  6
Continuous
100
AcDbLeader
  3
1_100
 71
     0
 73
     0
 74
     0
 75
     1
 40
696.6666666666665
 41
3117.142857142857
 76
     3
 10
14916.83538441517
 20
18380.01457112426
 30
0.0
 10
15482.6048260624
 20
17826.85824112727
 30
0.0
 10
15542.6048260624
 20
17826.85824112727
 30
0.0
340
35A
  0
LINE
  5
35C
102
{ACAD_REACTORS
330
33F
102
}
330
1F
100
AcDbEntity
  8
画層1
  6
Continuous
100
AcDbLine
 10
25825.28853807034
 20
13408.75329148518
 30
0.0
 11
9325.288538070342
 21
13408.7532914853
 31
0.0
  0
LINE
  5
35D
330
1F
100
AcDbEntity
  8
画層1-1
  6
Continuous
100
AcDbLine
 10
9325.288538070342
 20
16363.7532914853
 30
0.0
 11
25825.28853807034
 21
16363.75329148519
 31
0.0
  0
LINE
  5
35E
102
{ACAD_REACTORS
330
39B
102
}
330
1F
100
AcDbEntity
  8
画層2
  6
Continuous
100
AcDbLine
 10
25825.28853807034
 20
13383.75329148542
 30
0.0
 11
5858.642419978689
 21
13383.7532914853
 31
0.0
  0
DIMENSION
  5
35F
330
1F
100
AcDbEntity
  8
寸法
  6
Continuous
100
AcDbDimension
  2
*D9
 10
19325.28853807022
 20
8283.753291484256
 30
0.0
 11
14325.28853807028
 21
8562.324720055686
 31
0.0
 70
    32
 71
     5
 42
9999.999999999884
  3
1_100
100
AcDbAlignedDimension
 13
9325.288538070342
 23
10016.69971706432
 33
0.0
 14
19325.28853807022
 24
11141.28581969189
 34
0.0
100
AcDbRotatedDimension
  0
LINE
  5
360
330
1F
100
AcDbEntity
  8
寸法引出
  6
Continuous
100
AcDbLine
 10
12984.87150796264
 20
16363.7532914853
 30
0.0
 11
14134.97317590512
 21
14106.86006909044
 31
0.0
  0
MTEXT
  5
361
102
{ACAD_REACTORS
330
373
102
}
330
1F
100
AcDbEntity
  8
寸法文字
  6
Continuous
100
AcDbMText
 10
8008.097762532827
 20
14288.12910306273
 30
0.0
 40
300.0
 41
0.0
 71
     9
 72
     1
  1
FRP被覆
  7
1_100
 73
     1
 44
1.0
1001
ACAD
1000
MTEXTBEGIN
1070
    73
1070
     1
1070
    44
1040
1.0
1070
    74
1070
     0
1000
MTEXTEND
  0
LINE
  5
362
330
1F
100
AcDbEntity
  8
寸法引出
  6
Continuous
100
AcDbLine
 10
12296.97169951507
 20
19343.7532914853
 30
0.0
 11
14134.97317590512
 21
14106.86006909044
 31
0.0
  0
TEXT
  5
363
330
1F
100
AcDbEntity
  8
寸法
  6
Continuous
100
AcDbText
 10
5932.504905186073
 20
13463.7532914853
 30
0.0
 40
300.0
  1
▽GL
 41
0.75
  7
1_100
 11
5932.504905186073
 21
13463.7532914853
 31
0.0
100
AcDbText
 73
     1
  0
MTEXT
  5
364
330
1F
100
AcDbEntity
  8
画層1-1
100
AcDbMText
 10
3108.543295417269
 20
7858.327626171315
 30
0.0
 40
400.0
 41
0.0
 71
     1
 72
     5
  1
仕様について
  7
1_100
 73
     1
 44
1.0
1001
ACAD
1000
MTEXTBEGIN
1070
    73
1070
     1
1070
    44
1040
1.0
1070
    74
1070
     0
1000
MTEXTEND
  0
DIMENSION
  5
365
330
1F
100
AcDbEntity
  8
寸法
  6
Continuous
100
AcDbDimension
  2
*D10
 10
9550.288538070109
 20
10683.75329148542
 30
0.0
 11
8478.008501337553
 21
10845.3149389539
 31
0.0
 70
   160
  1
φ<>
 71
     5
 42
449.9999999998834
  3
1_100
100
AcDbAlignedDimension
 13
9100.288538070225
 23
11193.75329148518
 33
0.0
 14
9550.288538070109
 24
11193.75329148518
 34
0.0
100
AcDbRotatedDimension
  0
DIMENSION
  5
366
330
1F
100
AcDbEntity
  8
寸法
  6
Continuous
100
AcDbDimension
  2
*D11
 10
9575.288538070225
 20
10283.75329148507
 30
0.0
 11
9325.288538070225
 21
10033.75329148507
 31
0.0
 70
    32
  1
□<>
 71
     5
 42
500.0
  3
1_100
100
AcDbAlignedDimension
 13
9075.288538070225
 23
11193.75329148518
 33
0.0
 14
9575.288538070225
 24
11193.75329148518
 34
0.0
100
AcDbRotatedDimension
1001
ACAD
1000
DSTYLE
1002
{
1070
    77
1070
     2
1070
   174
1070
     1
1002
}
  0
MTEXT
  5
367
102
{ACAD_REACTORS
330
368
102
}
330
1F
100
AcDbEntity
  8
寸法文字
  6
Continuous
100
AcDbMText
 10
10156.67596498662
 20
12620.95475614821
 30
0.0
 40
300.0
 41
0.0
 71
     7
 72
     1
  1
コンクリート
  7
1_100
 73
     1
 44
1.0
1001
ACAD
1000
MTEXTBEGIN
1070
    73
1070
     1
1070
    44
1040
1.0
1070
    74
1070
     0
1000
MTEXTEND
  0
LEADER
  5
368
330
1F
100
AcDbEntity
  8
寸法引出
  6
Continuous
100
AcDbLeader
  3
1_100
 71
     0
 73
     0
 74
     0
 75
     1
 40
300.0
 41
1547.142857142856
 76
     3
 10
9550.288538070109
 20
12094.05552346474
 30
0.0
 10
9996.675964986621
 20
12520.95475614821
 30
0.0
 10
10056.67596498662
 20
12520.95475614821
 30
0.0
340
367
  0
CIRCLE
  5
369
330
1F
100
AcDbEntity
  8
画層1
  6
Continuous
100
AcDbCircle
 10
9458.418538070345
 20
13408.7532914853
 30
0.0
 40
10.9509940156
  0
LWPOLYLINE
  5
36A
330
1F
100
AcDbEntity
  8
画層1
100
AcDbPolyline
 90
        4
 70
     1
 43
0.0
 10
9546.088538070273
 20
13428.52957082394
 10
9700.638538070318
 20
13428.52957082394
 10
9700.638538070318
 20
13388.52957082394
 10
9546.088538070273
 20
13388.52957082394
  0
LWPOLYLINE
  5
36B
330
1F
100
AcDbEntity
  8
画層1-1
100
AcDbPolyline
 90
        4
 70
     1
 43
0.0
 10
9505.760558535639
 20
13478.91066703194
 10
9619.73191061168
 20
13583.29569184855
 10
9646.748416549241
 20
13553.79809182888
 10
9532.777064473195
 20
13449.41306701226
  0
MTEXT
  5
36C
102
{ACAD_REACTORS
330
36D
102
}
330
1F
100
AcDbEntity
  8
寸法文字
  6
Continuous
100
AcDbMText
 10
10151.19446631993
 20
11857.09279731247
 30
0.0
 40
300.0
 41
0.0
 71
     7
 72
     1
  1
砕石
  7
1_100
 73
     1
 44
1.0
1001
ACAD
1000
MTEXTBEGIN
1070
    73
1070
     1
1070
    44
1040
1.0
1070
    74
1070
     0
1000
MTEXTEND
  0
LEADER
  5
36D
330
1F
100
AcDbEntity
  8
寸法引出
  6
Continuous
100
AcDbLeader
  3
1_100
 71
     0
 73
     0
 74
     0
 75
     1
 40
300.0
 41
495.0
 76
     3
 10
9550.288538070109
 20
11333.7532914853
 30
0.0
 10
9991.194466319928
 20
11757.09279731247
 30
0.0
 10
10051.19446631993
 20
11757.09279731247
 30
0.0
340
36C
  0
INSERT
  5
36E
330
1F
100
AcDbEntity
  8
ﾊｯﾁﾝｸﾞ
  6
Continuous
100
AcDbBlockReference
  2
RM
 10
9575.288538070806
 20
13383.75329148571
 30
0.0
  0
LINE
  5
36F
330
1F
100
AcDbEntity
  8
画層2-1
  6
Continuous
100
AcDbLine
 10
9217.138538070321
 20
13483.7532914853
 30
0.0
 11
9433.438538070365
 21
13483.7532914853
 31
0.0
  0
LINE
  5
370
330
1F
100
AcDbEntity
  8
画層2-1
  6
Continuous
100
AcDbLine
 10
9217.138538070321
 20
13233.7532914853
 30
0.0
 11
9433.438538070365
 21
13233.7532914853
 31
0.0
  0
MTEXT
  5
371
330
1F
100
AcDbEntity
  8
寸法文字
  6
Continuous
100
AcDbMText
 10
7927.216918550609
 20
14023.33056923729
 30
0.0
 40
300.0
 41
0.0
 71
     3
 72
     1
  1
（250）
  7
1_100
 73
     1
 44
1.0
1001
ACAD
1000
MTEXTBEGIN
1070
    73
1070
     1
1070
    44
1040
1.0
1070
    74
1070
     0
1000
MTEXTEND
  0
CIRCLE
  5
372
330
1F
100
AcDbEntity
  8
画層1
  6
Continuous
100
AcDbCircle
 10
9192.138538070318
 20
13408.7532914853
 30
0.0
 40
10.9509940156
  0
LEADER
  5
373
330
1F
100
AcDbEntity
  8
寸法引出
  6
Continuous
100
AcDbLeader
  3
1_100
 71
     0
 73
     0
 75
     1
 40
300.0
 41
1095.0
 76
     3
 10
9237.257556923728
 20
13444.17420129751
 30
0.0
 10
8168.097762532827
 20
14188.12910306273
 30
0.0
 10
8108.097762532826
 20
14188.12910306273
 30
0.0
340
361
  0
LWPOLYLINE
  5
374
330
1F
100
AcDbEntity
  8
画層1
100
AcDbPolyline
 90
        4
 70
     1
 43
0.0
 10
9306.407399611144
 20
13763.7532914853
 10
9346.407399611143
 20
13763.7532914853
 10
9346.407399611143
 20
13583.7532914853
 10
9306.407399611144
 20
13583.7532914853
  0
LINE
  5
375
330
1F
100
AcDbEntity
  8
画層1
  6
Continuous
100
AcDbLine
 10
9350.288538070342
 20
13383.7532914853
 30
0.0
 11
9350.288538070342
 21
13433.7532914853
 31
0.0
  0
LINE
  5
376
330
1F
100
AcDbEntity
  8
画層1
  6
Continuous
100
AcDbLine
 10
9300.288538070342
 20
13383.7532914853
 30
0.0
 11
9300.288538070342
 21
13433.7532914853
 31
0.0
  0
INSERT
  5
377
330
1F
100
AcDbEntity
  8
ﾊｯﾁﾝｸﾞ
  6
Continuous
100
AcDbBlockReference
  2
RH
 10
9075.288538070806
 20
13383.75329148524
 30
0.0
  0
HATCH
  5
378
330
1F
100
AcDbEntity
  8
ﾊｯﾁﾝｸﾞ
100
AcDbHatch
 10
0.0
 20
0.0
 30
0.0
210
0.0
220
0.0
230
1.0
  2
PLAST
 70
     0
 71
     0
 91
        2
 92
        7
 72
     0
 73
     1
 93
        6
 10
9550.288538070457
 20
13183.7532914853
 10
9575.288538070457
 20
13183.7532914853
 10
9575.288538070342
 20
13383.7532914853
 10
9325.288538070342
 20
13383.7532914853
 10
9325.288538070342
 20
11383.7532914853
 10
9550.288538070342
 20
11383.7532914853
 97
        0
 92
        7
 72
     0
 73
     1
 93
        6
 10
9325.288538070342
 20
13383.7532914853
 10
9075.288538070342
 20
13383.7532914853
 10
9075.288538070342
 20
13183.7532914853
 10
9100.288538070342
 20
13183.7532914853
 10
9100.288538070456
 20
11383.7532914853
 10
9325.288538070342
 20
11383.7532914853
 97
        0
 75
     0
 76
     1
 52
45.0
 41
2000.0
 77
     0
 78
     3
 53
45.0
 43
-359154.4786000141
 44
-240436.0560559759
 45
-353.5533905932737
 46
353.5533905932738
 79
     0
 53
45.0
 43
-359198.6727738382
 44
-240391.8618821518
 45
-353.5533905932737
 46
353.5533905932738
 79
     0
 53
45.0
 43
-359242.8669476625
 44
-240347.6677083276
 45
-353.5533905932737
 46
353.5533905932738
 79
     0
 47
16.87342629318017
 98
        2
 10
9393.035141980218
 20
12627.28343674045
 10
9241.056264570863
 20
12593.53757664648
  0
LINE
  5
379
330
1F
100
AcDbEntity
  8
画層2
100
AcDbLine
 10
9550.288538070342
 20
11383.7532914853
 30
0.0
 11
9100.288538070342
 21
11383.7532914853
 31
0.0
  0
LWPOLYLINE
  5
37A
330
1F
100
AcDbEntity
  8
画層2
100
AcDbPolyline
 90
        8
 70
     0
 43
0.0
 10
9075.288538070342
 20
13383.7532914853
 10
9075.288538070342
 20
13183.7532914853
 10
9100.288538070342
 20
13183.7532914853
 10
9100.288538070342
 20
11283.7532914853
 10
9550.288538070342
 20
11283.7532914853
 10
9550.288538070342
 20
13183.7532914853
 10
9575.288538070342
 20
13183.7532914853
 10
9575.288538070342
 20
13383.75329148577
  0
LWPOLYLINE
  5
37B
330
1F
100
AcDbEntity
  8
画層1
  6
Continuous
100
AcDbPolyline
 90
        4
 70
     1
 43
0.0
 10
9167.138538070318
 20
13433.7532914853
 10
9483.418538070344
 20
13433.7532914853
 10
9483.418538070344
 20
13383.7532914853
 10
9167.138538070318
 20
13383.7532914853
  0
INSERT
  5
37C
330
1F
100
AcDbEntity
  8
ﾊｯﾁﾝｸﾞ
  6
Continuous
100
AcDbBlockReference
  2
sai450
 10
9325.288538070342
 20
11383.7532914853
 30
0.0
  0
LEADER
  5
37D
330
1F
100
AcDbEntity
  8
寸法引出
  6
Continuous
100
AcDbLeader
  3
1_100
 71
     0
 73
     0
 75
     1
 40
346.6666666666666
 41
3117.142857142858
 76
     3
 10
9325.288538070342
 20
18161.7047524256
 30
0.0
 10
8128.337582539014
 20
19060.21659892046
 30
0.0
 10
8068.337582539014
 20
19060.21659892046
 30
0.0
340
37E
  0
MTEXT
  5
37E
102
{ACAD_REACTORS
330
37D
102
}
330
1F
100
AcDbEntity
  8
寸法文字
  6
Continuous
100
AcDbMText
 10
7968.337582539014
 20
19160.21659892046
 30
0.0
 40
300.0
 41
0.0
 71
     9
 72
     1
  1
メッセンワイヤー22m㎡
  7
1_100
 73
     1
 44
1.0
1001
ACAD
1000
MTEXTBEGIN
1070
    73
1070
     1
1070
    44
1040
1.0
1070
    74
1070
     0
1000
MTEXTEND
  0
LINE
  5
37F
330
1F
100
AcDbEntity
  8
寸法引出
  6
Continuous
100
AcDbLine
 10
15482.6048260624
 20
17826.85824112727
 30
0.0
 11
15006.2748336703
 21
17242.54464777599
 31
0.0
  0
CIRCLE
  5
380
330
1F
100
AcDbEntity
  8
画層1-1
  6
Continuous
100
AcDbCircle
 10
9458.438538070366
 20
16363.7532914853
 30
0.0
 40
10.9509940156
  0
LWPOLYLINE
  5
381
330
1F
100
AcDbEntity
  8
画層1-1
100
AcDbPolyline
 90
        4
 70
     1
 43
0.0
 10
9558.888538070318
 20
16383.75428579939
 10
9713.438538070365
 20
16383.75428579939
 10
9713.438538070365
 20
16343.75428579939
 10
9558.888538070318
 20
16343.75428579939
  0
LINE
  5
382
330
1F
100
AcDbEntity
  8
画層1-1
  6
Continuous
100
AcDbLine
 10
9483.438538070364
 20
16338.7532914853
 30
0.0
 11
9483.438538070364
 21
16388.7532914853
 31
0.0
  0
CIRCLE
  5
383
330
1F
100
AcDbEntity
  8
画層1-1
  6
Continuous
100
AcDbCircle
 10
9192.138538070318
 20
16363.7532914853
 30
0.0
 40
10.9509940156
  0
LINE
  5
384
330
1F
100
AcDbEntity
  8
画層1-1
  6
Continuous
100
AcDbLine
 10
9167.138538070318
 20
16388.7532914853
 30
0.0
 11
9167.138538070318
 21
16338.7532914853
 31
0.0
  0
LINE
  5
385
330
1F
100
AcDbEntity
  8
画層1-1
  6
Continuous
100
AcDbLine
 10
9300.288538070342
 20
16338.7532914853
 30
0.0
 11
9300.288538070342
 21
16388.7532914853
 31
0.0
  0
LINE
  5
386
330
1F
100
AcDbEntity
  8
画層1-1
  6
Continuous
100
AcDbLine
 10
9350.288538070342
 20
16338.7532914853
 30
0.0
 11
9350.288538070342
 21
16388.7532914853
 31
0.0
  0
LINE
  5
387
330
1F
100
AcDbEntity
  8
画層1-1
  6
Continuous
100
AcDbLine
 10
9167.138538070318
 20
16338.7532914853
 30
0.0
 11
9483.438538070364
 21
16338.7532914853
 31
0.0
  0
LINE
  5
388
330
1F
100
AcDbEntity
  8
画層1-1
  6
Continuous
100
AcDbLine
 10
9483.438538070364
 20
16388.7532914853
 30
0.0
 11
9167.138538070318
 21
16388.7532914853
 31
0.0
  0
CIRCLE
  5
389
330
1F
100
AcDbEntity
  8
画層1-1
  6
Continuous
100
AcDbCircle
 10
9458.438538070366
 20
19343.7532914853
 30
0.0
 40
10.9509940156
  0
LWPOLYLINE
  5
38A
330
1F
100
AcDbEntity
  8
画層1-1
100
AcDbPolyline
 90
        4
 70
     1
 43
0.0
 10
9558.888538070318
 20
19363.75428579939
 10
9713.438538070365
 20
19363.75428579939
 10
9713.438538070365
 20
19323.75428579939
 10
9558.888538070318
 20
19323.75428579939
  0
LINE
  5
38B
330
1F
100
AcDbEntity
  8
画層1-1
  6
Continuous
100
AcDbLine
 10
9483.438538070364
 20
19318.7532914853
 30
0.0
 11
9483.438538070364
 21
19368.7532914853
 31
0.0
  0
CIRCLE
  5
38C
330
1F
100
AcDbEntity
  8
画層1-1
  6
Continuous
100
AcDbCircle
 10
9192.138538070318
 20
19343.7532914853
 30
0.0
 40
10.9509940156
  0
LINE
  5
38D
330
1F
100
AcDbEntity
  8
画層1-1
  6
Continuous
100
AcDbLine
 10
9167.138538070318
 20
19368.7532914853
 30
0.0
 11
9167.138538070318
 21
19318.7532914853
 31
0.0
  0
LINE
  5
38E
330
1F
100
AcDbEntity
  8
画層1-1
  6
Continuous
100
AcDbLine
 10
9300.288538070342
 20
19318.7532914853
 30
0.0
 11
9300.288538070342
 21
19368.7532914853
 31
0.0
  0
LINE
  5
38F
330
1F
100
AcDbEntity
  8
画層1-1
  6
Continuous
100
AcDbLine
 10
9350.288538070342
 20
19318.7532914853
 30
0.0
 11
9350.288538070342
 21
19368.7532914853
 31
0.0
  0
LINE
  5
390
330
1F
100
AcDbEntity
  8
画層1-1
  6
Continuous
100
AcDbLine
 10
9167.138538070318
 20
19318.7532914853
 30
0.0
 11
9483.438538070364
 21
19318.7532914853
 31
0.0
  0
LINE
  5
391
330
1F
100
AcDbEntity
  8
画層1-1
  6
Continuous
100
AcDbLine
 10
9483.438538070364
 20
19368.7532914853
 30
0.0
 11
9167.138538070318
 21
19368.7532914853
 31
0.0
  0
DIMENSION
  5
394
330
1F
100
AcDbEntity
  8
寸法
  6
Continuous
100
AcDbDimension
  2
*D12
 10
27325.28853807034
 20
16363.75329148588
 30
0.0
 11
27046.71710949891
 21
14873.7532914856
 31
0.0
 70
    32
 71
     5
 42
2980.000000000582
  3
1_100
100
AcDbAlignedDimension
 13
26325.28853807034
 23
13383.7532914853
 33
0.0
 14
26325.28853807034
 24
16363.75329148588
 34
0.0
 50
90.0
100
AcDbRotatedDimension
  0
DIMENSION
  5
395
330
1F
100
AcDbEntity
  8
寸法
  6
Continuous
100
AcDbDimension
  2
*D13
 10
33925.28853807035
 20
16363.75329148588
 30
0.0
 11
33646.71710949893
 21
14873.7532914856
 31
0.0
 70
    32
 71
     5
 42
2980.000000000582
  3
1_100
100
AcDbAlignedDimension
 13
32825.28853807034
 23
13383.7532914853
 33
0.0
 14
32825.28853807034
 24
16363.75329148588
 34
0.0
 50
90.0
100
AcDbRotatedDimension
  0
LINE
  5
396
330
1F
100
AcDbEntity
  8
画層1-1
  6
Continuous
100
AcDbLine
 10
25825.28853807034
 20
19240.09485976555
 30
0.0
 11
19458.41853807034
 21
13408.7532914853
 31
0.0
  0
LINE
  5
397
330
1F
100
AcDbEntity
  8
寸法引出
  6
ByBlock
100
AcDbLine
 10
25825.28853807034
 20
8283.753291484371
 30
0.0
 11
25525.28853807034
 21
8203.368534484367
 31
0.0
  0
LINE
  5
398
330
1F
100
AcDbEntity
  8
寸法引出
  6
ByBlock
100
AcDbLine
 10
25525.28853807034
 20
8364.138048484367
 30
0.0
 11
25825.28853807034
 21
8283.753291484371
 31
0.0
  0
LWPOLYLINE
  5
399
330
1F
100
AcDbEntity
  8
寸法引出
100
AcDbPolyline
 90
        2
 70
     0
 43
0.0
 10
25825.28853807034
 20
8283.753291484371
 10
19325.28853807011
 20
8283.753291484256
1001
ACAD
1000
DSTYLE
1002
{
1070
    41
1040
3.0
1070
   341
1005
0
1002
}
  0
TEXT
  5
39A
330
1F
100
AcDbEntity
  8
寸法
  6
Continuous
100
AcDbText
 10
22781.46893588844
 20
8414.699101956733
 30
0.0
 40
300.0
  1
10,000
 41
0.75
  7
1_100
100
AcDbText
  0
HATCH
  5
39B
330
1F
100
AcDbEntity
  8
ﾊｯﾁﾝｸﾞ
100
AcDbHatch
 10
0.0
 20
0.0
 30
0.0
210
0.0
220
0.0
230
1.0
  2
PLAST
 70
     0
 71
     1
 91
        1
 92
        7
 72
     0
 73
     1
 93
        8
 10
19550.28853807034
 20
13183.75329148524
 10
19575.28853807034
 20
13183.75329148524
 10
19575.28853807034
 20
13383.75329148538
 10
19075.28853807034
 20
13383.75329148538
 10
19075.28853807034
 20
13183.75329148524
 10
19100.28853807034
 20
13183.75329148524
 10
19100.28853807034
 20
11383.75329148524
 10
19550.28853807034
 20
11383.75329148524
 97
        3
330
39D
330
35E
330
39C
 75
     0
 76
     1
 52
45.0
 41
2000.0
 77
     0
 78
     3
 53
45.0
 43
-359154.4786000141
 44
-240436.0560559759
 45
-353.5533905932737
 46
353.5533905932738
 79
     0
 53
45.0
 43
-359198.6727738382
 44
-240391.8618821518
 45
-353.5533905932737
 46
353.5533905932738
 79
     0
 53
45.0
 43
-359242.8669476625
 44
-240347.6677083276
 45
-353.5533905932737
 46
353.5533905932738
 79
     0
 47
18.12194104160438
 98
        1
 10
19433.45487357251
 20
12288.72208103229
  0
LINE
  5
39C
102
{ACAD_REACTORS
330
39B
102
}
330
1F
100
AcDbEntity
  8
画層2
100
AcDbLine
 10
19550.28853807034
 20
11383.75329148524
 30
0.0
 11
19100.28853807034
 21
11383.75329148524
 31
0.0
  0
LWPOLYLINE
  5
39D
102
{ACAD_REACTORS
330
39B
102
}
330
1F
100
AcDbEntity
  8
画層2
100
AcDbPolyline
 90
        8
 70
     0
 43
0.0
 10
19075.28853807034
 20
13383.75329148524
 10
19075.28853807034
 20
13183.75329148524
 10
19100.28853807034
 20
13183.75329148524
 10
19100.28853807034
 20
11283.75329148524
 10
19550.28853807034
 20
11283.75329148524
 10
19550.28853807034
 20
13183.75329148524
 10
19575.28853807034
 20
13183.75329148524
 10
19575.28853807034
 20
13383.75329148571
  0
LWPOLYLINE
  5
39E
330
1F
100
AcDbEntity
  8
画層1
  6
Continuous
100
AcDbPolyline
 90
        4
 70
     1
 43
0.0
 10
19167.13853807032
 20
13433.7532914853
 10
19483.43853807048
 20
13433.7532914853
 10
19483.43853807048
 20
13383.7532914853
 10
19167.13853807032
 20
13383.7532914853
  0
CIRCLE
  5
39F
330
1F
100
AcDbEntity
  8
画層1
  6
Continuous
100
AcDbCircle
 10
19458.43853807036
 20
13408.7532914853
 30
0.0
 40
10.9509940156
  0
LINE
  5
3A0
330
1F
100
AcDbEntity
  8
画層2-1
  6
Continuous
100
AcDbLine
 10
19217.13853807032
 20
13483.7532914853
 30
0.0
 11
19433.43853807036
 21
13483.75329148536
 31
0.0
  0
LINE
  5
3A1
330
1F
100
AcDbEntity
  8
画層1
  6
Continuous
100
AcDbLine
 10
19350.28853807034
 20
13383.7532914853
 30
0.0
 11
19350.28853807034
 21
13433.7532914853
 31
0.0
  0
LINE
  5
3A2
330
1F
100
AcDbEntity
  8
画層1
  6
Continuous
100
AcDbLine
 10
19300.28853807034
 20
13383.7532914853
 30
0.0
 11
19300.28853807034
 21
13433.7532914853
 31
0.0
  0
CIRCLE
  5
3A3
330
1F
100
AcDbEntity
  8
画層1
  6
Continuous
100
AcDbCircle
 10
19192.13853807032
 20
13408.7532914853
 30
0.0
 40
10.9509940156
  0
LWPOLYLINE
  5
3A4
330
1F
100
AcDbEntity
  8
画層1-1
100
AcDbPolyline
 90
        4
 70
     1
 43
0.0
 10
19144.81656049152
 20
13478.91179051046
 10
19030.84531524388
 20
13583.29693196603
 10
19003.82877911831
 20
13553.79935959522
 10
19117.80002436583
 20
13449.41421813965
  0
LWPOLYLINE
  5
3A5
330
1F
100
AcDbEntity
  8
画層1-1
100
AcDbPolyline
 90
        4
 70
     1
 43
0.0
 10
19505.76055853564
 20
13478.91066703194
 10
19619.73191061168
 20
13583.29569184855
 10
19646.74841654924
 20
13553.79809182888
 10
19532.7770644732
 20
13449.41306701226
  0
LINE
  5
3A6
330
1F
100
AcDbEntity
  8
画層2-1
  6
Continuous
100
AcDbLine
 10
19217.13853807032
 20
13233.7532914853
 30
0.0
 11
19433.43853807036
 21
13233.75329148536
 31
0.0
  0
INSERT
  5
3A7
330
1F
100
AcDbEntity
  8
ﾊｯﾁﾝｸﾞ
  6
Continuous
100
AcDbBlockReference
  2
RM
 10
19575.29853807081
 20
13383.75329148577
 30
0.0
  0
INSERT
  5
3A8
330
1F
100
AcDbEntity
  8
ﾊｯﾁﾝｸﾞ
  6
Continuous
100
AcDbBlockReference
  2
RH
 10
19075.29853807081
 20
13383.7532914853
 30
0.0
  0
INSERT
  5
3A9
330
1F
100
AcDbEntity
  8
ﾊｯﾁﾝｸﾞ
  6
Continuous
100
AcDbBlockReference
  2
sai450
 10
19325.28853807034
 20
11383.75329148524
 30
0.0
  0
DIMENSION
  5
3AA
330
1F
100
AcDbEntity
  8
寸法
  6
Continuous
100
AcDbDimension
  2
*D14
 10
31550.28853807011
 20
10683.7532914839
 30
0.0
 11
30508.42748440366
 21
10839.47945995157
 31
0.0
 70
   160
  1
φ<>
 71
     5
 42
449.9999999997672
  3
1_100
100
AcDbAlignedDimension
 13
31100.28853807034
 23
11193.7532914853
 33
0.0
 14
31550.28853807011
 24
11193.7532914853
 34
0.0
100
AcDbRotatedDimension
  0
DIMENSION
  5
3AB
330
1F
100
AcDbEntity
  8
寸法
  6
Continuous
100
AcDbDimension
  2
*D15
 10
31575.28853807034
 20
10283.75329148367
 30
0.0
 11
31325.28853807034
 21
10033.75329148367
 31
0.0
 70
    32
  1
□<>
 71
     5
 42
500.0
  3
1_100
100
AcDbAlignedDimension
 13
31075.28853807034
 23
11193.7532914853
 33
0.0
 14
31575.28853807034
 24
11193.75329148518
 34
0.0
100
AcDbRotatedDimension
1001
ACAD
1000
DSTYLE
1002
{
1070
    77
1070
     2
1070
   174
1070
     1
1002
}
  0
DIMENSION
  5
3AC
330
1F
100
AcDbEntity
  8
寸法
  6
Continuous
100
AcDbDimension
  2
*D16
 10
27325.28853807034
 20
11383.75329148542
 30
0.0
 11
27046.99908824027
 21
10924.40997118752
 31
0.0
 70
   160
 71
     5
 42
100.0
  3
1_100
100
AcDbAlignedDimension
 13
26325.28853807034
 23
11283.75329148542
 33
0.0
 14
26325.28853807034
 24
11383.75329148542
 34
0.0
 50
90.0
100
AcDbRotatedDimension
  0
DIMENSION
  5
3AD
330
1F
100
AcDbEntity
  8
寸法
  6
Continuous
100
AcDbDimension
  2
*D17
 10
33925.28853807035
 20
11383.75329148542
 30
0.0
 11
33646.99908824027
 21
10924.40997118752
 31
0.0
 70
   160
 71
     5
 42
100.0
  3
1_100
100
AcDbAlignedDimension
 13
32825.28853807034
 23
11283.75329148542
 33
0.0
 14
32825.28853807034
 24
11383.75329148542
 34
0.0
 50
90.0
100
AcDbRotatedDimension
  0
LINE
  5
3AE
102
{ACAD_REACTORS
330
3B3
102
}
330
1F
100
AcDbEntity
  8
画層2
  6
Continuous
100
AcDbLine
 10
29558.58183656767
 20
13383.75329148536
 30
0.0
 11
32825.28853807034
 21
13383.7532914853
 31
0.0
  0
TEXT
  5
3AF
330
1F
100
AcDbEntity
  8
寸法
  6
Continuous
100
AcDbText
 10
29690.14950229222
 20
13463.7532914853
 30
0.0
 40
300.0
  1
▽GL
 41
0.75
  7
1_100
 11
29690.14950229222
 21
13463.7532914853
 31
0.0
100
AcDbText
 73
     1
  0
DIMENSION
  5
3B0
330
1F
100
AcDbEntity
  8
寸法
  6
Continuous
100
AcDbDimension
  2
*D18
 10
27325.28853807034
 20
13183.75329148542
 30
0.0
 11
27046.71710949891
 21
12283.75329148542
 31
0.0
 70
    32
 71
     5
 42
1800.0
  3
1_100
100
AcDbAlignedDimension
 13
26325.28853807034
 23
11383.75329148542
 33
0.0
 14
26325.28853807034
 24
13183.75329148542
 34
0.0
 50
90.0
100
AcDbRotatedDimension
  0
DIMENSION
  5
3B1
330
1F
100
AcDbEntity
  8
寸法
  6
Continuous
100
AcDbDimension
  2
*D19
 10
27325.28853807034
 20
13383.7532914853
 30
0.0
 11
27576.62095875847
 21
13031.98956108948
 31
0.0
 70
   160
 71
     5
 42
199.9999999998836
  3
1_100
100
AcDbAlignedDimension
 13
26325.28853807034
 23
13183.75329148542
 33
0.0
 14
26325.28853807034
 24
13383.7532914853
 34
0.0
 50
90.0
100
AcDbRotatedDimension
  0
DIMENSION
  5
3B2
330
1F
100
AcDbEntity
  8
寸法
  6
Continuous
100
AcDbDimension
  2
*D20
 10
28325.28853807034
 20
11383.75329148542
 30
0.0
 11
28046.71710949891
 21
12383.75329148536
 31
0.0
 70
    32
 71
     5
 42
1999.999999999883
  3
1_100
100
AcDbAlignedDimension
 13
26325.28853807034
 23
13383.7532914853
 33
0.0
 14
26325.28853807034
 24
11383.75329148542
 34
0.0
 50
90.0
100
AcDbRotatedDimension
  0
HATCH
  5
3B3
330
1F
100
AcDbEntity
  8
ﾊｯﾁﾝｸﾞ
100
AcDbHatch
 10
0.0
 20
0.0
 30
0.0
210
0.0
220
0.0
230
1.0
  2
PLAST
 70
     0
 71
     1
 91
        1
 92
        7
 72
     0
 73
     1
 93
        8
 10
31100.28853807035
 20
11383.7532914853
 10
31550.28853807034
 20
11383.7532914853
 10
31550.28853807034
 20
13183.7532914853
 10
31575.28853807034
 20
13183.7532914853
 10
31575.28853807034
 20
13383.75329148532
 10
31075.28853807034
 20
13383.75329148533
 10
31075.28853807034
 20
13183.7532914853
 10
31100.28853807034
 20
13183.7532914853
 97
        3
330
3B7
330
3AE
330
3B6
 75
     0
 76
     1
 52
45.0
 41
2000.0
 77
     0
 78
     3
 53
45.0
 43
-359154.4786000141
 44
-240436.0560559759
 45
-353.5533905932737
 46
353.5533905932738
 79
     0
 53
45.0
 43
-359198.6727738382
 44
-240391.8618821518
 45
-353.5533905932737
 46
353.5533905932738
 79
     0
 53
45.0
 43
-359242.8669476625
 44
-240347.6677083276
 45
-353.5533905932737
 46
353.5533905932738
 79
     0
 47
23.72768293771545
 98
        1
 10
31260.82935186843
 20
12345.09553045238
  0
LINE
  5
3B4
330
1F
100
AcDbEntity
  8
画層1
  6
Continuous
100
AcDbLine
 10
31433.43853807025
 20
13383.75329148635
 30
0.0
 11
31350.28853807034
 21
13383.75329148635
 31
0.0
  0
LINE
  5
3B5
330
1F
100
AcDbEntity
  8
画層1
  6
Continuous
100
AcDbLine
 10
31300.28853807034
 20
13383.75329148635
 30
0.0
 11
31217.1385380702
 21
13383.75329148635
 31
0.0
  0
LINE
  5
3B6
102
{ACAD_REACTORS
330
3B3
102
}
330
1F
100
AcDbEntity
  8
画層2
100
AcDbLine
 10
31550.28853807034
 20
11383.7532914853
 30
0.0
 11
31100.28853807034
 21
11383.7532914853
 31
0.0
  0
LWPOLYLINE
  5
3B7
102
{ACAD_REACTORS
330
3B3
102
}
330
1F
100
AcDbEntity
  8
画層2
100
AcDbPolyline
 90
        8
 70
     0
 43
0.0
 10
31075.28853807034
 20
13383.7532914853
 10
31075.28853807034
 20
13183.7532914853
 10
31100.28853807034
 20
13183.7532914853
 10
31100.28853807034
 20
11283.7532914853
 10
31550.28853807034
 20
11283.7532914853
 10
31550.28853807034
 20
13183.7532914853
 10
31575.28853807034
 20
13183.7532914853
 10
31575.28853807034
 20
13383.75329148577
  0
LWPOLYLINE
  5
3B8
330
1F
100
AcDbEntity
  8
画層1
100
AcDbPolyline
 90
        4
 70
     1
 43
0.0
 10
31306.40739961127
 20
13763.7532914853
 10
31346.40739961127
 20
13763.7532914853
 10
31346.40739961127
 20
13583.7532914853
 10
31306.40739961127
 20
13583.7532914853
  0
LINE
  5
3B9
330
1F
100
AcDbEntity
  8
画層1
  6
Continuous
100
AcDbLine
 10
31167.1385380702
 20
13408.75329148577
 30
0.0
 11
31217.1385380702
 21
13408.75329148577
 31
0.0
  0
LINE
  5
3BA
330
1F
100
AcDbEntity
  8
画層1
  6
Continuous
100
AcDbLine
 10
31167.1385380702
 20
13433.7532914853
 30
0.0
 11
31167.1385380702
 21
13383.7532914853
 31
0.0
  0
LINE
  5
3BB
330
1F
100
AcDbEntity
  8
画層2-1
  6
Continuous
100
AcDbLine
 10
31217.1385380702
 20
13483.7532914853
 30
0.0
 11
31433.43853807025
 21
13483.7532914853
 31
0.0
  0
LINE
  5
3BC
330
1F
100
AcDbEntity
  8
画層1
  6
Continuous
100
AcDbLine
 10
31433.43853807025
 20
13433.7532914853
 30
0.0
 11
31350.28853807034
 21
13433.7532914853
 31
0.0
  0
LINE
  5
3BD
330
1F
100
AcDbEntity
  8
画層1
  6
Continuous
100
AcDbLine
 10
31300.28853807034
 20
13383.7532914853
 30
0.0
 11
31300.28853807034
 21
13433.7532914853
 31
0.0
  0
LINE
  5
3BE
330
1F
100
AcDbEntity
  8
画層1
  6
Continuous
100
AcDbLine
 10
31350.28853807034
 20
13383.7532914853
 30
0.0
 11
31350.28853807034
 21
13433.7532914853
 31
0.0
  0
LINE
  5
3BF
330
1F
100
AcDbEntity
  8
画層1
  6
Continuous
100
AcDbLine
 10
31275.28853807034
 20
13408.75329148577
 30
0.0
 11
31375.28853807034
 21
13408.75329148577
 31
0.0
  0
LINE
  5
3C0
330
1F
100
AcDbEntity
  8
画層1
  6
Continuous
100
AcDbLine
 10
31300.28853807034
 20
13433.7532914853
 30
0.0
 11
31217.1385380702
 21
13433.7532914853
 31
0.0
  0
LINE
  5
3C1
330
1F
100
AcDbEntity
  8
画層2-1
  6
Continuous
100
AcDbLine
 10
31217.1385380702
 20
13233.7532914853
 30
0.0
 11
31433.43853807025
 21
13233.7532914853
 31
0.0
  0
DIMENSION
  5
3C2
330
1F
100
AcDbEntity
  8
寸法
  6
Continuous
100
AcDbDimension
  2
*D21
 10
33925.28853807035
 20
13183.75329148542
 30
0.0
 11
33646.71710949893
 21
12283.75329148542
 31
0.0
 70
    32
 71
     5
 42
1800.0
  3
1_100
100
AcDbAlignedDimension
 13
32825.28853807034
 23
11383.75329148542
 33
0.0
 14
32825.28853807034
 24
13183.75329148542
 34
0.0
 50
90.0
100
AcDbRotatedDimension
  0
DIMENSION
  5
3C3
330
1F
100
AcDbEntity
  8
寸法
  6
Continuous
100
AcDbDimension
  2
*D22
 10
34925.28853807034
 20
11383.75329148542
 30
0.0
 11
34646.71710949893
 21
12383.75329148537
 31
0.0
 70
    32
 71
     5
 42
1999.999999999883
  3
1_100
100
AcDbAlignedDimension
 13
32825.28853807034
 23
13383.7532914853
 33
0.0
 14
32825.28853807034
 24
11383.75329148542
 34
0.0
 50
90.0
100
AcDbRotatedDimension
  0
DIMENSION
  5
3C4
330
1F
100
AcDbEntity
  8
寸法
  6
Continuous
100
AcDbDimension
  2
*D23
 10
33925.28853807035
 20
13383.7532914853
 30
0.0
 11
34176.62095875847
 21
13031.98956108948
 31
0.0
 70
   160
 71
     5
 42
199.9999999998836
  3
1_100
100
AcDbAlignedDimension
 13
32825.28853807034
 23
13183.75329148542
 33
0.0
 14
32825.28853807034
 24
13383.7532914853
 34
0.0
 50
90.0
100
AcDbRotatedDimension
  0
INSERT
  5
3C5
330
1F
100
AcDbEntity
  8
ﾊｯﾁﾝｸﾞ
  6
Continuous
100
AcDbBlockReference
  2
RM
 10
31575.29853807082
 20
13383.75329148571
 30
0.0
  0
INSERT
  5
3C6
330
1F
100
AcDbEntity
  8
ﾊｯﾁﾝｸﾞ
  6
Continuous
100
AcDbBlockReference
  2
RH
 10
31075.29853807082
 20
13383.75329148524
 30
0.0
  0
INSERT
  5
3C7
330
1F
100
AcDbEntity
  8
ﾊｯﾁﾝｸﾞ
  6
Continuous
100
AcDbBlockReference
  2
sai450
 10
31325.28853807034
 20
11383.75329148524
 30
0.0
  0
LINE
  5
3C8
330
1F
100
AcDbEntity
  8
画層1-1
  6
Continuous
100
AcDbLine
 10
19483.43853807036
 20
16388.7532914853
 30
0.0
 11
19167.13853807032
 21
16388.7532914853
 31
0.0
  0
LINE
  5
3C9
330
1F
100
AcDbEntity
  8
画層1-1
  6
Continuous
100
AcDbLine
 10
19167.13853807032
 20
16338.7532914853
 30
0.0
 11
19483.43853807036
 21
16338.7532914853
 31
0.0
  0
LINE
  5
3CA
330
1F
100
AcDbEntity
  8
画層1-1
  6
Continuous
100
AcDbLine
 10
19350.28853807034
 20
16338.7532914853
 30
0.0
 11
19350.28853807034
 21
16388.7532914853
 31
0.0
  0
LINE
  5
3CB
330
1F
100
AcDbEntity
  8
画層1-1
  6
Continuous
100
AcDbLine
 10
19300.28853807034
 20
16338.7532914853
 30
0.0
 11
19300.28853807034
 21
16388.7532914853
 31
0.0
  0
CIRCLE
  5
3CC
330
1F
100
AcDbEntity
  8
画層1-1
  6
Continuous
100
AcDbCircle
 10
19192.13853807032
 20
16363.7532914853
 30
0.0
 40
10.9509940156
  0
LINE
  5
3CD
330
1F
100
AcDbEntity
  8
画層1-1
  6
Continuous
100
AcDbLine
 10
19167.13853807032
 20
16388.7532914853
 30
0.0
 11
19167.13853807032
 21
16338.7532914853
 31
0.0
  0
CIRCLE
  5
3CE
330
1F
100
AcDbEntity
  8
画層1-1
  6
Continuous
100
AcDbCircle
 10
19458.43853807036
 20
16363.7532914853
 30
0.0
 40
10.9509940156
  0
LINE
  5
3CF
330
1F
100
AcDbEntity
  8
画層1-1
  6
Continuous
100
AcDbLine
 10
19483.43853807036
 20
16338.7532914853
 30
0.0
 11
19483.43853807036
 21
16388.7532914853
 31
0.0
  0
MTEXT
  5
3D0
102
{ACAD_REACTORS
330
3D1
102
}
330
1F
100
AcDbEntity
  8
寸法文字
  6
Continuous
100
AcDbMText
 10
18698.77158371214
 20
15679.18848508811
 30
0.0
 40
300.0
 41
0.0
 71
     9
 72
     1
  1
バンド金具
  7
1_100
 73
     1
 44
1.0
1001
ACAD
1000
MTEXTBEGIN
1070
    73
1070
     1
1070
    44
1040
1.0
1070
    74
1070
     0
1000
MTEXTEND
  0
LEADER
  5
3D1
330
1F
100
AcDbEntity
  8
寸法引出
  6
Continuous
100
AcDbLeader
  3
1_100
 71
     0
 73
     0
 75
     1
 40
300.0
 41
1319.999999999999
 76
     3
 10
19193.90879670059
 20
16338.7532914853
 30
0.0
 10
18858.77158371214
 20
15579.18848508811
 30
0.0
 10
18798.77158371214
 20
15579.18848508811
 30
0.0
340
3D0
  0
LINE
  5
3D2
330
1F
100
AcDbEntity
  8
画層1-1
  6
Continuous
100
AcDbLine
 10
19483.43853807036
 20
19368.7532914853
 30
0.0
 11
19167.13853807032
 21
19368.7532914853
 31
0.0
  0
LINE
  5
3D3
330
1F
100
AcDbEntity
  8
画層1-1
  6
Continuous
100
AcDbLine
 10
19167.13853807032
 20
19318.7532914853
 30
0.0
 11
19483.43853807036
 21
19318.7532914853
 31
0.0
  0
LINE
  5
3D4
330
1F
100
AcDbEntity
  8
画層1-1
  6
Continuous
100
AcDbLine
 10
19350.28853807034
 20
19318.7532914853
 30
0.0
 11
19350.28853807034
 21
19368.7532914853
 31
0.0
  0
LINE
  5
3D5
330
1F
100
AcDbEntity
  8
画層1-1
  6
Continuous
100
AcDbLine
 10
19300.28853807034
 20
19318.7532914853
 30
0.0
 11
19300.28853807034
 21
19368.7532914853
 31
0.0
  0
CIRCLE
  5
3D6
330
1F
100
AcDbEntity
  8
画層1-1
  6
Continuous
100
AcDbCircle
 10
19192.13853807032
 20
19343.7532914853
 30
0.0
 40
10.9509940156
  0
LINE
  5
3D7
330
1F
100
AcDbEntity
  8
画層1-1
  6
Continuous
100
AcDbLine
 10
19167.13853807032
 20
19368.7532914853
 30
0.0
 11
19167.13853807032
 21
19318.7532914853
 31
0.0
  0
LINE
  5
3D8
330
1F
100
AcDbEntity
  8
画層1-1
  6
Continuous
100
AcDbLine
 10
19483.43853807036
 20
19318.7532914853
 30
0.0
 11
19483.43853807036
 21
19368.7532914853
 31
0.0
  0
CIRCLE
  5
3D9
330
1F
100
AcDbEntity
  8
画層1-1
  6
Continuous
100
AcDbCircle
 10
19458.43853807036
 20
19343.7532914853
 30
0.0
 40
10.9509940156
  0
DIMENSION
  5
3DA
330
1F
100
AcDbEntity
  8
寸法
  6
Continuous
100
AcDbDimension
  2
*D24
 10
27325.28853807034
 20
19343.75329148588
 30
0.0
 11
27046.71710949891
 21
17853.75329148589
 31
0.0
 70
    32
 71
     5
 42
2980.000000000002
  3
1_100
100
AcDbAlignedDimension
 13
26325.28853807034
 23
16363.75329148588
 33
0.0
 14
26325.28853807034
 24
19343.75329148588
 34
0.0
 50
90.0
100
AcDbRotatedDimension
  0
DIMENSION
  5
3DB
330
1F
100
AcDbEntity
  8
寸法
  6
Continuous
100
AcDbDimension
  2
*D25
 10
33925.28853807035
 20
19343.75329148588
 30
0.0
 11
33646.71710949891
 21
17853.75329148589
 31
0.0
 70
    32
 71
     5
 42
2980.0
  3
1_100
100
AcDbAlignedDimension
 13
32825.28853807034
 23
16363.75329148588
 33
0.0
 14
32825.28853807034
 24
19343.75329148588
 34
0.0
 50
90.0
100
AcDbRotatedDimension
  0
LINE
  5
3DC
330
1F
100
AcDbEntity
  8
画層1
  6
Continuous
100
AcDbLine
 10
31167.1385380702
 20
16363.75329148577
 30
0.0
 11
31217.1385380702
 21
16363.75329148577
 31
0.0
  0
LINE
  5
3DD
330
1F
100
AcDbEntity
  8
画層1
  6
Continuous
100
AcDbLine
 10
31167.1385380702
 20
16388.7532914853
 30
0.0
 11
31167.1385380702
 21
16338.7532914853
 31
0.0
  0
LINE
  5
3DE
330
1F
100
AcDbEntity
  8
画層1
  6
Continuous
100
AcDbLine
 10
31350.28853807034
 20
16338.7532914853
 30
0.0
 11
31433.43853807025
 21
16338.7532914853
 31
0.0
  0
LINE
  5
3DF
330
1F
100
AcDbEntity
  8
画層1
  6
Continuous
100
AcDbLine
 10
31433.43853807025
 20
16388.7532914853
 30
0.0
 11
31350.28853807034
 21
16388.7532914853
 31
0.0
  0
LINE
  5
3E0
330
1F
100
AcDbEntity
  8
画層1
  6
Continuous
100
AcDbLine
 10
31217.1385380702
 20
16338.7532914853
 30
0.0
 11
31300.28853807034
 21
16338.7532914853
 31
0.0
  0
LINE
  5
3E1
330
1F
100
AcDbEntity
  8
画層1
  6
Continuous
100
AcDbLine
 10
31275.28853807034
 20
16363.75329148577
 30
0.0
 11
31375.28853807034
 21
16363.75329148577
 31
0.0
  0
LINE
  5
3E2
330
1F
100
AcDbEntity
  8
画層1
  6
Continuous
100
AcDbLine
 10
31300.28853807034
 20
16388.7532914853
 30
0.0
 11
31217.1385380702
 21
16388.7532914853
 31
0.0
  0
LINE
  5
3E3
330
1F
100
AcDbEntity
  8
画層1
  6
Continuous
100
AcDbLine
 10
31350.28853807034
 20
16338.7532914853
 30
0.0
 11
31350.28853807034
 21
16388.7532914853
 31
0.0
  0
LINE
  5
3E4
330
1F
100
AcDbEntity
  8
画層1
  6
Continuous
100
AcDbLine
 10
31300.28853807034
 20
16338.7532914853
 30
0.0
 11
31300.28853807034
 21
16388.7532914853
 31
0.0
  0
LINE
  5
3E5
330
1F
100
AcDbEntity
  8
画層1
  6
Continuous
100
AcDbLine
 10
31167.1385380702
 20
19343.75329148577
 30
0.0
 11
31217.1385380702
 21
19343.75329148577
 31
0.0
  0
LINE
  5
3E6
330
1F
100
AcDbEntity
  8
画層1
  6
Continuous
100
AcDbLine
 10
31167.1385380702
 20
19368.7532914853
 30
0.0
 11
31167.1385380702
 21
19318.7532914853
 31
0.0
  0
LINE
  5
3E7
330
1F
100
AcDbEntity
  8
画層1
  6
Continuous
100
AcDbLine
 10
31433.43853807025
 20
19368.7532914853
 30
0.0
 11
31350.28853807034
 21
19368.7532914853
 31
0.0
  0
LINE
  5
3E8
330
1F
100
AcDbEntity
  8
画層1
  6
Continuous
100
AcDbLine
 10
31350.28853807034
 20
19318.7532914853
 30
0.0
 11
31433.43853807025
 21
19318.7532914853
 31
0.0
  0
LINE
  5
3E9
330
1F
100
AcDbEntity
  8
画層1
  6
Continuous
100
AcDbLine
 10
31300.28853807034
 20
19368.7532914853
 30
0.0
 11
31217.1385380702
 21
19368.7532914853
 31
0.0
  0
LINE
  5
3EA
330
1F
100
AcDbEntity
  8
画層1
  6
Continuous
100
AcDbLine
 10
31217.1385380702
 20
19318.7532914853
 30
0.0
 11
31300.28853807034
 21
19318.7532914853
 31
0.0
  0
LINE
  5
3EB
330
1F
100
AcDbEntity
  8
画層1
  6
Continuous
100
AcDbLine
 10
31262.48853807029
 20
19343.75329148577
 30
0.0
 11
31375.28853807034
 21
19343.75329148577
 31
0.0
  0
LINE
  5
3EC
330
1F
100
AcDbEntity
  8
画層1
  6
Continuous
100
AcDbLine
 10
31350.28853807034
 20
19318.7532914853
 30
0.0
 11
31350.28853807034
 21
19368.7532914853
 31
0.0
  0
LINE
  5
3ED
330
1F
100
AcDbEntity
  8
画層1
  6
Continuous
100
AcDbLine
 10
31300.28853807034
 20
19318.7532914853
 30
0.0
 11
31300.28853807034
 21
19368.7532914853
 31
0.0
  0
LINE
  5
3EE
330
1F
100
AcDbEntity
  8
寸法
  6
Continuous
 62
     3
100
AcDbLine
 10
15965.18500422944
 20
24971.24641113405
 30
0.0
 11
24618.70473743302
 21
24971.24641113405
 31
0.0
  0
LINE
  5
3EF
330
1F
100
AcDbEntity
  8
寸法
  6
Continuous
 62
     3
100
AcDbLine
 10
15965.18500422944
 20
25031.24641113172
 30
0.0
 11
24618.70473743302
 21
25031.24641113172
 31
0.0
  0
MTEXT
  5
3F0
102
{ACAD_REACTORS
330
3F1
102
}
330
1F
100
AcDbEntity
  8
寸法文字
  6
Continuous
100
AcDbMText
 10
13255.63218780046
 20
23887.32641464914
 30
0.0
 40
300.0
 41
0.0
 71
     7
 72
     1
  1
端末・コーナー補強ポールφ114.3×3.0mm
  7
1_100
 73
     1
 44
1.0
1001
ACAD
1000
ACAD_MTEXT_DEFINED_HEIGHT_BEGIN
1070
    46
1040
0.0
1000
ACAD_MTEXT_DEFINED_HEIGHT_END
1000
MTEXTBEGIN
1070
    73
1070
     1
1070
    44
1040
1.0
1070
    74
1070
     0
1000
MTEXTEND
  0
LEADER
  5
3F1
330
1F
100
AcDbEntity
  8
寸法引出
  6
Continuous
100
AcDbLeader
  3
1_100
 71
     0
 73
     0
 74
     0
 75
     1
 40
300.0
 41
5880.0
 76
     3
 10
12292.1805155442
 20
22292.60908792616
 30
0.0
 10
13095.63218780046
 20
23787.32641464914
 30
0.0
 10
13155.63218780046
 20
23787.32641464914
 30
0.0
340
3F0
  0
LEADER
  5
3F2
330
1F
100
AcDbEntity
  8
寸法引出
  6
Continuous
100
AcDbLeader
  3
1_100
 71
     0
 73
     0
 74
     0
 75
     1
 40
346.6666666666666
 41
3117.142857142857
 76
     3
 10
15799.9161702891
 20
22323.75329148529
 30
0.0
 10
16059.79823604667
 20
22833.85900378437
 30
0.0
 10
16119.79823604667
 20
22833.85900378437
 30
0.0
340
3F3
  0
MTEXT
  5
3F3
102
{ACAD_REACTORS
330
3F2
102
}
330
1F
100
AcDbEntity
  8
寸法文字
  6
Continuous
100
AcDbMText
 10
16219.79823604667
 20
22933.85900378436
 30
0.0
 40
300.0
 41
0.0
 71
     7
 72
     1
  1
メッセンワイヤー38m㎡
  7
1_100
 73
     1
 44
1.0
1001
ACAD
1000
MTEXTBEGIN
1070
    73
1070
     1
1070
    44
1040
1.0
1070
    74
1070
     0
1000
MTEXTEND
  0
LWPOLYLINE
  5
3F4
330
1F
100
AcDbEntity
  8
画層1-1
  6
Continuous
100
AcDbPolyline
 90
        4
 70
     1
 43
0.0
 10
19117.13853807032
 20
22330.90329148533
 10
9533.438538070365
 20
22330.90329148533
 10
9533.438538070365
 20
22216.6032914854
 10
19117.13853807032
 20
22216.6032914854
  0
LINE
  5
3F5
102
{ACAD_REACTORS
330
33F
102
}
330
1F
100
AcDbEntity
  8
画層1
  6
Continuous
100
AcDbLine
 10
25825.28853807034
 20
22323.75329148529
 30
0.0
 11
9325.288538070342
 21
22323.75329148529
 31
0.0
  0
LEADER
  5
3F6
330
1F
100
AcDbEntity
  8
寸法引出
  6
Continuous
100
AcDbLeader
  3
1_100
 71
     0
 73
     0
 75
     1
 40
300.0
 41
2940.000000000001
 76
     3
 10
9325.288538070342
 20
22383.75329148531
 30
0.0
 10
8257.103692533394
 20
23360.46485596027
 30
0.0
 10
8197.103692533394
 20
23360.46485596027
 30
0.0
340
3F7
  0
MTEXT
  5
3F7
102
{ACAD_REACTORS
330
3F6
102
}
330
1F
100
AcDbEntity
  8
寸法文字
  6
Continuous
100
AcDbMText
 10
8097.103692533393
 20
23460.46485596029
 30
0.0
 40
300.0
 41
0.0
 71
     9
 72
     1
  1
上部ネット下り防止付き
  7
1_100
 73
     1
 44
1.0
1001
ACAD
1000
MTEXTBEGIN
1070
    73
1070
     1
1070
    44
1040
1.0
1070
    74
1070
     0
1000
MTEXTEND
  0
CIRCLE
  5
3F8
330
1F
100
AcDbEntity
  8
画層1
  6
Continuous
100
AcDbCircle
 10
9458.438538070366
 20
22323.75329148529
 30
0.0
 40
10.9509940156
  0
LWPOLYLINE
  5
3F9
330
1F
100
AcDbEntity
  8
画層1
100
AcDbPolyline
 90
        4
 70
     1
 43
0.0
 10
9558.438538070365
 20
22343.52957082394
 10
9712.988538070412
 20
22343.52957082394
 10
9712.988538070412
 20
22303.52957082394
 10
9558.438538070365
 20
22303.52957082394
  0
LINE
  5
3FA
330
1F
100
AcDbEntity
  8
画層1
  6
Continuous
100
AcDbLine
 10
9483.438538070364
 20
22298.7532914853
 30
0.0
 11
9483.438538070364
 21
22348.7532914853
 31
0.0
  0
LINE
  5
3FB
330
1F
100
AcDbEntity
  8
画層1
  6
Continuous
100
AcDbLine
 10
9558.888538070318
 20
22323.75329148529
 30
0.0
 11
9483.438538070364
 21
22323.75329148529
 31
0.0
  0
LINE
  5
3FC
330
1F
100
AcDbEntity
  8
画層1
  6
Continuous
100
AcDbLine
 10
9483.438538070364
 20
22248.75329148531
 30
0.0
 11
9483.438538070364
 21
22298.7532914853
 31
0.0
  0
CIRCLE
  5
3FD
330
1F
100
AcDbEntity
  8
画層1
  6
Continuous
100
AcDbCircle
 10
9458.438538070366
 20
22273.7532914853
 30
0.0
 40
10.9509940156
  0
LINE
  5
3FE
330
1F
100
AcDbEntity
  8
画層1-1
  6
Continuous
100
AcDbLine
 10
9533.438538070365
 20
22273.75329148542
 30
0.0
 11
9483.438538070364
 21
22273.7532914853
 31
0.0
  0
LINE
  5
3FF
330
1F
100
AcDbEntity
  8
画層1
  6
Continuous
100
AcDbLine
 10
9217.138538070321
 20
22363.75329148529
 30
0.0
 11
9433.438538070365
 21
22363.75329148529
 31
0.0
  0
LINE
  5
400
330
1F
100
AcDbEntity
  8
画層1
  6
Continuous
100
AcDbLine
 10
9217.138538070321
 20
22383.75329148531
 30
0.0
 11
9433.438538070365
 21
22383.75329148531
 31
0.0
  0
CIRCLE
  5
401
330
1F
100
AcDbEntity
  8
画層1
  6
Continuous
100
AcDbCircle
 10
9192.138538070318
 20
22323.75329148529
 30
0.0
 40
10.9509940156
  0
LINE
  5
402
330
1F
100
AcDbEntity
  8
画層1
  6
Continuous
100
AcDbLine
 10
9167.138538070318
 20
22348.7532914853
 30
0.0
 11
9167.138538070318
 21
22298.7532914853
 31
0.0
  0
LINE
  5
403
330
1F
100
AcDbEntity
  8
画層1
  6
Continuous
100
AcDbLine
 10
9167.138538070318
 20
22298.7532914853
 30
0.0
 11
9167.138538070318
 21
22248.75329148531
 31
0.0
  0
CIRCLE
  5
404
330
1F
100
AcDbEntity
  8
画層1
  6
Continuous
100
AcDbCircle
 10
9192.138538070318
 20
22273.7532914853
 30
0.0
 40
10.9509940156
  0
LINE
  5
405
330
1F
100
AcDbEntity
  8
画層1
  6
Continuous
100
AcDbLine
 10
9300.288538070342
 20
22298.7532914853
 30
0.0
 11
9300.288538070342
 21
22348.7532914853
 31
0.0
  0
LINE
  5
406
330
1F
100
AcDbEntity
  8
画層1
  6
Continuous
100
AcDbLine
 10
9350.288538070342
 20
22298.7532914853
 30
0.0
 11
9350.288538070342
 21
22348.7532914853
 31
0.0
  0
LINE
  5
407
330
1F
100
AcDbEntity
  8
画層1
  6
Continuous
100
AcDbLine
 10
9350.288538070342
 20
22248.75329148531
 30
0.0
 11
9350.288538070342
 21
22298.7532914853
 31
0.0
  0
LINE
  5
408
330
1F
100
AcDbEntity
  8
画層1
  6
Continuous
100
AcDbLine
 10
9300.288538070342
 20
22248.75329148531
 30
0.0
 11
9300.288538070342
 21
22298.7532914853
 31
0.0
  0
LINE
  5
409
330
1F
100
AcDbEntity
  8
画層1
  6
Continuous
100
AcDbLine
 10
9167.138538070318
 20
22298.7532914853
 30
0.0
 11
9483.438538070364
 21
22298.7532914853
 31
0.0
  0
LINE
  5
40A
330
1F
100
AcDbEntity
  8
画層1
  6
Continuous
100
AcDbLine
 10
9483.438538070364
 20
22348.7532914853
 30
0.0
 11
9167.138538070318
 21
22348.7532914853
 31
0.0
  0
DIMENSION
  5
40B
330
1F
100
AcDbEntity
  8
寸法
  6
Continuous
100
AcDbDimension
  2
*D26
 10
9433.438538070248
 20
22983.75329148542
 30
0.0
 11
9325.288538070225
 21
23283.75329148542
 31
0.0
 70
    32
  1
φ<>
 71
     5
 42
216.3000000000466
  3
1_100
100
AcDbAlignedDimension
 13
9217.138538070202
 23
22383.75329148531
 33
0.0
 14
9433.438538070248
 24
22383.75329148531
 34
0.0
100
AcDbRotatedDimension
  0
LINE
  5
40C
330
1F
100
AcDbEntity
  8
画層1
  6
Continuous
100
AcDbLine
 10
9483.438538070364
 20
22298.7532914853
 30
0.0
 11
9167.138538070318
 21
22298.7532914853
 31
0.0
  0
LINE
  5
40D
330
1F
100
AcDbEntity
  8
画層1
  6
Continuous
100
AcDbLine
 10
9167.138538070318
 20
22248.75329148531
 30
0.0
 11
9483.438538070364
 21
22248.75329148531
 31
0.0
  0
MTEXT
  5
40E
330
1F
100
AcDbEntity
  8
寸法文字
  6
Continuous
100
AcDbMText
 10
13372.09391602104
 20
23608.19617952057
 30
0.0
 40
300.0
 41
0.0
 71
     1
 72
     1
  1
（STK-540鋼管）
  7
1_100
 73
     1
 44
1.0
1001
ACAD
1000
ACAD_MTEXT_DEFINED_HEIGHT_BEGIN
1070
    46
1040
0.0
1000
ACAD_MTEXT_DEFINED_HEIGHT_END
1000
MTEXTBEGIN
1070
    73
1070
     1
1070
    44
1040
1.0
1070
    74
1070
     0
1000
MTEXTEND
  0
MTEXT
  5
40F
102
{ACAD_REACTORS
330
410
102
}
330
1F
100
AcDbEntity
  8
寸法文字
  6
Continuous
100
AcDbMText
 10
20748.63432698137
 20
23438.6669745522
 30
0.0
 40
300.0
 41
0.0
 71
     7
 72
     1
  1
ネット上下6mm合繊ロープに4mm合繊\Pロープにて38m㎡ワイヤーに巻付
  7
1_100
 73
     1
 44
1.0
1001
ACAD
1000
MTEXTBEGIN
1070
    73
1070
     1
1070
    44
1040
1.0
1070
    74
1070
     0
1000
MTEXTEND
  0
LEADER
  5
410
330
1F
100
AcDbEntity
  8
寸法引出
  6
Continuous
100
AcDbLeader
  3
1_100
 71
     0
 73
     0
 74
     0
 75
     1
 40
846.6666666666665
 41
5162.142857142854
 76
     3
 10
20069.42093638279
 20
22323.75329148529
 30
0.0
 10
20588.63432698136
 20
23338.66697455221
 30
0.0
 10
20648.63432698136
 20
23338.66697455221
 30
0.0
340
40F
  0
LINE
  5
411
330
1F
100
AcDbEntity
  8
画層1
  6
Continuous
100
AcDbLine
 10
19217.13853807032
 20
22363.75329148529
 30
0.0
 11
19433.43853807036
 21
22363.75329148529
 31
0.0
  0
LINE
  5
412
330
1F
100
AcDbEntity
  8
画層1
  6
Continuous
100
AcDbLine
 10
19217.13853807032
 20
22383.75329148531
 30
0.0
 11
19433.43853807036
 21
22383.75329148531
 31
0.0
  0
LINE
  5
413
330
1F
100
AcDbEntity
  8
画層1
  6
Continuous
100
AcDbLine
 10
19167.13853807032
 20
22298.7532914853
 30
0.0
 11
19483.43853807036
 21
22298.7532914853
 31
0.0
  0
LINE
  5
414
330
1F
100
AcDbEntity
  8
画層1
  6
Continuous
100
AcDbLine
 10
19483.43853807036
 20
22348.7532914853
 30
0.0
 11
19167.13853807032
 21
22348.7532914853
 31
0.0
  0
LINE
  5
415
330
1F
100
AcDbEntity
  8
画層1
  6
Continuous
100
AcDbLine
 10
19300.28853807034
 20
22298.7532914853
 30
0.0
 11
19300.28853807034
 21
22348.7532914853
 31
0.0
  0
LINE
  5
416
330
1F
100
AcDbEntity
  8
画層1
  6
Continuous
100
AcDbLine
 10
19350.28853807034
 20
22298.7532914853
 30
0.0
 11
19350.28853807034
 21
22348.7532914853
 31
0.0
  0
LINE
  5
417
330
1F
100
AcDbEntity
  8
画層1
  6
Continuous
100
AcDbLine
 10
19167.13853807032
 20
22348.7532914853
 30
0.0
 11
19167.13853807032
 21
22298.7532914853
 31
0.0
  0
CIRCLE
  5
418
330
1F
100
AcDbEntity
  8
画層1
  6
Continuous
100
AcDbCircle
 10
19192.13853807032
 20
22323.75329148529
 30
0.0
 40
10.9509940156
  0
LINE
  5
419
330
1F
100
AcDbEntity
  8
画層1
  6
Continuous
100
AcDbLine
 10
19483.43853807036
 20
22298.7532914853
 30
0.0
 11
19483.43853807036
 21
22348.7532914853
 31
0.0
  0
CIRCLE
  5
41A
330
1F
100
AcDbEntity
  8
画層1
  6
Continuous
100
AcDbCircle
 10
19458.43853807036
 20
22323.75329148529
 30
0.0
 40
10.9509940156
  0
CIRCLE
  5
41B
330
1F
100
AcDbEntity
  8
画層1
  6
Continuous
100
AcDbCircle
 10
19458.43853807036
 20
22273.7532914853
 30
0.0
 40
10.9509940156
  0
LINE
  5
41C
330
1F
100
AcDbEntity
  8
画層1
  6
Continuous
100
AcDbLine
 10
19483.43853807036
 20
22248.75329148531
 30
0.0
 11
19483.43853807036
 21
22298.7532914853
 31
0.0
  0
CIRCLE
  5
41D
330
1F
100
AcDbEntity
  8
画層1
  6
Continuous
100
AcDbCircle
 10
19192.13853807032
 20
22273.7532914853
 30
0.0
 40
10.9509940156
  0
LINE
  5
41E
330
1F
100
AcDbEntity
  8
画層1
  6
Continuous
100
AcDbLine
 10
19167.13853807032
 20
22298.7532914853
 30
0.0
 11
19167.13853807032
 21
22248.75329148531
 31
0.0
  0
LINE
  5
41F
330
1F
100
AcDbEntity
  8
画層1
  6
Continuous
100
AcDbLine
 10
19350.28853807034
 20
22248.75329148531
 30
0.0
 11
19350.28853807034
 21
22298.7532914853
 31
0.0
  0
LINE
  5
420
330
1F
100
AcDbEntity
  8
画層1
  6
Continuous
100
AcDbLine
 10
19300.28853807034
 20
22248.75329148531
 30
0.0
 11
19300.28853807034
 21
22298.7532914853
 31
0.0
  0
LINE
  5
421
330
1F
100
AcDbEntity
  8
画層1
  6
Continuous
100
AcDbLine
 10
19167.13853807032
 20
22248.75329148531
 30
0.0
 11
19483.43853807036
 21
22248.75329148531
 31
0.0
  0
LINE
  5
422
330
1F
100
AcDbEntity
  8
画層1
  6
Continuous
100
AcDbLine
 10
19483.43853807036
 20
22298.7532914853
 30
0.0
 11
19167.13853807032
 21
22298.7532914853
 31
0.0
  0
LINE
  5
423
330
1F
100
AcDbEntity
  8
画層1-1
  6
Continuous
100
AcDbLine
 10
19117.13853807032
 20
22273.75329148542
 30
0.0
 11
19167.13853807032
 21
22273.7532914853
 31
0.0
  0
MTEXT
  5
424
330
1F
100
AcDbEntity
  8
寸法
  6
Continuous
 62
     3
100
AcDbMText
 10
20291.94487083026
 20
25128.79603800268
 30
0.0
 40
500.0
 41
0.0
 71
     8
 72
     1
  1
防球ネット　ＫＳ－Ⅰ型　Ｈ＝９,０００
  7
MSP明朝
 73
     1
 44
1.0
1001
ACAD
1000
ACAD_MTEXT_DEFINED_HEIGHT_BEGIN
1070
    46
1040
0.0
1000
ACAD_MTEXT_DEFINED_HEIGHT_END
1000
MTEXTBEGIN
1070
    73
1070
     1
1070
    44
1040
1.0
1070
    74
1070
     0
1000
MTEXTEND
  0
DIMENSION
  5
425
330
1F
100
AcDbEntity
  8
寸法
  6
Continuous
100
AcDbDimension
  2
*D27
 10
27325.28853807034
 20
22383.75329148542
 30
0.0
 11
27056.85718927294
 21
22649.55768607923
 31
0.0
 70
   160
 71
     5
 42
60.0
  3
1_100
100
AcDbAlignedDimension
 13
26325.28853807034
 23
22323.75329148542
 33
0.0
 14
26325.28853807034
 24
22383.75329148542
 34
0.0
 50
90.0
100
AcDbRotatedDimension
  0
LINE
  5
426
330
1F
100
AcDbEntity
  8
画層1
  6
Continuous
100
AcDbLine
 10
31167.1385380702
 20
22323.75329148577
 30
0.0
 11
31217.1385380702
 21
22323.75329148577
 31
0.0
  0
LINE
  5
427
330
1F
100
AcDbEntity
  8
画層1
  6
Continuous
100
AcDbLine
 10
31167.1385380702
 20
22348.7532914853
 30
0.0
 11
31167.1385380702
 21
22298.7532914853
 31
0.0
  0
LINE
  5
428
330
1F
100
AcDbEntity
  8
画層1
  6
Continuous
100
AcDbLine
 10
31217.1385380702
 20
22383.75329148531
 30
0.0
 11
31433.43853807025
 21
22383.75329148531
 31
0.0
  0
LINE
  5
429
330
1F
100
AcDbEntity
  8
画層1
  6
Continuous
100
AcDbLine
 10
31217.1385380702
 20
22363.75329148529
 30
0.0
 11
31433.43853807025
 21
22363.75329148529
 31
0.0
  0
LINE
  5
42A
330
1F
100
AcDbEntity
  8
画層1
  6
Continuous
100
AcDbLine
 10
31433.43853807025
 20
22348.7532914853
 30
0.0
 11
31350.28853807034
 21
22348.7532914853
 31
0.0
  0
LINE
  5
42B
330
1F
100
AcDbEntity
  8
画層1
  6
Continuous
100
AcDbLine
 10
31350.28853807034
 20
22298.7532914853
 30
0.0
 11
31433.43853807025
 21
22298.7532914853
 31
0.0
  0
LINE
  5
42C
330
1F
100
AcDbEntity
  8
画層1
  6
Continuous
100
AcDbLine
 10
31300.28853807034
 20
22348.7532914853
 30
0.0
 11
31217.1385380702
 21
22348.7532914853
 31
0.0
  0
LINE
  5
42D
330
1F
100
AcDbEntity
  8
画層1
  6
Continuous
100
AcDbLine
 10
31217.1385380702
 20
22298.7532914853
 30
0.0
 11
31300.28853807034
 21
22298.7532914853
 31
0.0
  0
LINE
  5
42E
330
1F
100
AcDbEntity
  8
画層1
  6
Continuous
100
AcDbLine
 10
31262.48853807029
 20
22323.75329148577
 30
0.0
 11
31375.28853807034
 21
22323.75329148577
 31
0.0
  0
LINE
  5
42F
330
1F
100
AcDbEntity
  8
画層1
  6
Continuous
100
AcDbLine
 10
31350.28853807034
 20
22298.7532914853
 30
0.0
 11
31350.28853807034
 21
22348.7532914853
 31
0.0
  0
LINE
  5
430
330
1F
100
AcDbEntity
  8
画層1
  6
Continuous
100
AcDbLine
 10
31300.28853807034
 20
22298.7532914853
 30
0.0
 11
31300.28853807034
 21
22348.7532914853
 31
0.0
  0
DIMENSION
  5
431
330
1F
100
AcDbEntity
  8
寸法
  6
Continuous
100
AcDbDimension
  2
*D28
 10
31433.43853807025
 20
22983.7532914853
 30
0.0
 11
31325.28853807023
 21
23283.7532914853
 31
0.0
 70
    32
  1
φ<>
 71
     5
 42
216.3000000000466
  3
1_100
100
AcDbAlignedDimension
 13
31217.1385380702
 23
22383.75329148531
 33
0.0
 14
31433.43853807025
 24
22383.75329148531
 34
0.0
100
AcDbRotatedDimension
  0
DIMENSION
  5
432
330
1F
100
AcDbEntity
  8
寸法
  6
Continuous
100
AcDbDimension
  2
*D29
 10
33925.28853807035
 20
22383.75329148542
 30
0.0
 11
33656.85718927295
 21
22649.55768607923
 31
0.0
 70
   160
 71
     5
 42
60.0
  3
1_100
100
AcDbAlignedDimension
 13
32825.28853807034
 23
22323.75329148542
 33
0.0
 14
32825.28853807034
 24
22383.75329148542
 34
0.0
 50
90.0
100
AcDbRotatedDimension
  0
MTEXT
  5
9F2
330
1F
100
AcDbEntity
  8
寸法文字
  6
Continuous
100
AcDbMText
 10
12217.54071348442
 20
21274.78879759193
 30
0.0
 40
200.0
 41
0.0
 71
     1
 72
     1
  1
※KRP-40　1100D18本40mm目（再生ポリエステル100%）\P※KSP-24　37.5mm目（ｽｰﾊﾟｰﾎﾟﾘｴﾁﾚﾝ）
  7
1_100
 73
     1
 44
1.0
1001
ACAD
1000
MTEXTBEGIN
1070
    73
1070
     1
1070
    44
1040
1.0
1070
    74
1070
     0
1000
MTEXTEND
  0
MTEXT
  5
9F3
330
1F
100
AcDbEntity
  8
寸法文字
  6
Continuous
100
AcDbMText
 10
12192.97186118183
 20
21456.56171572662
 30
0.0
 40
300.0
 41
0.0
 71
     7
 72
     1
  1
ネット\Pクレモナ250D/80本×37.5mm目
  7
1_100
 73
     1
 44
0.6
1001
ACAD
1000
MTEXTBEGIN
1070
    73
1070
     1
1070
    44
1040
0.6
1070
    74
1070
     0
1000
MTEXTEND
  0
LEADER
  5
9F4
330
1F
100
AcDbEntity
  8
寸法引出
100
AcDbLeader
  3
1_50
 71
     0
 76
     3
 10
11666.96046350017
 20
20715.07866775954
 30
0.0
 10
11992.97186118183
 20
21356.56171572662
 30
0.0
 10
17912.07944129621
 20
21356.56171572662
 30
0.0
1001
ACAD
1000
DSTYLE
1002
{
1070
    41
1040
1.0
1070
   341
1005
87
1070
   147
1040
0.625
1070
    77
1070
     0
1002
}
  0
ENDSEC
  0
SECTION
  2
OBJECTS
  0
DICTIONARY
  5
C
330
0
100
AcDbDictionary
281
     1
  3
ACAD_COLOR
350
6B
  3
ACAD_GROUP
350
D
  3
ACAD_LAYOUT
350
1A
  3
ACAD_MATERIAL
350
6A
  3
ACAD_MLINESTYLE
350
17
  3
ACAD_PLOTSETTINGS
350
19
  3
ACAD_PLOTSTYLENAME
350
E
  3
ACAD_TABLESTYLE
350
6FD
  3
ACDBHEADERROUNDTRIPXREC
350
9FF
  3
AcDbVariableDictionary
350
5E
  3
ADE_QUERY_LIBRARY
350
9FA
  3
AEC_CLASSIFICATION_SYSTEM_DEFS
350
9F0
  3
AEC_VARS
350
733
  3
ASE_INDEX_DICTIONARY
350
9F8
  3
Autodesk_MAP
350
705
  3
DWGPROPS
350
9FE
  3
Root
350
70E
1001
ADE
1000
ADE02C004
1000
[Query]
1000
CaseSensitiveMatch=0
1000
SaveCurrQueryInSession=1
1000
MkSelSetWithQryObj=0
1000
ShowBlockAsInsPt=0
1000
CreateAssociativeHatchObjects=0
1000
ReferenceBoundaryForAreaLocation=1
1000
ShowImageAsBoundary=1
1000
DefaultJoinOperator=2
1000
ColorForAdd=red
1000
ColorForRemove=red
1000
BlockLocnForQuery=1
1000
TextLocnForQuery=1
1000
IncludeAllObjectsInGroups=0
1000
AlwaysUseLibraryDefinitions=0
1000
PreviewDefinitionsFrom=2
1000
[Save Back]
1000
RedefineBlockDefinitions=1
1000
RedefineLayerDefinitions=1
1000
RedefineTextStyleDefinitions=1
1000
RemoveUnusedGroups=1
1000
EraseSavedBackObjects=1
1000
RemoveLockAfterSave=1
1000
CreateHistoryFileOfChanges=0
1000
CreateBackupFileOfSourceDwg=1
1000
DontAddObjectsToSaveSet=0
1000
MarkObjectsForEditingWithoutPrompting=0
1000
[Coordinate Transformation]
1000
RestoreLastActiveDwgsOnStartup=1
1000
ActivateDwgsOnAttach=1
1000
AdjustSizesAndScalesForChangesInUnits=1
1000
AdjustRotationsForMapDistortions=1
1000
AdjustSizesAndScalesForMapDistortions=1
1000
AdjustElevations=1
1000
AdjustZeroRotationObjects=1
1000
ReconnectDbOnWSOpen=1
1000
NoOfSQLConditionsInHistory=10
  0
DICTIONARY
  5
6B
102
{ACAD_REACTORS
330
C
102
}
330
C
100
AcDbDictionary
281
     1
  0
DICTIONARY
  5
D
102
{ACAD_REACTORS
330
C
102
}
330
C
100
AcDbDictionary
281
     1
  0
DICTIONARY
  5
1A
102
{ACAD_REACTORS
330
C
102
}
330
C
100
AcDbDictionary
281
     1
  3
Model
350
22
  3
レイアウト1
350
51
  3
レイアウト2
350
56
  0
DICTIONARY
  5
6A
102
{ACAD_REACTORS
330
C
102
}
330
C
100
AcDbDictionary
281
     1
  0
DICTIONARY
  5
17
102
{ACAD_REACTORS
330
C
102
}
330
C
100
AcDbDictionary
281
     1
  3
Standard
350
18
  0
DICTIONARY
  5
19
102
{ACAD_REACTORS
330
C
102
}
330
C
100
AcDbDictionary
281
     1
  0
ACDBDICTIONARYWDFLT
  5
E
102
{ACAD_REACTORS
330
C
102
}
330
C
100
AcDbDictionary
281
     1
  3
Normal
350
F
100
AcDbDictionaryWithDefault
340
F
  0
DICTIONARY
  5
6FD
102
{ACAD_REACTORS
330
C
102
}
330
C
100
AcDbDictionary
281
     1
  3
Legend
350
709
  3
Standard
350
6FE
  0
DICTIONARY
  5
9FF
102
{ACAD_REACTORS
330
C
102
}
330
C
100
AcDbDictionary
281
     1
  0
DICTIONARY
  5
5E
102
{ACAD_REACTORS
330
C
102
}
330
C
100
AcDbDictionary
281
     1
  3
CTABLESTYLE
350
9FC
  3
DIMASSOC
350
5F
  3
HIDETEXT
350
63
  3
PROJECTNAME
350
699
  0
DICTIONARY
  5
9FA
102
{ACAD_REACTORS
330
C
102
}
330
C
100
AcDbDictionary
281
     1
  3
_CurrQry
350
9FB
  0
DICTIONARY
  5
9F0
102
{ACAD_REACTORS
330
C
102
}
330
C
100
AcDbDictionary
281
     1
  0
DICTIONARY
  5
733
102
{ACAD_REACTORS
330
C
102
}
330
C
100
AcDbDictionary
281
     1
  3
AEC_VARS_DWG_SETUP
350
734
  0
DICTIONARY
  5
9F8
102
{ACAD_REACTORS
330
C
102
}
330
C
100
AcDbDictionary
281
     1
  3
ASEBlockHierarchyIndexRecord
350
9F9
1001
DCO15
1040
1621574018.718
  0
DICTIONARY
  5
705
102
{ACAD_REACTORS
330
C
102
}
330
C
100
AcDbDictionary
281
     1
  3
MAP_DISPLAY_MANAGEMENT_DICTIONARY
350
706
  3
MAP_DISPLAY_STYLELIBRARY_DICTIONARY
350
707
  0
XRECORD
  5
9FE
102
{ACAD_REACTORS
330
C
102
}
330
C
100
AcDbXrecord
280
     1
  1
DWGPROPS COOKIE
  2

  3

  4

  6

  7

  8

  9

300
=
301
=
302
=
303
=
304
=
305
=
306
=
307
=
308
=
309
=
 40
0.0395815509259259
 41
2454357.831240046
 42
2454571.429661088
  1

 90
        0
  0
LAYOUT
  5
22
102
{ACAD_XDICTIONARY
360
A00
102
}
102
{ACAD_REACTORS
330
1A
102
}
330
1A
100
AcDbPlotSettings
  1

  2
EPSON PM-3000C
  4
A4
  6

 40
3.757083177566528
 41
14.7637300491333
 42
3.757080078125
 43
3.757080078125
 44
209.9733276367186
 45
296.9683227539062
 46
0.0
 47
0.0
 48
0.0
 49
0.0
140
0.0
141
0.0
142
1.0
143
143.6278785926825
 70
 11952
 72
     1
 73
     1
 74
     0
  7
2.ctb
 75
     0
147
0.0069624366090926
148
-622.8830190614752
149
1009.852408523335
100
AcDbLayout
  1
Model
 70
     1
 71
     0
 10
0.0
 20
0.0
 11
12.0
 21
9.0
 12
0.0
 22
0.0
 32
0.0
 14
0.0
 24
0.0
 34
0.0
 15
0.0
 25
0.0
 35
0.0
146
0.0
 13
0.0
 23
0.0
 33
0.0
 16
1.0
 26
0.0
 36
0.0
 17
0.0
 27
1.0
 37
0.0
 76
     0
330
1F
  0
LAYOUT
  5
51
102
{ACAD_XDICTIONARY
360
A02
102
}
102
{ACAD_REACTORS
330
1A
102
}
330
1A
100
AcDbPlotSettings
  1

  2
None
  4

  6

 40
0.0
 41
0.0
 42
0.0
 43
0.0
 44
0.0
 45
0.0
 46
0.0
 47
0.0
 48
0.0
 49
0.0
140
0.0
141
0.0
142
1.0
143
1.0
 70
   688
 72
     0
 73
     0
 74
     5
  7

 75
    16
147
1.0
148
0.0
149
0.0
100
AcDbLayout
  1
レイアウト1
 70
     1
 71
     1
 10
0.0
 20
0.0
 11
12.0
 21
9.0
 12
0.0
 22
0.0
 32
0.0
 14
0.0
 24
0.0
 34
0.0
 15
0.0
 25
0.0
 35
0.0
146
0.0
 13
0.0
 23
0.0
 33
0.0
 16
1.0
 26
0.0
 36
0.0
 17
0.0
 27
1.0
 37
0.0
 76
     0
330
50
  0
LAYOUT
  5
56
102
{ACAD_XDICTIONARY
360
A04
102
}
102
{ACAD_REACTORS
330
1A
102
}
330
1A
100
AcDbPlotSettings
  1

  2
None
  4

  6

 40
0.0
 41
0.0
 42
0.0
 43
0.0
 44
0.0
 45
0.0
 46
0.0
 47
0.0
 48
0.0
 49
0.0
140
0.0
141
0.0
142
1.0
143
1.0
 70
   688
 72
     0
 73
     0
 74
     5
  7

 75
    16
147
1.0
148
0.0
149
0.0
100
AcDbLayout
  1
レイアウト2
 70
     1
 71
     2
 10
0.0
 20
0.0
 11
12.0
 21
9.0
 12
0.0
 22
0.0
 32
0.0
 14
0.0
 24
0.0
 34
0.0
 15
0.0
 25
0.0
 35
0.0
146
0.0
 13
0.0
 23
0.0
 33
0.0
 16
1.0
 26
0.0
 36
0.0
 17
0.0
 27
1.0
 37
0.0
 76
     0
330
55
  0
MLINESTYLE
  5
18
102
{ACAD_REACTORS
330
17
102
}
330
17
100
AcDbMlineStyle
  2
STANDARD
 70
     0
  3

 62
   256
 51
90.0
 52
90.0
 71
     2
 49
0.5
 62
   256
  6
BYLAYER
 49
-0.5
 62
   256
  6
BYLAYER
  0
ACDBPLACEHOLDER
  5
F
102
{ACAD_REACTORS
330
E
102
}
330
E
  0
TABLESTYLE
  5
709
102
{ACAD_REACTORS
330
6FD
102
}
330
6FD
100
AcDbTableStyle
  3

 70
     0
 71
     1
 40
0.06
 41
0.06
280
     0
281
     0
  7
Standard
140
0.4
170
     4
 62
     0
 63
     7
283
     0
274
    -2
284
     0
 64
     0
275
    -2
285
     0
 65
     0
276
    -2
286
     1
 66
     0
277
    -2
287
     1
 67
     0
278
    -2
288
     0
 68
     0
279
    -2
289
     1
 69
     0
  7
Standard
140
0.5
170
     5
 62
     0
 63
     7
283
     0
274
    -2
284
     1
 64
     0
275
    -2
285
     0
 65
     0
276
    -2
286
     1
 66
     0
277
    -2
287
     1
 67
     0
278
    -2
288
     0
 68
     0
279
    -2
289
     1
 69
     0
  7
Standard
140
0.4
170
     4
 62
     0
 63
     7
283
     0
274
    -2
284
     1
 64
     0
275
    -2
285
     0
 65
     0
276
    -2
286
     1
 66
     0
277
    -2
287
     1
 67
     0
278
    -2
288
     0
 68
     0
279
    -2
289
     1
 69
     0
  0
TABLESTYLE
  5
6FE
102
{ACAD_REACTORS
330
6FD
102
}
330
6FD
100
AcDbTableStyle
  3
Standard
 70
     0
 71
     0
 40
1.5
 41
1.5
280
     0
281
     0
  7
Standard
140
4.5
170
     2
 62
     0
 63
     7
283
     0
274
    -2
284
     1
 64
     0
275
    -2
285
     1
 65
     0
276
    -2
286
     1
 66
     0
277
    -2
287
     1
 67
     0
278
    -2
288
     1
 68
     0
279
    -2
289
     1
 69
     0
  7
Standard
140
6.0
170
     5
 62
     0
 63
     7
283
     0
274
    -2
284
     1
 64
     0
275
    -2
285
     1
 65
     0
276
    -2
286
     1
 66
     0
277
    -2
287
     1
 67
     0
278
    -2
288
     1
 68
     0
279
    -2
289
     1
 69
     0
  7
Standard
140
4.5
170
     5
 62
     0
 63
     7
283
     0
274
    -2
284
     1
 64
     0
275
    -2
285
     1
 65
     0
276
    -2
286
     1
 66
     0
277
    -2
287
     1
 67
     0
278
    -2
288
     1
 68
     0
279
    -2
289
     1
 69
     0
  0
DICTIONARYVAR
  5
9FC
102
{ACAD_REACTORS
330
5E
102
}
330
5E
100
DictionaryVariables
280
     0
  1
STANDARD
  0
DICTIONARYVAR
  5
5F
102
{ACAD_REACTORS
330
5E
102
}
330
5E
100
DictionaryVariables
280
     0
  1
2
  0
DICTIONARYVAR
  5
63
102
{ACAD_REACTORS
330
5E
102
}
330
5E
100
DictionaryVariables
280
     0
  1
1
  0
DICTIONARYVAR
  5
699
102
{ACAD_REACTORS
330
5E
102
}
330
5E
100
DictionaryVariables
280
     0
  1

  0
XRECORD
  5
9FB
102
{ACAD_REACTORS
330
9FA
102
}
330
9FA
100
AcDbXrecord
280
     1
1000
ADE02C001
1070
     1
1070
     0
1002
{
1002
}
1002
{
1002
}
1002
{
1002
}
1000

  0
XRECORD
  5
9F9
102
{ACAD_REACTORS
330
9F8
102
}
330
9F8
100
AcDbXrecord
280
     1
330
3A8
330
3A9
330
3C5
330
3C6
330
3C7
330
36E
330
3A7
330
377
330
37C
330
576
330
577
330
57F
330
580
330
588
330
589
330
591
330
592
330
59A
330
59B
330
5A4
330
5A5
330
5AE
330
5AF
330
5B7
330
5B8
330
5C0
330
5C1
330
5CA
330
5CB
330
5D4
330
5D5
330
5E0
330
5E1
330
5EB
330
5EC
330
5F3
330
5F4
330
5FF
330
600
330
607
330
608
330
610
330
611
330
619
330
61A
330
625
330
626
330
62D
330
62E
330
636
330
637
330
642
330
643
330
64D
330
64E
330
658
330
659
330
663
330
664
  0
DMMAPMANAGER
  5
706
102
{ACAD_REACTORS
330
705
102
}
330
705
100
AcDbDictionary
281
     1
  3
DisplayMap1
350
708
100
AcDbDictionaryWithDefault
340
708
100
AcMapDMMapManager
 70
     1
340
708
  0
DMSTYLELIBRARY
  5
707
102
{ACAD_REACTORS
330
705
102
}
330
705
100
AcMapDMStyleLibrary
 70
     1
 70
     1
360
70D
  0
DICTIONARY
  5
A00
330
22
100
AcDbDictionary
280
     1
281
     1
  3
ACAD_XREC_ROUNDTRIP
360
A01
  0
DICTIONARY
  5
A02
330
51
100
AcDbDictionary
280
     1
281
     1
  3
ACAD_XREC_ROUNDTRIP
360
A03
  0
DICTIONARY
  5
A04
330
56
100
AcDbDictionary
280
     1
281
     1
  3
ACAD_XREC_ROUNDTRIP
360
A05
  0
DMMAP
  5
708
102
{ACAD_REACTORS
330
706
330
70A
102
}
330
706
100
AcMapDMMap
 70
     1
  1
既定値
 70
     1
330
0
100
AcMapDMMap
 70
     1
 90
        1
360
70A
 90
        1
 40
1.797693134862314E+99
 70
     1
100
AcMapDMMap
 70
     2
 70
     0
 40
1.797693134862314E+99
290
     0
290
     1
 40
1.0
 40
3.0
  1
Legend
 90
        1
 40
1.797693134862314E+99
  1

 70
     0
 40
1.0
 70
     1
 90
        0
 90
        1
360
70B
  0
DMSTYLECATEGORY
  5
70D
102
{ACAD_REACTORS
330
707
102
}
330
707
100
AcMapDMStyleCategory
 70
     1
  1
スタイルを表示
 70
     0
  0
XRECORD
  5
A01
102
{ACAD_REACTORS
330
A00
102
}
330
A00
100
AcDbXrecord
280
     1
102
SHADEPLOT
 70
     0
102
SHADEPLOTRESLEVEL
 70
     2
102
SHADEPLOTCUSTOMDPI
 70
   300
  0
XRECORD
  5
A03
102
{ACAD_REACTORS
330
A02
102
}
330
A02
100
AcDbXrecord
280
     1
102
SHADEPLOT
 70
     0
102
SHADEPLOTRESLEVEL
 70
     2
102
SHADEPLOTCUSTOMDPI
 70
   300
  0
XRECORD
  5
A05
102
{ACAD_REACTORS
330
A04
102
}
330
A04
100
AcDbXrecord
280
     1
102
SHADEPLOT
 70
     0
102
SHADEPLOTRESLEVEL
 70
     2
102
SHADEPLOTCUSTOMDPI
 70
   300
  0
DMBASEELEMENT
  5
70A
102
{ACAD_REACTORS
330
708
102
}
330
708
100
AcMapDMBaseElement
 70
     1
  1
マップ ベース
 70
     1
330
708
100
AcMapDMBaseElement
 70
     1
  1

 70
     2
  1

 70
     1
 40
1.797693134862314E+99
 70
     1
 70
     1
 70
     1
 70
     1
360
70C
100
AcMapDMBaseElement
 70
     1
  0
DMDEFAULTSTYLE
  5
70B
102
{ACAD_REACTORS
330
708
102
}
330
708
100
AcMapDMDefaultStyle
 70
     1
 90
        1
  1
既定値
100
AcMapDMDefaultStyle
 70
     1
280
   100
 90
     0
  0
DMSTYLEREFERENCE
  5
70C
330
70A
100
AcMapDMStyleReference
 70
     1
 70
     0
340
70B
330
708
  0
ENDSEC
  0
EOF
