  0
SECTION
  2
HEADER
  9
$ACADVER
  1
AC1015
  9
$ACADMAINTVER
 70
    20
  9
$DWGCODEPAGE
  3
ANSI_932
  9
$INSBASE
 10
0.0
 20
0.0
 30
0.0
  9
$EXTMIN
 10
763.3358185586549
 20
433.1006959779697
 30
-0.0015258207003583
  9
$EXTMAX
 10
39767.48558576964
 20
26577.29343696062
 30
0.0000000349246037
  9
$LIMMIN
 10
0.0
 20
0.0
  9
$LIMMAX
 10
420.0
 20
297.0
  9
$ORTHOMODE
 70
     0
  9
$REGENMODE
 70
     1
  9
$FILLMODE
 70
     1
  9
$QTEXTMODE
 70
     0
  9
$MIRRTEXT
 70
     0
  9
$LTSCALE
 40
1.0
  9
$ATTMODE
 70
     1
  9
$TEXTSIZE
 40
2.5
  9
$TRACEWID
 40
1.0
  9
$TEXTSTYLE
  7
Standard
  9
$CLAYER
  8
0
  9
$CELTYPE
  6
ByLayer
  9
$CECOLOR
 62
   256
  9
$CELTSCALE
 40
1.0
  9
$DISPSILH
 70
     0
  9
$DIMSCALE
 40
500.0
  9
$DIMASZ
 40
2.5
  9
$DIMEXO
 40
0.625
  9
$DIMDLI
 40
3.75
  9
$DIMRND
 40
0.0
  9
$DIMDLE
 40
0.0
  9
$DIMEXE
 40
1.25
  9
$DIMTP
 40
0.0
  9
$DIMTM
 40
0.0
  9
$DIMTXT
 40
2.5
  9
$DIMCEN
 40
2.5
  9
$DIMTSZ
 40
0.0
  9
$DIMTOL
 70
     0
  9
$DIMLIM
 70
     0
  9
$DIMTIH
 70
     0
  9
$DIMTOH
 70
     0
  9
$DIMSE1
 70
     0
  9
$DIMSE2
 70
     0
  9
$DIMTAD
 70
     1
  9
$DIMZIN
 70
     8
  9
$DIMBLK
  1

  9
$DIMASO
 70
     1
  9
$DIMSHO
 70
     1
  9
$DIMPOST
  1

  9
$DIMAPOST
  1

  9
$DIMALT
 70
     0
  9
$DIMALTD
 70
     3
  9
$DIMALTF
 40
0.03937007874016
  9
$DIMLFAC
 40
1.0
  9
$DIMTOFL
 70
     1
  9
$DIMTVP
 40
0.0
  9
$DIMTIX
 70
     0
  9
$DIMSOXD
 70
     0
  9
$DIMSAH
 70
     0
  9
$DIMBLK1
  1

  9
$DIMBLK2
  1

  9
$DIMSTYLE
  2
ISO-25
  9
$DIMCLRD
 70
     0
  9
$DIMCLRE
 70
     0
  9
$DIMCLRT
 70
     0
  9
$DIMTFAC
 40
1.0
  9
$DIMGAP
 40
0.625
  9
$DIMJUST
 70
     0
  9
$DIMSD1
 70
     0
  9
$DIMSD2
 70
     0
  9
$DIMTOLJ
 70
     0
  9
$DIMTZIN
 70
     8
  9
$DIMALTZ
 70
     0
  9
$DIMALTTZ
 70
     0
  9
$DIMUPT
 70
     0
  9
$DIMDEC
 70
     2
  9
$DIMTDEC
 70
     2
  9
$DIMALTU
 70
     2
  9
$DIMALTTD
 70
     3
  9
$DIMTXSTY
  7
Standard
  9
$DIMAUNIT
 70
     0
  9
$DIMADEC
 70
     0
  9
$DIMALTRND
 40
0.0
  9
$DIMAZIN
 70
     0
  9
$DIMDSEP
 70
    44
  9
$DIMATFIT
 70
     3
  9
$DIMFRAC
 70
     0
  9
$DIMLDRBLK
  1

  9
$DIMLUNIT
 70
     2
  9
$DIMLWD
 70
    -2
  9
$DIMLWE
 70
    -2
  9
$DIMTMOVE
 70
     0
  9
$LUNITS
 70
     2
  9
$LUPREC
 70
     4
  9
$SKETCHINC
 40
1.0
  9
$FILLETRAD
 40
0.0
  9
$AUNITS
 70
     0
  9
$AUPREC
 70
     0
  9
$MENU
  1
.
  9
$ELEVATION
 40
0.0
  9
$PELEVATION
 40
0.0
  9
$THICKNESS
 40
0.0
  9
$LIMCHECK
 70
     0
  9
$CHAMFERA
 40
0.0
  9
$CHAMFERB
 40
0.0
  9
$CHAMFERC
 40
0.0
  9
$CHAMFERD
 40
0.0
  9
$SKPOLY
 70
     0
  9
$TDCREATE
 40
2454357.832997859
  9
$TDUCREATE
 40
2454357.457997859
  9
$TDUPDATE
 40
2454571.431199537
  9
$TDUUPDATE
 40
2454571.056199537
  9
$TDINDWG
 40
0.0279529167
  9
$TDUSRTIMER
 40
0.0279527431
  9
$USRTIMER
 70
     1
  9
$ANGBASE
 50
0.0
  9
$ANGDIR
 70
     0
  9
$PDMODE
 70
     0
  9
$PDSIZE
 40
0.0
  9
$PLINEWID
 40
0.0
  9
$SPLFRAME
 70
     0
  9
$SPLINETYPE
 70
     6
  9
$SPLINESEGS
 70
     8
  9
$HANDSEED
  5
A8A
  9
$SURFTAB1
 70
     6
  9
$SURFTAB2
 70
     6
  9
$SURFTYPE
 70
     6
  9
$SURFU
 70
     6
  9
$SURFV
 70
     6
  9
$UCSBASE
  2

  9
$UCSNAME
  2

  9
$UCSORG
 10
0.0
 20
0.0
 30
0.0
  9
$UCSXDIR
 10
1.0
 20
0.0
 30
0.0
  9
$UCSYDIR
 10
0.0
 20
1.0
 30
0.0
  9
$UCSORTHOREF
  2

  9
$UCSORTHOVIEW
 70
     0
  9
$UCSORGTOP
 10
0.0
 20
0.0
 30
0.0
  9
$UCSORGBOTTOM
 10
0.0
 20
0.0
 30
0.0
  9
$UCSORGLEFT
 10
0.0
 20
0.0
 30
0.0
  9
$UCSORGRIGHT
 10
0.0
 20
0.0
 30
0.0
  9
$UCSORGFRONT
 10
0.0
 20
0.0
 30
0.0
  9
$UCSORGBACK
 10
0.0
 20
0.0
 30
0.0
  9
$PUCSBASE
  2

  9
$PUCSNAME
  2

  9
$PUCSORG
 10
0.0
 20
0.0
 30
0.0
  9
$PUCSXDIR
 10
1.0
 20
0.0
 30
0.0
  9
$PUCSYDIR
 10
0.0
 20
1.0
 30
0.0
  9
$PUCSORTHOREF
  2

  9
$PUCSORTHOVIEW
 70
     0
  9
$PUCSORGTOP
 10
0.0
 20
0.0
 30
0.0
  9
$PUCSORGBOTTOM
 10
0.0
 20
0.0
 30
0.0
  9
$PUCSORGLEFT
 10
0.0
 20
0.0
 30
0.0
  9
$PUCSORGRIGHT
 10
0.0
 20
0.0
 30
0.0
  9
$PUCSORGFRONT
 10
0.0
 20
0.0
 30
0.0
  9
$PUCSORGBACK
 10
0.0
 20
0.0
 30
0.0
  9
$USERI1
 70
     0
  9
$USERI2
 70
     0
  9
$USERI3
 70
     0
  9
$USERI4
 70
     0
  9
$USERI5
 70
     0
  9
$USERR1
 40
0.0
  9
$USERR2
 40
0.0
  9
$USERR3
 40
0.0
  9
$USERR4
 40
0.0
  9
$USERR5
 40
0.0
  9
$WORLDVIEW
 70
     1
  9
$SHADEDGE
 70
     3
  9
$SHADEDIF
 70
    70
  9
$TILEMODE
 70
     1
  9
$MAXACTVP
 70
    64
  9
$PINSBASE
 10
0.0
 20
0.0
 30
0.0
  9
$PLIMCHECK
 70
     0
  9
$PEXTMIN
 10
0.0
 20
0.0
 30
0.0
  9
$PEXTMAX
 10
0.0
 20
0.0
 30
0.0
  9
$PLIMMIN
 10
0.0
 20
0.0
  9
$PLIMMAX
 10
12.0
 20
9.0
  9
$UNITMODE
 70
     0
  9
$VISRETAIN
 70
     1
  9
$PLINEGEN
 70
     0
  9
$PSLTSCALE
 70
     1
  9
$TREEDEPTH
 70
  3020
  9
$CMLSTYLE
  2
Standard
  9
$CMLJUST
 70
     0
  9
$CMLSCALE
 40
20.0
  9
$PROXYGRAPHICS
 70
     1
  9
$MEASUREMENT
 70
     1
  9
$CELWEIGHT
370
    -1
  9
$ENDCAPS
280
     0
  9
$JOINSTYLE
280
     0
  9
$LWDISPLAY
290
     0
  9
$INSUNITS
 70
     6
  9
$HYPERLINKBASE
  1

  9
$STYLESHEET
  1
2.CTB
  9
$XEDIT
290
     1
  9
$CEPSNTYPE
380
     0
  9
$PSTYLEMODE
290
     1
  9
$FINGERPRINTGUID
  2
{FDEAD578-A652-11D2-9A35-0060089B3A3F}
  9
$VERSIONGUID
  2
{704EDA23-1474-46FC-AAD0-0136796BAD8B}
  9
$EXTNAMES
290
     1
  9
$PSVPSCALE
 40
0.0
  9
$OLESTARTUP
290
     0
  0
ENDSEC
  0
SECTION
  2
CLASSES
  0
CLASS
  1
ACDBDICTIONARYWDFLT
  2
AcDbDictionaryWithDefault
  3
ObjectDBX Classes
 90
        0
280
     0
281
     0
  0
CLASS
  1
ACDBPLACEHOLDER
  2
AcDbPlaceHolder
  3
ObjectDBX Classes
 90
        0
280
     0
281
     0
  0
CLASS
  1
LAYOUT
  2
AcDbLayout
  3
ObjectDBX Classes
 90
        0
280
     0
281
     0
  0
CLASS
  1
DICTIONARYVAR
  2
AcDbDictionaryVar
  3
ObjectDBX Classes
 90
        0
280
     0
281
     0
  0
CLASS
  1
SORTENTSTABLE
  2
AcDbSortentsTable
  3
ObjectDBX Classes
 90
    32768
280
     0
281
     0
  0
CLASS
  1
TABLESTYLE
  2
AcDbTableStyle
  3
ObjectDBX Classes
 90
     2047
280
     0
281
     0
  0
CLASS
  1
AECC_TREE_NODE
  2
AeccDbTreeNode
  3
AeccvBase10|Product Desc: Autodesk Civil 3D |Company: Autodesk,Inc. |WEB Address: www.autodesk.com
 90
     1023
280
     0
281
     0
  0
CLASS
  1
AECC_CLASS_NODE
  2
AeccDbClassNode
  3
AeccLand10|Product Desc: Autodesk Civil 3D |Company: Autodesk,Inc. |WEB Address: www.autodesk.com
 90
     1023
280
     0
281
     0
  0
CLASS
  1
AECC_ROOT_SETTINGS_NODE
  2
AeccDbRootSettingsNode
  3
AeccvBase10|Product Desc: Autodesk Civil 3D |Company: Autodesk,Inc. |WEB Address: www.autodesk.com
 90
     1023
280
     0
281
     0
  0
CLASS
  1
AEC_VARS_DWG_SETUP
  2
AecDbVarsDwgSetup
  3
AecBase40|Product Desc: Autodesk Architectural Desktop 2005 |Company: Autodesk,Inc. |WEB Address: www.autodesk.com
 90
      129
280
     0
281
     0
  0
CLASS
  1
DMMAPMANAGER
  2
AcMapDMMapManager
  3
AcMapDisplayManagement
 90
     1024
280
     0
281
     0
  0
CLASS
  1
DMSTYLELIBRARY
  2
AcMapDMStyleLibrary
  3
AcMapDisplayManagement
 90
     1024
280
     0
281
     0
  0
CLASS
  1
DMMAP
  2
AcMapDMMap
  3
AcMapDisplayManagement
 90
     1024
280
     0
281
     0
  0
CLASS
  1
DMBASEELEMENT
  2
AcMapDMBaseElement
  3
AcMapDisplayManagement
 90
     1024
280
     0
281
     0
  0
CLASS
  1
DMDEFAULTSTYLE
  2
AcMapDMDefaultStyle
  3
AcMapDisplayManagement
 90
     1024
280
     0
281
     0
  0
CLASS
  1
DMSTYLEREFERENCE
  2
AcMapDMStyleReference
  3
AcMapDisplayManagement
 90
     1024
280
     0
281
     0
  0
CLASS
  1
DMSTYLECATEGORY
  2
AcMapDMStyleCategory
  3
AcMapDisplayManagement
 90
     1024
280
     0
281
     0
  0
CLASS
  1
AECC_SETTINGS_NODE
  2
AeccDbSettingsNode
  3
AeccvBase10|Product Desc: Autodesk Civil 3D |Company: Autodesk,Inc. |WEB Address: www.autodesk.com
 90
     1023
280
     0
281
     0
  0
CLASS
  1
AECC_PROFILE_VIEW_STYLE
  2
AeccDbGraphStyleProfile
  3
AeccLand10|Product Desc: Autodesk Civil 3D |Company: Autodesk,Inc. |WEB Address: www.autodesk.com
 90
      129
280
     0
281
     0
  0
CLASS
  1
AECC_PROFILE_VIEW_BAND_STYLE_SET
  2
AeccDbGraphProfileBandStyleSet
  3
AeccLand10|Product Desc: Autodesk Civil 3D |Company: Autodesk,Inc. |WEB Address: www.autodesk.com
 90
      129
280
     0
281
     0
  0
CLASS
  1
AECC_PROFILE_VIEW_DATA_BAND_STYLE
  2
AeccDbGraphStyleProfileDataBands
  3
AeccLand10|Product Desc: Autodesk Civil 3D |Company: Autodesk,Inc. |WEB Address: www.autodesk.com
 90
      129
280
     0
281
     0
  0
CLASS
  1
AECC_LABEL_NODE
  2
AeccDbLabelNode
  3
AeccLand10|Product Desc: Autodesk Civil 3D |Company: Autodesk,Inc. |WEB Address: www.autodesk.com
 90
     1023
280
     0
281
     0
  0
CLASS
  1
AECC_LABEL_COLLECTOR_STYLE
  2
AeccDbLabelStyleCollector
  3
AeccLand10|Product Desc: Autodesk Civil 3D |Company: Autodesk,Inc. |WEB Address: www.autodesk.com
 90
     1023
280
     0
281
     0
  0
CLASS
  1
AECC_LABEL_TEXT_STYLE
  2
AeccDbLabelStyleText
  3
AeccLand10|Product Desc: Autodesk Civil 3D |Company: Autodesk,Inc. |WEB Address: www.autodesk.com
 90
     1023
280
     0
281
     0
  0
CLASS
  1
AECC_PROFILE_VIEW_HORIZONTAL_GEOMETRY_BAND_STYLE
  2
AeccDbGraphStyleHorGeometryBands
  3
AeccLand10|Product Desc: Autodesk Civil 3D |Company: Autodesk,Inc. |WEB Address: www.autodesk.com
 90
      129
280
     0
281
     0
  0
CLASS
  1
AECC_PROFILE_VIEW_VERTICAL_GEOMETRY_BAND_STYLE
  2
AeccDbGraphStyleVertGeometryBands
  3
AeccLand10|Product Desc: Autodesk Civil 3D |Company: Autodesk,Inc. |WEB Address: www.autodesk.com
 90
      129
280
     0
281
     0
  0
CLASS
  1
AECC_LABEL_RADIAL_LINE_STYLE
  2
AeccDbLabelStyleRadialLine
  3
AeccLand10|Product Desc: Autodesk Civil 3D |Company: Autodesk,Inc. |WEB Address: www.autodesk.com
 90
     1023
280
     0
281
     0
  0
CLASS
  1
AECC_POINT_STYLE
  2
AeccDbPointStyle
  3
AeccLand10|Product Desc: Autodesk Civil 3D |Company: Autodesk,Inc. |WEB Address: www.autodesk.com
 90
      895
280
     0
281
     0
  0
CLASS
  1
AECC_PROFILE_LABEL_SET
  2
AeccDbVAlignStnLabelsDlgTemplate
  3
AeccLand10|Product Desc: Autodesk Civil 3D |Company: Autodesk,Inc. |WEB Address: www.autodesk.com
 90
     1023
280
     0
281
     0
  0
CLASS
  1
AECC_SECTION_VIEW_STYLE
  2
AeccDbGraphStyleCrossSection
  3
AeccLand10|Product Desc: Autodesk Civil 3D |Company: Autodesk,Inc. |WEB Address: www.autodesk.com
 90
      129
280
     0
281
     0
  0
CLASS
  1
AECC_SECTION_VIEW_BAND_STYLE_SET
  2
AeccDbGraphSectionBandStyleSet
  3
AeccLand10|Product Desc: Autodesk Civil 3D |Company: Autodesk,Inc. |WEB Address: www.autodesk.com
 90
      129
280
     0
281
     0
  0
CLASS
  1
AECC_SECTION_VIEW_DATA_BAND_STYLE
  2
AeccDbGraphStyleSectionDataBands
  3
AeccLand10|Product Desc: Autodesk Civil 3D |Company: Autodesk,Inc. |WEB Address: www.autodesk.com
 90
      129
280
     0
281
     0
  0
CLASS
  1
AECC_SECTION_LABEL_SET
  2
AeccDbSectionLabelsDlgTemplate
  3
AeccLand10|Product Desc: Autodesk Civil 3D |Company: Autodesk,Inc. |WEB Address: www.autodesk.com
 90
     1023
280
     0
281
     0
  0
CLASS
  1
AECC_ALIGNMENT_STYLE
  2
AeccDbAlignmentStyle
  3
AeccLand10|Product Desc: Autodesk Civil 3D |Company: Autodesk,Inc. |WEB Address: www.autodesk.com
 90
     1023
280
     0
281
     0
  0
CLASS
  1
AECC_LABEL_VECTOR_ARROW_STYLE
  2
AeccDbLabelStyleVectorArrow
  3
AeccLand10|Product Desc: Autodesk Civil 3D |Company: Autodesk,Inc. |WEB Address: www.autodesk.com
 90
     1023
280
     0
281
     0
  0
CLASS
  1
AECC_ALIGNMENT_LABEL_SET
  2
AeccDbAlignStnLabelsDlgTemplate
  3
AeccLand10|Product Desc: Autodesk Civil 3D |Company: Autodesk,Inc. |WEB Address: www.autodesk.com
 90
     1023
280
     0
281
     0
  0
CLASS
  1
AECC_SURFACE_STYLE
  2
AeccDbSurfaceStyle
  3
AeccLand10|Product Desc: Autodesk Civil 3D |Company: Autodesk,Inc. |WEB Address: www.autodesk.com
 90
      129
280
     0
281
     0
  0
CLASS
  1
AECC_LEGEND_TABLE_STYLE
  2
AeccDbLegendScheduleTableStyle
  3
AeccLand10|Product Desc: Autodesk Civil 3D |Company: Autodesk,Inc. |WEB Address: www.autodesk.com
 90
     1023
280
     0
281
     0
  0
CLASS
  1
AECC_SECTION_STYLE
  2
AeccDbSectionStyle
  3
AeccLand10|Product Desc: Autodesk Civil 3D |Company: Autodesk,Inc. |WEB Address: www.autodesk.com
 90
     1023
280
     0
281
     0
  0
CLASS
  1
AECC_GRADING_STYLE
  2
AeccDbGradingStyle
  3
AeccLand10|Product Desc: Autodesk Civil 3D |Company: Autodesk,Inc. |WEB Address: www.autodesk.com
 90
     1023
280
     0
281
     0
  0
CLASS
  1
AECC_GRADING_CRITERIA
  2
AeccDbGradingCriteria
  3
AeccLand10|Product Desc: Autodesk Civil 3D |Company: Autodesk,Inc. |WEB Address: www.autodesk.com
 90
     1023
280
     0
281
     0
  0
CLASS
  1
AECC_PARCEL_STYLE
  2
AeccDbParcelStyle
  3
AeccLand10|Product Desc: Autodesk Civil 3D |Company: Autodesk,Inc. |WEB Address: www.autodesk.com
 90
      129
280
     0
281
     0
  0
CLASS
  1
AECC_SAMPLE_LINE_GROUP_STYLE
  2
AeccDbSampleLineGroupStyle
  3
AeccLand10|Product Desc: Autodesk Civil 3D |Company: Autodesk,Inc. |WEB Address: www.autodesk.com
 90
      129
280
     0
281
     0
  0
CLASS
  1
AECC_SHEET_STYLE
  2
AeccDbSheetStyle
  3
AeccLand10|Product Desc: Autodesk Civil 3D |Company: Autodesk,Inc. |WEB Address: www.autodesk.com
 90
      129
280
     0
281
     0
  0
CLASS
  1
AECC_SAMPLE_LINE_STYLE
  2
AeccDbSampleLineStyle
  3
AeccLand10|Product Desc: Autodesk Civil 3D |Company: Autodesk,Inc. |WEB Address: www.autodesk.com
 90
     1023
280
     0
281
     0
  0
CLASS
  1
AECC_PROFILE_STYLE
  2
AeccDbVAlignmentStyle
  3
AeccLand10|Product Desc: Autodesk Civil 3D |Company: Autodesk,Inc. |WEB Address: www.autodesk.com
 90
     1023
280
     0
281
     0
  0
CLASS
  1
AECC_STATION_FORMAT_STYLE
  2
AeccDbStationFormatStyle
  3
AeccLand10|Product Desc: Autodesk Civil 3D |Company: Autodesk,Inc. |WEB Address: www.autodesk.com
 90
     1023
280
     0
281
     0
  0
CLASS
  1
AECC_TABLE_STYLE
  2
AeccDbScheduleTableStyle
  3
AeccLand10|Product Desc: Autodesk Civil 3D |Company: Autodesk,Inc. |WEB Address: www.autodesk.com
 90
     1023
280
     0
281
     0
  0
CLASS
  1
AECC_GRADING_CRITERIA_SET
  2
AeccDbGradingCriteriaSet
  3
AeccLand10|Product Desc: Autodesk Civil 3D |Company: Autodesk,Inc. |WEB Address: www.autodesk.com
 90
     1023
280
     0
281
     0
  0
CLASS
  1
AECC_FORMAT_MANAGER_OBJECT
  2
AeccDbFormatManagerObject
  3
AeccLand10|Product Desc: Autodesk Civil 3D |Company: Autodesk,Inc. |WEB Address: www.autodesk.com
 90
     1023
280
     0
281
     0
  0
CLASS
  1
AECC_POINT_DESCRIPTION_KEY_SET_NODE
  2
AeccDbPointDescKeySetsNode
  3
AeccvBase10|Product Desc: Autodesk Civil 3D |Company: Autodesk,Inc. |WEB Address: www.autodesk.com
 90
     1023
280
     0
281
     0
  0
ENDSEC
  0
SECTION
  2
TABLES
  0
TABLE
  2
VPORT
  5
8
330
0
100
AcDbSymbolTable
 70
     2
  0
VPORT
  5
A82
330
8
100
AcDbSymbolTableRecord
100
AcDbViewportTableRecord
  2
*Active
 70
     0
 10
0.0
 20
0.0
 11
1.0
 21
1.0
 12
20265.41070216415
 22
13505.19706646929
 13
0.0
 23
0.0
 14
10.0
 24
10.0
 15
10.0
 25
10.0
 16
0.0
 26
0.0
 36
1.0
 17
0.0
 27
0.0
 37
0.0
 40
62900.55806054628
 41
0.6282940360610265
 42
50.0
 43
0.0
 44
0.0
 50
0.0
 51
0.0
 71
     0
 72
  1000
 73
     1
 74
     1
 75
     0
 76
     0
 77
     0
 78
     0
281
     0
 65
     1
110
0.0
120
0.0
130
0.0
111
1.0
121
0.0
131
0.0
112
0.0
122
1.0
132
0.0
 79
     0
146
0.0
  0
ENDTAB
  0
TABLE
  2
LTYPE
  5
5
330
0
100
AcDbSymbolTable
 70
     3
  0
LTYPE
  5
14
330
5
100
AcDbSymbolTableRecord
100
AcDbLinetypeTableRecord
  2
ByBlock
 70
     0
  3

 72
    65
 73
     0
 40
0.0
  0
LTYPE
  5
15
330
5
100
AcDbSymbolTableRecord
100
AcDbLinetypeTableRecord
  2
ByLayer
 70
     0
  3

 72
    65
 73
     0
 40
0.0
  0
LTYPE
  5
16
330
5
100
AcDbSymbolTableRecord
100
AcDbLinetypeTableRecord
  2
Continuous
 70
     0
  3
Solid line
 72
    65
 73
     0
 40
0.0
  0
LTYPE
  5
214
330
5
100
AcDbSymbolTableRecord
100
AcDbLinetypeTableRecord
  2
DASHED
 70
     0
  3
__ __ __ __ __ __ __ __ __ __ __ __ __ __ __
 72
    65
 73
     2
 40
3.0
 49
2.0
 74
     0
 49
-1.0
 74
     0
  0
LTYPE
  5
215
330
5
100
AcDbSymbolTableRecord
100
AcDbLinetypeTableRecord
  2
DASHDOT
 70
     0
  3
__ . __ . __ . __ . __ . __ . __ . __ . __ . __
 72
    65
 73
     4
 40
8.5
 49
6.0
 74
     0
 49
-1.0
 74
     0
 49
0.5
 74
     0
 49
-1.0
 74
     0
  0
ENDTAB
  0
TABLE
  2
LAYER
  5
2
330
0
100
AcDbSymbolTable
 70
    13
  0
LAYER
  5
10
330
2
100
AcDbSymbolTableRecord
100
AcDbLayerTableRecord
  2
0
 70
     0
 62
     7
  6
Continuous
370
    -3
390
F
  0
LAYER
  5
216
330
2
100
AcDbSymbolTableRecord
100
AcDbLayerTableRecord
  2
DEFPOINTS
 70
     0
 62
     4
  6
Continuous
290
     0
370
    -3
390
F
  0
LAYER
  5
217
330
2
100
AcDbSymbolTableRecord
100
AcDbLayerTableRecord
  2
寸法
 70
     0
 62
     6
  6
Continuous
370
    -3
390
F
  0
LAYER
  5
218
330
2
100
AcDbSymbolTableRecord
100
AcDbLayerTableRecord
  2
画層1-1
 70
     0
 62
    82
  6
Continuous
370
    -3
390
F
  0
LAYER
  5
219
330
2
100
AcDbSymbolTableRecord
100
AcDbLayerTableRecord
  2
図面枠
 70
     0
 62
     7
  6
Continuous
370
    -3
390
F
  0
LAYER
  5
21A
330
2
100
AcDbSymbolTableRecord
100
AcDbLayerTableRecord
  2
ﾊｯﾁﾝｸﾞ
 70
     0
 62
     1
  6
Continuous
370
    -3
390
F
  0
LAYER
  5
21B
330
2
100
AcDbSymbolTableRecord
100
AcDbLayerTableRecord
  2
画層2
 70
     0
 62
    40
  6
Continuous
370
    -3
390
F
  0
LAYER
  5
21C
330
2
100
AcDbSymbolTableRecord
100
AcDbLayerTableRecord
  2
通り芯
 70
     0
 62
     4
  6
Continuous
370
    13
390
F
  0
LAYER
  5
21D
330
2
100
AcDbSymbolTableRecord
100
AcDbLayerTableRecord
  2
画層1
 70
     0
 62
     7
  6
Continuous
370
    -3
390
F
  0
LAYER
  5
21E
330
2
100
AcDbSymbolTableRecord
100
AcDbLayerTableRecord
  2
ﾈｯﾄ
 70
     0
 62
   230
  6
Continuous
370
    13
390
F
  0
LAYER
  5
21F
330
2
100
AcDbSymbolTableRecord
100
AcDbLayerTableRecord
  2
画層2-1
 70
     0
 62
     7
  6
Continuous
370
    -3
390
F
  0
LAYER
  5
220
330
2
100
AcDbSymbolTableRecord
100
AcDbLayerTableRecord
  2
寸法文字
 70
     0
 62
     6
  6
Continuous
370
    -3
390
F
  0
LAYER
  5
221
330
2
100
AcDbSymbolTableRecord
100
AcDbLayerTableRecord
  2
寸法引出
 70
     0
 62
     3
  6
Continuous
370
    -3
390
F
  0
ENDTAB
  0
TABLE
  2
STYLE
  5
3
330
0
100
AcDbSymbolTable
 70
     4
  0
STYLE
  5
11
330
3
100
AcDbSymbolTableRecord
100
AcDbTextStyleTableRecord
  2
Standard
 70
     0
 40
0.0
 41
1.0
 50
0.0
 71
     0
 42
2.5
  3
txt
  4

  0
STYLE
  5
222
330
3
100
AcDbSymbolTableRecord
100
AcDbTextStyleTableRecord
  2
1_100
 70
     0
 40
0.0
 41
0.75
 50
0.0
 71
     0
 42
2.5
  3
romans.shx
  4
extfont2.shx
  0
STYLE
  5
223
330
3
100
AcDbSymbolTableRecord
100
AcDbTextStyleTableRecord
  2
STYLE1
 70
     0
 40
0.0
 41
0.75
 50
0.0
 71
     0
 42
0.2
  3
HGRSKP.TTF
  4

1001
ACAD
1000
HGSeikaishotaiPRO
1071
    32833
  0
STYLE
  5
224
330
3
100
AcDbSymbolTableRecord
100
AcDbTextStyleTableRecord
  2
MSP明朝
 70
     0
 40
0.0
 41
0.75
 50
0.0
 71
     0
 42
0.2
  3
MS PMincho.ttf
  4

1001
ACAD
1000
MS PMincho
1071
    32786
  0
ENDTAB
  0
TABLE
  2
VIEW
  5
6
330
0
100
AcDbSymbolTable
 70
     0
  0
ENDTAB
  0
TABLE
  2
UCS
  5
7
330
0
100
AcDbSymbolTable
 70
     0
  0
ENDTAB
  0
TABLE
  2
APPID
  5
9
330
0
100
AcDbSymbolTable
 70
     4
  0
APPID
  5
12
330
9
100
AcDbSymbolTableRecord
100
AcDbRegAppTableRecord
  2
ACAD
 70
     0
  0
APPID
  5
227
330
9
100
AcDbSymbolTableRecord
100
AcDbRegAppTableRecord
  2
AcDbBlockRepETag
 70
     0
  0
APPID
  5
A6D
330
9
100
AcDbSymbolTableRecord
100
AcDbRegAppTableRecord
  2
ADE
 70
     0
  0
APPID
  5
A6E
330
9
100
AcDbSymbolTableRecord
100
AcDbRegAppTableRecord
  2
DCO15
 70
     0
  0
ENDTAB
  0
TABLE
  2
DIMSTYLE
  5
A
330
0
100
AcDbSymbolTable
 70
     4
100
AcDbDimStyleTable
 71
     0
  0
DIMSTYLE
105
27
330
A
100
AcDbSymbolTableRecord
100
AcDbDimStyleTableRecord
  2
ISO-25
 70
     0
 41
2.5
 42
0.625
 43
3.75
 44
1.25
 73
     0
 74
     0
 77
     1
 78
     8
140
2.5
141
2.5
143
0.03937007874016
147
0.625
171
     3
172
     1
271
     2
272
     2
274
     3
278
    44
283
     0
284
     8
340
11
  0
DIMSTYLE
105
225
330
A
100
AcDbSymbolTableRecord
100
AcDbDimStyleTableRecord
  2
STANDARD
 70
     0
340
11
  0
DIMSTYLE
105
226
102
{ACAD_REACTORS
330
371
330
374
330
37E
330
37F
330
38E
330
38F
330
390
330
391
330
392
330
393
330
399
330
3AB
330
3AC
330
3FD
330
3FE
330
400
330
401
330
402
330
414
330
41B
330
41E
330
41F
330
420
330
449
330
46E
330
485
330
487
102
}
330
A
100
AcDbSymbolTableRecord
100
AcDbDimStyleTableRecord
  2
1_100
 70
     0
 40
100.0
 41
0.6
 42
3.0
 43
10.0
 44
0.0
 73
     0
 74
     0
 77
     1
 78
     8
140
3.0
141
0.0
147
1.0
172
     1
173
     1
176
   256
177
   256
178
   256
271
     1
272
     1
277
     6
279
     2
284
     8
340
222
341
87
343
87
344
87
  0
DIMSTYLE
105
A6C
330
A
100
AcDbSymbolTableRecord
100
AcDbDimStyleTableRecord
  2
1_50
 70
     0
 40
50.0
 41
1.0
 42
3.0
 43
10.0
 44
0.0
 73
     0
 74
     0
 77
     1
 78
    12
140
3.0
141
0.0
147
1.0
172
     1
173
     1
176
   256
177
   256
178
   256
271
     1
272
     1
277
     6
279
     2
340
222
341
87
343
87
344
87
  0
ENDTAB
  0
TABLE
  2
BLOCK_RECORD
  5
1
330
0
100
AcDbSymbolTable
 70
    33
  0
BLOCK_RECORD
  5
1F
330
1
100
AcDbSymbolTableRecord
100
AcDbBlockTableRecord
  2
*Model_Space
340
22
  0
BLOCK_RECORD
  5
50
330
1
100
AcDbSymbolTableRecord
100
AcDbBlockTableRecord
  2
*Paper_Space
340
51
  0
BLOCK_RECORD
  5
55
330
1
100
AcDbSymbolTableRecord
100
AcDbBlockTableRecord
  2
*Paper_Space0
340
56
  0
BLOCK_RECORD
  5
87
330
1
100
AcDbSymbolTableRecord
100
AcDbBlockTableRecord
  2
_ORIGIN
340
0
102
{BLKREFS
331
5E7
331
5E8
331
5F0
331
5F1
331
5F9
331
5FA
331
602
331
603
331
60E
331
60F
331
616
331
617
331
622
331
623
331
62A
331
62B
331
633
331
634
331
63C
331
63D
331
645
331
646
331
650
331
651
331
65A
331
65B
331
665
331
666
331
66D
331
66E
331
678
331
679
331
684
331
685
331
68C
331
68D
331
695
331
696
331
69F
331
6A0
331
6A7
331
6A8
331
6B0
331
6B1
331
6BC
331
6BD
331
6C7
331
6C8
331
6CF
331
6D0
331
6DB
331
6DC
331
6E6
331
6E7
102
}
  0
BLOCK_RECORD
  5
8C
330
1
100
AcDbSymbolTableRecord
100
AcDbBlockTableRecord
  2
RM
340
0
310
28000000200000002000000001000800000000000004000000000000000000000000000000000000000000004000000080000000FF000000002000004020000080200000FF200000004000004040000080400000FF400000006000004060000080600000FF600000008000004080000080800000FF80000000A0000040A000
310
0080A00000FFA0000000C0000040C0000080C00000FFC0000000FF000040FF000080FF0000FFFF0000000020004000200080002000FF002000002020004020200080202000FF202000004020004040200080402000FF402000006020004060200080602000FF602000008020004080200080802000FF80200000A0200040A0
310
200080A02000FFA0200000C0200040C0200080C02000FFC0200000FF200040FF200080FF2000FFFF2000000040004000400080004000FF004000002040004020400080204000FF204000004040004040400080404000FF404000006040004060400080604000FF604000008040004080400080804000FF80400000A0400040
310
A0400080A04000FFA0400000C0400040C0400080C04000FFC0400000FF400040FF400080FF4000FFFF4000000060004000600080006000FF006000002060004020600080206000FF206000004060004040600080406000FF406000006060004060600080606000FF606000008060004080600080806000FF80600000A06000
310
40A0600080A06000FFA0600000C0600040C0600080C06000FFC0600000FF600040FF600080FF6000FFFF6000000080004000800080008000FF008000002080004020800080208000FF208000004080004040800080408000FF408000006080004060800080608000FF608000008080004080800080808000FF80800000A080
310
0040A0800080A08000FFA0800000C0800040C0800080C08000FFC0800000FF800040FF800080FF8000FFFF80000000A0004000A0008000A000FF00A0000020A0004020A0008020A000FF20A0000040A0004040A0008040A000FF40A0000060A0004060A0008060A000FF60A0000080A0004080A0008080A000FF80A00000A0
310
A00040A0A00080A0A000FFA0A00000C0A00040C0A00080C0A000FFC0A00000FFA00040FFA00080FFA000FFFFA0000000C0004000C0008000C000FF00C0000020C0004020C0008020C000FF20C0000040C0004040C0008040C000FF40C0000060C0004060C0008060C000FF60C0000080C0004080C0008080C000FF80C00000
310
A0C00040A0C00080A0C000FFA0C00000C0C00040C0C00080C0C000FFC0C00000FFC00040FFC00080FFC000FFFFC0000000FF004000FF008000FF00FF00FF000020FF004020FF008020FF00FF20FF000040FF004040FF008040FF00FF40FF000060FF004060FF008060FF00FF60FF000080FF004080FF008080FF00FF80FF00
310
00A0FF0040A0FF0080A0FF00FFA0FF0000C0FF0040C0FF0080C0FF00FFC0FF0000FFFF0040FFFF0080FFFF00FFFFFF00FFFFFFFFFFFFFFFFFFFFFFFFFFFFFFFFFFFFFFFFFFFFFFFFFFFFFFFFFFFFFFFFFFFFFFFFFFFFFFFFFFFFFFFFFFFFFFFFFFFFFFFFFFFFFFFFFFFFFFFFFFFFFFFFFFFFFFFFFFFFFFFFFFFFFFFFFFFFFF
310
FFFFFFFFFFFFFFFFFFFFFFFFFFFFFFFFFFFFFFFFFFFFFFFFFFFFFFFFFFFFFFFFFFFFFFFFFFFFFFFFFFFFFFFFFFFFFFFFFFFFFFFFFFFFFFFFFFFFFFFFFFFFFFFFFFFFFFFFFFFFFFFFFFFFFFFFFFFFFFFFFFFFFFFFFFFFFFFFFFFFFFFFFFFFFFFFFFFFFFFFFFFFFFFFFFFFFFFFFFFFFFFFFFFFFFFFFFFFFFFFFFFFFFFFFFFFFF
310
FFFFFFFFFFFFFFFFFFFFFFFFFFFFFFFFFFFFFFFFFFFFFFFFFFFFFFFFFFFFFFFFFFFFFFFFFFFFFFFFFFFFFFFFFFFFFFFFFFFFFFFFFFFFFFFFFFFFFFFFFFFFFFFFFFFFFFFFFFFFFFFFFFFFFFFFFFFFFFFFFFFFFFFFFFFFFFFFFFFFFFFFFFFFFFFFFFFFFFFFFFFFFFFFFFFFFFFFFFFFFFFFFFFFFFFFFFFFFFFFFFFFFFFFFFFFFF
310
FFFFFFFFFFFFFFFFFFFFFFFFFFFFFFFFFFFFFFFFFFFFFFFFFFFFFFFFFFFFFFFFFFFFFFFFFFFFFFFFFFFFFFFFFFFFFFFFFFFFFFFFFFE0FFFFFFFFE0FFFFE0FFFFFFFFE0FFFFFFE0E0FFFFFFE0FFFFFFE0FFFFFFFFFFFFE0FFFFFFFFE0E0FFFFFFFFE0FFFFFFE0FFFFE0FFE0FFFFFFE0FFFFFFFFFFFFFFFFE0FFFFFFE0E0FFFF
310
FFE0FFFFFFE0FFFFFFFFE0FFFFFFE0FFFFFFFFFFFFFFFFFFFFE0FFFFFFFFE0FFE0FFFFFFE0FFE0FFFFFFFFE0FFE0FFFFFFFFE0FFFFE0FFFFFFFFE0FFFFFFFFE0FFFFFFE0FFFFFFE0E0FFFFFFE0FFFFFFFFE0FFFFFFFFE0E0FFFFFFE0FFFFFFFFE0FFE0FFE0FFFFFFFFE0FFFFFFE0FFFFE0FFFFFFFFFFFFFFE0FFFFFFE0FFFF
310
FFFFE0FFFFFFE0FFFFFFFFE0FFFFFFE0E0FFFFFFFFFFFFFFFFFFE0FFFFFFE0FFFFFFFFE0FFFFFFE0FFFFFFFFE0FFFFFFE0FFFFFFFFFFFFFFFFFFFFFFFFFFFFFFFFFFFFFFFFFFFFFFFFFFFFFFFFFFFFFFFFFFFFFFFFFFFFFFFFFFFFFFFFFFFFFFFFFFFFFFFFFFFFFFFFFFFFFFFFFFFFFFFFFFFFFFFFFFFFFFFFFFFFFFFFFFFF
310
FFFFFFFFFFFFFFFFFFFFFFFFFFFFFFFFFFFFFFFFFFFFFFFFFFFFFFFFFFFFFFFFFFFFFFFFFFFFFFFFFFFFFFFFFFFFFFFFFFFFFFFFFFFFFFFFFFFFFFFFFFFFFFFFFFFFFFFFFFFFFFFFFFFFFFFFFFFFFFFFFFFFFFFFFFFFFFFFFFFFFFFFFFFFFFFFFFFFFFFFFFFFFFFFFFFFFFFFFFFFFFFFFFFFFFFFFFFFFFFFFFFFFFFFFFFFFF
310
FFFFFFFFFFFFFFFFFFFFFFFFFFFFFFFFFFFFFFFFFFFFFFFFFFFFFFFFFFFFFFFFFFFFFFFFFFFFFFFFFFFFFFFFFFFFFFFFFFFFFFFFFFFFFFFFFFFFFFFFFFFFFFFFFFFFFFFFFFFFFFFFFFFFFFFFFFFFFFFFFFFFFFFFFFFFFFFFFFFFFFFFFFFFFFFFFFFFFFFFFFFFFFFFFFFFFFFFFFFFFFFFFFFFFFFFFFFFFFFFFFFFFFFFFFFFFF
310
FFFFFFFFFFFFFFFFFFFFFFFFFFFFFFFFFFFFFFFFFFFFFFFFFFFFFFFFFFFFFFFFFFFFFFFFFFFFFFFFFFFFFFFFFFFFFFFFFFFFFFFFFFFFFFFF
102
{BLKREFS
331
39C
331
3CA
331
3F3
102
}
  0
BLOCK_RECORD
  5
9B
330
1
100
AcDbSymbolTableRecord
100
AcDbBlockTableRecord
  2
RH
340
0
310
28000000200000002000000001000800000000000004000000000000000000000000000000000000000000004000000080000000FF000000002000004020000080200000FF200000004000004040000080400000FF400000006000004060000080600000FF600000008000004080000080800000FF80000000A0000040A000
310
0080A00000FFA0000000C0000040C0000080C00000FFC0000000FF000040FF000080FF0000FFFF0000000020004000200080002000FF002000002020004020200080202000FF202000004020004040200080402000FF402000006020004060200080602000FF602000008020004080200080802000FF80200000A0200040A0
310
200080A02000FFA0200000C0200040C0200080C02000FFC0200000FF200040FF200080FF2000FFFF2000000040004000400080004000FF004000002040004020400080204000FF204000004040004040400080404000FF404000006040004060400080604000FF604000008040004080400080804000FF80400000A0400040
310
A0400080A04000FFA0400000C0400040C0400080C04000FFC0400000FF400040FF400080FF4000FFFF4000000060004000600080006000FF006000002060004020600080206000FF206000004060004040600080406000FF406000006060004060600080606000FF606000008060004080600080806000FF80600000A06000
310
40A0600080A06000FFA0600000C0600040C0600080C06000FFC0600000FF600040FF600080FF6000FFFF6000000080004000800080008000FF008000002080004020800080208000FF208000004080004040800080408000FF408000006080004060800080608000FF608000008080004080800080808000FF80800000A080
310
0040A0800080A08000FFA0800000C0800040C0800080C08000FFC0800000FF800040FF800080FF8000FFFF80000000A0004000A0008000A000FF00A0000020A0004020A0008020A000FF20A0000040A0004040A0008040A000FF40A0000060A0004060A0008060A000FF60A0000080A0004080A0008080A000FF80A00000A0
310
A00040A0A00080A0A000FFA0A00000C0A00040C0A00080C0A000FFC0A00000FFA00040FFA00080FFA000FFFFA0000000C0004000C0008000C000FF00C0000020C0004020C0008020C000FF20C0000040C0004040C0008040C000FF40C0000060C0004060C0008060C000FF60C0000080C0004080C0008080C000FF80C00000
310
A0C00040A0C00080A0C000FFA0C00000C0C00040C0C00080C0C000FFC0C00000FFC00040FFC00080FFC000FFFFC0000000FF004000FF008000FF00FF00FF000020FF004020FF008020FF00FF20FF000040FF004040FF008040FF00FF40FF000060FF004060FF008060FF00FF60FF000080FF004080FF008080FF00FF80FF00
310
00A0FF0040A0FF0080A0FF00FFA0FF0000C0FF0040C0FF0080C0FF00FFC0FF0000FFFF0040FFFF0080FFFF00FFFFFF00FFFFFFFFFFFFFFFFFFFFFFFFFFFFFFFFFFFFFFFFFFFFFFFFFFFFFFFFFFFFFFFFFFFFFFFFFFFFFFFFFFFFFFFFFFFFFFFFFFFFFFFFFFFFFFFFFFFFFFFFFFFFFFFFFFFFFFFFFFFFFFFFFFFFFFFFFFFFFF
310
FFFFFFFFFFFFFFFFFFFFFFFFFFFFFFFFFFFFFFFFFFFFFFFFFFFFFFFFFFFFFFFFFFFFFFFFFFFFFFFFFFFFFFFFFFFFFFFFFFFFFFFFFFFFFFFFFFFFFFFFFFFFFFFFFFFFFFFFFFFFFFFFFFFFFFFFFFFFFFFFFFFFFFFFFFFFFFFFFFFFFFFFFFFFFFFFFFFFFFFFFFFFFFFFFFFFFFFFFFFFFFFFFFFFFFFFFFFFFFFFFFFFFFFFFFFFFF
310
FFFFFFFFFFFFFFFFFFFFFFFFFFFFFFFFFFFFFFFFFFFFFFFFFFFFFFFFFFFFFFFFFFFFFFFFFFFFFFFFFFFFFFFFFFFFFFFFFFFFFFFFFFFFFFFFFFFFFFFFFFFFFFFFFFFFFFFFFFFFFFFFFFFFFFFFFFFFFFFFFFFFFFFFFFFFFFFFFFFFFFFFFFFFFFFFFFFFFFFFFFFFFFFFFFFFFFFFFFFFFFFFFFFFFFFFFFFFFFFFFFFFFFFFFFFFFF
310
FFFFFFFFFFFFFFFFFFFFFFFFFFFFFFFFFFFFFFFFFFFFFFFFFFFFFFFFFFFFFFFFFFFFFFFFFFFFFFFFFFFFFFFFFFFFFFFFFFFFFFFFFFFFE0FFFFFFE0FFFFFFE0E0FFFFFFE0FFFFFFFFE0FFFFE0FFFFFFFFE0FFFFFFFFFFFFE0FFFFFFE0FFE0FFFFE0FFFFFFE0FFFFFFFFE0E0FFFFFFFFE0FFFFFFFFFFFFFFFFE0FFFFFFE0FFFF
310
FFFFE0FFFFFFE0FFFFFFE0E0FFFFFFE0FFFFFFFFFFE0FFFFFFFFE0FFE0FFFFFFFFE0FFE0FFFFFFE0FFE0FFFFFFFFE0FFFFFFFFFFFFFFE0FFFFFFFFE0FFFFFFE0E0FFFFFFE0FFFFFFE0FFFFFFFFE0FFFFFFFFE0FFFFFFFFE0FFFFE0FFFFFFE0FFFFFFFFE0FFE0FFE0FFFFFFFFE0FFFFFFE0E0FFFFFFFFFFFFE0E0FFFFFFE0FF
310
FFFFFFE0FFFFFFE0FFFFFFFFE0FFFFFFE0FFFFFFFFFFFFFFFFE0FFFFFFE0FFFFFFFFE0FFFFFFE0FFFFFFFFE0FFFFFFE0FFFFFFFFFFFFFFFFFFFFFFFFFFFFFFFFFFFFFFFFFFFFFFFFFFFFFFFFFFFFFFFFFFFFFFFFFFFFFFFFFFFFFFFFFFFFFFFFFFFFFFFFFFFFFFFFFFFFFFFFFFFFFFFFFFFFFFFFFFFFFFFFFFFFFFFFFFFFFF
310
FFFFFFFFFFFFFFFFFFFFFFFFFFFFFFFFFFFFFFFFFFFFFFFFFFFFFFFFFFFFFFFFFFFFFFFFFFFFFFFFFFFFFFFFFFFFFFFFFFFFFFFFFFFFFFFFFFFFFFFFFFFFFFFFFFFFFFFFFFFFFFFFFFFFFFFFFFFFFFFFFFFFFFFFFFFFFFFFFFFFFFFFFFFFFFFFFFFFFFFFFFFFFFFFFFFFFFFFFFFFFFFFFFFFFFFFFFFFFFFFFFFFFFFFFFFFFF
310
FFFFFFFFFFFFFFFFFFFFFFFFFFFFFFFFFFFFFFFFFFFFFFFFFFFFFFFFFFFFFFFFFFFFFFFFFFFFFFFFFFFFFFFFFFFFFFFFFFFFFFFFFFFFFFFFFFFFFFFFFFFFFFFFFFFFFFFFFFFFFFFFFFFFFFFFFFFFFFFFFFFFFFFFFFFFFFFFFFFFFFFFFFFFFFFFFFFFFFFFFFFFFFFFFFFFFFFFFFFFFFFFFFFFFFFFFFFFFFFFFFFFFFFFFFFFFF
310
FFFFFFFFFFFFFFFFFFFFFFFFFFFFFFFFFFFFFFFFFFFFFFFFFFFFFFFFFFFFFFFFFFFFFFFFFFFFFFFFFFFFFFFFFFFFFFFFFFFFFFFFFFFFFFFF
102
{BLKREFS
331
39B
331
3C9
331
3F2
102
}
  0
BLOCK_RECORD
  5
AA
330
1
100
AcDbSymbolTableRecord
100
AcDbBlockTableRecord
  2
sai450
340
0
310
28000000200000002000000001000800000000000004000000000000000000000000000000000000000000004000000080000000FF000000002000004020000080200000FF200000004000004040000080400000FF400000006000004060000080600000FF600000008000004080000080800000FF80000000A0000040A000
310
0080A00000FFA0000000C0000040C0000080C00000FFC0000000FF000040FF000080FF0000FFFF0000000020004000200080002000FF002000002020004020200080202000FF202000004020004040200080402000FF402000006020004060200080602000FF602000008020004080200080802000FF80200000A0200040A0
310
200080A02000FFA0200000C0200040C0200080C02000FFC0200000FF200040FF200080FF2000FFFF2000000040004000400080004000FF004000002040004020400080204000FF204000004040004040400080404000FF404000006040004060400080604000FF604000008040004080400080804000FF80400000A0400040
310
A0400080A04000FFA0400000C0400040C0400080C04000FFC0400000FF400040FF400080FF4000FFFF4000000060004000600080006000FF006000002060004020600080206000FF206000004060004040600080406000FF406000006060004060600080606000FF606000008060004080600080806000FF80600000A06000
310
40A0600080A06000FFA0600000C0600040C0600080C06000FFC0600000FF600040FF600080FF6000FFFF6000000080004000800080008000FF008000002080004020800080208000FF208000004080004040800080408000FF408000006080004060800080608000FF608000008080004080800080808000FF80800000A080
310
0040A0800080A08000FFA0800000C0800040C0800080C08000FFC0800000FF800040FF800080FF8000FFFF80000000A0004000A0008000A000FF00A0000020A0004020A0008020A000FF20A0000040A0004040A0008040A000FF40A0000060A0004060A0008060A000FF60A0000080A0004080A0008080A000FF80A00000A0
310
A00040A0A00080A0A000FFA0A00000C0A00040C0A00080C0A000FFC0A00000FFA00040FFA00080FFA000FFFFA0000000C0004000C0008000C000FF00C0000020C0004020C0008020C000FF20C0000040C0004040C0008040C000FF40C0000060C0004060C0008060C000FF60C0000080C0004080C0008080C000FF80C00000
310
A0C00040A0C00080A0C000FFA0C00000C0C00040C0C00080C0C000FFC0C00000FFC00040FFC00080FFC000FFFFC0000000FF004000FF008000FF00FF00FF000020FF004020FF008020FF00FF20FF000040FF004040FF008040FF00FF40FF000060FF004060FF008060FF00FF60FF000080FF004080FF008080FF00FF80FF00
310
00A0FF0040A0FF0080A0FF00FFA0FF0000C0FF0040C0FF0080C0FF00FFC0FF0000FFFF0040FFFF0080FFFF00FFFFFF00FFFFFFFFFFFFFFFFFFFFFFFFFFFFFFFFFFFFFFFFFFFFFFFFFFFFFFFFFFFFFFFFFFFFFFFFFFFFFFFFFFFFFFFFFFFFFFFFFFFFFFFFFFFFFFFFFFFFFFFFFFFFFFFFFFFFFFFFFFFFFFFFFFFFFFFFFFFFFF
310
FFFFFFFFFFFFFFFFFFFFFFFFFFFFFFFFFFFFFFFFFFFFFFFFFFFFFFFFFFFFFFFFFFFFFFFFFFFFFFFFFFFFFFFFFFFFFFFFFFFFFFFFFFFFFFFFFFFFFFFFFFFFFFFFFFFFFFFFFFFFFFFFFFFFFFFFFFFFFFFFFFFFFFFFFFFFFFFFFFFFFFFFFFFFFFFFFFFFFFFFFFFFFFFFFFFFFFFFFFFFFFFFFFFFFFFFFFFFFFFFFFFFFFFFFFFFFF
310
FFFFFFFFFFFFFFFFFFFFFFFFFFFFFFFFFFFFFFFFFFFFFFFFFFFFFFFFFFFFFFFFFFFFFFFFFFFFFFFFFFFFFFFFFFFFFFFFFFFFFFFFFFFFFFFFFFFFFFFFFFFFFFFFFFFFFFFFFFFFFFFFFFFFFFFFFFFFFFFFFFFFFFFFFFFFFFFFFFFFFFFFFFFFFFFFFFFFFFFFFFFFFFFFFFFFFFFFFFFFFFFFFFFFFFFFFFFFFFFFFFFFFFFFFFFFFF
310
FFFFFFFFFFFFFFFFFFFFFFFFFFFFFFFFFFFFFFFFFFFFFFFFFFFFFFFFFFFFFFFFFFFFFFFFFFFFFFFFFFFFFFFFFFFFFFFFFFFFFFFFE0FFE0FFFFFFE0FFE0FFFFFFFFE0E0FFFFFFFFE0E0FFFFFFFFE0E0FFFFFFFFFFFFE0E0FFFFFFFFE0E0FFFFFFFFE0E0FFFFFFFFFFE0FFFFFFFFFFE0FFFFFFFFFFFFE0FFFFFFFFFFE0FFFFFF
310
FFFFE0E0FFFFFFFFFFE0FFFFFFFFFFE0FFFFFFFFFFFFFFE0FFFFFFFFFFE0FFFFFFFFFFE0FFFFFFFFFFFFE0FFFFFFFFFFE0FFFFFFFFFFFFE0FFFFFFFFFFE0FFFFFFFFFFFFE0FFFFFFFFFFE0FFFFFFFFFFE0FFFFFFFFFFFFFFE0FFFFFFFFFFE0FFFFFFFFFFE0E0FFFFFFFFFFE0FFFFFFFFFFE0FFFFFFFFFFFFE0FFFFFFFFFFE0
310
FFFFFFFFFFFFE0FFFFFFFFFFE0FFFFFFFFFFE0FFFFFFFFFFE0FFE0FFFFFFE0FFE0FFFFFFFFE0E0FFFFFFFFE0FFE0FFFFFFE0FFE0FFFFFFFFFFFFFFFFFFFFFFFFFFFFFFFFFFFFFFFFFFFFFFFFFFFFFFFFFFFFFFFFFFFFFFFFFFFFFFFFFFFFFFFFFFFFFFFFFFFFFFFFFFFFFFFFFFFFFFFFFFFFFFFFFFFFFFFFFFFFFFFFFFFFFF
310
FFFFFFFFFFFFFFFFFFFFFFFFFFFFFFFFFFFFFFFFFFFFFFFFFFFFFFFFFFFFFFFFFFFFFFFFFFFFFFFFFFFFFFFFFFFFFFFFFFFFFFFFFFFFFFFFFFFFFFFFFFFFFFFFFFFFFFFFFFFFFFFFFFFFFFFFFFFFFFFFFFFFFFFFFFFFFFFFFFFFFFFFFFFFFFFFFFFFFFFFFFFFFFFFFFFFFFFFFFFFFFFFFFFFFFFFFFFFFFFFFFFFFFFFFFFFFF
310
FFFFFFFFFFFFFFFFFFFFFFFFFFFFFFFFFFFFFFFFFFFFFFFFFFFFFFFFFFFFFFFFFFFFFFFFFFFFFFFFFFFFFFFFFFFFFFFFFFFFFFFFFFFFFFFFFFFFFFFFFFFFFFFFFFFFFFFFFFFFFFFFFFFFFFFFFFFFFFFFFFFFFFFFFFFFFFFFFFFFFFFFFFFFFFFFFFFFFFFFFFFFFFFFFFFFFFFFFFFFFFFFFFFFFFFFFFFFFFFFFFFFFFFFFFFFFF
310
FFFFFFFFFFFFFFFFFFFFFFFFFFFFFFFFFFFFFFFFFFFFFFFFFFFFFFFFFFFFFFFFFFFFFFFFFFFFFFFFFFFFFFFFFFFFFFFFFFFFFFFFFFFFFFFF
102
{BLKREFS
331
39A
331
3C8
331
3F1
102
}
  0
BLOCK_RECORD
  5
48C
330
1
100
AcDbSymbolTableRecord
100
AcDbBlockTableRecord
  2
*D5
340
0
  0
BLOCK_RECORD
  5
498
330
1
100
AcDbSymbolTableRecord
100
AcDbBlockTableRecord
  2
*D6
340
0
  0
BLOCK_RECORD
  5
4A4
330
1
100
AcDbSymbolTableRecord
100
AcDbBlockTableRecord
  2
*D7
340
0
  0
BLOCK_RECORD
  5
4B0
330
1
100
AcDbSymbolTableRecord
100
AcDbBlockTableRecord
  2
*D8
340
0
  0
BLOCK_RECORD
  5
4BC
330
1
100
AcDbSymbolTableRecord
100
AcDbBlockTableRecord
  2
*D9
340
0
  0
BLOCK_RECORD
  5
4CA
330
1
100
AcDbSymbolTableRecord
100
AcDbBlockTableRecord
  2
*D10
340
0
  0
BLOCK_RECORD
  5
4D6
330
1
100
AcDbSymbolTableRecord
100
AcDbBlockTableRecord
  2
*D11
340
0
  0
BLOCK_RECORD
  5
4E4
330
1
100
AcDbSymbolTableRecord
100
AcDbBlockTableRecord
  2
*D12
340
0
  0
BLOCK_RECORD
  5
4F0
330
1
100
AcDbSymbolTableRecord
100
AcDbBlockTableRecord
  2
*D13
340
0
  0
BLOCK_RECORD
  5
4FC
330
1
100
AcDbSymbolTableRecord
100
AcDbBlockTableRecord
  2
*D14
340
0
  0
BLOCK_RECORD
  5
508
330
1
100
AcDbSymbolTableRecord
100
AcDbBlockTableRecord
  2
*D15
340
0
  0
BLOCK_RECORD
  5
514
330
1
100
AcDbSymbolTableRecord
100
AcDbBlockTableRecord
  2
*D16
340
0
  0
BLOCK_RECORD
  5
522
330
1
100
AcDbSymbolTableRecord
100
AcDbBlockTableRecord
  2
*D17
340
0
  0
BLOCK_RECORD
  5
52E
330
1
100
AcDbSymbolTableRecord
100
AcDbBlockTableRecord
  2
*D18
340
0
  0
BLOCK_RECORD
  5
53C
330
1
100
AcDbSymbolTableRecord
100
AcDbBlockTableRecord
  2
*D19
340
0
  0
BLOCK_RECORD
  5
548
330
1
100
AcDbSymbolTableRecord
100
AcDbBlockTableRecord
  2
*D20
340
0
  0
BLOCK_RECORD
  5
556
330
1
100
AcDbSymbolTableRecord
100
AcDbBlockTableRecord
  2
*D21
340
0
  0
BLOCK_RECORD
  5
564
330
1
100
AcDbSymbolTableRecord
100
AcDbBlockTableRecord
  2
*D22
340
0
  0
BLOCK_RECORD
  5
570
330
1
100
AcDbSymbolTableRecord
100
AcDbBlockTableRecord
  2
*D23
340
0
  0
BLOCK_RECORD
  5
57C
330
1
100
AcDbSymbolTableRecord
100
AcDbBlockTableRecord
  2
*D24
340
0
  0
BLOCK_RECORD
  5
588
330
1
100
AcDbSymbolTableRecord
100
AcDbBlockTableRecord
  2
*D25
340
0
  0
BLOCK_RECORD
  5
594
330
1
100
AcDbSymbolTableRecord
100
AcDbBlockTableRecord
  2
*D26
340
0
  0
BLOCK_RECORD
  5
5A0
330
1
100
AcDbSymbolTableRecord
100
AcDbBlockTableRecord
  2
*D27
340
0
  0
BLOCK_RECORD
  5
5AE
330
1
100
AcDbSymbolTableRecord
100
AcDbBlockTableRecord
  2
*D28
340
0
  0
BLOCK_RECORD
  5
5BC
330
1
100
AcDbSymbolTableRecord
100
AcDbBlockTableRecord
  2
*D29
340
0
  0
BLOCK_RECORD
  5
5C8
330
1
100
AcDbSymbolTableRecord
100
AcDbBlockTableRecord
  2
*D30
340
0
  0
BLOCK_RECORD
  5
5D6
330
1
100
AcDbSymbolTableRecord
100
AcDbBlockTableRecord
  2
*D31
340
0
  0
ENDTAB
  0
ENDSEC
  0
SECTION
  2
BLOCKS
  0
BLOCK
  5
20
330
1F
100
AcDbEntity
  8
0
100
AcDbBlockBegin
  2
*Model_Space
 70
     0
 10
0.0
 20
0.0
 30
0.0
  3
*Model_Space
  1

  0
ENDBLK
  5
21
330
1F
100
AcDbEntity
  8
0
100
AcDbBlockEnd
  0
BLOCK
  5
52
330
50
100
AcDbEntity
 67
     1
  8
0
100
AcDbBlockBegin
  2
*Paper_Space
 70
     0
 10
0.0
 20
0.0
 30
0.0
  3
*Paper_Space
  1

  0
ENDBLK
  5
53
330
50
100
AcDbEntity
 67
     1
  8
0
100
AcDbBlockEnd
  0
BLOCK
  5
57
330
55
100
AcDbEntity
  8
0
100
AcDbBlockBegin
  2
*Paper_Space0
 70
     0
 10
0.0
 20
0.0
 30
0.0
  3
*Paper_Space0
  1

  0
ENDBLK
  5
58
330
55
100
AcDbEntity
  8
0
100
AcDbBlockEnd
  0
BLOCK
  5
88
330
87
100
AcDbEntity
  8
0
100
AcDbBlockBegin
  2
_ORIGIN
 70
     0
 10
0.0
 20
0.0
 30
0.0
  3
_ORIGIN
  1

  0
CIRCLE
  5
89
330
87
100
AcDbEntity
  8
0
  6
ByBlock
 62
     0
100
AcDbCircle
 10
0.0
 20
0.0
 30
0.0
 40
0.5
  0
LINE
  5
8A
330
87
100
AcDbEntity
  8
0
  6
ByBlock
 62
     0
100
AcDbLine
 10
0.0
 20
0.0
 30
0.0
 11
-1.0
 21
0.0
 31
0.0
  0
ENDBLK
  5
8B
330
87
100
AcDbEntity
  8
0
100
AcDbBlockEnd
  0
BLOCK
  5
8D
330
8C
100
AcDbEntity
  8
0
100
AcDbBlockBegin
  2
RM
 70
     0
 10
0.0
 20
0.0
 30
0.0
  3
RM
  1

  0
LINE
  5
8E
330
8C
100
AcDbEntity
  8
ﾊｯﾁﾝｸﾞ
  6
Continuous
100
AcDbLine
 10
360.1652361541055
 20
-91.67026152741163
 30
0.0
 11
388.4949746266939
 21
-120.0000000004656
 31
0.0
  0
LINE
  5
8F
330
8C
100
AcDbEntity
  8
ﾊｯﾁﾝｸﾞ
  6
Continuous
100
AcDbLine
 10
399.7632159003988
 20
-52.07228178094375
 30
0.0
 11
467.690934119746
 21
-120.0000000004074
 31
0.0
  0
LINE
  5
90
330
8C
100
AcDbEntity
  8
ﾊｯﾁﾝｸﾞ
  6
Continuous
100
AcDbLine
 10
372.6395381879993
 20
-0.0000000004074536
 30
0.0
 11
280.9692766605877
 21
-91.67026152741163
 31
0.0
  0
LINE
  5
91
330
8C
100
AcDbEntity
  8
ﾊｯﾁﾝｸﾞ
  6
Continuous
100
AcDbLine
 10
451.8354976810513
 20
-0.0000000004074536
 30
0.0
 11
331.8354976801202
 21
-120.0000000004074
 31
0.0
  0
LINE
  5
92
330
8C
100
AcDbEntity
  8
ﾊｯﾁﾝｸﾞ
  6
Continuous
100
AcDbLine
 10
439.3611956469249
 20
-12.47430203453405
 30
0.0
 11
493.1240446297452
 21
-66.23715101747075
 31
0.0
  0
LINE
  5
93
330
8C
100
AcDbEntity
  8
ﾊｯﾁﾝｸﾞ
  6
Continuous
100
AcDbLine
 10
55.85570021579043
 20
-0.0000000004656613
 30
0.0
 11
-0.0000000002328306
 21
-55.85570021602325
 31
0.0
  0
LINE
  5
94
330
8C
100
AcDbEntity
  8
ﾊｯﾁﾝｸﾞ
  6
Continuous
100
AcDbLine
 10
135.0516597088426
 20
-0.000000000349246
 30
0.0
 11
15.05165970791131
 21
-120.0000000004656
 31
0.0
  0
LINE
  5
95
330
8C
100
AcDbEntity
  8
ﾊｯﾁﾝｸﾞ
  6
Continuous
100
AcDbLine
 10
214.2476192018949
 20
-0.000000000349246
 30
0.0
 11
94.24761920119637
 21
-120.0000000004656
 31
0.0
  0
LINE
  5
96
330
8C
100
AcDbEntity
  8
ﾊｯﾁﾝｸﾞ
  6
Continuous
100
AcDbLine
 10
122.577357674716
 20
-91.67026152741163
 30
0.0
 11
150.9070961475372
 21
-120.0000000004656
 31
0.0
  0
LINE
  5
97
330
8C
100
AcDbEntity
  8
ﾊｯﾁﾝｸﾞ
  6
Continuous
100
AcDbLine
 10
162.1753374212421
 20
-52.07228178094375
 30
0.0
 11
230.1030556405895
 21
-120.0000000004074
 31
0.0
  0
LINE
  5
98
330
8C
100
AcDbEntity
  8
ﾊｯﾁﾝｸﾞ
  6
Continuous
100
AcDbLine
 10
201.7733171675354
 20
-12.47430203453405
 30
0.0
 11
309.2990151336417
 21
-120.0000000004074
 31
0.0
  0
LINE
  5
99
330
8C
100
AcDbEntity
  8
ﾊｯﾁﾝｸﾞ
  6
Continuous
100
AcDbLine
 10
293.4435786949471
 20
-0.0000000002910383
 30
0.0
 11
241.3712969140615
 21
-52.07228178094375
 31
0.0
  0
ENDBLK
  5
9A
330
8C
100
AcDbEntity
  8
0
100
AcDbBlockEnd
  0
BLOCK
  5
9C
330
9B
100
AcDbEntity
  8
0
100
AcDbBlockBegin
  2
RH
 70
     0
 10
0.0
 20
0.0
 30
0.0
  3
RH
  1

  0
LINE
  5
9D
330
9B
100
AcDbEntity
  8
ﾊｯﾁﾝｸﾞ
  6
Continuous
100
AcDbLine
 10
-55.85570021625607
 20
0.0
 30
0.0
 11
-0.0000000002328306
 21
-55.8557002155576
 31
0.0
  0
LINE
  5
9E
330
9B
100
AcDbEntity
  8
ﾊｯﾁﾝｸﾞ
  6
Continuous
100
AcDbLine
 10
-135.0516597093083
 20
0.0000000001164153
 30
0.0
 11
-15.05165970837697
 21
-120.0
 31
0.0
  0
LINE
  5
9F
330
9B
100
AcDbEntity
  8
ﾊｯﾁﾝｸﾞ
  6
Continuous
100
AcDbLine
 10
-214.2476192023605
 20
0.0000000001164153
 30
0.0
 11
-94.24761920166201
 21
-120.0
 31
0.0
  0
LINE
  5
A0
330
9B
100
AcDbEntity
  8
ﾊｯﾁﾝｸﾞ
  6
Continuous
100
AcDbLine
 10
-122.5773576751817
 20
-91.67026152694599
 30
0.0
 11
-150.9070961480029
 21
-120.0
 31
0.0
  0
LINE
  5
A1
330
9B
100
AcDbEntity
  8
ﾊｯﾁﾝｸﾞ
  6
Continuous
100
AcDbLine
 10
-162.1753374217078
 20
-52.07228178047808
 30
0.0
 11
-230.1030556410551
 21
-119.9999999999418
 31
0.0
  0
LINE
  5
A2
330
9B
100
AcDbEntity
  8
ﾊｯﾁﾝｸﾞ
  6
Continuous
100
AcDbLine
 10
-201.7733171680011
 20
-12.47430203406838
 30
0.0
 11
-309.2990151341073
 21
-119.9999999999418
 31
0.0
  0
LINE
  5
A3
330
9B
100
AcDbEntity
  8
ﾊｯﾁﾝｸﾞ
  6
Continuous
100
AcDbLine
 10
-360.1652361545712
 20
-91.67026152694599
 30
0.0
 11
-388.4949746271595
 21
-120.0
 31
0.0
  0
LINE
  5
A4
330
9B
100
AcDbEntity
  8
ﾊｯﾁﾝｸﾞ
  6
Continuous
100
AcDbLine
 10
-399.7632159008645
 20
-52.07228178047808
 30
0.0
 11
-467.6909341202117
 21
-119.9999999999418
 31
0.0
  0
LINE
  5
A5
330
9B
100
AcDbEntity
  8
ﾊｯﾁﾝｸﾞ
  6
Continuous
100
AcDbLine
 10
-293.4435786954127
 20
0.000000000174623
 30
0.0
 11
-241.3712969145272
 21
-52.07228178047808
 31
0.0
  0
LINE
  5
A6
330
9B
100
AcDbEntity
  8
ﾊｯﾁﾝｸﾞ
  6
Continuous
100
AcDbLine
 10
-372.6395381884649
 20
0.0000000000582077
 30
0.0
 11
-280.9692766610533
 21
-91.67026152700421
 31
0.0
  0
LINE
  5
A7
330
9B
100
AcDbEntity
  8
ﾊｯﾁﾝｸﾞ
  6
Continuous
100
AcDbLine
 10
-451.8354976815171
 20
0.0000000000582077
 30
0.0
 11
-331.8354976805858
 21
-119.9999999999418
 31
0.0
  0
LINE
  5
A8
330
9B
100
AcDbEntity
  8
ﾊｯﾁﾝｸﾞ
  6
Continuous
100
AcDbLine
 10
-439.3611956473905
 20
-12.47430203406838
 30
0.0
 11
-493.1240446302108
 21
-66.23715101700509
 31
0.0
  0
ENDBLK
  5
A9
330
9B
100
AcDbEntity
  8
0
100
AcDbBlockEnd
  0
BLOCK
  5
AB
330
AA
100
AcDbEntity
  8
0
100
AcDbBlockBegin
  2
sai450
 70
     0
 10
0.0
 20
0.0
 30
0.0
  3
sai450
  1

  0
LINE
  5
AC
330
AA
100
AcDbEntity
  8
ﾊｯﾁﾝｸﾞ
  6
Continuous
100
AcDbLine
 10
184.9591232701205
 20
0.0
 30
0.0
 11
201.0662565772654
 21
-21.8430756283924
 31
0.0
  0
LINE
  5
AD
330
AA
100
AcDbEntity
  8
ﾊｯﾁﾝｸﾞ
  6
Continuous
100
AcDbLine
 10
168.7806191118434
 20
-77.76344007329317
 30
0.0
 11
181.6189029712695
 21
-100.0
 31
0.0
  0
LINE
  5
AE
330
AA
100
AcDbEntity
  8
ﾊｯﾁﾝｸﾞ
  6
Continuous
100
AcDbLine
 10
155.9423352523008
 20
-100.0
 30
0.0
 11
213.6773621712346
 21
0.0
 31
0.0
  0
LINE
  5
AF
330
AA
100
AcDbEntity
  8
ﾊｯﾁﾝｸﾞ
  6
Continuous
100
AcDbLine
 10
64.33979487384203
 20
-100.0
 30
0.0
 11
122.0748217927758
 21
0.0
 31
0.0
  0
LINE
  5
B0
330
AA
100
AcDbEntity
  8
ﾊｯﾁﾝｸﾞ
  6
Continuous
100
AcDbLine
 10
-27.26274550461676
 20
-100.0
 30
0.0
 11
30.47228141431697
 21
0.0
 31
0.0
  0
LINE
  5
B1
330
AA
100
AcDbEntity
  8
ﾊｯﾁﾝｸﾞ
  6
Continuous
100
AcDbLine
 10
77.17807873338461
 20
-77.76344007329317
 30
0.0
 11
90.01636259281076
 21
-100.0
 31
0.0
  0
LINE
  5
B2
330
AA
100
AcDbEntity
  8
ﾊｯﾁﾝｸﾞ
  6
Continuous
100
AcDbLine
 10
-14.4244616451906
 20
-77.76344007329317
 30
0.0
 11
-1.586177785531616
 21
-100.0
 31
0.0
  0
LINE
  5
B3
330
AA
100
AcDbEntity
  8
ﾊｯﾁﾝｸﾞ
  6
Continuous
100
AcDbLine
 10
1.754042513202874
 20
0.0
 30
0.0
 11
17.86117582034785
 21
-21.8430756283924
 31
0.0
  0
LINE
  5
B4
330
AA
100
AcDbEntity
  8
ﾊｯﾁﾝｸﾞ
  6
Continuous
100
AcDbLine
 10
93.35658289166168
 20
0.0
 30
0.0
 11
109.4637161988066
 21
-21.8430756283924
 31
0.0
  0
LINE
  5
B5
330
AA
100
AcDbEntity
  8
ﾊｯﾁﾝｸﾞ
  6
Continuous
100
AcDbLine
 10
-181.4510382437146
 20
0.0
 30
0.0
 11
-165.3439049364533
 21
-21.8430756283924
 31
0.0
  0
LINE
  5
B6
330
AA
100
AcDbEntity
  8
ﾊｯﾁﾝｸﾞ
  6
Continuous
100
AcDbLine
 10
-197.6295424019918
 20
-77.76344007329317
 30
0.0
 11
-184.7912585424492
 21
-100.0
 31
0.0
  0
LINE
  5
B7
330
AA
100
AcDbEntity
  8
ﾊｯﾁﾝｸﾞ
  6
Continuous
100
AcDbLine
 10
-210.4678262615343
 20
-100.0
 30
0.0
 11
-152.7327993426006
 21
0.0
 31
0.0
  0
LINE
  5
B8
330
AA
100
AcDbEntity
  8
ﾊｯﾁﾝｸﾞ
  6
Continuous
100
AcDbLine
 10
-118.8652858830755
 20
-100.0
 30
0.0
 11
-61.13025896414182
 21
0.0
 31
0.0
  0
LINE
  5
B9
330
AA
100
AcDbEntity
  8
ﾊｯﾁﾝｸﾞ
  6
Continuous
100
AcDbLine
 10
-106.027002023533
 20
-77.76344007329317
 30
0.0
 11
-93.18871816399042
 21
-100.0
 31
0.0
  0
LINE
  5
BA
330
AA
100
AcDbEntity
  8
ﾊｯﾁﾝｸﾞ
  6
Continuous
100
AcDbLine
 10
-89.84849786525591
 20
0.0
 30
0.0
 11
-73.74136455799453
 21
-21.8430756283924
 31
0.0
  0
ENDBLK
  5
BB
330
AA
100
AcDbEntity
  8
0
100
AcDbBlockEnd
  0
BLOCK
  5
496
330
48C
100
AcDbEntity
  8
0
100
AcDbBlockBegin
  2
*D5
 70
     1
 10
0.0
 20
0.0
 30
0.0
  3
*D5
  1

  0
LINE
  5
5E4
330
48C
100
AcDbEntity
  8
寸法
  6
Continuous
370
    -2
100
AcDbLine
 10
32599.03603160542
 20
17319.81565853907
 30
0.0
 11
33299.60525620214
 21
17319.81565853907
 31
0.0
  0
LINE
  5
5E5
330
48C
100
AcDbEntity
  8
寸法
  6
Continuous
370
    -2
100
AcDbLine
 10
32599.03603160542
 20
19809.81565853907
 30
0.0
 11
33299.60525620214
 21
19809.81565853907
 31
0.0
  0
LINE
  5
5E6
330
48C
100
AcDbEntity
  8
寸法
  6
Continuous
370
    -2
100
AcDbLine
 10
33299.60525620214
 20
17379.81565853907
 30
0.0
 11
33299.60525620214
 21
19749.81565853907
 31
0.0
  0
INSERT
  5
5E7
330
48C
100
AcDbEntity
  8
寸法
  6
Continuous
370
    -2
100
AcDbBlockReference
  2
_ORIGIN
 10
33299.60525620214
 20
17319.81565853907
 30
0.0
 41
60.0
 42
60.0
 43
60.0
 50
270.0
  0
INSERT
  5
5E8
330
48C
100
AcDbEntity
  8
寸法
  6
Continuous
370
    -2
100
AcDbBlockReference
  2
_ORIGIN
 10
33299.60525620214
 20
19809.81565853907
 30
0.0
 41
60.0
 42
60.0
 43
60.0
 50
90.0
  0
MTEXT
  5
5E9
330
48C
100
AcDbEntity
  8
寸法
  6
Continuous
100
AcDbMText
 10
33021.03382763072
 20
18564.81565853907
 30
0.0
 40
300.0
 41
0.0
 71
     5
 72
     1
  1
\A1;2,490
  7
1_100
 11
0.0000000000000001
 21
1.0
 31
0.0
 73
     1
 44
1.0
1001
ACAD
1000
MTEXTBEGIN
1070
    73
1070
     1
1070
    44
1040
1.0
1070
    74
1070
     0
1000
MTEXTEND
  0
POINT
  5
5EA
330
48C
100
AcDbEntity
  8
DEFPOINTS
  6
Continuous
 62
     0
100
AcDbPoint
 10
32299.03603160542
 20
17319.81565853907
 30
0.0
  0
POINT
  5
5EB
330
48C
100
AcDbEntity
  8
DEFPOINTS
  6
Continuous
 62
     0
100
AcDbPoint
 10
32299.03603160542
 20
19809.81565853907
 30
0.0
  0
POINT
  5
5EC
330
48C
100
AcDbEntity
  8
DEFPOINTS
  6
Continuous
 62
     0
100
AcDbPoint
 10
33299.60525620214
 20
19809.81565853907
 30
0.0
  0
ENDBLK
  5
497
330
48C
100
AcDbEntity
  8
0
100
AcDbBlockEnd
  0
BLOCK
  5
4A2
330
498
100
AcDbEntity
  8
0
100
AcDbBlockBegin
  2
*D6
 70
     1
 10
0.0
 20
0.0
 30
0.0
  3
*D6
  1

  0
LINE
  5
5ED
330
498
100
AcDbEntity
  8
寸法
  6
Continuous
370
    -2
100
AcDbLine
 10
27639.60525620214
 20
17319.81565853907
 30
0.0
 11
28299.60525620214
 21
17319.81565853907
 31
0.0
  0
LINE
  5
5EE
330
498
100
AcDbEntity
  8
寸法
  6
Continuous
370
    -2
100
AcDbLine
 10
27639.60525620237
 20
19809.81565853907
 30
0.0
 11
28299.60525620214
 21
19809.81565853907
 31
0.0
  0
LINE
  5
5EF
330
498
100
AcDbEntity
  8
寸法
  6
Continuous
370
    -2
100
AcDbLine
 10
28299.60525620214
 20
17379.81565853907
 30
0.0
 11
28299.60525620214
 21
19749.81565853907
 31
0.0
  0
INSERT
  5
5F0
330
498
100
AcDbEntity
  8
寸法
  6
Continuous
370
    -2
100
AcDbBlockReference
  2
_ORIGIN
 10
28299.60525620214
 20
17319.81565853907
 30
0.0
 41
60.0
 42
60.0
 43
60.0
 50
270.0
  0
INSERT
  5
5F1
330
498
100
AcDbEntity
  8
寸法
  6
Continuous
370
    -2
100
AcDbBlockReference
  2
_ORIGIN
 10
28299.60525620214
 20
19809.81565853907
 30
0.0
 41
60.0
 42
60.0
 43
60.0
 50
90.0
  0
MTEXT
  5
5F2
330
498
100
AcDbEntity
  8
寸法
  6
Continuous
100
AcDbMText
 10
28021.03382763071
 20
18564.81565853907
 30
0.0
 40
300.0
 41
0.0
 71
     5
 72
     1
  1
\A1;2,490
  7
1_100
 11
0.0000000000000001
 21
1.0
 31
0.0
 73
     1
 44
1.0
1001
ACAD
1000
MTEXTBEGIN
1070
    73
1070
     1
1070
    44
1040
1.0
1070
    74
1070
     0
1000
MTEXTEND
  0
POINT
  5
5F3
330
498
100
AcDbEntity
  8
DEFPOINTS
  6
Continuous
 62
     0
100
AcDbPoint
 10
27339.60525620214
 20
17319.81565853907
 30
0.0
  0
POINT
  5
5F4
330
498
100
AcDbEntity
  8
DEFPOINTS
  6
Continuous
 62
     0
100
AcDbPoint
 10
27339.60525620237
 20
19809.81565853907
 30
0.0
  0
POINT
  5
5F5
330
498
100
AcDbEntity
  8
DEFPOINTS
  6
Continuous
 62
     0
100
AcDbPoint
 10
28299.60525620214
 20
19809.81565853907
 30
0.0
  0
ENDBLK
  5
4A3
330
498
100
AcDbEntity
  8
0
100
AcDbBlockEnd
  0
BLOCK
  5
4AE
330
4A4
100
AcDbEntity
  8
0
100
AcDbBlockBegin
  2
*D7
 70
     1
 10
0.0
 20
0.0
 30
0.0
  3
*D7
  1

  0
LINE
  5
5F6
330
4A4
100
AcDbEntity
  8
寸法
  6
Continuous
370
    -2
100
AcDbLine
 10
27639.60525620237
 20
22359.81565853907
 30
0.0
 11
29299.60525620214
 21
22359.81565853907
 31
0.0
  0
LINE
  5
5F7
330
4A4
100
AcDbEntity
  8
寸法
  6
Continuous
370
    -2
100
AcDbLine
 10
27639.60525620237
 20
12359.81565853907
 30
0.0
 11
29299.60525620214
 21
12359.81565853906
 31
0.0
  0
LINE
  5
5F8
330
4A4
100
AcDbEntity
  8
寸法
  6
Continuous
370
    -2
100
AcDbLine
 10
29299.60525620214
 20
22299.81565853907
 30
0.0
 11
29299.60525620214
 21
12419.81565853906
 31
0.0
  0
INSERT
  5
5F9
330
4A4
100
AcDbEntity
  8
寸法
  6
Continuous
370
    -2
100
AcDbBlockReference
  2
_ORIGIN
 10
29299.60525620214
 20
22359.81565853907
 30
0.0
 41
60.0
 42
60.0
 43
60.0
 50
90.0
  0
INSERT
  5
5FA
330
4A4
100
AcDbEntity
  8
寸法
  6
Continuous
370
    -2
100
AcDbBlockReference
  2
_ORIGIN
 10
29299.60525620214
 20
12359.81565853906
 30
0.0
 41
60.0
 42
60.0
 43
60.0
 50
270.0
  0
MTEXT
  5
5FB
330
4A4
100
AcDbEntity
  8
寸法
  6
Continuous
100
AcDbMText
 10
29021.03382763071
 20
17359.81565853907
 30
0.0
 40
300.0
 41
0.0
 71
     5
 72
     1
  1
\A1;10,000
  7
1_100
 11
0.0000000000000001
 21
1.0
 31
0.0
 73
     1
 44
1.0
1001
ACAD
1000
MTEXTBEGIN
1070
    73
1070
     1
1070
    44
1040
1.0
1070
    74
1070
     0
1000
MTEXTEND
  0
POINT
  5
5FC
330
4A4
100
AcDbEntity
  8
DEFPOINTS
  6
Continuous
 62
     0
100
AcDbPoint
 10
27339.60525620237
 20
22359.81565853907
 30
0.0
  0
POINT
  5
5FD
330
4A4
100
AcDbEntity
  8
DEFPOINTS
  6
Continuous
 62
     0
100
AcDbPoint
 10
27339.60525620237
 20
12359.81565853907
 30
0.0
  0
POINT
  5
5FE
330
4A4
100
AcDbEntity
  8
DEFPOINTS
  6
Continuous
 62
     0
100
AcDbPoint
 10
29299.60525620214
 20
12359.81565853906
 30
0.0
  0
ENDBLK
  5
4AF
330
4A4
100
AcDbEntity
  8
0
100
AcDbBlockEnd
  0
BLOCK
  5
4BA
330
4B0
100
AcDbEntity
  8
0
100
AcDbBlockBegin
  2
*D8
 70
     1
 10
0.0
 20
0.0
 30
0.0
  3
*D8
  1

  0
LINE
  5
5FF
330
4B0
100
AcDbEntity
  8
寸法
  6
Continuous
370
    -2
100
AcDbLine
 10
32599.03603160542
 20
22359.81565853907
 30
0.0
 11
34299.60525620215
 21
22359.81565853907
 31
0.0
  0
LINE
  5
600
330
4B0
100
AcDbEntity
  8
寸法
  6
Continuous
370
    -2
100
AcDbLine
 10
32599.03603160542
 20
12359.81565853907
 30
0.0
 11
34299.60525620214
 21
12359.81565853907
 31
0.0
  0
LINE
  5
601
330
4B0
100
AcDbEntity
  8
寸法
  6
Continuous
370
    -2
100
AcDbLine
 10
34299.60525620215
 20
22299.81565853907
 30
0.0
 11
34299.60525620214
 21
12419.81565853907
 31
0.0
  0
INSERT
  5
602
330
4B0
100
AcDbEntity
  8
寸法
  6
Continuous
370
    -2
100
AcDbBlockReference
  2
_ORIGIN
 10
34299.60525620215
 20
22359.81565853907
 30
0.0
 41
60.0
 42
60.0
 43
60.0
 50
90.0
  0
INSERT
  5
603
330
4B0
100
AcDbEntity
  8
寸法
  6
Continuous
370
    -2
100
AcDbBlockReference
  2
_ORIGIN
 10
34299.60525620214
 20
12359.81565853907
 30
0.0
 41
60.0
 42
60.0
 43
60.0
 50
270.0
  0
MTEXT
  5
604
330
4B0
100
AcDbEntity
  8
寸法
  6
Continuous
100
AcDbMText
 10
34021.03382763072
 20
17359.81565853907
 30
0.0
 40
300.0
 41
0.0
 71
     5
 72
     1
  1
\A1;10,000
  7
1_100
 11
0.0000000000000001
 21
1.0
 31
0.0
 73
     1
 44
1.0
1001
ACAD
1000
MTEXTBEGIN
1070
    73
1070
     1
1070
    44
1040
1.0
1070
    74
1070
     0
1000
MTEXTEND
  0
POINT
  5
605
330
4B0
100
AcDbEntity
  8
DEFPOINTS
  6
Continuous
 62
     0
100
AcDbPoint
 10
32299.03603160542
 20
22359.81565853907
 30
0.0
  0
POINT
  5
606
330
4B0
100
AcDbEntity
  8
DEFPOINTS
  6
Continuous
 62
     0
100
AcDbPoint
 10
32299.03603160542
 20
12359.81565853907
 30
0.0
  0
POINT
  5
607
330
4B0
100
AcDbEntity
  8
DEFPOINTS
  6
Continuous
 62
     0
100
AcDbPoint
 10
34299.60525620214
 20
12359.81565853907
 30
0.0
  0
ENDBLK
  5
4BB
330
4B0
100
AcDbEntity
  8
0
100
AcDbBlockEnd
  0
BLOCK
  5
4C8
330
4BC
100
AcDbEntity
  8
0
100
AcDbBlockBegin
  2
*D9
 70
     1
 10
0.0
 20
0.0
 30
0.0
  3
*D9
  1

  0
LINE
  5
608
330
4BC
100
AcDbEntity
  8
寸法
  6
Continuous
370
    -2
100
AcDbLine
 10
27639.60525620237
 20
12159.81565853907
 30
0.0
 11
28299.60525620214
 21
12159.81565853907
 31
0.0
  0
LINE
  5
609
330
4BC
100
AcDbEntity
  8
寸法
  6
Continuous
370
    -2
100
AcDbLine
 10
27639.60525620237
 20
12359.81565853907
 30
0.0
 11
28299.60525620214
 21
12359.81565853907
 31
0.0
  0
LINE
  5
60A
330
4BC
100
AcDbEntity
  8
寸法
  6
Continuous
370
    -2
100
AcDbLine
 10
28299.60525620214
 20
12099.81565853907
 30
0.0
 11
28299.60525620214
 21
12039.81565853907
 31
0.0
  0
LINE
  5
60B
330
4BC
100
AcDbEntity
  8
寸法
  6
Continuous
370
    -2
100
AcDbLine
 10
28299.60525620214
 20
12419.81565853907
 30
0.0
 11
28299.60525620214
 21
12479.81565853907
 31
0.0
  0
MTEXT
  5
60C
330
4BC
100
AcDbEntity
  8
寸法
  6
Continuous
100
AcDbMText
 10
28526.76798892263
 20
11985.57209818822
 30
0.0
 40
300.0
 41
0.0
 71
     5
 72
     1
  1
\A1;200
  7
1_100
 11
0.0000000000000001
 21
1.0
 31
0.0
 73
     1
 44
1.0
1001
ACAD
1000
MTEXTBEGIN
1070
    73
1070
     1
1070
    44
1040
1.0
1070
    74
1070
     0
1000
MTEXTEND
  0
LINE
  5
60D
330
4BC
100
AcDbEntity
  8
寸法
  6
Continuous
370
    -2
100
AcDbLine
 10
28299.60525620214
 20
12159.81565853907
 30
0.0
 11
28299.60525620214
 21
12359.81565853907
 31
0.0
  0
INSERT
  5
60E
330
4BC
100
AcDbEntity
  8
寸法
  6
Continuous
370
    -2
100
AcDbBlockReference
  2
_ORIGIN
 10
28299.60525620214
 20
12159.81565853907
 30
0.0
 41
60.0
 42
60.0
 43
60.0
 50
90.0
  0
INSERT
  5
60F
330
4BC
100
AcDbEntity
  8
寸法
  6
Continuous
370
    -2
100
AcDbBlockReference
  2
_ORIGIN
 10
28299.60525620214
 20
12359.81565853907
 30
0.0
 41
60.0
 42
60.0
 43
60.0
 50
270.0
  0
POINT
  5
610
330
4BC
100
AcDbEntity
  8
DEFPOINTS
  6
Continuous
 62
     0
100
AcDbPoint
 10
27339.60525620237
 20
12159.81565853907
 30
0.0
  0
POINT
  5
611
330
4BC
100
AcDbEntity
  8
DEFPOINTS
  6
Continuous
 62
     0
100
AcDbPoint
 10
27339.60525620237
 20
12359.81565853907
 30
0.0
  0
POINT
  5
612
330
4BC
100
AcDbEntity
  8
DEFPOINTS
  6
Continuous
 62
     0
100
AcDbPoint
 10
28299.60525620214
 20
12359.81565853907
 30
0.0
  0
ENDBLK
  5
4C9
330
4BC
100
AcDbEntity
  8
0
100
AcDbBlockEnd
  0
BLOCK
  5
4D4
330
4CA
100
AcDbEntity
  8
0
100
AcDbBlockBegin
  2
*D10
 70
     1
 10
0.0
 20
0.0
 30
0.0
  3
*D10
  1

  0
LINE
  5
613
330
4CA
100
AcDbEntity
  8
寸法
  6
Continuous
370
    -2
100
AcDbLine
 10
27639.60525620237
 20
12359.81565853907
 30
0.0
 11
29299.60525620214
 21
12359.81565853906
 31
0.0
  0
LINE
  5
614
330
4CA
100
AcDbEntity
  8
寸法
  6
Continuous
370
    -2
100
AcDbLine
 10
27639.60525620237
 20
10259.81565853907
 30
0.0
 11
29299.60525620214
 21
10259.81565853906
 31
0.0
  0
LINE
  5
615
330
4CA
100
AcDbEntity
  8
寸法
  6
Continuous
370
    -2
100
AcDbLine
 10
29299.60525620214
 20
12299.81565853906
 30
0.0
 11
29299.60525620214
 21
10319.81565853906
 31
0.0
  0
INSERT
  5
616
330
4CA
100
AcDbEntity
  8
寸法
  6
Continuous
370
    -2
100
AcDbBlockReference
  2
_ORIGIN
 10
29299.60525620214
 20
12359.81565853906
 30
0.0
 41
60.0
 42
60.0
 43
60.0
 50
90.0
  0
INSERT
  5
617
330
4CA
100
AcDbEntity
  8
寸法
  6
Continuous
370
    -2
100
AcDbBlockReference
  2
_ORIGIN
 10
29299.60525620214
 20
10259.81565853906
 30
0.0
 41
60.0
 42
60.0
 43
60.0
 50
270.0
  0
MTEXT
  5
618
330
4CA
100
AcDbEntity
  8
寸法
  6
Continuous
100
AcDbMText
 10
29021.03382763071
 20
11309.81565853907
 30
0.0
 40
300.0
 41
0.0
 71
     5
 72
     1
  1
\A1;2,100
  7
1_100
 11
0.0000000000000001
 21
1.0
 31
0.0
 73
     1
 44
1.0
1001
ACAD
1000
MTEXTBEGIN
1070
    73
1070
     1
1070
    44
1040
1.0
1070
    74
1070
     0
1000
MTEXTEND
  0
POINT
  5
619
330
4CA
100
AcDbEntity
  8
DEFPOINTS
  6
Continuous
 62
     0
100
AcDbPoint
 10
27339.60525620237
 20
12359.81565853907
 30
0.0
  0
POINT
  5
61A
330
4CA
100
AcDbEntity
  8
DEFPOINTS
  6
Continuous
 62
     0
100
AcDbPoint
 10
27339.60525620237
 20
10259.81565853907
 30
0.0
  0
POINT
  5
61B
330
4CA
100
AcDbEntity
  8
DEFPOINTS
  6
Continuous
 62
     0
100
AcDbPoint
 10
29299.60525620214
 20
10259.81565853906
 30
0.0
  0
ENDBLK
  5
4D5
330
4CA
100
AcDbEntity
  8
0
100
AcDbBlockEnd
  0
BLOCK
  5
4E2
330
4D6
100
AcDbEntity
  8
0
100
AcDbBlockBegin
  2
*D11
 70
     1
 10
0.0
 20
0.0
 30
0.0
  3
*D11
  1

  0
LINE
  5
61C
330
4D6
100
AcDbEntity
  8
寸法
  6
Continuous
370
    -2
100
AcDbLine
 10
27639.60525620237
 20
10159.81565853907
 30
0.0
 11
28299.60525620214
 21
10159.81565853907
 31
0.0
  0
LINE
  5
61D
330
4D6
100
AcDbEntity
  8
寸法
  6
Continuous
370
    -2
100
AcDbLine
 10
27639.60525620237
 20
10259.81565853907
 30
0.0
 11
28299.60525620214
 21
10259.81565853907
 31
0.0
  0
LINE
  5
61E
330
4D6
100
AcDbEntity
  8
寸法
  6
Continuous
370
    -2
100
AcDbLine
 10
28299.60525620214
 20
10099.81565853907
 30
0.0
 11
28299.60525620214
 21
10039.81565853907
 31
0.0
  0
LINE
  5
61F
330
4D6
100
AcDbEntity
  8
寸法
  6
Continuous
370
    -2
100
AcDbLine
 10
28299.60525620214
 20
10319.81565853907
 30
0.0
 11
28299.60525620214
 21
10379.81565853907
 31
0.0
  0
MTEXT
  5
620
330
4D6
100
AcDbEntity
  8
寸法
  6
Continuous
100
AcDbMText
 10
28008.61626219642
 20
9778.7281212057
 30
0.0
 40
300.0
 41
0.0
 71
     5
 72
     1
  1
\A1;100
  7
1_100
 11
0.0000000000000001
 21
1.0
 31
0.0
 73
     1
 44
1.0
1001
ACAD
1000
MTEXTBEGIN
1070
    73
1070
     1
1070
    44
1040
1.0
1070
    74
1070
     0
1000
MTEXTEND
  0
LINE
  5
621
330
4D6
100
AcDbEntity
  8
寸法
  6
Continuous
370
    -2
100
AcDbLine
 10
28299.60525620214
 20
10159.81565853907
 30
0.0
 11
28299.60525620214
 21
10259.81565853907
 31
0.0
  0
INSERT
  5
622
330
4D6
100
AcDbEntity
  8
寸法
  6
Continuous
370
    -2
100
AcDbBlockReference
  2
_ORIGIN
 10
28299.60525620214
 20
10159.81565853907
 30
0.0
 41
60.0
 42
60.0
 43
60.0
 50
90.0
  0
INSERT
  5
623
330
4D6
100
AcDbEntity
  8
寸法
  6
Continuous
370
    -2
100
AcDbBlockReference
  2
_ORIGIN
 10
28299.60525620214
 20
10259.81565853907
 30
0.0
 41
60.0
 42
60.0
 43
60.0
 50
270.0
  0
POINT
  5
624
330
4D6
100
AcDbEntity
  8
DEFPOINTS
  6
Continuous
 62
     0
100
AcDbPoint
 10
27339.60525620237
 20
10159.81565853907
 30
0.0
  0
POINT
  5
625
330
4D6
100
AcDbEntity
  8
DEFPOINTS
  6
Continuous
 62
     0
100
AcDbPoint
 10
27339.60525620237
 20
10259.81565853907
 30
0.0
  0
POINT
  5
626
330
4D6
100
AcDbEntity
  8
DEFPOINTS
  6
Continuous
 62
     0
100
AcDbPoint
 10
28299.60525620214
 20
10259.81565853907
 30
0.0
  0
ENDBLK
  5
4E3
330
4D6
100
AcDbEntity
  8
0
100
AcDbBlockEnd
  0
BLOCK
  5
4EE
330
4E4
100
AcDbEntity
  8
0
100
AcDbBlockBegin
  2
*D12
 70
     1
 10
0.0
 20
0.0
 30
0.0
  3
*D12
  1

  0
LINE
  5
627
330
4E4
100
AcDbEntity
  8
寸法
  6
Continuous
370
    -2
100
AcDbLine
 10
27639.60525620237
 20
10259.81565853907
 30
0.0
 11
28299.60525620214
 21
10259.81565853907
 31
0.0
  0
LINE
  5
628
330
4E4
100
AcDbEntity
  8
寸法
  6
Continuous
370
    -2
100
AcDbLine
 10
27639.60525620237
 20
12159.81565853907
 30
0.0
 11
28299.60525620214
 21
12159.81565853907
 31
0.0
  0
LINE
  5
629
330
4E4
100
AcDbEntity
  8
寸法
  6
Continuous
370
    -2
100
AcDbLine
 10
28299.60525620214
 20
10319.81565853907
 30
0.0
 11
28299.60525620214
 21
12099.81565853907
 31
0.0
  0
INSERT
  5
62A
330
4E4
100
AcDbEntity
  8
寸法
  6
Continuous
370
    -2
100
AcDbBlockReference
  2
_ORIGIN
 10
28299.60525620214
 20
10259.81565853907
 30
0.0
 41
60.0
 42
60.0
 43
60.0
 50
270.0
  0
INSERT
  5
62B
330
4E4
100
AcDbEntity
  8
寸法
  6
Continuous
370
    -2
100
AcDbBlockReference
  2
_ORIGIN
 10
28299.60525620214
 20
12159.81565853907
 30
0.0
 41
60.0
 42
60.0
 43
60.0
 50
90.0
  0
MTEXT
  5
62C
330
4E4
100
AcDbEntity
  8
寸法
  6
Continuous
100
AcDbMText
 10
28021.03382763071
 20
11209.81565853907
 30
0.0
 40
300.0
 41
0.0
 71
     5
 72
     1
  1
\A1;1,900
  7
1_100
 11
0.0000000000000001
 21
1.0
 31
0.0
 73
     1
 44
1.0
1001
ACAD
1000
MTEXTBEGIN
1070
    73
1070
     1
1070
    44
1040
1.0
1070
    74
1070
     0
1000
MTEXTEND
  0
POINT
  5
62D
330
4E4
100
AcDbEntity
  8
DEFPOINTS
  6
Continuous
 62
     0
100
AcDbPoint
 10
27339.60525620237
 20
10259.81565853907
 30
0.0
  0
POINT
  5
62E
330
4E4
100
AcDbEntity
  8
DEFPOINTS
  6
Continuous
 62
     0
100
AcDbPoint
 10
27339.60525620237
 20
12159.81565853907
 30
0.0
  0
POINT
  5
62F
330
4E4
100
AcDbEntity
  8
DEFPOINTS
  6
Continuous
 62
     0
100
AcDbPoint
 10
28299.60525620214
 20
12159.81565853907
 30
0.0
  0
ENDBLK
  5
4EF
330
4E4
100
AcDbEntity
  8
0
100
AcDbBlockEnd
  0
BLOCK
  5
4FA
330
4F0
100
AcDbEntity
  8
0
100
AcDbBlockBegin
  2
*D13
 70
     1
 10
0.0
 20
0.0
 30
0.0
  3
*D13
  1

  0
LINE
  5
630
330
4F0
100
AcDbEntity
  8
寸法
  6
Continuous
370
    -2
100
AcDbLine
 10
27639.60525620237
 20
12359.81565853907
 30
0.0
 11
28299.60525620214
 21
12359.81565853907
 31
0.0
  0
LINE
  5
631
330
4F0
100
AcDbEntity
  8
寸法
  6
Continuous
370
    -2
100
AcDbLine
 10
27639.60525620214
 20
14839.81565853907
 30
0.0
 11
28299.60525620214
 21
14839.81565853907
 31
0.0
  0
LINE
  5
632
330
4F0
100
AcDbEntity
  8
寸法
  6
Continuous
370
    -2
100
AcDbLine
 10
28299.60525620214
 20
12419.81565853907
 30
0.0
 11
28299.60525620214
 21
14779.81565853907
 31
0.0
  0
INSERT
  5
633
330
4F0
100
AcDbEntity
  8
寸法
  6
Continuous
370
    -2
100
AcDbBlockReference
  2
_ORIGIN
 10
28299.60525620214
 20
12359.81565853907
 30
0.0
 41
60.0
 42
60.0
 43
60.0
 50
270.0
  0
INSERT
  5
634
330
4F0
100
AcDbEntity
  8
寸法
  6
Continuous
370
    -2
100
AcDbBlockReference
  2
_ORIGIN
 10
28299.60525620214
 20
14839.81565853907
 30
0.0
 41
60.0
 42
60.0
 43
60.0
 50
90.0
  0
MTEXT
  5
635
330
4F0
100
AcDbEntity
  8
寸法
  6
Continuous
100
AcDbMText
 10
28021.03382763071
 20
13599.81565853907
 30
0.0
 40
300.0
 41
0.0
 71
     5
 72
     1
  1
\A1;2,480
  7
1_100
 11
0.0000000000000001
 21
1.0
 31
0.0
 73
     1
 44
1.0
1001
ACAD
1000
MTEXTBEGIN
1070
    73
1070
     1
1070
    44
1040
1.0
1070
    74
1070
     0
1000
MTEXTEND
  0
POINT
  5
636
330
4F0
100
AcDbEntity
  8
DEFPOINTS
  6
Continuous
 62
     0
100
AcDbPoint
 10
27339.60525620237
 20
12359.81565853907
 30
0.0
  0
POINT
  5
637
330
4F0
100
AcDbEntity
  8
DEFPOINTS
  6
Continuous
 62
     0
100
AcDbPoint
 10
27339.60525620214
 20
14839.81565853907
 30
0.0
  0
POINT
  5
638
330
4F0
100
AcDbEntity
  8
DEFPOINTS
  6
Continuous
 62
     0
100
AcDbPoint
 10
28299.60525620214
 20
14839.81565853907
 30
0.0
  0
ENDBLK
  5
4FB
330
4F0
100
AcDbEntity
  8
0
100
AcDbBlockEnd
  0
BLOCK
  5
506
330
4FC
100
AcDbEntity
  8
0
100
AcDbBlockBegin
  2
*D14
 70
     1
 10
0.0
 20
0.0
 30
0.0
  3
*D14
  1

  0
LINE
  5
639
330
4FC
100
AcDbEntity
  8
寸法
  6
Continuous
370
    -2
100
AcDbLine
 10
27639.60525620214
 20
14839.81565853907
 30
0.0
 11
28299.60525620214
 21
14839.81565853907
 31
0.0
  0
LINE
  5
63A
330
4FC
100
AcDbEntity
  8
寸法
  6
Continuous
370
    -2
100
AcDbLine
 10
27639.60525620214
 20
17319.81565853907
 30
0.0
 11
28299.60525620214
 21
17319.81565853907
 31
0.0
  0
LINE
  5
63B
330
4FC
100
AcDbEntity
  8
寸法
  6
Continuous
370
    -2
100
AcDbLine
 10
28299.60525620214
 20
14899.81565853907
 30
0.0
 11
28299.60525620214
 21
17259.81565853907
 31
0.0
  0
INSERT
  5
63C
330
4FC
100
AcDbEntity
  8
寸法
  6
Continuous
370
    -2
100
AcDbBlockReference
  2
_ORIGIN
 10
28299.60525620214
 20
14839.81565853907
 30
0.0
 41
60.0
 42
60.0
 43
60.0
 50
270.0
  0
INSERT
  5
63D
330
4FC
100
AcDbEntity
  8
寸法
  6
Continuous
370
    -2
100
AcDbBlockReference
  2
_ORIGIN
 10
28299.60525620214
 20
17319.81565853907
 30
0.0
 41
60.0
 42
60.0
 43
60.0
 50
90.0
  0
MTEXT
  5
63E
330
4FC
100
AcDbEntity
  8
寸法
  6
Continuous
100
AcDbMText
 10
28021.03382763071
 20
16079.81565853907
 30
0.0
 40
300.0
 41
0.0
 71
     5
 72
     1
  1
\A1;2,480
  7
1_100
 11
0.0000000000000001
 21
1.0
 31
0.0
 73
     1
 44
1.0
1001
ACAD
1000
MTEXTBEGIN
1070
    73
1070
     1
1070
    44
1040
1.0
1070
    74
1070
     0
1000
MTEXTEND
  0
POINT
  5
63F
330
4FC
100
AcDbEntity
  8
DEFPOINTS
  6
Continuous
 62
     0
100
AcDbPoint
 10
27339.60525620214
 20
14839.81565853907
 30
0.0
  0
POINT
  5
640
330
4FC
100
AcDbEntity
  8
DEFPOINTS
  6
Continuous
 62
     0
100
AcDbPoint
 10
27339.60525620214
 20
17319.81565853907
 30
0.0
  0
POINT
  5
641
330
4FC
100
AcDbEntity
  8
DEFPOINTS
  6
Continuous
 62
     0
100
AcDbPoint
 10
28299.60525620214
 20
17319.81565853907
 30
0.0
  0
ENDBLK
  5
507
330
4FC
100
AcDbEntity
  8
0
100
AcDbBlockEnd
  0
BLOCK
  5
512
330
508
100
AcDbEntity
  8
0
100
AcDbBlockBegin
  2
*D15
 70
     1
 10
0.0
 20
0.0
 30
0.0
  3
*D15
  1

  0
LINE
  5
642
330
508
100
AcDbEntity
  8
寸法
  6
Continuous
370
    -2
100
AcDbLine
 10
9299.605256202141
 20
8584.815658539069
 30
0.0
 11
9299.605256202141
 21
7978.738634159324
 31
0.0
  0
LINE
  5
643
330
508
100
AcDbEntity
  8
寸法
  6
Continuous
370
    -2
100
AcDbLine
 10
19299.60525620214
 20
9617.348186745774
 30
0.0
 11
19299.60525620214
 21
7978.738634159324
 31
0.0
  0
LINE
  5
644
330
508
100
AcDbEntity
  8
寸法
  6
Continuous
370
    -2
100
AcDbLine
 10
9359.605256202142
 20
7978.738634159324
 30
0.0
 11
19239.60525620214
 21
7978.738634159324
 31
0.0
  0
INSERT
  5
645
330
508
100
AcDbEntity
  8
寸法
  6
Continuous
370
    -2
100
AcDbBlockReference
  2
_ORIGIN
 10
9299.605256202141
 20
7978.738634159324
 30
0.0
 41
60.0
 42
60.0
 43
60.0
 50
180.0
  0
INSERT
  5
646
330
508
100
AcDbEntity
  8
寸法
  6
Continuous
370
    -2
100
AcDbBlockReference
  2
_ORIGIN
 10
19299.60525620214
 20
7978.738634159324
 30
0.0
 41
60.0
 42
60.0
 43
60.0
  0
MTEXT
  5
647
330
508
100
AcDbEntity
  8
寸法
  6
Continuous
100
AcDbMText
 10
14299.60525620214
 20
8257.31006273075
 30
0.0
 40
300.0
 41
0.0
 71
     5
 72
     1
  1
\A1;10,000
  7
1_100
 73
     1
 44
1.0
1001
ACAD
1000
MTEXTBEGIN
1070
    73
1070
     1
1070
    44
1040
1.0
1070
    74
1070
     0
1000
MTEXTEND
  0
POINT
  5
648
330
508
100
AcDbEntity
  8
DEFPOINTS
  6
Continuous
 62
     0
100
AcDbPoint
 10
9299.605256202141
 20
8884.815658539068
 30
0.0
  0
POINT
  5
649
330
508
100
AcDbEntity
  8
DEFPOINTS
  6
Continuous
 62
     0
100
AcDbPoint
 10
19299.60525620214
 20
9917.348186745774
 30
0.0
  0
POINT
  5
64A
330
508
100
AcDbEntity
  8
DEFPOINTS
  6
Continuous
 62
     0
100
AcDbPoint
 10
19299.60525620214
 20
7978.738634159324
 30
0.0
  0
ENDBLK
  5
513
330
508
100
AcDbEntity
  8
0
100
AcDbBlockEnd
  0
BLOCK
  5
520
330
514
100
AcDbEntity
  8
0
100
AcDbBlockBegin
  2
*D16
 70
     1
 10
0.0
 20
0.0
 30
0.0
  3
*D16
  1

  0
LINE
  5
64B
330
514
100
AcDbEntity
  8
寸法
  6
Continuous
370
    -2
100
AcDbLine
 10
9049.605256202141
 20
9859.815658538952
 30
0.0
 11
9049.605256202141
 21
9159.815658538951
 31
0.0
  0
LINE
  5
64C
330
514
100
AcDbEntity
  8
寸法
  6
Continuous
370
    -2
100
AcDbLine
 10
9549.605256202141
 20
9859.815658538952
 30
0.0
 11
9549.605256202141
 21
9159.815658538951
 31
0.0
  0
LINE
  5
64D
330
514
100
AcDbEntity
  8
寸法
  6
Continuous
370
    -2
100
AcDbLine
 10
8989.605256202139
 20
9159.815658538951
 30
0.0
 11
8929.605256202142
 21
9159.815658538951
 31
0.0
  0
LINE
  5
64E
330
514
100
AcDbEntity
  8
寸法
  6
Continuous
370
    -2
100
AcDbLine
 10
9609.605256202142
 20
9159.815658538951
 30
0.0
 11
9669.605256202139
 21
9159.815658538951
 31
0.0
  0
LINE
  5
64F
330
514
100
AcDbEntity
  8
寸法
  6
Continuous
370
    -2
100
AcDbLine
 10
9049.605256202141
 20
9159.815658538951
 30
0.0
 11
9549.605256202141
 21
9159.815658538951
 31
0.0
  0
INSERT
  5
650
330
514
100
AcDbEntity
  8
寸法
  6
Continuous
370
    -2
100
AcDbBlockReference
  2
_ORIGIN
 10
9049.605256202141
 20
9159.815658538951
 30
0.0
 41
60.0
 42
60.0
 43
60.0
  0
INSERT
  5
651
330
514
100
AcDbEntity
  8
寸法
  6
Continuous
370
    -2
100
AcDbBlockReference
  2
_ORIGIN
 10
9549.605256202141
 20
9159.815658538951
 30
0.0
 41
60.0
 42
60.0
 43
60.0
 50
180.0
  0
MTEXT
  5
652
330
514
100
AcDbEntity
  8
寸法
  6
Continuous
100
AcDbMText
 10
9299.605256202141
 20
8909.815658538951
 30
0.0
 40
300.0
 41
0.0
 71
     5
 72
     1
  1
\A1;□500
  7
1_100
 73
     1
 44
1.0
1001
ACAD
1000
MTEXTBEGIN
1070
    73
1070
     1
1070
    44
1040
1.0
1070
    74
1070
     0
1000
MTEXTEND
  0
POINT
  5
653
330
514
100
AcDbEntity
  8
DEFPOINTS
  6
Continuous
 62
     0
100
AcDbPoint
 10
9049.605256202141
 20
10159.81565853895
 30
0.0
  0
POINT
  5
654
330
514
100
AcDbEntity
  8
DEFPOINTS
  6
Continuous
 62
     0
100
AcDbPoint
 10
9549.605256202141
 20
10159.81565853895
 30
0.0
  0
POINT
  5
655
330
514
100
AcDbEntity
  8
DEFPOINTS
  6
Continuous
 62
     0
100
AcDbPoint
 10
9549.605256202141
 20
9159.815658538951
 30
0.0
  0
ENDBLK
  5
521
330
514
100
AcDbEntity
  8
0
100
AcDbBlockEnd
  0
BLOCK
  5
52C
330
522
100
AcDbEntity
  8
0
100
AcDbBlockBegin
  2
*D17
 70
     1
 10
0.0
 20
0.0
 30
0.0
  3
*D17
  1

  0
LINE
  5
656
330
522
100
AcDbEntity
  8
寸法
  6
Continuous
370
    -2
100
AcDbLine
 10
9074.605256202024
 20
9859.815658539069
 30
0.0
 11
9074.605256202024
 21
9559.815658539301
 31
0.0
  0
LINE
  5
657
330
522
100
AcDbEntity
  8
寸法
  6
Continuous
370
    -2
100
AcDbLine
 10
9524.605256202024
 20
9859.815658539069
 30
0.0
 11
9524.605256202024
 21
9559.815658539301
 31
0.0
  0
LINE
  5
658
330
522
100
AcDbEntity
  8
寸法
  6
Continuous
370
    -2
100
AcDbLine
 10
9134.605256202023
 20
9559.815658539301
 30
0.0
 11
9464.605256202023
 21
9559.815658539301
 31
0.0
  0
MTEXT
  5
659
330
522
100
AcDbEntity
  8
寸法
  6
Continuous
100
AcDbMText
 10
8466.325363633197
 20
9760.603370700962
 30
0.0
 40
300.0
 41
0.0
 71
     5
 72
     1
  1
\A1;φ450
  7
1_100
 73
     1
 44
1.0
1001
ACAD
1000
MTEXTBEGIN
1070
    73
1070
     1
1070
    44
1040
1.0
1070
    74
1070
     0
1000
MTEXTEND
  0
INSERT
  5
65A
330
522
100
AcDbEntity
  8
寸法
  6
Continuous
370
    -2
100
AcDbBlockReference
  2
_ORIGIN
 10
9074.605256202024
 20
9559.815658539301
 30
0.0
 41
60.0
 42
60.0
 43
60.0
 50
180.0
  0
INSERT
  5
65B
330
522
100
AcDbEntity
  8
寸法
  6
Continuous
370
    -2
100
AcDbBlockReference
  2
_ORIGIN
 10
9524.605256202024
 20
9559.815658539301
 30
0.0
 41
60.0
 42
60.0
 43
60.0
  0
POINT
  5
65C
330
522
100
AcDbEntity
  8
DEFPOINTS
  6
Continuous
 62
     0
100
AcDbPoint
 10
9074.605256202024
 20
10159.81565853907
 30
0.0
  0
POINT
  5
65D
330
522
100
AcDbEntity
  8
DEFPOINTS
  6
Continuous
 62
     0
100
AcDbPoint
 10
9524.605256202024
 20
10159.81565853907
 30
0.0
  0
POINT
  5
65E
330
522
100
AcDbEntity
  8
DEFPOINTS
  6
Continuous
 62
     0
100
AcDbPoint
 10
9524.605256202024
 20
9559.815658539301
 30
0.0
  0
ENDBLK
  5
52D
330
522
100
AcDbEntity
  8
0
100
AcDbBlockEnd
  0
BLOCK
  5
53A
330
52E
100
AcDbEntity
  8
0
100
AcDbBlockBegin
  2
*D18
 70
     1
 10
0.0
 20
0.0
 30
0.0
  3
*D18
  1

  0
LINE
  5
65F
330
52E
100
AcDbEntity
  8
寸法
  6
Continuous
370
    -2
100
AcDbLine
 10
32599.03603160542
 20
12159.81565853907
 30
0.0
 11
33299.60525620214
 21
12159.81565853907
 31
0.0
  0
LINE
  5
660
330
52E
100
AcDbEntity
  8
寸法
  6
Continuous
370
    -2
100
AcDbLine
 10
32599.03603160542
 20
12359.81565853907
 30
0.0
 11
33299.60525620214
 21
12359.81565853907
 31
0.0
  0
LINE
  5
661
330
52E
100
AcDbEntity
  8
寸法
  6
Continuous
370
    -2
100
AcDbLine
 10
33299.60525620214
 20
12099.81565853907
 30
0.0
 11
33299.60525620214
 21
12039.81565853907
 31
0.0
  0
LINE
  5
662
330
52E
100
AcDbEntity
  8
寸法
  6
Continuous
370
    -2
100
AcDbLine
 10
33299.60525620214
 20
12419.81565853907
 30
0.0
 11
33299.60525620214
 21
12479.81565853907
 31
0.0
  0
MTEXT
  5
663
330
52E
100
AcDbEntity
  8
寸法
  6
Continuous
100
AcDbMText
 10
33530.51103976402
 20
12004.2146160322
 30
0.0
 40
300.0
 41
0.0
 71
     5
 72
     1
  1
\A1;200
  7
1_100
 11
0.0000000000000001
 21
1.0
 31
0.0
 73
     1
 44
1.0
1001
ACAD
1000
MTEXTBEGIN
1070
    73
1070
     1
1070
    44
1040
1.0
1070
    74
1070
     0
1000
MTEXTEND
  0
LINE
  5
664
330
52E
100
AcDbEntity
  8
寸法
  6
Continuous
370
    -2
100
AcDbLine
 10
33299.60525620214
 20
12159.81565853907
 30
0.0
 11
33299.60525620214
 21
12359.81565853907
 31
0.0
  0
INSERT
  5
665
330
52E
100
AcDbEntity
  8
寸法
  6
Continuous
370
    -2
100
AcDbBlockReference
  2
_ORIGIN
 10
33299.60525620214
 20
12159.81565853907
 30
0.0
 41
60.0
 42
60.0
 43
60.0
 50
90.0
  0
INSERT
  5
666
330
52E
100
AcDbEntity
  8
寸法
  6
Continuous
370
    -2
100
AcDbBlockReference
  2
_ORIGIN
 10
33299.60525620214
 20
12359.81565853907
 30
0.0
 41
60.0
 42
60.0
 43
60.0
 50
270.0
  0
POINT
  5
667
330
52E
100
AcDbEntity
  8
DEFPOINTS
  6
Continuous
 62
     0
100
AcDbPoint
 10
32299.03603160542
 20
12159.81565853907
 30
0.0
  0
POINT
  5
668
330
52E
100
AcDbEntity
  8
DEFPOINTS
  6
Continuous
 62
     0
100
AcDbPoint
 10
32299.03603160542
 20
12359.81565853907
 30
0.0
  0
POINT
  5
669
330
52E
100
AcDbEntity
  8
DEFPOINTS
  6
Continuous
 62
     0
100
AcDbPoint
 10
33299.60525620214
 20
12359.81565853907
 30
0.0
  0
ENDBLK
  5
53B
330
52E
100
AcDbEntity
  8
0
100
AcDbBlockEnd
  0
BLOCK
  5
546
330
53C
100
AcDbEntity
  8
0
100
AcDbBlockBegin
  2
*D19
 70
     1
 10
0.0
 20
0.0
 30
0.0
  3
*D19
  1

  0
LINE
  5
66A
330
53C
100
AcDbEntity
  8
寸法
  6
Continuous
370
    -2
100
AcDbLine
 10
32599.03603160542
 20
12359.81565853907
 30
0.0
 11
34299.60525620214
 21
12359.81565853907
 31
0.0
  0
LINE
  5
66B
330
53C
100
AcDbEntity
  8
寸法
  6
Continuous
370
    -2
100
AcDbLine
 10
32599.03603160542
 20
10259.81565853907
 30
0.0
 11
34299.60525620214
 21
10259.81565853907
 31
0.0
  0
LINE
  5
66C
330
53C
100
AcDbEntity
  8
寸法
  6
Continuous
370
    -2
100
AcDbLine
 10
34299.60525620214
 20
12299.81565853907
 30
0.0
 11
34299.60525620214
 21
10319.81565853907
 31
0.0
  0
INSERT
  5
66D
330
53C
100
AcDbEntity
  8
寸法
  6
Continuous
370
    -2
100
AcDbBlockReference
  2
_ORIGIN
 10
34299.60525620214
 20
12359.81565853907
 30
0.0
 41
60.0
 42
60.0
 43
60.0
 50
90.0
  0
INSERT
  5
66E
330
53C
100
AcDbEntity
  8
寸法
  6
Continuous
370
    -2
100
AcDbBlockReference
  2
_ORIGIN
 10
34299.60525620214
 20
10259.81565853907
 30
0.0
 41
60.0
 42
60.0
 43
60.0
 50
270.0
  0
MTEXT
  5
66F
330
53C
100
AcDbEntity
  8
寸法
  6
Continuous
100
AcDbMText
 10
34021.03382763072
 20
11309.81565853907
 30
0.0
 40
300.0
 41
0.0
 71
     5
 72
     1
  1
\A1;2,100
  7
1_100
 11
0.0000000000000001
 21
1.0
 31
0.0
 73
     1
 44
1.0
1001
ACAD
1000
MTEXTBEGIN
1070
    73
1070
     1
1070
    44
1040
1.0
1070
    74
1070
     0
1000
MTEXTEND
  0
POINT
  5
670
330
53C
100
AcDbEntity
  8
DEFPOINTS
  6
Continuous
 62
     0
100
AcDbPoint
 10
32299.03603160542
 20
12359.81565853907
 30
0.0
  0
POINT
  5
671
330
53C
100
AcDbEntity
  8
DEFPOINTS
  6
Continuous
 62
     0
100
AcDbPoint
 10
32299.03603160542
 20
10259.81565853907
 30
0.0
  0
POINT
  5
672
330
53C
100
AcDbEntity
  8
DEFPOINTS
  6
Continuous
 62
     0
100
AcDbPoint
 10
34299.60525620214
 20
10259.81565853907
 30
0.0
  0
ENDBLK
  5
547
330
53C
100
AcDbEntity
  8
0
100
AcDbBlockEnd
  0
BLOCK
  5
554
330
548
100
AcDbEntity
  8
0
100
AcDbBlockBegin
  2
*D20
 70
     1
 10
0.0
 20
0.0
 30
0.0
  3
*D20
  1

  0
LINE
  5
673
330
548
100
AcDbEntity
  8
寸法
  6
Continuous
370
    -2
100
AcDbLine
 10
31049.60525620214
 20
9859.815658538952
 30
0.0
 11
31049.60525620214
 21
9159.815658538951
 31
0.0
  0
LINE
  5
674
330
548
100
AcDbEntity
  8
寸法
  6
Continuous
370
    -2
100
AcDbLine
 10
31549.60525620214
 20
9859.815658538952
 30
0.0
 11
31549.60525620214
 21
9159.815658538951
 31
0.0
  0
LINE
  5
675
330
548
100
AcDbEntity
  8
寸法
  6
Continuous
370
    -2
100
AcDbLine
 10
30989.60525620214
 20
9159.815658538951
 30
0.0
 11
30929.60525620214
 21
9159.815658538951
 31
0.0
  0
LINE
  5
676
330
548
100
AcDbEntity
  8
寸法
  6
Continuous
370
    -2
100
AcDbLine
 10
31609.60525620214
 20
9159.815658538951
 30
0.0
 11
31669.60525620214
 21
9159.815658538951
 31
0.0
  0
LINE
  5
677
330
548
100
AcDbEntity
  8
寸法
  6
Continuous
370
    -2
100
AcDbLine
 10
31049.60525620214
 20
9159.815658538951
 30
0.0
 11
31549.60525620214
 21
9159.815658538951
 31
0.0
  0
INSERT
  5
678
330
548
100
AcDbEntity
  8
寸法
  6
Continuous
370
    -2
100
AcDbBlockReference
  2
_ORIGIN
 10
31049.60525620214
 20
9159.815658538951
 30
0.0
 41
60.0
 42
60.0
 43
60.0
  0
INSERT
  5
679
330
548
100
AcDbEntity
  8
寸法
  6
Continuous
370
    -2
100
AcDbBlockReference
  2
_ORIGIN
 10
31549.60525620214
 20
9159.815658538951
 30
0.0
 41
60.0
 42
60.0
 43
60.0
 50
180.0
  0
MTEXT
  5
67A
330
548
100
AcDbEntity
  8
寸法
  6
Continuous
100
AcDbMText
 10
31299.60525620214
 20
8909.815658538951
 30
0.0
 40
300.0
 41
0.0
 71
     5
 72
     1
  1
\A1;□500
  7
1_100
 73
     1
 44
1.0
1001
ACAD
1000
MTEXTBEGIN
1070
    73
1070
     1
1070
    44
1040
1.0
1070
    74
1070
     0
1000
MTEXTEND
  0
POINT
  5
67B
330
548
100
AcDbEntity
  8
DEFPOINTS
  6
Continuous
 62
     0
100
AcDbPoint
 10
31049.60525620214
 20
10159.81565853895
 30
0.0
  0
POINT
  5
67C
330
548
100
AcDbEntity
  8
DEFPOINTS
  6
Continuous
 62
     0
100
AcDbPoint
 10
31549.60525620214
 20
10159.81565853895
 30
0.0
  0
POINT
  5
67D
330
548
100
AcDbEntity
  8
DEFPOINTS
  6
Continuous
 62
     0
100
AcDbPoint
 10
31549.60525620214
 20
9159.815658538951
 30
0.0
  0
ENDBLK
  5
555
330
548
100
AcDbEntity
  8
0
100
AcDbBlockEnd
  0
BLOCK
  5
562
330
556
100
AcDbEntity
  8
0
100
AcDbBlockBegin
  2
*D21
 70
     1
 10
0.0
 20
0.0
 30
0.0
  3
*D21
  1

  0
LINE
  5
67E
330
556
100
AcDbEntity
  8
寸法
  6
Continuous
370
    -2
100
AcDbLine
 10
32599.03603160542
 20
10159.81565853907
 30
0.0
 11
33299.60525620214
 21
10159.81565853907
 31
0.0
  0
LINE
  5
67F
330
556
100
AcDbEntity
  8
寸法
  6
Continuous
370
    -2
100
AcDbLine
 10
32599.03603160542
 20
10259.81565853907
 30
0.0
 11
33299.60525620214
 21
10259.81565853907
 31
0.0
  0
LINE
  5
680
330
556
100
AcDbEntity
  8
寸法
  6
Continuous
370
    -2
100
AcDbLine
 10
33299.60525620214
 20
10099.81565853907
 30
0.0
 11
33299.60525620214
 21
10039.81565853907
 31
0.0
  0
LINE
  5
681
330
556
100
AcDbEntity
  8
寸法
  6
Continuous
370
    -2
100
AcDbLine
 10
33299.60525620214
 20
10319.81565853907
 30
0.0
 11
33299.60525620214
 21
10379.81565853907
 31
0.0
  0
MTEXT
  5
682
330
556
100
AcDbEntity
  8
寸法
  6
Continuous
100
AcDbMText
 10
33014.95388746539
 20
9781.201401733675
 30
0.0
 40
300.0
 41
0.0
 71
     5
 72
     1
  1
\A1;100
  7
1_100
 11
0.0000000000000001
 21
1.0
 31
0.0
 73
     1
 44
1.0
1001
ACAD
1000
MTEXTBEGIN
1070
    73
1070
     1
1070
    44
1040
1.0
1070
    74
1070
     0
1000
MTEXTEND
  0
LINE
  5
683
330
556
100
AcDbEntity
  8
寸法
  6
Continuous
370
    -2
100
AcDbLine
 10
33299.60525620214
 20
10159.81565853907
 30
0.0
 11
33299.60525620214
 21
10259.81565853907
 31
0.0
  0
INSERT
  5
684
330
556
100
AcDbEntity
  8
寸法
  6
Continuous
370
    -2
100
AcDbBlockReference
  2
_ORIGIN
 10
33299.60525620214
 20
10159.81565853907
 30
0.0
 41
60.0
 42
60.0
 43
60.0
 50
90.0
  0
INSERT
  5
685
330
556
100
AcDbEntity
  8
寸法
  6
Continuous
370
    -2
100
AcDbBlockReference
  2
_ORIGIN
 10
33299.60525620214
 20
10259.81565853907
 30
0.0
 41
60.0
 42
60.0
 43
60.0
 50
270.0
  0
POINT
  5
686
330
556
100
AcDbEntity
  8
DEFPOINTS
  6
Continuous
 62
     0
100
AcDbPoint
 10
32299.03603160542
 20
10159.81565853907
 30
0.0
  0
POINT
  5
687
330
556
100
AcDbEntity
  8
DEFPOINTS
  6
Continuous
 62
     0
100
AcDbPoint
 10
32299.03603160542
 20
10259.81565853907
 30
0.0
  0
POINT
  5
688
330
556
100
AcDbEntity
  8
DEFPOINTS
  6
Continuous
 62
     0
100
AcDbPoint
 10
33299.60525620214
 20
10259.81565853907
 30
0.0
  0
ENDBLK
  5
563
330
556
100
AcDbEntity
  8
0
100
AcDbBlockEnd
  0
BLOCK
  5
56E
330
564
100
AcDbEntity
  8
0
100
AcDbBlockBegin
  2
*D22
 70
     1
 10
0.0
 20
0.0
 30
0.0
  3
*D22
  1

  0
LINE
  5
689
330
564
100
AcDbEntity
  8
寸法
  6
Continuous
370
    -2
100
AcDbLine
 10
32599.03603160542
 20
10259.81565853907
 30
0.0
 11
33299.60525620214
 21
10259.81565853907
 31
0.0
  0
LINE
  5
68A
330
564
100
AcDbEntity
  8
寸法
  6
Continuous
370
    -2
100
AcDbLine
 10
32599.03603160542
 20
12159.81565853907
 30
0.0
 11
33299.60525620214
 21
12159.81565853907
 31
0.0
  0
LINE
  5
68B
330
564
100
AcDbEntity
  8
寸法
  6
Continuous
370
    -2
100
AcDbLine
 10
33299.60525620214
 20
10319.81565853907
 30
0.0
 11
33299.60525620214
 21
12099.81565853907
 31
0.0
  0
INSERT
  5
68C
330
564
100
AcDbEntity
  8
寸法
  6
Continuous
370
    -2
100
AcDbBlockReference
  2
_ORIGIN
 10
33299.60525620214
 20
10259.81565853907
 30
0.0
 41
60.0
 42
60.0
 43
60.0
 50
270.0
  0
INSERT
  5
68D
330
564
100
AcDbEntity
  8
寸法
  6
Continuous
370
    -2
100
AcDbBlockReference
  2
_ORIGIN
 10
33299.60525620214
 20
12159.81565853907
 30
0.0
 41
60.0
 42
60.0
 43
60.0
 50
90.0
  0
MTEXT
  5
68E
330
564
100
AcDbEntity
  8
寸法
  6
Continuous
100
AcDbMText
 10
33021.03382763072
 20
11209.81565853907
 30
0.0
 40
300.0
 41
0.0
 71
     5
 72
     1
  1
\A1;1,900
  7
1_100
 11
0.0000000000000001
 21
1.0
 31
0.0
 73
     1
 44
1.0
1001
ACAD
1000
MTEXTBEGIN
1070
    73
1070
     1
1070
    44
1040
1.0
1070
    74
1070
     0
1000
MTEXTEND
  0
POINT
  5
68F
330
564
100
AcDbEntity
  8
DEFPOINTS
  6
Continuous
 62
     0
100
AcDbPoint
 10
32299.03603160542
 20
10259.81565853907
 30
0.0
  0
POINT
  5
690
330
564
100
AcDbEntity
  8
DEFPOINTS
  6
Continuous
 62
     0
100
AcDbPoint
 10
32299.03603160542
 20
12159.81565853907
 30
0.0
  0
POINT
  5
691
330
564
100
AcDbEntity
  8
DEFPOINTS
  6
Continuous
 62
     0
100
AcDbPoint
 10
33299.60525620214
 20
12159.81565853907
 30
0.0
  0
ENDBLK
  5
56F
330
564
100
AcDbEntity
  8
0
100
AcDbBlockEnd
  0
BLOCK
  5
57A
330
570
100
AcDbEntity
  8
0
100
AcDbBlockBegin
  2
*D23
 70
     1
 10
0.0
 20
0.0
 30
0.0
  3
*D23
  1

  0
LINE
  5
692
330
570
100
AcDbEntity
  8
寸法
  6
Continuous
370
    -2
100
AcDbLine
 10
32599.03603160542
 20
12359.81565853907
 30
0.0
 11
33299.60525620214
 21
12359.81565853907
 31
0.0
  0
LINE
  5
693
330
570
100
AcDbEntity
  8
寸法
  6
Continuous
370
    -2
100
AcDbLine
 10
32599.03603160542
 20
14839.81565853907
 30
0.0
 11
33299.60525620214
 21
14839.81565853907
 31
0.0
  0
LINE
  5
694
330
570
100
AcDbEntity
  8
寸法
  6
Continuous
370
    -2
100
AcDbLine
 10
33299.60525620214
 20
12419.81565853907
 30
0.0
 11
33299.60525620214
 21
14779.81565853907
 31
0.0
  0
INSERT
  5
695
330
570
100
AcDbEntity
  8
寸法
  6
Continuous
370
    -2
100
AcDbBlockReference
  2
_ORIGIN
 10
33299.60525620214
 20
12359.81565853907
 30
0.0
 41
60.0
 42
60.0
 43
60.0
 50
270.0
  0
INSERT
  5
696
330
570
100
AcDbEntity
  8
寸法
  6
Continuous
370
    -2
100
AcDbBlockReference
  2
_ORIGIN
 10
33299.60525620214
 20
14839.81565853907
 30
0.0
 41
60.0
 42
60.0
 43
60.0
 50
90.0
  0
MTEXT
  5
697
330
570
100
AcDbEntity
  8
寸法
  6
Continuous
100
AcDbMText
 10
33021.03382763072
 20
13599.81565853907
 30
0.0
 40
300.0
 41
0.0
 71
     5
 72
     1
  1
\A1;2,480
  7
1_100
 11
0.0000000000000001
 21
1.0
 31
0.0
 73
     1
 44
1.0
1001
ACAD
1000
MTEXTBEGIN
1070
    73
1070
     1
1070
    44
1040
1.0
1070
    74
1070
     0
1000
MTEXTEND
  0
POINT
  5
698
330
570
100
AcDbEntity
  8
DEFPOINTS
  6
Continuous
 62
     0
100
AcDbPoint
 10
32299.03603160542
 20
12359.81565853907
 30
0.0
  0
POINT
  5
699
330
570
100
AcDbEntity
  8
DEFPOINTS
  6
Continuous
 62
     0
100
AcDbPoint
 10
32299.03603160542
 20
14839.81565853907
 30
0.0
  0
POINT
  5
69A
330
570
100
AcDbEntity
  8
DEFPOINTS
  6
Continuous
 62
     0
100
AcDbPoint
 10
33299.60525620214
 20
14839.81565853907
 30
0.0
  0
ENDBLK
  5
57B
330
570
100
AcDbEntity
  8
0
100
AcDbBlockEnd
  0
BLOCK
  5
586
330
57C
100
AcDbEntity
  8
0
100
AcDbBlockBegin
  2
*D24
 70
     1
 10
0.0
 20
0.0
 30
0.0
  3
*D24
  1

  0
LINE
  5
69B
330
57C
100
AcDbEntity
  8
寸法
  6
Continuous
370
    -2
100
AcDbLine
 10
31074.60525620191
 20
9859.815658539069
 30
0.0
 11
31074.60525620191
 21
9559.815658539301
 31
0.0
  0
LINE
  5
69C
330
57C
100
AcDbEntity
  8
寸法
  6
Continuous
370
    -2
100
AcDbLine
 10
31524.60525620191
 20
9859.815658539069
 30
0.0
 11
31524.60525620191
 21
9559.815658539301
 31
0.0
  0
LINE
  5
69D
330
57C
100
AcDbEntity
  8
寸法
  6
Continuous
370
    -2
100
AcDbLine
 10
31134.60525620192
 20
9559.815658539301
 30
0.0
 11
31464.60525620192
 21
9559.815658539301
 31
0.0
  0
MTEXT
  5
69E
330
57C
100
AcDbEntity
  8
寸法
  6
Continuous
100
AcDbMText
 10
30462.70444199696
 20
9760.603370700962
 30
0.0
 40
300.0
 41
0.0
 71
     5
 72
     1
  1
\A1;φ450
  7
1_100
 73
     1
 44
1.0
1001
ACAD
1000
MTEXTBEGIN
1070
    73
1070
     1
1070
    44
1040
1.0
1070
    74
1070
     0
1000
MTEXTEND
  0
INSERT
  5
69F
330
57C
100
AcDbEntity
  8
寸法
  6
Continuous
370
    -2
100
AcDbBlockReference
  2
_ORIGIN
 10
31074.60525620191
 20
9559.815658539301
 30
0.0
 41
60.0
 42
60.0
 43
60.0
 50
180.0
  0
INSERT
  5
6A0
330
57C
100
AcDbEntity
  8
寸法
  6
Continuous
370
    -2
100
AcDbBlockReference
  2
_ORIGIN
 10
31524.60525620191
 20
9559.815658539301
 30
0.0
 41
60.0
 42
60.0
 43
60.0
  0
POINT
  5
6A1
330
57C
100
AcDbEntity
  8
DEFPOINTS
  6
Continuous
 62
     0
100
AcDbPoint
 10
31074.60525620191
 20
10159.81565853907
 30
0.0
  0
POINT
  5
6A2
330
57C
100
AcDbEntity
  8
DEFPOINTS
  6
Continuous
 62
     0
100
AcDbPoint
 10
31524.60525620191
 20
10159.81565853907
 30
0.0
  0
POINT
  5
6A3
330
57C
100
AcDbEntity
  8
DEFPOINTS
  6
Continuous
 62
     0
100
AcDbPoint
 10
31524.60525620191
 20
9559.815658539301
 30
0.0
  0
ENDBLK
  5
587
330
57C
100
AcDbEntity
  8
0
100
AcDbBlockEnd
  0
BLOCK
  5
592
330
588
100
AcDbEntity
  8
0
100
AcDbBlockBegin
  2
*D25
 70
     1
 10
0.0
 20
0.0
 30
0.0
  3
*D25
  1

  0
LINE
  5
6A4
330
588
100
AcDbEntity
  8
寸法
  6
Continuous
370
    -2
100
AcDbLine
 10
32599.03603160542
 20
14839.81565853907
 30
0.0
 11
33299.60525620214
 21
14839.81565853907
 31
0.0
  0
LINE
  5
6A5
330
588
100
AcDbEntity
  8
寸法
  6
Continuous
370
    -2
100
AcDbLine
 10
32599.03603160542
 20
17319.81565853907
 30
0.0
 11
33299.60525620214
 21
17319.81565853907
 31
0.0
  0
LINE
  5
6A6
330
588
100
AcDbEntity
  8
寸法
  6
Continuous
370
    -2
100
AcDbLine
 10
33299.60525620214
 20
14899.81565853907
 30
0.0
 11
33299.60525620214
 21
17259.81565853907
 31
0.0
  0
INSERT
  5
6A7
330
588
100
AcDbEntity
  8
寸法
  6
Continuous
370
    -2
100
AcDbBlockReference
  2
_ORIGIN
 10
33299.60525620214
 20
14839.81565853907
 30
0.0
 41
60.0
 42
60.0
 43
60.0
 50
270.0
  0
INSERT
  5
6A8
330
588
100
AcDbEntity
  8
寸法
  6
Continuous
370
    -2
100
AcDbBlockReference
  2
_ORIGIN
 10
33299.60525620214
 20
17319.81565853907
 30
0.0
 41
60.0
 42
60.0
 43
60.0
 50
90.0
  0
MTEXT
  5
6A9
330
588
100
AcDbEntity
  8
寸法
  6
Continuous
100
AcDbMText
 10
33021.03382763072
 20
16079.81565853907
 30
0.0
 40
300.0
 41
0.0
 71
     5
 72
     1
  1
\A1;2,480
  7
1_100
 11
0.0000000000000001
 21
1.0
 31
0.0
 73
     1
 44
1.0
1001
ACAD
1000
MTEXTBEGIN
1070
    73
1070
     1
1070
    44
1040
1.0
1070
    74
1070
     0
1000
MTEXTEND
  0
POINT
  5
6AA
330
588
100
AcDbEntity
  8
DEFPOINTS
  6
Continuous
 62
     0
100
AcDbPoint
 10
32299.03603160542
 20
14839.81565853907
 30
0.0
  0
POINT
  5
6AB
330
588
100
AcDbEntity
  8
DEFPOINTS
  6
Continuous
 62
     0
100
AcDbPoint
 10
32299.03603160542
 20
17319.81565853907
 30
0.0
  0
POINT
  5
6AC
330
588
100
AcDbEntity
  8
DEFPOINTS
  6
Continuous
 62
     0
100
AcDbPoint
 10
33299.60525620214
 20
17319.81565853907
 30
0.0
  0
ENDBLK
  5
593
330
588
100
AcDbEntity
  8
0
100
AcDbBlockEnd
  0
BLOCK
  5
59E
330
594
100
AcDbEntity
  8
0
100
AcDbBlockBegin
  2
*D26
 70
     1
 10
0.0
 20
0.0
 30
0.0
  3
*D26
  1

  0
LINE
  5
6AD
330
594
100
AcDbEntity
  8
寸法
  6
Continuous
370
    -2
100
AcDbLine
 10
27639.60525620237
 20
19809.81565853907
 30
0.0
 11
28299.60525620214
 21
19809.81565853907
 31
0.0
  0
LINE
  5
6AE
330
594
100
AcDbEntity
  8
寸法
  6
Continuous
370
    -2
100
AcDbLine
 10
27639.60525620237
 20
22299.81565853907
 30
0.0
 11
28299.60525620214
 21
22299.81565853907
 31
0.0
  0
LINE
  5
6AF
330
594
100
AcDbEntity
  8
寸法
  6
Continuous
370
    -2
100
AcDbLine
 10
28299.60525620214
 20
19869.81565853907
 30
0.0
 11
28299.60525620214
 21
22239.81565853907
 31
0.0
  0
INSERT
  5
6B0
330
594
100
AcDbEntity
  8
寸法
  6
Continuous
370
    -2
100
AcDbBlockReference
  2
_ORIGIN
 10
28299.60525620214
 20
19809.81565853907
 30
0.0
 41
60.0
 42
60.0
 43
60.0
 50
270.0
  0
INSERT
  5
6B1
330
594
100
AcDbEntity
  8
寸法
  6
Continuous
370
    -2
100
AcDbBlockReference
  2
_ORIGIN
 10
28299.60525620214
 20
22299.81565853907
 30
0.0
 41
60.0
 42
60.0
 43
60.0
 50
90.0
  0
MTEXT
  5
6B2
330
594
100
AcDbEntity
  8
寸法
  6
Continuous
100
AcDbMText
 10
28021.03382763071
 20
21054.81565853907
 30
0.0
 40
300.0
 41
0.0
 71
     5
 72
     1
  1
\A1;2,490
  7
1_100
 11
0.0000000000000001
 21
1.0
 31
0.0
 73
     1
 44
1.0
1001
ACAD
1000
MTEXTBEGIN
1070
    73
1070
     1
1070
    44
1040
1.0
1070
    74
1070
     0
1000
MTEXTEND
  0
POINT
  5
6B3
330
594
100
AcDbEntity
  8
DEFPOINTS
  6
Continuous
 62
     0
100
AcDbPoint
 10
27339.60525620237
 20
19809.81565853907
 30
0.0
  0
POINT
  5
6B4
330
594
100
AcDbEntity
  8
DEFPOINTS
  6
Continuous
 62
     0
100
AcDbPoint
 10
27339.60525620237
 20
22299.81565853907
 30
0.0
  0
POINT
  5
6B5
330
594
100
AcDbEntity
  8
DEFPOINTS
  6
Continuous
 62
     0
100
AcDbPoint
 10
28299.60525620214
 20
22299.81565853907
 30
0.0
  0
ENDBLK
  5
59F
330
594
100
AcDbEntity
  8
0
100
AcDbBlockEnd
  0
BLOCK
  5
5AC
330
5A0
100
AcDbEntity
  8
0
100
AcDbBlockBegin
  2
*D27
 70
     1
 10
0.0
 20
0.0
 30
0.0
  3
*D27
  1

  0
LINE
  5
6B6
330
5A0
100
AcDbEntity
  8
寸法
  6
Continuous
370
    -2
100
AcDbLine
 10
27639.60525620237
 20
22299.81565853907
 30
0.0
 11
28299.60525620214
 21
22299.81565853907
 31
0.0
  0
LINE
  5
6B7
330
5A0
100
AcDbEntity
  8
寸法
  6
Continuous
370
    -2
100
AcDbLine
 10
27639.60525620237
 20
22359.81565853907
 30
0.0
 11
28299.60525620214
 21
22359.81565853907
 31
0.0
  0
LINE
  5
6B8
330
5A0
100
AcDbEntity
  8
寸法
  6
Continuous
370
    -2
100
AcDbLine
 10
28299.60525620214
 20
22239.81565853907
 30
0.0
 11
28299.60525620214
 21
22179.81565853907
 31
0.0
  0
LINE
  5
6B9
330
5A0
100
AcDbEntity
  8
寸法
  6
Continuous
370
    -2
100
AcDbLine
 10
28299.60525620214
 20
22419.81565853907
 30
0.0
 11
28299.60525620214
 21
22479.81565853907
 31
0.0
  0
MTEXT
  5
6BA
330
5A0
100
AcDbEntity
  8
寸法
  6
Continuous
100
AcDbMText
 10
27999.8437175052
 20
22653.04362645012
 30
0.0
 40
300.0
 41
0.0
 71
     5
 72
     1
  1
\A1;60
  7
1_100
 11
0.0000000000000001
 21
1.0
 31
0.0
 73
     1
 44
1.0
1001
ACAD
1000
MTEXTBEGIN
1070
    73
1070
     1
1070
    44
1040
1.0
1070
    74
1070
     0
1000
MTEXTEND
  0
LINE
  5
6BB
330
5A0
100
AcDbEntity
  8
寸法
  6
Continuous
370
    -2
100
AcDbLine
 10
28299.60525620214
 20
22299.81565853907
 30
0.0
 11
28299.60525620214
 21
22359.81565853907
 31
0.0
  0
INSERT
  5
6BC
330
5A0
100
AcDbEntity
  8
寸法
  6
Continuous
370
    -2
100
AcDbBlockReference
  2
_ORIGIN
 10
28299.60525620214
 20
22299.81565853907
 30
0.0
 41
60.0
 42
60.0
 43
60.0
 50
90.0
  0
INSERT
  5
6BD
330
5A0
100
AcDbEntity
  8
寸法
  6
Continuous
370
    -2
100
AcDbBlockReference
  2
_ORIGIN
 10
28299.60525620214
 20
22359.81565853907
 30
0.0
 41
60.0
 42
60.0
 43
60.0
 50
270.0
  0
POINT
  5
6BE
330
5A0
100
AcDbEntity
  8
DEFPOINTS
  6
Continuous
 62
     0
100
AcDbPoint
 10
27339.60525620237
 20
22299.81565853907
 30
0.0
  0
POINT
  5
6BF
330
5A0
100
AcDbEntity
  8
DEFPOINTS
  6
Continuous
 62
     0
100
AcDbPoint
 10
27339.60525620237
 20
22359.81565853907
 30
0.0
  0
POINT
  5
6C0
330
5A0
100
AcDbEntity
  8
DEFPOINTS
  6
Continuous
 62
     0
100
AcDbPoint
 10
28299.60525620214
 20
22359.81565853907
 30
0.0
  0
ENDBLK
  5
5AD
330
5A0
100
AcDbEntity
  8
0
100
AcDbBlockEnd
  0
BLOCK
  5
5BA
330
5AE
100
AcDbEntity
  8
0
100
AcDbBlockBegin
  2
*D28
 70
     1
 10
0.0
 20
0.0
 30
0.0
  3
*D28
  1

  0
LINE
  5
6C1
330
5AE
100
AcDbEntity
  8
寸法
  6
Continuous
370
    -2
100
AcDbLine
 10
9191.455256202001
 20
22659.81565853907
 30
0.0
 11
9191.455256202001
 21
22959.81565853907
 31
0.0
  0
LINE
  5
6C2
330
5AE
100
AcDbEntity
  8
寸法
  6
Continuous
370
    -2
100
AcDbLine
 10
9407.755256202165
 20
22659.81565853907
 30
0.0
 11
9407.755256202165
 21
22959.81565853907
 31
0.0
  0
LINE
  5
6C3
330
5AE
100
AcDbEntity
  8
寸法
  6
Continuous
370
    -2
100
AcDbLine
 10
9131.455256202
 20
22959.81565853907
 30
0.0
 11
9071.455256202
 21
22959.81565853907
 31
0.0
  0
LINE
  5
6C4
330
5AE
100
AcDbEntity
  8
寸法
  6
Continuous
370
    -2
100
AcDbLine
 10
9467.755256202165
 20
22959.81565853907
 30
0.0
 11
9527.75525620216
 21
22959.81565853907
 31
0.0
  0
MTEXT
  5
6C5
330
5AE
100
AcDbEntity
  8
寸法
  6
Continuous
100
AcDbMText
 10
9299.605256202083
 20
23259.81565853907
 30
0.0
 40
300.0
 41
0.0
 71
     5
 72
     1
  1
\A1;φ216.3
  7
1_100
 73
     1
 44
1.0
1001
ACAD
1000
MTEXTBEGIN
1070
    73
1070
     1
1070
    44
1040
1.0
1070
    74
1070
     0
1000
MTEXTEND
  0
LINE
  5
6C6
330
5AE
100
AcDbEntity
  8
寸法
  6
Continuous
370
    -2
100
AcDbLine
 10
9191.455256202001
 20
22959.81565853907
 30
0.0
 11
9407.755256202165
 21
22959.81565853907
 31
0.0
  0
INSERT
  5
6C7
330
5AE
100
AcDbEntity
  8
寸法
  6
Continuous
370
    -2
100
AcDbBlockReference
  2
_ORIGIN
 10
9191.455256202001
 20
22959.81565853907
 30
0.0
 41
60.0
 42
60.0
 43
60.0
  0
INSERT
  5
6C8
330
5AE
100
AcDbEntity
  8
寸法
  6
Continuous
370
    -2
100
AcDbBlockReference
  2
_ORIGIN
 10
9407.755256202165
 20
22959.81565853907
 30
0.0
 41
60.0
 42
60.0
 43
60.0
 50
180.0
  0
POINT
  5
6C9
330
5AE
100
AcDbEntity
  8
DEFPOINTS
  6
Continuous
 62
     0
100
AcDbPoint
 10
9191.455256202001
 20
22359.81565853907
 30
0.0
  0
POINT
  5
6CA
330
5AE
100
AcDbEntity
  8
DEFPOINTS
  6
Continuous
 62
     0
100
AcDbPoint
 10
9407.755256202165
 20
22359.81565853907
 30
0.0
  0
POINT
  5
6CB
330
5AE
100
AcDbEntity
  8
DEFPOINTS
  6
Continuous
 62
     0
100
AcDbPoint
 10
9407.755256202165
 20
22959.81565853907
 30
0.0
  0
ENDBLK
  5
5BB
330
5AE
100
AcDbEntity
  8
0
100
AcDbBlockEnd
  0
BLOCK
  5
5C6
330
5BC
100
AcDbEntity
  8
0
100
AcDbBlockBegin
  2
*D29
 70
     1
 10
0.0
 20
0.0
 30
0.0
  3
*D29
  1

  0
LINE
  5
6CC
330
5BC
100
AcDbEntity
  8
寸法
  6
Continuous
370
    -2
100
AcDbLine
 10
32599.03603160542
 20
19809.81565853907
 30
0.0
 11
33299.60525620214
 21
19809.81565853907
 31
0.0
  0
LINE
  5
6CD
330
5BC
100
AcDbEntity
  8
寸法
  6
Continuous
370
    -2
100
AcDbLine
 10
32599.03603160542
 20
22299.81565853907
 30
0.0
 11
33299.60525620214
 21
22299.81565853907
 31
0.0
  0
LINE
  5
6CE
330
5BC
100
AcDbEntity
  8
寸法
  6
Continuous
370
    -2
100
AcDbLine
 10
33299.60525620214
 20
19869.81565853907
 30
0.0
 11
33299.60525620214
 21
22239.81565853907
 31
0.0
  0
INSERT
  5
6CF
330
5BC
100
AcDbEntity
  8
寸法
  6
Continuous
370
    -2
100
AcDbBlockReference
  2
_ORIGIN
 10
33299.60525620214
 20
19809.81565853907
 30
0.0
 41
60.0
 42
60.0
 43
60.0
 50
270.0
  0
INSERT
  5
6D0
330
5BC
100
AcDbEntity
  8
寸法
  6
Continuous
370
    -2
100
AcDbBlockReference
  2
_ORIGIN
 10
33299.60525620214
 20
22299.81565853907
 30
0.0
 41
60.0
 42
60.0
 43
60.0
 50
90.0
  0
MTEXT
  5
6D1
330
5BC
100
AcDbEntity
  8
寸法
  6
Continuous
100
AcDbMText
 10
33021.03382763072
 20
21054.81565853907
 30
0.0
 40
300.0
 41
0.0
 71
     5
 72
     1
  1
\A1;2,490
  7
1_100
 11
0.0000000000000001
 21
1.0
 31
0.0
 73
     1
 44
1.0
1001
ACAD
1000
MTEXTBEGIN
1070
    73
1070
     1
1070
    44
1040
1.0
1070
    74
1070
     0
1000
MTEXTEND
  0
POINT
  5
6D2
330
5BC
100
AcDbEntity
  8
DEFPOINTS
  6
Continuous
 62
     0
100
AcDbPoint
 10
32299.03603160542
 20
19809.81565853907
 30
0.0
  0
POINT
  5
6D3
330
5BC
100
AcDbEntity
  8
DEFPOINTS
  6
Continuous
 62
     0
100
AcDbPoint
 10
32299.03603160542
 20
22299.81565853907
 30
0.0
  0
POINT
  5
6D4
330
5BC
100
AcDbEntity
  8
DEFPOINTS
  6
Continuous
 62
     0
100
AcDbPoint
 10
33299.60525620214
 20
22299.81565853907
 30
0.0
  0
ENDBLK
  5
5C7
330
5BC
100
AcDbEntity
  8
0
100
AcDbBlockEnd
  0
BLOCK
  5
5D4
330
5C8
100
AcDbEntity
  8
0
100
AcDbBlockBegin
  2
*D30
 70
     1
 10
0.0
 20
0.0
 30
0.0
  3
*D30
  1

  0
LINE
  5
6D5
330
5C8
100
AcDbEntity
  8
寸法
  6
Continuous
370
    -2
100
AcDbLine
 10
31191.45525620223
 20
22659.8156585386
 30
0.0
 11
31191.45525620223
 21
22959.81565853907
 31
0.0
  0
LINE
  5
6D6
330
5C8
100
AcDbEntity
  8
寸法
  6
Continuous
370
    -2
100
AcDbLine
 10
31407.75525620205
 20
22659.8156585386
 30
0.0
 11
31407.75525620205
 21
22959.81565853907
 31
0.0
  0
LINE
  5
6D7
330
5C8
100
AcDbEntity
  8
寸法
  6
Continuous
370
    -2
100
AcDbLine
 10
31131.45525620224
 20
22959.81565853907
 30
0.0
 11
31071.45525620223
 21
22959.81565853907
 31
0.0
  0
LINE
  5
6D8
330
5C8
100
AcDbEntity
  8
寸法
  6
Continuous
370
    -2
100
AcDbLine
 10
31467.75525620205
 20
22959.81565853907
 30
0.0
 11
31527.75525620205
 21
22959.81565853907
 31
0.0
  0
MTEXT
  5
6D9
330
5C8
100
AcDbEntity
  8
寸法
  6
Continuous
100
AcDbMText
 10
31299.60525620214
 20
23259.81565853907
 30
0.0
 40
300.0
 41
0.0
 71
     5
 72
     1
  1
\A1;φ216.3
  7
1_100
 73
     1
 44
1.0
1001
ACAD
1000
MTEXTBEGIN
1070
    73
1070
     1
1070
    44
1040
1.0
1070
    74
1070
     0
1000
MTEXTEND
  0
LINE
  5
6DA
330
5C8
100
AcDbEntity
  8
寸法
  6
Continuous
370
    -2
100
AcDbLine
 10
31191.45525620223
 20
22959.81565853907
 30
0.0
 11
31407.75525620205
 21
22959.81565853907
 31
0.0
  0
INSERT
  5
6DB
330
5C8
100
AcDbEntity
  8
寸法
  6
Continuous
370
    -2
100
AcDbBlockReference
  2
_ORIGIN
 10
31191.45525620223
 20
22959.81565853907
 30
0.0
 41
60.0
 42
60.0
 43
60.0
  0
INSERT
  5
6DC
330
5C8
100
AcDbEntity
  8
寸法
  6
Continuous
370
    -2
100
AcDbBlockReference
  2
_ORIGIN
 10
31407.75525620205
 20
22959.81565853907
 30
0.0
 41
60.0
 42
60.0
 43
60.0
 50
180.0
  0
POINT
  5
6DD
330
5C8
100
AcDbEntity
  8
DEFPOINTS
  6
Continuous
 62
     0
100
AcDbPoint
 10
31191.45525620223
 20
22359.8156585386
 30
0.0
  0
POINT
  5
6DE
330
5C8
100
AcDbEntity
  8
DEFPOINTS
  6
Continuous
 62
     0
100
AcDbPoint
 10
31407.75525620205
 20
22359.8156585386
 30
0.0
  0
POINT
  5
6DF
330
5C8
100
AcDbEntity
  8
DEFPOINTS
  6
Continuous
 62
     0
100
AcDbPoint
 10
31407.75525620205
 20
22959.81565853907
 30
0.0
  0
ENDBLK
  5
5D5
330
5C8
100
AcDbEntity
  8
0
100
AcDbBlockEnd
  0
BLOCK
  5
5E2
330
5D6
100
AcDbEntity
  8
0
100
AcDbBlockBegin
  2
*D31
 70
     1
 10
0.0
 20
0.0
 30
0.0
  3
*D31
  1

  0
LINE
  5
6E0
330
5D6
100
AcDbEntity
  8
寸法
  6
Continuous
370
    -2
100
AcDbLine
 10
32599.03603160542
 20
22299.81565853907
 30
0.0
 11
33299.60525620214
 21
22299.81565853907
 31
0.0
  0
LINE
  5
6E1
330
5D6
100
AcDbEntity
  8
寸法
  6
Continuous
370
    -2
100
AcDbLine
 10
32599.03603160542
 20
22359.81565853907
 30
0.0
 11
33299.60525620214
 21
22359.81565853907
 31
0.0
  0
LINE
  5
6E2
330
5D6
100
AcDbEntity
  8
寸法
  6
Continuous
370
    -2
100
AcDbLine
 10
33299.60525620214
 20
22239.81565853907
 30
0.0
 11
33299.60525620214
 21
22179.81565853907
 31
0.0
  0
LINE
  5
6E3
330
5D6
100
AcDbEntity
  8
寸法
  6
Continuous
370
    -2
100
AcDbLine
 10
33299.60525620214
 20
22419.81565853907
 30
0.0
 11
33299.60525620214
 21
22479.81565853907
 31
0.0
  0
MTEXT
  5
6E4
330
5D6
100
AcDbEntity
  8
寸法
  6
Continuous
100
AcDbMText
 10
32985.40461807323
 20
22658.25070545811
 30
0.0
 40
300.0
 41
0.0
 71
     5
 72
     1
  1
\A1;60
  7
1_100
 11
0.0000000000000001
 21
1.0
 31
0.0
 73
     1
 44
1.0
1001
ACAD
1000
MTEXTBEGIN
1070
    73
1070
     1
1070
    44
1040
1.0
1070
    74
1070
     0
1000
MTEXTEND
  0
LINE
  5
6E5
330
5D6
100
AcDbEntity
  8
寸法
  6
Continuous
370
    -2
100
AcDbLine
 10
33299.60525620214
 20
22299.81565853907
 30
0.0
 11
33299.60525620214
 21
22359.81565853907
 31
0.0
  0
INSERT
  5
6E6
330
5D6
100
AcDbEntity
  8
寸法
  6
Continuous
370
    -2
100
AcDbBlockReference
  2
_ORIGIN
 10
33299.60525620214
 20
22299.81565853907
 30
0.0
 41
60.0
 42
60.0
 43
60.0
 50
90.0
  0
INSERT
  5
6E7
330
5D6
100
AcDbEntity
  8
寸法
  6
Continuous
370
    -2
100
AcDbBlockReference
  2
_ORIGIN
 10
33299.60525620214
 20
22359.81565853907
 30
0.0
 41
60.0
 42
60.0
 43
60.0
 50
270.0
  0
POINT
  5
6E8
330
5D6
100
AcDbEntity
  8
DEFPOINTS
  6
Continuous
 62
     0
100
AcDbPoint
 10
32299.03603160542
 20
22299.81565853907
 30
0.0
  0
POINT
  5
6E9
330
5D6
100
AcDbEntity
  8
DEFPOINTS
  6
Continuous
 62
     0
100
AcDbPoint
 10
32299.03603160542
 20
22359.81565853907
 30
0.0
  0
POINT
  5
6EA
330
5D6
100
AcDbEntity
  8
DEFPOINTS
  6
Continuous
 62
     0
100
AcDbPoint
 10
33299.60525620214
 20
22359.81565853907
 30
0.0
  0
ENDBLK
  5
5E3
330
5D6
100
AcDbEntity
  8
0
100
AcDbBlockEnd
  0
ENDSEC
  0
SECTION
  2
ENTITIES
  0
LWPOLYLINE
  5
35F
330
1F
100
AcDbEntity
  8
図面枠
100
AcDbPolyline
 90
        4
 70
     1
 43
0.0
 10
766.2719228690807
 20
1076.482325205835
 10
39766.27192286909
 20
1076.482325205835
 10
39766.27192286909
 20
26576.48232520584
 10
766.2719228690807
 20
26576.48232520584
  0
LWPOLYLINE
  5
360
330
1F
100
AcDbEntity
  8
図面枠
100
AcDbPolyline
 90
        4
 70
     1
 43
0.0
 10
766.2719228700121
 20
1076.482325205835
 10
39766.27192287002
 20
1076.482325205835
 10
39766.27192287002
 20
26576.48232520584
 10
766.2719228700121
 20
26576.48232520584
  0
MTEXT
  5
361
330
1F
100
AcDbEntity
  8
寸法
  6
Continuous
 62
     3
100
AcDbMText
 10
20266.27192286908
 20
25104.85893653918
 30
0.0
 40
500.0
 41
0.0
 71
     8
 72
     1
  1
防球ネット　ＫＳ－Ⅰ型　Ｈ＝１０,０００
  7
MSP明朝
 73
     1
 44
1.0
1001
ACAD
1000
ACAD_MTEXT_DEFINED_HEIGHT_BEGIN
1070
    46
1040
0.0
1000
ACAD_MTEXT_DEFINED_HEIGHT_END
1000
MTEXTBEGIN
1070
    73
1070
     1
1070
    44
1040
1.0
1070
    74
1070
     0
1000
MTEXTEND
  0
LINE
  5
362
330
1F
100
AcDbEntity
  8
寸法
  6
Continuous
 62
     3
100
AcDbLine
 10
15939.51205626822
 20
25007.30930966816
 30
0.0
 11
24593.0317894718
 21
25007.30930966816
 31
0.0
  0
LINE
  5
363
330
1F
100
AcDbEntity
  8
寸法
  6
Continuous
 62
     3
100
AcDbLine
 10
15939.51205626822
 20
24947.30930967049
 30
0.0
 11
24593.0317894718
 21
24947.30930967049
 31
0.0
  0
MTEXT
  5
364
330
1F
100
AcDbEntity
  8
画層1-1
100
AcDbMText
 10
3582.870655454386
 20
5372.040496178751
 30
0.0
 40
300.0
 41
0.0
 71
     1
 72
     5
  1
{\F|c128;・※印表記のネットを使用する場合標準柱スパンは変更になる場合があります}
  7
1_100
 73
     1
 44
1.0
1001
AcDbBlockRepETag
1070
     1
1071
        0
1005
364
1001
ACAD
1000
MTEXTBEGIN
1070
    73
1070
     1
1070
    44
1040
1.0
1070
    74
1070
     0
1000
MTEXTEND
  0
MTEXT
  5
365
330
1F
100
AcDbEntity
  8
画層1-1
100
AcDbMText
 10
3582.870655454386
 20
2030.077180696398
 30
0.0
 40
300.0
 41
0.0
 71
     1
 72
     5
  1
・速度圧　q=0.6EVo （N/㎡）　・地表面粗度区分　　　・基礎　普通土質 [B] を選定
  7
1_100
 73
     1
 44
1.0
1001
AcDbBlockRepETag
1070
     1
1071
        1
1005
365
1001
ACAD
1000
MTEXTBEGIN
1070
    73
1070
     1
1070
    44
1040
1.0
1070
    74
1070
     0
1000
MTEXTEND
  0
MTEXT
  5
366
330
1F
100
AcDbEntity
  8
画層1-1
100
AcDbMText
 10
3582.870655454386
 20
7172.040496178751
 30
0.0
 40
300.0
 41
0.0
 71
     1
 72
     5
  1
・主柱．端末ポール．バンド金具．ボルトは溶融亜鉛メッキ仕上げとする
  7
1_100
 73
     1
 44
1.0
1001
AcDbBlockRepETag
1070
     1
1071
        2
1005
366
1001
ACAD
1000
MTEXTBEGIN
1070
    73
1070
     1
1070
    44
1040
1.0
1070
    74
1070
     0
1000
MTEXTEND
  0
MTEXT
  5
367
330
1F
100
AcDbEntity
  8
画層1-1
100
AcDbMText
 10
3582.870655454386
 20
6572.040496178749
 30
0.0
 40
300.0
 41
0.0
 71
     1
 72
     5
  1
・主柱ポール基礎部（ＧＬ）はＦＲＰ被覆補強とする
  7
1_100
 73
     1
 44
1.0
1001
AcDbBlockRepETag
1070
     1
1071
        3
1005
367
1001
ACAD
1000
MTEXTBEGIN
1070
    73
1070
     1
1070
    44
1040
1.0
1070
    74
1070
     0
1000
MTEXTEND
  0
MTEXT
  5
368
330
1F
100
AcDbEntity
  8
画層1-1
100
AcDbMText
 10
3582.870655454386
 20
3911.682574163374
 30
0.0
 40
300.0
 41
0.0
 71
     1
 72
     5
  1
・構造計算書．材料承認願いを提出後施工のこと
  7
1_100
 73
     1
 44
1.0
1001
AcDbBlockRepETag
1070
     1
1071
        4
1005
368
1001
ACAD
1000
MTEXTBEGIN
1070
    73
1070
     1
1070
    44
1040
1.0
1070
    74
1070
     0
1000
MTEXTEND
  0
MTEXT
  5
369
330
1F
100
AcDbEntity
  8
画層1-1
100
AcDbMText
 10
3582.870655454386
 20
5972.040496178751
 30
0.0
 40
300.0
 41
0.0
 71
     1
 72
     5
  1
・上部（補強ポール・ネット）下り防止金具付きとする
  7
1_100
 73
     1
 44
1.0
1001
AcDbBlockRepETag
1070
     1
1071
        5
1005
369
1001
ACAD
1000
MTEXTBEGIN
1070
    73
1070
     1
1070
    44
1040
1.0
1070
    74
1070
     0
1000
MTEXTEND
  0
POINT
  5
36A
330
1F
100
AcDbEntity
  8
画層1-1
100
AcDbPoint
 10
766.2722529782152
 20
1389.763882329921
 30
0.0
1001
AcDbBlockRepETag
1070
     1
1071
        6
1005
36A
  0
MTEXT
  5
36B
330
1F
100
AcDbEntity
  8
画層1-1
100
AcDbMText
 10
3082.870655454386
 20
3174.360058797264
 30
0.0
 40
400.0
 41
0.0
 71
     1
 72
     5
  1
設計条件
  7
1_100
 73
     1
 44
1.0
1001
AcDbBlockRepETag
1070
     1
1071
        7
1005
36B
1001
ACAD
1000
MTEXTBEGIN
1070
    73
1070
     1
1070
    44
1040
1.0
1070
    74
1070
     0
1000
MTEXTEND
  0
MTEXT
  5
36C
330
1F
100
AcDbEntity
  8
画層1-1
100
AcDbMText
 10
3082.870655454386
 20
4562.705675512422
 30
0.0
 40
400.0
 41
0.0
 71
     1
 72
     5
  1
特記
  7
1_100
 73
     1
 44
1.0
1001
AcDbBlockRepETag
1070
     1
1071
        8
1005
36C
1001
ACAD
1000
MTEXTBEGIN
1070
    73
1070
     1
1070
    44
1040
1.0
1070
    74
1070
     0
1000
MTEXTEND
  0
MTEXT
  5
36D
330
1F
100
AcDbEntity
  8
画層1-1
100
AcDbMText
 10
3082.870655454386
 20
7843.469464117525
 30
0.0
 40
400.0
 41
0.0
 71
     1
 72
     5
  1
仕様について
  7
1_100
 73
     1
 44
1.0
1001
AcDbBlockRepETag
1070
     1
1071
        9
1005
36D
1001
ACAD
1000
MTEXTBEGIN
1070
    73
1070
     1
1070
    44
1040
1.0
1070
    74
1070
     0
1000
MTEXTEND
  0
MTEXT
  5
36E
330
1F
100
AcDbEntity
  8
画層1-1
100
AcDbMText
 10
10479.59716615741
 20
1967.900699168561
 30
0.0
 40
300.0
 41
0.0
 71
     1
 72
     5
  1
Ⅲ
  7
STYLE1
 73
     1
 44
1.0
1001
AcDbBlockRepETag
1070
     1
1071
       10
1005
36E
1001
ACAD
1000
MTEXTBEGIN
1070
    73
1070
     1
1070
    44
1040
1.0
1070
    74
1070
     0
1000
MTEXTEND
  0
MTEXT
  5
36F
330
1F
100
AcDbEntity
  8
画層1-1
100
AcDbMText
 10
6566.348625466414
 20
1994.563606045253
 30
0.0
 40
120.0
 41
0.0
 71
     1
 72
     5
  1
2
  7
1_100
 73
     1
 44
1.0
1001
AcDbBlockRepETag
1070
     1
1071
       11
1005
36F
1001
ACAD
1000
MTEXTBEGIN
1070
    73
1070
     1
1070
    44
1040
1.0
1070
    74
1070
     0
1000
MTEXTEND
  0
MTEXT
  5
370
330
1F
100
AcDbEntity
  8
画層1-1
100
AcDbMText
 10
3582.870655454386
 20
2513.836746183567
 30
0.0
 40
300.0
 41
0.0
 71
     1
 72
     5
  1
・設計荷重。建築基準法・同施工令（平成12年6月）に基づく風圧力に依る、基準風速。
  7
1_100
 73
     1
 44
1.0
1001
AcDbBlockRepETag
1070
     1
1071
       12
1005
370
1001
ACAD
1000
ACAD_MTEXT_DEFINED_HEIGHT_BEGIN
1070
    46
1040
0.0
1000
ACAD_MTEXT_DEFINED_HEIGHT_END
1000
MTEXTBEGIN
1070
    73
1070
     1
1070
    44
1040
1.0
1070
    74
1070
     0
1000
MTEXTEND
  0
DIMENSION
  5
371
330
1F
100
AcDbEntity
  8
寸法
  6
Continuous
100
AcDbDimension
  2
*D5
 10
33299.60525620214
 20
19809.81565853907
 30
0.0
 11
33021.03382763072
 21
18564.81565853907
 31
0.0
 70
    32
 71
     5
 42
2490.0
  3
1_100
100
AcDbAlignedDimension
 13
32299.03603160542
 23
17319.81565853907
 33
0.0
 14
32299.03603160542
 24
19809.81565853907
 34
0.0
 50
90.0
100
AcDbRotatedDimension
  0
MTEXT
  5
372
102
{ACAD_REACTORS
330
3D5
102
}
330
1F
100
AcDbEntity
  8
寸法文字
  6
Continuous
100
AcDbMText
 10
20893.03463616592
 20
18006.79860655393
 30
0.0
 40
300.0
 41
0.0
 71
     7
 72
     1
  1
メッセンワイヤー22m㎡
  7
1_100
 73
     1
 44
1.0
1001
ACAD
1000
MTEXTBEGIN
1070
    73
1070
     1
1070
    44
1040
1.0
1070
    74
1070
     0
1000
MTEXTEND
  0
LINE
  5
373
330
1F
100
AcDbEntity
  8
寸法引出
  6
Continuous
100
AcDbLine
 10
20157.61835832938
 20
19809.81565853907
 30
0.0
 11
20733.03463616592
 21
17906.79860655393
 31
0.0
  0
DIMENSION
  5
374
330
1F
100
AcDbEntity
  8
寸法
  6
Continuous
100
AcDbDimension
  2
*D6
 10
28299.60525620214
 20
19809.81565853907
 30
0.0
 11
28021.03382763071
 21
18564.81565853907
 31
0.0
 70
    32
 71
     5
 42
2490.0
  3
1_100
100
AcDbAlignedDimension
 13
27339.60525620214
 23
17319.81565853907
 33
0.0
 14
27339.60525620237
 24
19809.81565853907
 34
0.0
 50
90.0
100
AcDbRotatedDimension
  0
LINE
  5
375
330
1F
100
AcDbEntity
  8
画層1-1
  6
Continuous
100
AcDbLine
 10
26799.60525620214
 20
19888.88068519917
 30
0.0
 11
19432.75525620216
 21
12384.81565853907
 31
0.0
  0
LINE
  5
376
330
1F
100
AcDbEntity
  8
DEFPOINTS
100
AcDbLine
 10
24453.81631298978
 20
22299.8156585386
 30
0.0
 11
25980.30552470146
 21
12359.8156585386
 31
0.0
  0
LINE
  5
377
330
1F
100
AcDbEntity
  8
画層1
  6
Continuous
100
AcDbLine
 10
19407.75525620216
 20
10259.81565853907
 30
0.0
 11
19407.75525620216
 21
22359.81565853907
 31
0.0
  0
LINE
  5
378
330
1F
100
AcDbEntity
  8
通り芯
  6
DASHDOT
 48
100.0
100
AcDbLine
 10
19299.60525620214
 20
9917.348186745774
 30
0.0
 11
19299.60525620214
 21
22420.27831824171
 31
0.0
  0
LINE
  5
379
330
1F
100
AcDbEntity
  8
画層1
  6
Continuous
100
AcDbLine
 10
19191.455256202
 20
22359.81565853907
 30
0.0
 11
19191.455256202
 21
10259.81565853907
 31
0.0
  0
LINE
  5
37A
330
1F
100
AcDbEntity
  8
画層1-1
  6
Continuous
100
AcDbLine
 10
19432.75525620228
 20
22249.81565853907
 30
0.0
 11
23178.5774301072
 21
18453.4652732206
 31
0.0
  0
LINE
  5
37B
330
1F
100
AcDbEntity
  8
通り芯
  6
DASHDOT
 48
100.0
100
AcDbLine
 10
31299.60525620214
 20
9917.348186745774
 30
0.0
 11
31299.60525620214
 21
22420.27831824171
 31
0.0
  0
LINE
  5
37C
330
1F
100
AcDbEntity
  8
画層1
  6
Continuous
100
AcDbLine
 10
31191.45525620223
 20
22359.8156585386
 30
0.0
 11
31191.45525620223
 21
10259.8156585386
 31
0.0
  0
LINE
  5
37D
330
1F
100
AcDbEntity
  8
画層1
  6
Continuous
100
AcDbLine
 10
31407.75525620205
 20
10259.8156585386
 30
0.0
 11
31407.75525620205
 21
22359.8156585386
 31
0.0
  0
DIMENSION
  5
37E
330
1F
100
AcDbEntity
  8
寸法
  6
Continuous
100
AcDbDimension
  2
*D7
 10
29299.60525620214
 20
12359.81565853906
 30
0.0
 11
29021.03382763071
 21
17359.81565853907
 31
0.0
 70
    32
 71
     5
 42
10000.0
  3
1_100
100
AcDbAlignedDimension
 13
27339.60525620237
 23
22359.81565853907
 33
0.0
 14
27339.60525620237
 24
12359.81565853907
 34
0.0
 50
90.0
100
AcDbRotatedDimension
  0
DIMENSION
  5
37F
330
1F
100
AcDbEntity
  8
寸法
  6
Continuous
100
AcDbDimension
  2
*D8
 10
34299.60525620214
 20
12359.81565853907
 30
0.0
 11
34021.03382763072
 21
17359.81565853907
 31
0.0
 70
    32
 71
     5
 42
10000.0
  3
1_100
100
AcDbAlignedDimension
 13
32299.03603160542
 23
22359.81565853907
 33
0.0
 14
32299.03603160542
 24
12359.81565853907
 34
0.0
 50
90.0
100
AcDbRotatedDimension
  0
LINE
  5
380
330
1F
100
AcDbEntity
  8
画層1-1
  6
DASHED
 48
100.0
100
AcDbLine
 10
31166.45525620223
 20
22299.8156585386
 30
0.0
 11
31166.45525620223
 21
12384.8156585386
 31
0.0
  0
LINE
  5
381
330
1F
100
AcDbEntity
  8
画層1
  6
Continuous
100
AcDbLine
 10
31299.60525620214
 20
22339.81565853907
 30
0.0
 11
31299.60525620214
 21
12384.81565853907
 31
0.0
  0
LINE
  5
382
330
1F
100
AcDbEntity
  8
DEFPOINTS
100
AcDbLine
 10
26799.60525620214
 20
22299.81565853837
 30
0.0
 11
26799.60525620214
 21
12359.81565853907
 31
0.0
  0
HATCH
  5
383
330
1F
100
AcDbEntity
  8
ﾈｯﾄ
 62
   230
370
    13
100
AcDbHatch
 10
0.0
 20
0.0
 30
0.0
210
0.0
220
0.0
230
1.0
  2
NET
 70
     0
 71
     0
 91
        1
 92
        7
 72
     0
 73
     1
 93
        4
 10
26799.60525620214
 20
22299.81565853831
 10
24453.81631298989
 20
22299.8156585386
 10
25976.46626612053
 20
12384.81565853901
 10
26799.60525620214
 20
12384.81565853907
 97
        0
 75
     0
 76
     1
 52
0.0
 41
1000.0
 77
     0
 78
     2
 53
0.0
 43
-309180.1618818823
 44
-241459.9936889223
 45
0.0
 46
125.0
 79
     0
 53
90.0
 43
-309180.1618818823
 44
-241459.9936889223
 45
-125.0
 46
0.0000000000000077
 79
     0
 47
62.62808107361732
 98
        1
 10
25665.3100113021
 20
19434.74727425666
  0
LINE
  5
384
102
{ACAD_REACTORS
330
389
102
}
330
1F
100
AcDbEntity
  8
画層1
  6
Continuous
100
AcDbLine
 10
9407.755256202165
 20
10259.81565853907
 30
0.0
 11
9407.755256202165
 21
22359.81565853907
 31
0.0
  0
LINE
  5
385
330
1F
100
AcDbEntity
  8
通り芯
  6
DASHDOT
 48
100.0
100
AcDbLine
 10
9299.605256202141
 20
9917.348186745774
 30
0.0
 11
9299.605256202141
 21
22420.27831824171
 31
0.0
  0
LINE
  5
386
330
1F
100
AcDbEntity
  8
画層1
  6
Continuous
100
AcDbLine
 10
9191.455256202001
 20
22359.81565853907
 30
0.0
 11
9191.455256202001
 21
10259.81565853907
 31
0.0
  0
LINE
  5
387
330
1F
100
AcDbEntity
  8
画層1
  6
Continuous
100
AcDbLine
 10
9299.605256202141
 20
22324.81565853907
 30
0.0
 11
9299.605256202141
 21
12359.81565853907
 31
0.0
  0
LINE
  5
388
102
{ACAD_REACTORS
330
389
102
}
330
1F
100
AcDbEntity
  8
DEFPOINTS
100
AcDbLine
 10
11543.34890640594
 20
22299.81565853907
 30
0.0
 11
13069.83811811774
 21
12359.81565853907
 31
0.0
  0
HATCH
  5
389
330
1F
100
AcDbEntity
  8
ﾈｯﾄ
 62
   230
370
    13
100
AcDbHatch
 10
0.0
 20
0.0
 30
0.0
210
0.0
220
0.0
230
1.0
  2
NET
 70
     0
 71
     1
 91
        1
 92
        7
 72
     0
 73
     1
 93
       29
 10
11543.34890640594
 20
22299.81565853907
 10
9687.755256202166
 20
22299.81565853907
 10
9687.755256202166
 20
22279.59193787782
 10
9533.205256201998
 20
22279.59193787782
 10
9533.205256201998
 20
22299.81565853907
 10
9457.755256202165
 20
22299.81565853907
 10
9457.755256202165
 20
22274.81565853907
 10
9457.755256202167
 20
22224.81565853907
 10
9407.755256202165
 20
22224.81565853907
 10
9407.755256202165
 20
19834.81565853907
 10
9457.755256202165
 20
19834.81565853907
 10
9457.755256202167
 20
19784.81565853907
 10
9407.755256202165
 20
19784.81565853907
 10
9407.755256202165
 20
17344.81565853907
 10
9457.755256202165
 20
17344.81565853907
 10
9457.755256202167
 20
17294.81565853907
 10
9407.755256202165
 20
17294.81565853907
 10
9407.755256202165
 20
14864.81565853907
 10
9457.755256202165
 20
14864.81565853907
 10
9457.755256202165
 20
14814.81565853907
 10
9407.755256202165
 20
14814.81565853907
 10
9407.755256202165
 20
12409.81565853907
 10
9457.755256202165
 20
12409.81565853907
 10
9457.755256202165
 20
12384.81565853907
 10
9520.405256202186
 20
12384.81565853907
 10
9520.405256202186
 20
12404.59193787782
 10
9675.405256202189
 20
12404.59193787782
 10
9675.405256202187
 20
12384.81565853907
 10
13065.99885953697
 20
12384.81565853907
 97
       19
330
423
330
43F
330
43E
330
437
330
43D
330
384
330
432
330
42B
330
433
330
3A4
330
39D
330
3A5
330
3B6
330
3AF
330
3B7
330
3C4
330
395
330
3BC
330
388
 75
     0
 76
     1
 52
0.0
 41
1000.0
 77
     0
 78
     2
 53
0.0
 43
-309180.1618818823
 44
-241459.9936889223
 45
0.0
 46
125.0
 79
     0
 53
90.0
 43
-309180.1618818823
 44
-241459.9936889223
 45
-125.0
 46
0.0000000000000077
 79
     0
 47
44.27748082218051
 98
        1
 10
11179.58786451674
 20
18706.19865006057
  0
LINE
  5
38A
330
1F
100
AcDbEntity
  8
画層1-1
  6
Continuous
100
AcDbLine
 10
19166.455256202
 20
12384.81565853907
 30
0.0
 11
9432.755256202165
 21
22249.81565853907
 31
0.0
  0
LINE
  5
38B
330
1F
100
AcDbEntity
  8
画層1-1
  6
Continuous
100
AcDbLine
 10
19166.455256202
 20
22249.81565853907
 30
0.0
 11
9432.755256202165
 21
12384.81565853907
 31
0.0
  0
LEADER
  5
38C
330
1F
100
AcDbEntity
  8
寸法引出
  6
Continuous
100
AcDbLeader
  3
1_100
 71
     0
 73
     0
 74
     0
 75
     1
 40
696.6666666666665
 41
3117.142857142857
 76
     3
 10
15171.50434744705
 20
18200.97598658816
 30
0.0
 10
15737.0119720767
 20
17707.31803978549
 30
0.0
 10
15797.0119720767
 20
17707.31803978549
 30
0.0
340
38D
  0
MTEXT
  5
38D
102
{ACAD_REACTORS
330
38C
102
}
330
1F
100
AcDbEntity
  8
寸法文字
  6
Continuous
100
AcDbMText
 10
15897.0119720767
 20
17807.31803978549
 30
0.0
 40
300.0
 41
0.0
 71
     7
 72
     1
  1
筋違\Pメッセンワイヤー38m㎡
  7
1_100
 73
     1
 44
0.7
1001
ACAD
1000
MTEXTBEGIN
1070
    73
1070
     1
1070
    44
1040
0.7
1070
    74
1070
     0
1000
MTEXTEND
  0
DIMENSION
  5
38E
330
1F
100
AcDbEntity
  8
寸法
  6
Continuous
100
AcDbDimension
  2
*D9
 10
28299.60525620214
 20
12359.81565853907
 30
0.0
 11
28526.76798892263
 21
11985.57209818822
 31
0.0
 70
   160
 71
     5
 42
200.0
  3
1_100
100
AcDbAlignedDimension
 13
27339.60525620237
 23
12159.81565853907
 33
0.0
 14
27339.60525620237
 24
12359.81565853907
 34
0.0
 50
90.0
100
AcDbRotatedDimension
  0
DIMENSION
  5
38F
330
1F
100
AcDbEntity
  8
寸法
  6
Continuous
100
AcDbDimension
  2
*D10
 10
29299.60525620214
 20
10259.81565853906
 30
0.0
 11
29021.03382763071
 21
11309.81565853907
 31
0.0
 70
    32
 71
     5
 42
2100.0
  3
1_100
100
AcDbAlignedDimension
 13
27339.60525620237
 23
12359.81565853907
 33
0.0
 14
27339.60525620237
 24
10259.81565853907
 34
0.0
 50
90.0
100
AcDbRotatedDimension
  0
DIMENSION
  5
390
330
1F
100
AcDbEntity
  8
寸法
  6
Continuous
100
AcDbDimension
  2
*D11
 10
28299.60525620214
 20
10259.81565853907
 30
0.0
 11
28008.61626219642
 21
9778.7281212057
 31
0.0
 70
   160
 71
     5
 42
100.0
  3
1_100
100
AcDbAlignedDimension
 13
27339.60525620237
 23
10159.81565853907
 33
0.0
 14
27339.60525620237
 24
10259.81565853907
 34
0.0
 50
90.0
100
AcDbRotatedDimension
  0
DIMENSION
  5
391
330
1F
100
AcDbEntity
  8
寸法
  6
Continuous
100
AcDbDimension
  2
*D12
 10
28299.60525620214
 20
12159.81565853907
 30
0.0
 11
28021.03382763071
 21
11209.81565853907
 31
0.0
 70
    32
 71
     5
 42
1900.0
  3
1_100
100
AcDbAlignedDimension
 13
27339.60525620237
 23
10259.81565853907
 33
0.0
 14
27339.60525620237
 24
12159.81565853907
 34
0.0
 50
90.0
100
AcDbRotatedDimension
  0
DIMENSION
  5
392
330
1F
100
AcDbEntity
  8
寸法
  6
Continuous
100
AcDbDimension
  2
*D13
 10
28299.60525620214
 20
14839.81565853907
 30
0.0
 11
28021.03382763071
 21
13599.81565853907
 31
0.0
 70
    32
 71
     5
 42
2480.0
  3
1_100
100
AcDbAlignedDimension
 13
27339.60525620237
 23
12359.81565853907
 33
0.0
 14
27339.60525620214
 24
14839.81565853907
 34
0.0
 50
90.0
100
AcDbRotatedDimension
  0
DIMENSION
  5
393
330
1F
100
AcDbEntity
  8
寸法
  6
Continuous
100
AcDbDimension
  2
*D14
 10
28299.60525620214
 20
17319.81565853907
 30
0.0
 11
28021.03382763071
 21
16079.81565853907
 31
0.0
 70
    32
 71
     5
 42
2480.000000000002
  3
1_100
100
AcDbAlignedDimension
 13
27339.60525620214
 23
14839.81565853907
 33
0.0
 14
27339.60525620214
 24
17319.81565853907
 34
0.0
 50
90.0
100
AcDbRotatedDimension
  0
TEXT
  5
394
330
1F
100
AcDbEntity
  8
図面枠
  6
Continuous
 62
     3
100
AcDbText
 10
2829.679104291017
 20
535.2573524294069
 30
0.0
 40
300.0
  1
KS1-H10-1
 41
0.75
  7
1_100
 11
2829.679104291017
 21
535.2573524294069
 31
0.0
100
AcDbText
 73
     1
  0
LINE
  5
395
102
{ACAD_REACTORS
330
389
102
}
330
1F
100
AcDbEntity
  8
画層1
  6
Continuous
100
AcDbLine
 10
26799.60525620214
 20
12384.81565853907
 30
0.0
 11
9299.605256202141
 21
12384.81565853907
 31
0.0
  0
LINE
  5
396
102
{ACAD_REACTORS
330
3C7
330
3ED
102
}
330
1F
100
AcDbEntity
  8
画層2
  6
Continuous
100
AcDbLine
 10
26799.60525620214
 20
12359.81565853907
 30
0.0
 11
5626.294003613966
 21
12359.81565853907
 31
0.0
  0
LINE
  5
397
330
1F
100
AcDbEntity
  8
画層1-1
  6
Continuous
100
AcDbLine
 10
9299.605256202141
 20
14839.81565853907
 30
0.0
 11
26799.60525620214
 21
14839.81565853907
 31
0.0
  0
LINE
  5
398
330
1F
100
AcDbEntity
  8
画層1-1
  6
Continuous
100
AcDbLine
 10
9299.605256202141
 20
17319.81565853907
 30
0.0
 11
26799.60525620214
 21
17319.81565853907
 31
0.0
  0
DIMENSION
  5
399
330
1F
100
AcDbEntity
  8
寸法
  6
Continuous
100
AcDbDimension
  2
*D15
 10
19299.60525620214
 20
7978.738634159324
 30
0.0
 11
14299.60525620214
 21
8257.31006273075
 31
0.0
 70
    32
 71
     5
 42
10000.0
  3
1_100
100
AcDbAlignedDimension
 13
9299.605256202141
 23
8884.815658539068
 33
0.0
 14
19299.60525620214
 24
9917.348186745774
 34
0.0
100
AcDbRotatedDimension
  0
INSERT
  5
39A
330
1F
100
AcDbEntity
  8
ﾊｯﾁﾝｸﾞ
  6
Continuous
100
AcDbBlockReference
  2
sai450
 10
9299.605256202255
 20
10259.81565853907
 30
0.0
  0
INSERT
  5
39B
330
1F
100
AcDbEntity
  8
ﾊｯﾁﾝｸﾞ
  6
Continuous
100
AcDbBlockReference
  2
RH
 10
9049.615256202498
 20
12359.81565853901
 30
0.0
  0
INSERT
  5
39C
330
1F
100
AcDbEntity
  8
ﾊｯﾁﾝｸﾞ
  6
Continuous
100
AcDbBlockReference
  2
RM
 10
9549.615256202498
 20
12359.81565853947
 30
0.0
  0
LINE
  5
39D
102
{ACAD_REACTORS
330
389
102
}
330
1F
100
AcDbEntity
  8
画層1
  6
Continuous
100
AcDbLine
 10
9457.755256202165
 20
17294.81565853907
 30
0.0
 11
9457.755256202165
 21
17344.81565853907
 31
0.0
  0
LWPOLYLINE
  5
39E
330
1F
100
AcDbEntity
  8
画層1-1
100
AcDbPolyline
 90
        4
 70
     1
 43
0.0
 10
9533.205256202
 20
17339.81665285304
 10
9687.755256202166
 20
17339.81665285304
 10
9687.755256202166
 20
17299.81665285304
 10
9533.205256202
 20
17299.81665285304
  0
LINE
  5
39F
330
1F
100
AcDbEntity
  8
画層1
  6
Continuous
100
AcDbLine
 10
9324.605256202142
 20
17294.81565853907
 30
0.0
 11
9324.605256202142
 21
17344.81565853907
 31
0.0
  0
CIRCLE
  5
3A0
330
1F
100
AcDbEntity
  8
画層1
  6
Continuous
100
AcDbCircle
 10
9432.755256202165
 20
17319.81565853907
 30
0.0
 40
10.9509940156
  0
LINE
  5
3A1
330
1F
100
AcDbEntity
  8
画層1
  6
Continuous
100
AcDbLine
 10
9274.605256202141
 20
17294.81565853907
 30
0.0
 11
9274.605256202141
 21
17344.81565853907
 31
0.0
  0
LINE
  5
3A2
330
1F
100
AcDbEntity
  8
画層1
  6
Continuous
100
AcDbLine
 10
9141.455256202
 20
17344.81565853907
 30
0.0
 11
9141.455256202
 21
17294.81565853907
 31
0.0
  0
CIRCLE
  5
3A3
330
1F
100
AcDbEntity
  8
画層1
  6
Continuous
100
AcDbCircle
 10
9166.455256202
 20
17319.81565853907
 30
0.0
 40
10.9509940156
  0
LINE
  5
3A4
102
{ACAD_REACTORS
330
389
102
}
330
1F
100
AcDbEntity
  8
画層1
  6
Continuous
100
AcDbLine
 10
9457.755256202165
 20
17344.81565853907
 30
0.0
 11
9141.455256202
 21
17344.81565853907
 31
0.0
  0
LINE
  5
3A5
102
{ACAD_REACTORS
330
389
102
}
330
1F
100
AcDbEntity
  8
画層1
  6
Continuous
100
AcDbLine
 10
9141.455256202
 20
17294.81565853907
 30
0.0
 11
9457.755256202165
 21
17294.81565853907
 31
0.0
  0
LEADER
  5
3A6
330
1F
100
AcDbEntity
  8
寸法引出
  6
Continuous
100
AcDbLeader
  3
1_100
 71
     0
 73
     0
 74
     0
 75
     1
 40
300.0
 41
1547.142857142856
 76
     3
 10
9524.605256202141
 20
11109.56603177439
 30
0.0
 10
9878.304837259207
 20
11518.19389440142
 30
0.0
 10
9938.304837259206
 20
11518.19389440142
 30
0.0
340
3A7
  0
MTEXT
  5
3A7
102
{ACAD_REACTORS
330
3A6
102
}
330
1F
100
AcDbEntity
  8
寸法文字
  6
Continuous
100
AcDbMText
 10
10038.3048372592
 20
11618.19389440142
 30
0.0
 40
300.0
 41
0.0
 71
     7
 72
     1
  1
コンクリート
  7
1_100
 73
     1
 44
1.0
1001
ACAD
1000
MTEXTBEGIN
1070
    73
1070
     1
1070
    44
1040
1.0
1070
    74
1070
     0
1000
MTEXTEND
  0
LEADER
  5
3A8
330
1F
100
AcDbEntity
  8
寸法引出
  6
Continuous
100
AcDbLeader
  3
1_100
 71
     0
 73
     0
 74
     0
 75
     1
 40
300.0
 41
495.0
 76
     3
 10
9524.605256202141
 20
10209.81565853906
 30
0.0
 10
9897.019260347796
 20
10632.94779842172
 30
0.0
 10
9957.019260347795
 20
10632.94779842172
 30
0.0
340
3A9
  0
MTEXT
  5
3A9
102
{ACAD_REACTORS
330
3A8
102
}
330
1F
100
AcDbEntity
  8
寸法文字
  6
Continuous
100
AcDbMText
 10
10057.01926034779
 20
10732.94779842172
 30
0.0
 40
300.0
 41
0.0
 71
     7
 72
     1
  1
砕石
  7
1_100
 73
     1
 44
1.0
1001
ACAD
1000
MTEXTBEGIN
1070
    73
1070
     1
1070
    44
1040
1.0
1070
    74
1070
     0
1000
MTEXTEND
  0
LINE
  5
3AA
330
1F
100
AcDbEntity
  8
画層2-1
  6
Continuous
100
AcDbLine
 10
9191.455256202001
 20
12209.81565853907
 30
0.0
 11
9407.755256202165
 21
12209.81565853907
 31
0.0
  0
DIMENSION
  5
3AB
330
1F
100
AcDbEntity
  8
寸法
  6
Continuous
100
AcDbDimension
  2
*D16
 10
9549.605256202141
 20
9159.815658538951
 30
0.0
 11
9299.605256202141
 21
8909.815658538951
 31
0.0
 70
    32
  1
□<>
 71
     5
 42
500.0
  3
1_100
100
AcDbAlignedDimension
 13
9049.605256202141
 23
10159.81565853895
 33
0.0
 14
9549.605256202141
 24
10159.81565853895
 34
0.0
100
AcDbRotatedDimension
1001
ACAD
1000
DSTYLE
1002
{
1070
    77
1070
     2
1070
   174
1070
     1
1002
}
  0
DIMENSION
  5
3AC
330
1F
100
AcDbEntity
  8
寸法
  6
Continuous
100
AcDbDimension
  2
*D17
 10
9524.605256202024
 20
9559.815658539301
 30
0.0
 11
8466.325363633197
 21
9760.603370700962
 31
0.0
 70
   160
  1
φ<>
 71
     5
 42
450.0
  3
1_100
100
AcDbAlignedDimension
 13
9074.605256202024
 23
10159.81565853907
 33
0.0
 14
9524.605256202024
 24
10159.81565853907
 34
0.0
100
AcDbRotatedDimension
  0
MTEXT
  5
3AD
102
{ACAD_REACTORS
330
3AE
102
}
330
1F
100
AcDbEntity
  8
寸法文字
  6
Continuous
100
AcDbMText
 10
7949.725583540717
 20
16054.72100654151
 30
0.0
 40
300.0
 41
0.0
 71
     9
 72
     1
  1
タンバックル12mm
  7
1_100
 73
     1
 44
1.0
1001
ACAD
1000
MTEXTBEGIN
1070
    73
1070
     1
1070
    44
1040
1.0
1070
    74
1070
     0
1000
MTEXTEND
  0
LEADER
  5
3AE
330
1F
100
AcDbEntity
  8
寸法引出
  6
Continuous
100
AcDbLeader
  3
1_100
 71
     0
 73
     0
 75
     1
 40
300.0
 41
2603.571428571428
 76
     3
 10
9591.431677041084
 20
14859.81665285304
 30
0.0
 10
8109.725583540717
 20
15954.72100654151
 30
0.0
 10
8049.725583540718
 20
15954.72100654151
 30
0.0
340
3AD
  0
LINE
  5
3AF
102
{ACAD_REACTORS
330
389
102
}
330
1F
100
AcDbEntity
  8
画層1
  6
Continuous
100
AcDbLine
 10
9457.755256202165
 20
14814.81565853907
 30
0.0
 11
9457.755256202165
 21
14864.81565853907
 31
0.0
  0
LWPOLYLINE
  5
3B0
330
1F
100
AcDbEntity
  8
画層1-1
100
AcDbPolyline
 90
        4
 70
     1
 43
0.0
 10
9533.205256202
 20
14859.81665285304
 10
9687.755256202166
 20
14859.81665285304
 10
9687.755256202166
 20
14819.81665285304
 10
9533.205256202
 20
14819.81665285304
  0
LINE
  5
3B1
330
1F
100
AcDbEntity
  8
画層1
  6
Continuous
100
AcDbLine
 10
9324.605256202142
 20
14814.81565853907
 30
0.0
 11
9324.605256202142
 21
14864.81565853907
 31
0.0
  0
CIRCLE
  5
3B2
330
1F
100
AcDbEntity
  8
画層1
  6
Continuous
100
AcDbCircle
 10
9432.755256202165
 20
14839.81565853907
 30
0.0
 40
10.9509940156
  0
LINE
  5
3B3
330
1F
100
AcDbEntity
  8
画層1
  6
Continuous
100
AcDbLine
 10
9274.605256202141
 20
14814.81565853907
 30
0.0
 11
9274.605256202141
 21
14864.81565853907
 31
0.0
  0
LINE
  5
3B4
330
1F
100
AcDbEntity
  8
画層1
  6
Continuous
100
AcDbLine
 10
9141.455256202
 20
14864.81565853907
 30
0.0
 11
9141.455256202
 21
14814.81565853907
 31
0.0
  0
CIRCLE
  5
3B5
330
1F
100
AcDbEntity
  8
画層1
  6
Continuous
100
AcDbCircle
 10
9166.455256202
 20
14839.81565853907
 30
0.0
 40
10.9509940156
  0
LINE
  5
3B6
102
{ACAD_REACTORS
330
389
102
}
330
1F
100
AcDbEntity
  8
画層1
  6
Continuous
100
AcDbLine
 10
9457.755256202165
 20
14864.81565853907
 30
0.0
 11
9141.455256202
 21
14864.81565853907
 31
0.0
  0
LINE
  5
3B7
102
{ACAD_REACTORS
330
389
102
}
330
1F
100
AcDbEntity
  8
画層1
  6
Continuous
100
AcDbLine
 10
9141.455256202
 20
14814.81565853907
 30
0.0
 11
9457.755256202165
 21
14814.81565853907
 31
0.0
  0
LEADER
  5
3B8
330
1F
100
AcDbEntity
  8
寸法引出
  6
Continuous
100
AcDbLeader
  3
1_100
 71
     0
 73
     0
 75
     1
 40
300.0
 41
1095.0
 76
     3
 10
9221.215919764921
 20
12427.0407132213
 30
0.0
 10
8051.636476627757
 20
13344.1099808698
 30
0.0
 10
7991.636476627758
 20
13344.1099808698
 30
0.0
340
3B9
  0
MTEXT
  5
3B9
102
{ACAD_REACTORS
330
3B8
102
}
330
1F
100
AcDbEntity
  8
寸法文字
  6
Continuous
100
AcDbMText
 10
7891.636476627758
 20
13444.1099808698
 30
0.0
 40
300.0
 41
0.0
 71
     9
 72
     1
  1
FRP被覆
  7
1_100
 73
     1
 44
1.0
1001
ACAD
1000
MTEXTBEGIN
1070
    73
1070
     1
1070
    44
1040
1.0
1070
    74
1070
     0
1000
MTEXTEND
  0
LWPOLYLINE
  5
3BA
330
1F
100
AcDbEntity
  8
画層1-1
100
AcDbPolyline
 90
        4
 70
     1
 43
0.0
 10
9641.166396373975
 20
12625.65756487997
 10
9669.710433594625
 20
12597.63546754326
 10
9543.61099557925
 20
12469.18730005063
 10
9515.066958358719
 20
12497.20939738734
  0
TEXT
  5
3BB
330
1F
100
AcDbEntity
  8
寸法
  6
Continuous
100
AcDbText
 10
5805.799550886241
 20
12439.81565853895
 30
0.0
 40
300.0
  1
▽GL
 41
0.75
  7
1_100
 11
5805.799550886241
 21
12439.81565853895
 31
0.0
100
AcDbText
 73
     1
  0
LWPOLYLINE
  5
3BC
102
{ACAD_REACTORS
330
389
102
}
330
1F
100
AcDbEntity
  8
画層1
100
AcDbPolyline
 90
        4
 70
     1
 43
0.0
 10
9520.405256202186
 20
12364.59193787782
 10
9675.405256202189
 20
12364.59193787782
 10
9675.405256202189
 20
12404.59193787782
 10
9520.405256202186
 20
12404.59193787782
  0
LINE
  5
3BD
330
1F
100
AcDbEntity
  8
画層1
  6
Continuous
100
AcDbLine
 10
9324.605256202142
 20
12359.81565853907
 30
0.0
 11
9324.605256202142
 21
12409.81565853907
 31
0.0
  0
CIRCLE
  5
3BE
330
1F
100
AcDbEntity
  8
画層1
  6
Continuous
100
AcDbCircle
 10
9432.755256202165
 20
12384.81565853907
 30
0.0
 40
10.9509940156
  0
LINE
  5
3BF
330
1F
100
AcDbEntity
  8
画層1
  6
Continuous
100
AcDbLine
 10
9274.605256202141
 20
12359.81565853907
 30
0.0
 11
9274.605256202141
 21
12409.81565853907
 31
0.0
  0
CIRCLE
  5
3C0
330
1F
100
AcDbEntity
  8
画層1
  6
Continuous
100
AcDbCircle
 10
9166.455256202
 20
12384.81565853907
 30
0.0
 40
10.9509940156
  0
LINE
  5
3C1
330
1F
100
AcDbEntity
  8
画層2-1
  6
Continuous
100
AcDbLine
 10
9191.455256202001
 20
12459.81565853907
 30
0.0
 11
9407.755256202165
 21
12459.81565853907
 31
0.0
  0
LWPOLYLINE
  5
3C2
330
1F
100
AcDbEntity
  8
画層1
100
AcDbPolyline
 90
        4
 70
     1
 43
0.0
 10
9279.605256202142
 20
12739.81565853907
 10
9319.605256202139
 20
12739.81565853907
 10
9319.605256202139
 20
12559.81565853907
 10
9279.605256202142
 20
12559.81565853907
  0
MTEXT
  5
3C3
330
1F
100
AcDbEntity
  8
寸法文字
  6
Continuous
100
AcDbMText
 10
7789.739261264887
 20
13208.71156948095
 30
0.0
 40
300.0
 41
0.0
 71
     3
 72
     1
  1
（250）
  7
1_100
 73
     1
 44
1.0
1001
ACAD
1000
MTEXTBEGIN
1070
    73
1070
     1
1070
    44
1040
1.0
1070
    74
1070
     0
1000
MTEXTEND
  0
LWPOLYLINE
  5
3C4
102
{ACAD_REACTORS
330
389
102
}
330
1F
100
AcDbEntity
  8
画層1
  6
Continuous
100
AcDbPolyline
 90
        4
 70
     1
 43
0.0
 10
9141.455256202
 20
12409.81565853907
 10
9457.755256202165
 20
12409.81565853907
 10
9457.755256202165
 20
12359.81565853907
 10
9141.455256202
 20
12359.81565853907
  0
LWPOLYLINE
  5
3C5
102
{ACAD_REACTORS
330
3C7
102
}
330
1F
100
AcDbEntity
  8
画層2
100
AcDbPolyline
 90
        8
 70
     0
 43
0.0
 10
9049.605256202255
 20
12359.81565853907
 10
9049.605256202255
 20
12159.81565853907
 10
9074.605256202255
 20
12159.81565853907
 10
9074.605256202255
 20
10159.81565853907
 10
9524.605256202255
 20
10159.81565853907
 10
9524.605256202255
 20
12159.81565853907
 10
9549.605256202255
 20
12159.81565853907
 10
9549.605256202255
 20
12359.81565853953
  0
LINE
  5
3C6
102
{ACAD_REACTORS
330
3C7
102
}
330
1F
100
AcDbEntity
  8
画層2
100
AcDbLine
 10
9524.605256202255
 20
10259.81565853907
 30
0.0
 11
9074.605256202255
 21
10259.81565853907
 31
0.0
  0
HATCH
  5
3C7
330
1F
100
AcDbEntity
  8
ﾊｯﾁﾝｸﾞ
100
AcDbHatch
 10
0.0
 20
0.0
 30
0.0
210
0.0
220
0.0
230
1.0
  2
PLAST
 70
     0
 71
     1
 91
        1
 92
        7
 72
     0
 73
     1
 93
        8
 10
9524.605256202255
 20
12159.81565853907
 10
9549.605256202255
 20
12159.81565853906
 10
9549.605256202255
 20
12359.81565853907
 10
9049.605256202255
 20
12359.81565853907
 10
9049.605256202255
 20
12159.81565853907
 10
9074.605256202255
 20
12159.81565853907
 10
9074.605256202255
 20
10259.81565853907
 10
9524.605256202255
 20
10259.81565853907
 97
        3
330
3C5
330
396
330
3C6
 75
     0
 76
     1
 52
45.0
 41
2000.0
 77
     0
 78
     3
 53
45.0
 43
-309180.1618818823
 44
-241459.9936889223
 45
-353.5533905932737
 46
353.5533905932738
 79
     0
 53
45.0
 43
-309224.3560557064
 44
-241415.7995150981
 45
-353.5533905932737
 46
353.5533905932738
 79
     0
 53
45.0
 43
-309268.5502295307
 44
-241371.605341274
 45
-353.5533905932737
 46
353.5533905932738
 79
     0
 47
41.46856495726582
 98
        1
 10
9465.634983383095
 20
11009.85570114979
  0
INSERT
  5
3C8
330
1F
100
AcDbEntity
  8
ﾊｯﾁﾝｸﾞ
  6
Continuous
100
AcDbBlockReference
  2
sai450
 10
19299.60525620214
 20
10259.81565853907
 30
0.0
  0
INSERT
  5
3C9
330
1F
100
AcDbEntity
  8
ﾊｯﾁﾝｸﾞ
  6
Continuous
100
AcDbBlockReference
  2
RH
 10
19049.61525620238
 20
12359.81565853889
 30
0.0
  0
INSERT
  5
3CA
330
1F
100
AcDbEntity
  8
ﾊｯﾁﾝｸﾞ
  6
Continuous
100
AcDbBlockReference
  2
RM
 10
19549.61525620238
 20
12359.81565853936
 30
0.0
  0
LEADER
  5
3CB
330
1F
100
AcDbEntity
  8
寸法引出
  6
Continuous
100
AcDbLeader
  3
1_100
 71
     0
 73
     0
 75
     1
 40
300.0
 41
1319.999999999999
 76
     3
 10
19168.22551483251
 20
17294.81565853907
 30
0.0
 10
18764.20289422569
 20
16474.65059946116
 30
0.0
 10
18704.20289422569
 20
16474.65059946116
 30
0.0
340
3CC
  0
MTEXT
  5
3CC
102
{ACAD_REACTORS
330
3CB
102
}
330
1F
100
AcDbEntity
  8
寸法文字
  6
Continuous
100
AcDbMText
 10
18604.20289422569
 20
16574.65059946115
 30
0.0
 40
300.0
 41
0.0
 71
     9
 72
     1
  1
バンド金具
  7
1_100
 73
     1
 44
1.0
1001
ACAD
1000
MTEXTBEGIN
1070
    73
1070
     1
1070
    44
1040
1.0
1070
    74
1070
     0
1000
MTEXTEND
  0
LINE
  5
3CD
330
1F
100
AcDbEntity
  8
画層1
  6
Continuous
100
AcDbLine
 10
19457.75525620216
 20
17294.81565853907
 30
0.0
 11
19457.75525620216
 21
17344.81565853907
 31
0.0
  0
CIRCLE
  5
3CE
330
1F
100
AcDbEntity
  8
画層1
  6
Continuous
100
AcDbCircle
 10
19432.75525620216
 20
17319.81565853907
 30
0.0
 40
10.9509940156
  0
CIRCLE
  5
3CF
330
1F
100
AcDbEntity
  8
画層1
  6
Continuous
100
AcDbCircle
 10
19166.455256202
 20
17319.81565853907
 30
0.0
 40
10.9509940156
  0
LINE
  5
3D0
330
1F
100
AcDbEntity
  8
画層1
  6
Continuous
100
AcDbLine
 10
19274.60525620214
 20
17294.81565853907
 30
0.0
 11
19274.60525620214
 21
17344.81565853907
 31
0.0
  0
LINE
  5
3D1
330
1F
100
AcDbEntity
  8
画層1
  6
Continuous
100
AcDbLine
 10
19324.60525620214
 20
17294.81565853907
 30
0.0
 11
19324.60525620214
 21
17344.81565853907
 31
0.0
  0
LINE
  5
3D2
330
1F
100
AcDbEntity
  8
画層1
  6
Continuous
100
AcDbLine
 10
19141.455256202
 20
17344.81565853907
 30
0.0
 11
19141.455256202
 21
17294.81565853907
 31
0.0
  0
LINE
  5
3D3
330
1F
100
AcDbEntity
  8
画層1
  6
Continuous
100
AcDbLine
 10
19457.75525620216
 20
17344.81565853907
 30
0.0
 11
19141.455256202
 21
17344.81565853907
 31
0.0
  0
LINE
  5
3D4
330
1F
100
AcDbEntity
  8
画層1
  6
Continuous
100
AcDbLine
 10
19141.455256202
 20
17294.81565853907
 30
0.0
 11
19457.75525620216
 21
17294.81565853907
 31
0.0
  0
LEADER
  5
3D5
330
1F
100
AcDbEntity
  8
寸法引出
  6
Continuous
100
AcDbLeader
  3
1_100
 71
     0
 73
     0
 74
     0
 75
     1
 40
346.6666666666666
 41
3117.142857142858
 76
     3
 10
20445.32168501101
 20
17319.81565853907
 30
0.0
 10
20733.03463616592
 20
17906.79860655393
 30
0.0
 10
20793.03463616592
 20
17906.79860655393
 30
0.0
340
372
  0
LEADER
  5
3D6
330
1F
100
AcDbEntity
  8
寸法引出
  6
Continuous
100
AcDbLeader
  3
1_100
 71
     0
 73
     0
 74
     0
 75
     1
 40
346.6666666666666
 41
3117.142857142858
 76
     3
 10
21078.24673350083
 20
12384.81565853907
 30
0.0
 10
21438.92629657776
 20
13065.73641490878
 30
0.0
 10
21498.92629657776
 20
13065.73641490878
 30
0.0
340
3D7
  0
MTEXT
  5
3D7
102
{ACAD_REACTORS
330
3D6
102
}
330
1F
100
AcDbEntity
  8
寸法文字
  6
Continuous
100
AcDbMText
 10
21598.92629657776
 20
13165.73641490878
 30
0.0
 40
300.0
 41
0.0
 71
     7
 72
     1
  1
メッセンワイヤー22m㎡
  7
1_100
 73
     1
 44
1.0
1001
ACAD
1000
MTEXTBEGIN
1070
    73
1070
     1
1070
    44
1040
1.0
1070
    74
1070
     0
1000
MTEXTEND
  0
TEXT
  5
3D8
330
1F
100
AcDbEntity
  8
寸法
  6
Continuous
100
AcDbText
 10
23020.05133239608
 20
8084.190215653157
 30
0.0
 40
300.0
  1
10,000
 41
0.75
  7
1_100
100
AcDbText
  0
LINE
  5
3D9
330
1F
100
AcDbEntity
  8
画層2-1
  6
Continuous
100
AcDbLine
 10
19191.455256202
 20
12209.81565853907
 30
0.0
 11
19407.75525620216
 21
12209.81565853907
 31
0.0
  0
LINE
  5
3DA
330
1F
100
AcDbEntity
  8
画層1
  6
Continuous
100
AcDbLine
 10
19457.75525620216
 20
14814.81565853907
 30
0.0
 11
19457.75525620216
 21
14864.81565853907
 31
0.0
  0
CIRCLE
  5
3DB
330
1F
100
AcDbEntity
  8
画層1
  6
Continuous
100
AcDbCircle
 10
19432.75525620216
 20
14839.81565853907
 30
0.0
 40
10.9509940156
  0
CIRCLE
  5
3DC
330
1F
100
AcDbEntity
  8
画層1
  6
Continuous
100
AcDbCircle
 10
19166.455256202
 20
14839.81565853907
 30
0.0
 40
10.9509940156
  0
LINE
  5
3DD
330
1F
100
AcDbEntity
  8
画層1
  6
Continuous
100
AcDbLine
 10
19274.60525620214
 20
14814.81565853907
 30
0.0
 11
19274.60525620214
 21
14864.81565853907
 31
0.0
  0
LINE
  5
3DE
330
1F
100
AcDbEntity
  8
画層1
  6
Continuous
100
AcDbLine
 10
19324.60525620214
 20
14814.81565853907
 30
0.0
 11
19324.60525620214
 21
14864.81565853907
 31
0.0
  0
LINE
  5
3DF
330
1F
100
AcDbEntity
  8
画層1
  6
Continuous
100
AcDbLine
 10
19141.455256202
 20
14864.81565853907
 30
0.0
 11
19141.455256202
 21
14814.81565853907
 31
0.0
  0
LINE
  5
3E0
330
1F
100
AcDbEntity
  8
画層1
  6
Continuous
100
AcDbLine
 10
19457.75525620216
 20
14864.81565853907
 30
0.0
 11
19141.455256202
 21
14864.81565853907
 31
0.0
  0
LINE
  5
3E1
330
1F
100
AcDbEntity
  8
画層1
  6
Continuous
100
AcDbLine
 10
19141.455256202
 20
14814.81565853907
 30
0.0
 11
19457.75525620216
 21
14814.81565853907
 31
0.0
  0
LWPOLYLINE
  5
3E2
330
1F
100
AcDbEntity
  8
画層1-1
100
AcDbPolyline
 90
        4
 70
     1
 43
0.0
 10
19641.16639637397
 20
12625.65756487997
 10
19669.71043359462
 20
12597.63546754326
 10
19543.61099557925
 20
12469.18730005063
 10
19515.06695835872
 20
12497.20939738734
  0
LWPOLYLINE
  5
3E3
330
1F
100
AcDbEntity
  8
画層1-1
100
AcDbPolyline
 90
        4
 70
     1
 43
0.0
 10
18958.04411603007
 20
12625.65756487986
 10
18929.50007880942
 20
12597.63546754303
 10
19055.59951682491
 20
12469.18730005051
 10
19084.14355404556
 20
12497.20939738722
  0
CIRCLE
  5
3E4
330
1F
100
AcDbEntity
  8
画層1
  6
Continuous
100
AcDbCircle
 10
19432.75525620216
 20
12384.81565853907
 30
0.0
 40
10.9509940156
  0
CIRCLE
  5
3E5
330
1F
100
AcDbEntity
  8
画層1
  6
Continuous
100
AcDbCircle
 10
19166.455256202
 20
12384.81565853907
 30
0.0
 40
10.9509940156
  0
LINE
  5
3E6
330
1F
100
AcDbEntity
  8
画層1
  6
Continuous
100
AcDbLine
 10
19274.60525620214
 20
12359.81565853907
 30
0.0
 11
19274.60525620214
 21
12409.81565853907
 31
0.0
  0
LINE
  5
3E7
330
1F
100
AcDbEntity
  8
画層1
  6
Continuous
100
AcDbLine
 10
19324.60525620214
 20
12359.81565853907
 30
0.0
 11
19324.60525620214
 21
12409.81565853907
 31
0.0
  0
LINE
  5
3E8
330
1F
100
AcDbEntity
  8
画層2-1
  6
Continuous
100
AcDbLine
 10
19191.455256202
 20
12459.81565853907
 30
0.0
 11
19407.75525620216
 21
12459.81565853907
 31
0.0
  0
LINE
  5
3E9
330
1F
100
AcDbEntity
  8
寸法引出
  6
Continuous
100
AcDbLine
 10
20888.4818904395
 20
14839.81565853907
 30
0.0
 11
21438.92629657776
 21
13065.73641490878
 31
0.0
  0
LWPOLYLINE
  5
3EA
330
1F
100
AcDbEntity
  8
画層1
  6
Continuous
100
AcDbPolyline
 90
        4
 70
     1
 43
0.0
 10
19141.455256202
 20
12409.81565853907
 10
19457.75525620204
 20
12409.81565853907
 10
19457.75525620204
 20
12359.81565853895
 10
19141.455256202
 20
12359.81565853895
  0
LWPOLYLINE
  5
3EB
102
{ACAD_REACTORS
330
3ED
102
}
330
1F
100
AcDbEntity
  8
画層2
100
AcDbPolyline
 90
        8
 70
     0
 43
0.0
 10
19049.60525620214
 20
12359.81565853907
 10
19049.60525620214
 20
12159.81565853907
 10
19074.60525620214
 20
12159.81565853907
 10
19074.60525620214
 20
10159.81565853907
 10
19524.60525620214
 20
10159.81565853907
 10
19524.60525620214
 20
12159.81565853907
 10
19549.60525620214
 20
12159.81565853907
 10
19549.60525620214
 20
12359.81565853953
  0
LINE
  5
3EC
102
{ACAD_REACTORS
330
3ED
102
}
330
1F
100
AcDbEntity
  8
画層2
100
AcDbLine
 10
19524.60525620214
 20
10259.81565853907
 30
0.0
 11
19074.60525620214
 21
10259.81565853907
 31
0.0
  0
HATCH
  5
3ED
330
1F
100
AcDbEntity
  8
ﾊｯﾁﾝｸﾞ
100
AcDbHatch
 10
0.0
 20
0.0
 30
0.0
210
0.0
220
0.0
230
1.0
  2
PLAST
 70
     0
 71
     1
 91
        1
 92
        7
 72
     0
 73
     1
 93
        8
 10
19524.60525620214
 20
12159.81565853907
 10
19549.60525620214
 20
12159.81565853907
 10
19549.60525620214
 20
12359.81565853906
 10
19049.60525620214
 20
12359.81565853906
 10
19049.60525620214
 20
12159.81565853907
 10
19074.60525620214
 20
12159.81565853907
 10
19074.60525620214
 20
10259.81565853907
 10
19524.60525620214
 20
10259.81565853907
 97
        3
330
3EB
330
396
330
3EC
 75
     0
 76
     1
 52
45.0
 41
2000.0
 77
     0
 78
     3
 53
45.0
 43
-309180.1618818823
 44
-241459.9936889223
 45
-353.5533905932737
 46
353.5533905932738
 79
     0
 53
45.0
 43
-309224.3560557064
 44
-241415.7995150981
 45
-353.5533905932737
 46
353.5533905932738
 79
     0
 53
45.0
 43
-309268.5502295307
 44
-241371.605341274
 45
-353.5533905932737
 46
353.5533905932738
 79
     0
 47
41.46856495726582
 98
        1
 10
19425.78831535901
 20
11424.54154806013
  0
LINE
  5
3EE
330
1F
100
AcDbEntity
  8
寸法引出
  6
Continuous
100
AcDbLine
 10
15737.0119720767
 20
17707.31803978549
 30
0.0
 11
14869.47894664339
 21
16739.75481772783
 31
0.0
  0
LEADER
  5
3EF
330
1F
100
AcDbEntity
  8
寸法引出
  6
Continuous
100
AcDbLeader
  3
1_100
 71
     0
 73
     0
 75
     1
 40
300.0
 41
2603.571428571428
 76
     3
 10
18991.99109544847
 20
12533.98049256182
 30
0.0
 10
18460.86518642094
 20
11423.51196730125
 30
0.0
 10
18400.86518642094
 20
11423.51196730125
 30
0.0
340
3F0
  0
MTEXT
  5
3F0
102
{ACAD_REACTORS
330
3EF
102
}
330
1F
100
AcDbEntity
  8
寸法文字
  6
Continuous
100
AcDbMText
 10
18300.86518642094
 20
11523.51196730125
 30
0.0
 40
300.0
 41
0.0
 71
     9
 72
     1
  1
タンバックル12mm
  7
1_100
 73
     1
 44
1.0
1001
ACAD
1000
MTEXTBEGIN
1070
    73
1070
     1
1070
    44
1040
1.0
1070
    74
1070
     0
1000
MTEXTEND
  0
INSERT
  5
3F1
330
1F
100
AcDbEntity
  8
ﾊｯﾁﾝｸﾞ
  6
Continuous
100
AcDbBlockReference
  2
sai450
 10
31299.60525620214
 20
10259.81565853907
 30
0.0
  0
INSERT
  5
3F2
330
1F
100
AcDbEntity
  8
ﾊｯﾁﾝｸﾞ
  6
Continuous
100
AcDbBlockReference
  2
RH
 10
31049.6152562025
 20
12359.81565853889
 30
0.0
  0
INSERT
  5
3F3
330
1F
100
AcDbEntity
  8
ﾊｯﾁﾝｸﾞ
  6
Continuous
100
AcDbBlockReference
  2
RM
 10
31549.6152562025
 20
12359.81565853936
 30
0.0
  0
LINE
  5
3F4
330
1F
100
AcDbEntity
  8
画層1
  6
Continuous
100
AcDbLine
 10
31274.60525620214
 20
17294.8156585386
 30
0.0
 11
31274.60525620214
 21
17344.8156585386
 31
0.0
  0
LINE
  5
3F5
330
1F
100
AcDbEntity
  8
画層1
  6
Continuous
100
AcDbLine
 10
31324.60525620214
 20
17294.8156585386
 30
0.0
 11
31324.60525620214
 21
17344.8156585386
 31
0.0
  0
LINE
  5
3F6
330
1F
100
AcDbEntity
  8
画層1
  6
Continuous
100
AcDbLine
 10
31407.75525620205
 20
17344.8156585386
 30
0.0
 11
31324.60525620214
 21
17344.8156585386
 31
0.0
  0
LINE
  5
3F7
330
1F
100
AcDbEntity
  8
画層1
  6
Continuous
100
AcDbLine
 10
31324.60525620214
 20
17294.8156585386
 30
0.0
 11
31407.75525620205
 21
17294.8156585386
 31
0.0
  0
LINE
  5
3F8
330
1F
100
AcDbEntity
  8
画層1
  6
Continuous
100
AcDbLine
 10
31249.60525620214
 20
17319.81565853907
 30
0.0
 11
31349.60525620214
 21
17319.81565853907
 31
0.0
  0
LINE
  5
3F9
330
1F
100
AcDbEntity
  8
画層1
  6
Continuous
100
AcDbLine
 10
31274.60525620214
 20
17344.8156585386
 30
0.0
 11
31191.45525620223
 21
17344.8156585386
 31
0.0
  0
LINE
  5
3FA
330
1F
100
AcDbEntity
  8
画層1
  6
Continuous
100
AcDbLine
 10
31191.45525620223
 20
17294.8156585386
 30
0.0
 11
31274.60525620214
 21
17294.8156585386
 31
0.0
  0
LINE
  5
3FB
330
1F
100
AcDbEntity
  8
画層1
  6
Continuous
100
AcDbLine
 10
31141.45525620223
 20
17344.8156585386
 30
0.0
 11
31141.45525620223
 21
17294.8156585386
 31
0.0
  0
LINE
  5
3FC
330
1F
100
AcDbEntity
  8
画層1
  6
Continuous
100
AcDbLine
 10
31141.45525620223
 20
17319.81565853907
 30
0.0
 11
31191.45525620223
 21
17319.81565853907
 31
0.0
  0
DIMENSION
  5
3FD
330
1F
100
AcDbEntity
  8
寸法
  6
Continuous
100
AcDbDimension
  2
*D18
 10
33299.60525620214
 20
12359.81565853907
 30
0.0
 11
33530.51103976402
 21
12004.2146160322
 31
0.0
 70
   160
 71
     5
 42
200.0
  3
1_100
100
AcDbAlignedDimension
 13
32299.03603160542
 23
12159.81565853907
 33
0.0
 14
32299.03603160542
 24
12359.81565853907
 34
0.0
 50
90.0
100
AcDbRotatedDimension
  0
DIMENSION
  5
3FE
330
1F
100
AcDbEntity
  8
寸法
  6
Continuous
100
AcDbDimension
  2
*D19
 10
34299.60525620214
 20
10259.81565853907
 30
0.0
 11
34021.03382763072
 21
11309.81565853907
 31
0.0
 70
    32
 71
     5
 42
2100.0
  3
1_100
100
AcDbAlignedDimension
 13
32299.03603160542
 23
12359.81565853907
 33
0.0
 14
32299.03603160542
 24
10259.81565853907
 34
0.0
 50
90.0
100
AcDbRotatedDimension
  0
LINE
  5
3FF
330
1F
100
AcDbEntity
  8
画層2-1
  6
Continuous
100
AcDbLine
 10
31191.45525620223
 20
12209.8156585386
 30
0.0
 11
31407.75525620205
 21
12209.8156585386
 31
0.0
  0
DIMENSION
  5
400
330
1F
100
AcDbEntity
  8
寸法
  6
Continuous
100
AcDbDimension
  2
*D20
 10
31549.60525620214
 20
9159.815658538951
 30
0.0
 11
31299.60525620214
 21
8909.815658538951
 31
0.0
 70
    32
  1
□<>
 71
     5
 42
500.0
  3
1_100
100
AcDbAlignedDimension
 13
31049.60525620214
 23
10159.81565853895
 33
0.0
 14
31549.60525620214
 24
10159.81565853895
 34
0.0
100
AcDbRotatedDimension
1001
ACAD
1000
DSTYLE
1002
{
1070
    77
1070
     2
1070
   174
1070
     1
1002
}
  0
DIMENSION
  5
401
330
1F
100
AcDbEntity
  8
寸法
  6
Continuous
100
AcDbDimension
  2
*D21
 10
33299.60525620214
 20
10259.81565853907
 30
0.0
 11
33014.95388746539
 21
9781.201401733675
 31
0.0
 70
   160
 71
     5
 42
100.0
  3
1_100
100
AcDbAlignedDimension
 13
32299.03603160542
 23
10159.81565853907
 33
0.0
 14
32299.03603160542
 24
10259.81565853907
 34
0.0
 50
90.0
100
AcDbRotatedDimension
  0
DIMENSION
  5
402
330
1F
100
AcDbEntity
  8
寸法
  6
Continuous
100
AcDbDimension
  2
*D22
 10
33299.60525620214
 20
12159.81565853907
 30
0.0
 11
33021.03382763072
 21
11209.81565853907
 31
0.0
 70
    32
 71
     5
 42
1900.0
  3
1_100
100
AcDbAlignedDimension
 13
32299.03603160542
 23
10259.81565853907
 33
0.0
 14
32299.03603160542
 24
12159.81565853907
 34
0.0
 50
90.0
100
AcDbRotatedDimension
  0
LINE
  5
403
330
1F
100
AcDbEntity
  8
画層1
  6
Continuous
100
AcDbLine
 10
31274.60525620214
 20
14814.8156585386
 30
0.0
 11
31274.60525620214
 21
14864.8156585386
 31
0.0
  0
LINE
  5
404
330
1F
100
AcDbEntity
  8
画層1
  6
Continuous
100
AcDbLine
 10
31324.60525620214
 20
14814.8156585386
 30
0.0
 11
31324.60525620214
 21
14864.8156585386
 31
0.0
  0
LINE
  5
405
330
1F
100
AcDbEntity
  8
画層1
  6
Continuous
100
AcDbLine
 10
31407.75525620205
 20
14864.8156585386
 30
0.0
 11
31324.60525620214
 21
14864.8156585386
 31
0.0
  0
LINE
  5
406
330
1F
100
AcDbEntity
  8
画層1
  6
Continuous
100
AcDbLine
 10
31324.60525620214
 20
14814.8156585386
 30
0.0
 11
31407.75525620205
 21
14814.8156585386
 31
0.0
  0
LINE
  5
407
330
1F
100
AcDbEntity
  8
画層1
  6
Continuous
100
AcDbLine
 10
31249.60525620214
 20
14839.81565853907
 30
0.0
 11
31349.60525620214
 21
14839.81565853907
 31
0.0
  0
LINE
  5
408
330
1F
100
AcDbEntity
  8
画層1
  6
Continuous
100
AcDbLine
 10
31274.60525620214
 20
14864.8156585386
 30
0.0
 11
31191.45525620223
 21
14864.8156585386
 31
0.0
  0
LINE
  5
409
330
1F
100
AcDbEntity
  8
画層1
  6
Continuous
100
AcDbLine
 10
31191.45525620223
 20
14814.8156585386
 30
0.0
 11
31274.60525620214
 21
14814.8156585386
 31
0.0
  0
LINE
  5
40A
330
1F
100
AcDbEntity
  8
画層1
  6
Continuous
100
AcDbLine
 10
31141.45525620223
 20
14864.8156585386
 30
0.0
 11
31141.45525620223
 21
14814.8156585386
 31
0.0
  0
LINE
  5
40B
330
1F
100
AcDbEntity
  8
画層1
  6
Continuous
100
AcDbLine
 10
31141.45525620223
 20
14839.81565853907
 30
0.0
 11
31191.45525620223
 21
14839.81565853907
 31
0.0
  0
LINE
  5
40C
330
1F
100
AcDbEntity
  8
画層1
  6
Continuous
100
AcDbLine
 10
31274.60525620214
 20
12359.8156585386
 30
0.0
 11
31274.60525620214
 21
12409.8156585386
 31
0.0
  0
LINE
  5
40D
330
1F
100
AcDbEntity
  8
画層1
  6
Continuous
100
AcDbLine
 10
31324.60525620214
 20
12359.8156585386
 30
0.0
 11
31324.60525620214
 21
12409.8156585386
 31
0.0
  0
LINE
  5
40E
330
1F
100
AcDbEntity
  8
画層1
  6
Continuous
100
AcDbLine
 10
31407.75525620205
 20
12409.8156585386
 30
0.0
 11
31324.60525620214
 21
12409.8156585386
 31
0.0
  0
LINE
  5
40F
330
1F
100
AcDbEntity
  8
画層1
  6
Continuous
100
AcDbLine
 10
31249.60525620214
 20
12384.81565853907
 30
0.0
 11
31349.60525620214
 21
12384.81565853907
 31
0.0
  0
LINE
  5
410
330
1F
100
AcDbEntity
  8
画層2-1
  6
Continuous
100
AcDbLine
 10
31191.45525620223
 20
12459.8156585386
 30
0.0
 11
31407.75525620205
 21
12459.8156585386
 31
0.0
  0
LINE
  5
411
330
1F
100
AcDbEntity
  8
画層1
  6
Continuous
100
AcDbLine
 10
31274.60525620214
 20
12409.8156585386
 30
0.0
 11
31191.45525620223
 21
12409.8156585386
 31
0.0
  0
LINE
  5
412
330
1F
100
AcDbEntity
  8
画層1
  6
Continuous
100
AcDbLine
 10
31141.45525620223
 20
12409.8156585386
 30
0.0
 11
31141.45525620223
 21
12359.8156585386
 31
0.0
  0
LINE
  5
413
330
1F
100
AcDbEntity
  8
画層1
  6
Continuous
100
AcDbLine
 10
31141.45525620223
 20
12384.81565853907
 30
0.0
 11
31191.45525620223
 21
12384.81565853907
 31
0.0
  0
DIMENSION
  5
414
330
1F
100
AcDbEntity
  8
寸法
  6
Continuous
100
AcDbDimension
  2
*D23
 10
33299.60525620214
 20
14839.81565853907
 30
0.0
 11
33021.03382763072
 21
13599.81565853907
 31
0.0
 70
    32
 71
     5
 42
2480.0
  3
1_100
100
AcDbAlignedDimension
 13
32299.03603160542
 23
12359.81565853907
 33
0.0
 14
32299.03603160542
 24
14839.81565853907
 34
0.0
 50
90.0
100
AcDbRotatedDimension
  0
LINE
  5
415
330
1F
100
AcDbEntity
  8
画層1
  6
Continuous
100
AcDbLine
 10
31274.60525620214
 20
12359.8156585386
 30
0.0
 11
31191.45525620223
 21
12359.8156585386
 31
0.0
  0
LINE
  5
416
330
1F
100
AcDbEntity
  8
画層1
  6
Continuous
100
AcDbLine
 10
31407.75525620205
 20
12359.8156585386
 30
0.0
 11
31324.60525620214
 21
12359.8156585386
 31
0.0
  0
LWPOLYLINE
  5
417
102
{ACAD_REACTORS
330
41A
102
}
330
1F
100
AcDbEntity
  8
画層2
100
AcDbPolyline
 90
        8
 70
     0
 43
0.0
 10
31049.60525620214
 20
12359.81565853907
 10
31049.60525620214
 20
12159.81565853907
 10
31074.60525620214
 20
12159.81565853907
 10
31074.60525620214
 20
10159.81565853907
 10
31524.60525620214
 20
10159.81565853907
 10
31524.60525620214
 20
12159.81565853907
 10
31549.60525620214
 20
12159.81565853907
 10
31549.60525620214
 20
12359.81565853953
  0
LINE
  5
418
102
{ACAD_REACTORS
330
41A
102
}
330
1F
100
AcDbEntity
  8
画層2
100
AcDbLine
 10
31524.60525620214
 20
10259.81565853907
 30
0.0
 11
31074.60525620214
 21
10259.81565853907
 31
0.0
  0
LWPOLYLINE
  5
419
330
1F
100
AcDbEntity
  8
画層1
100
AcDbPolyline
 90
        4
 70
     1
 43
0.0
 10
31280.72411774283
 20
12739.8156585386
 10
31320.72411774283
 20
12739.8156585386
 10
31320.72411774283
 20
12559.8156585386
 10
31280.72411774283
 20
12559.8156585386
  0
HATCH
  5
41A
330
1F
100
AcDbEntity
  8
ﾊｯﾁﾝｸﾞ
100
AcDbHatch
 10
0.0
 20
0.0
 30
0.0
210
0.0
220
0.0
230
1.0
  2
PLAST
 70
     0
 71
     1
 91
        1
 92
        7
 72
     0
 73
     1
 93
        8
 10
31524.60525620214
 20
12159.81565853907
 10
31549.60525620214
 20
12159.81565853907
 10
31549.60525620214
 20
12359.81565853907
 10
31049.60525620215
 20
12359.81565853907
 10
31049.60525620214
 20
12159.81565853907
 10
31074.60525620214
 20
12159.81565853907
 10
31074.60525620215
 20
10259.81565853907
 10
31524.60525620214
 20
10259.81565853907
 97
        3
330
417
330
41C
330
418
 75
     0
 76
     1
 52
45.0
 41
2000.0
 77
     0
 78
     3
 53
45.0
 43
-309180.1618818823
 44
-241459.9936889223
 45
-353.5533905932737
 46
353.5533905932738
 79
     0
 53
45.0
 43
-309224.3560557064
 44
-241415.7995150981
 45
-353.5533905932737
 46
353.5533905932738
 79
     0
 53
45.0
 43
-309268.5502295307
 44
-241371.605341274
 45
-353.5533905932737
 46
353.5533905932738
 79
     0
 47
41.46856495726582
 98
        1
 10
31377.97070534571
 20
11175.73035275202
  0
DIMENSION
  5
41B
330
1F
100
AcDbEntity
  8
寸法
  6
Continuous
100
AcDbDimension
  2
*D24
 10
31524.60525620191
 20
9559.815658539301
 30
0.0
 11
30462.70444199696
 21
9760.603370700962
 31
0.0
 70
   160
  1
φ<>
 71
     5
 42
450.0
  3
1_100
100
AcDbAlignedDimension
 13
31074.60525620191
 23
10159.81565853907
 33
0.0
 14
31524.60525620191
 24
10159.81565853907
 34
0.0
100
AcDbRotatedDimension
  0
LINE
  5
41C
102
{ACAD_REACTORS
330
41A
102
}
330
1F
100
AcDbEntity
  8
画層2
  6
Continuous
100
AcDbLine
 10
29995.61096209565
 20
12359.81565853907
 30
0.0
 11
32709.84718177698
 21
12359.81565853907
 31
0.0
  0
TEXT
  5
41D
330
1F
100
AcDbEntity
  8
寸法
  6
Continuous
100
AcDbText
 10
29833.19407658074
 20
12439.81565853895
 30
0.0
 40
300.0
  1
▽GL
 41
0.75
  7
1_100
 72
     2
 11
30499.62264800931
 21
12439.81565853895
 31
0.0
100
AcDbText
 73
     1
  0
DIMENSION
  5
41E
330
1F
100
AcDbEntity
  8
寸法
  6
Continuous
100
AcDbDimension
  2
*D25
 10
33299.60525620214
 20
17319.81565853907
 30
0.0
 11
33021.03382763072
 21
16079.81565853907
 31
0.0
 70
    32
 71
     5
 42
2480.0
  3
1_100
100
AcDbAlignedDimension
 13
32299.03603160542
 23
14839.81565853907
 33
0.0
 14
32299.03603160542
 24
17319.81565853907
 34
0.0
 50
90.0
100
AcDbRotatedDimension
  0
DIMENSION
  5
41F
330
1F
100
AcDbEntity
  8
寸法
  6
Continuous
100
AcDbDimension
  2
*D26
 10
28299.60525620214
 20
22299.81565853907
 30
0.0
 11
28021.03382763071
 21
21054.81565853907
 31
0.0
 70
    32
 71
     5
 42
2490.0
  3
1_100
100
AcDbAlignedDimension
 13
27339.60525620237
 23
19809.81565853907
 33
0.0
 14
27339.60525620237
 24
22299.81565853907
 34
0.0
 50
90.0
100
AcDbRotatedDimension
  0
DIMENSION
  5
420
330
1F
100
AcDbEntity
  8
寸法
  6
Continuous
100
AcDbDimension
  2
*D27
 10
28299.60525620214
 20
22359.81565853907
 30
0.0
 11
27999.8437175052
 21
22653.04362645012
 31
0.0
 70
   160
 71
     5
 42
60.0
  3
1_100
100
AcDbAlignedDimension
 13
27339.60525620237
 23
22299.81565853907
 33
0.0
 14
27339.60525620237
 24
22359.81565853907
 34
0.0
 50
90.0
100
AcDbRotatedDimension
  0
LINE
  5
421
330
1F
100
AcDbEntity
  8
画層1-1
  6
Continuous
100
AcDbLine
 10
9299.605256202141
 20
19809.81565853907
 30
0.0
 11
26799.60525620214
 21
19809.81565853907
 31
0.0
  0
LWPOLYLINE
  5
422
330
1F
100
AcDbEntity
  8
画層1-1
  6
Continuous
100
AcDbPolyline
 90
        4
 70
     1
 43
0.0
 10
9507.755256202278
 20
22306.96565853909
 10
19091.45525620223
 20
22306.96565853909
 10
19091.45525620223
 20
22192.66565853916
 10
9507.755256202278
 20
22192.66565853916
  0
LINE
  5
423
102
{ACAD_REACTORS
330
389
102
}
330
1F
100
AcDbEntity
  8
画層1
  6
Continuous
100
AcDbLine
 10
26799.60525620214
 20
22299.81565853907
 30
0.0
 11
9299.605256202141
 21
22299.81565853907
 31
0.0
  0
LEADER
  5
426
330
1F
100
AcDbEntity
  8
寸法引出
  6
Continuous
100
AcDbLeader
  3
1_100
 71
     0
 73
     0
 74
     0
 75
     1
 40
300.0
 41
5880.0
 76
     3
 10
12182.0788098124
 20
22263.59099296283
 30
0.0
 10
13018.7564649471
 20
23987.8784379157
 30
0.0
 10
13078.7564649471
 20
23987.8784379157
 30
0.0
340
427
  0
MTEXT
  5
427
102
{ACAD_REACTORS
330
426
102
}
330
1F
100
AcDbEntity
  8
寸法文字
  6
Continuous
100
AcDbMText
 10
13178.7564649471
 20
24087.8784379157
 30
0.0
 40
300.0
 41
0.0
 71
     7
 72
     1
  1
端末・コーナー補強ポールφ114.3×3.0mm
  7
1_100
 73
     1
 44
1.0
1001
ACAD
1000
ACAD_MTEXT_DEFINED_HEIGHT_BEGIN
1070
    46
1040
0.0
1000
ACAD_MTEXT_DEFINED_HEIGHT_END
1000
MTEXTBEGIN
1070
    73
1070
     1
1070
    44
1040
1.0
1070
    74
1070
     0
1000
MTEXTEND
  0
LEADER
  5
428
330
1F
100
AcDbEntity
  8
寸法引出
  6
Continuous
100
AcDbLeader
  3
1_100
 71
     0
 73
     0
 75
     1
 40
300.0
 41
4699.285714285711
 76
     3
 10
9191.455256202001
 20
20645.50693505444
 30
0.0
 10
7996.377206906419
 20
21487.57863160421
 30
0.0
 10
7936.37720690642
 20
21487.57863160421
 30
0.0
340
429
  0
MTEXT
  5
429
102
{ACAD_REACTORS
330
428
102
}
330
1F
100
AcDbEntity
  8
寸法文字
  6
Continuous
100
AcDbMText
 10
7836.377206906419
 20
21587.57863160421
 30
0.0
 40
300.0
 41
0.0
 71
     9
 72
     1
  1
主柱KSポールφ216.3厚さ5.0mm
  7
1_100
 73
     1
 44
1.0
1001
ACAD
1000
ACAD_MTEXT_DEFINED_HEIGHT_BEGIN
1070
    46
1040
0.0
1000
ACAD_MTEXT_DEFINED_HEIGHT_END
1000
MTEXTBEGIN
1070
    73
1070
     1
1070
    44
1040
1.0
1070
    74
1070
     0
1000
MTEXTEND
  0
MTEXT
  5
42A
330
1F
100
AcDbEntity
  8
寸法文字
  6
Continuous
100
AcDbMText
 10
7335.179592381206
 20
21289.64481791935
 30
0.0
 40
300.0
 41
0.0
 71
     3
 72
     1
  1
（STKT-590鋼管）
  7
1_100
 73
     1
 44
1.0
1001
ACAD
1000
MTEXTBEGIN
1070
    73
1070
     1
1070
    44
1040
1.0
1070
    74
1070
     0
1000
MTEXTEND
  0
LINE
  5
42B
102
{ACAD_REACTORS
330
389
102
}
330
1F
100
AcDbEntity
  8
画層1
  6
Continuous
100
AcDbLine
 10
9457.755256202165
 20
19784.81565853907
 30
0.0
 11
9457.755256202165
 21
19834.81565853907
 31
0.0
  0
LWPOLYLINE
  5
42C
330
1F
100
AcDbEntity
  8
画層1-1
100
AcDbPolyline
 90
        4
 70
     1
 43
0.0
 10
9533.205256202
 20
19829.81665285304
 10
9687.755256202166
 20
19829.81665285304
 10
9687.755256202166
 20
19789.81665285304
 10
9533.205256202
 20
19789.81665285304
  0
LINE
  5
42D
330
1F
100
AcDbEntity
  8
画層1
  6
Continuous
100
AcDbLine
 10
9324.605256202142
 20
19784.81565853907
 30
0.0
 11
9324.605256202142
 21
19834.81565853907
 31
0.0
  0
CIRCLE
  5
42E
330
1F
100
AcDbEntity
  8
画層1
  6
Continuous
100
AcDbCircle
 10
9432.755256202165
 20
19809.81565853907
 30
0.0
 40
10.9509940156
  0
LINE
  5
42F
330
1F
100
AcDbEntity
  8
画層1
  6
Continuous
100
AcDbLine
 10
9274.605256202141
 20
19784.81565853907
 30
0.0
 11
9274.605256202141
 21
19834.81565853907
 31
0.0
  0
LINE
  5
430
330
1F
100
AcDbEntity
  8
画層1
  6
Continuous
100
AcDbLine
 10
9141.455256202
 20
19834.81565853907
 30
0.0
 11
9141.455256202
 21
19784.81565853907
 31
0.0
  0
CIRCLE
  5
431
330
1F
100
AcDbEntity
  8
画層1
  6
Continuous
100
AcDbCircle
 10
9166.455256202
 20
19809.81565853907
 30
0.0
 40
10.9509940156
  0
LINE
  5
432
102
{ACAD_REACTORS
330
389
102
}
330
1F
100
AcDbEntity
  8
画層1
  6
Continuous
100
AcDbLine
 10
9457.755256202165
 20
19834.81565853907
 30
0.0
 11
9141.455256202
 21
19834.81565853907
 31
0.0
  0
LINE
  5
433
102
{ACAD_REACTORS
330
389
102
}
330
1F
100
AcDbEntity
  8
画層1
  6
Continuous
100
AcDbLine
 10
9141.455256202
 20
19784.81565853907
 30
0.0
 11
9457.755256202165
 21
19784.81565853907
 31
0.0
  0
LEADER
  5
434
330
1F
100
AcDbEntity
  8
寸法引出
  6
Continuous
100
AcDbLeader
  3
1_100
 71
     0
 73
     0
 75
     1
 40
346.6666666666666
 41
3117.142857142858
 76
     3
 10
9299.605256202141
 20
18245.52054326352
 30
0.0
 10
8185.402874466005
 20
19053.93324832059
 30
0.0
 10
8125.402874466006
 20
19053.93324832059
 30
0.0
340
435
  0
MTEXT
  5
435
102
{ACAD_REACTORS
330
434
102
}
330
1F
100
AcDbEntity
  8
寸法文字
  6
Continuous
100
AcDbMText
 10
8025.402874466006
 20
19153.93324832059
 30
0.0
 40
300.0
 41
0.0
 71
     9
 72
     1
  1
メッセンワイヤー22m㎡
  7
1_100
 73
     1
 44
1.0
1001
ACAD
1000
MTEXTBEGIN
1070
    73
1070
     1
1070
    44
1040
1.0
1070
    74
1070
     0
1000
MTEXTEND
  0
CIRCLE
  5
436
330
1F
100
AcDbEntity
  8
画層1
  6
Continuous
100
AcDbCircle
 10
9432.755256202165
 20
22249.81565853907
 30
0.0
 40
10.9509940156
  0
LINE
  5
437
102
{ACAD_REACTORS
330
389
102
}
330
1F
100
AcDbEntity
  8
画層1
  6
Continuous
100
AcDbLine
 10
9457.755256202165
 20
22224.81565853907
 30
0.0
 11
9457.755256202165
 21
22274.81565853907
 31
0.0
  0
CIRCLE
  5
438
330
1F
100
AcDbEntity
  8
画層1
  6
Continuous
100
AcDbCircle
 10
9166.455256202
 20
22249.81565853907
 30
0.0
 40
10.9509940156
  0
LINE
  5
439
330
1F
100
AcDbEntity
  8
画層1
  6
Continuous
100
AcDbLine
 10
9141.455256202
 20
22274.81565853907
 30
0.0
 11
9141.455256202
 21
22224.81565853907
 31
0.0
  0
LINE
  5
43A
330
1F
100
AcDbEntity
  8
画層1
  6
Continuous
100
AcDbLine
 10
9274.605256202141
 20
22224.81565853907
 30
0.0
 11
9274.605256202141
 21
22274.81565853907
 31
0.0
  0
LINE
  5
43B
330
1F
100
AcDbEntity
  8
画層1
  6
Continuous
100
AcDbLine
 10
9324.605256202142
 20
22224.81565853907
 30
0.0
 11
9324.605256202142
 21
22274.81565853907
 31
0.0
  0
LINE
  5
43C
330
1F
100
AcDbEntity
  8
画層1
  6
Continuous
100
AcDbLine
 10
9457.755256202165
 20
22274.81565853907
 30
0.0
 11
9141.455256202
 21
22274.81565853907
 31
0.0
  0
LINE
  5
43D
102
{ACAD_REACTORS
330
389
102
}
330
1F
100
AcDbEntity
  8
画層1
  6
Continuous
100
AcDbLine
 10
9141.455256202
 20
22224.81565853907
 30
0.0
 11
9457.755256202165
 21
22224.81565853907
 31
0.0
  0
LINE
  5
43E
102
{ACAD_REACTORS
330
389
102
}
330
1F
100
AcDbEntity
  8
画層1
  6
Continuous
100
AcDbLine
 10
9457.755256202165
 20
22274.81565853907
 30
0.0
 11
9457.755256202165
 21
22324.81565853907
 31
0.0
  0
LWPOLYLINE
  5
43F
102
{ACAD_REACTORS
330
389
102
}
330
1F
100
AcDbEntity
  8
画層1
100
AcDbPolyline
 90
        4
 70
     1
 43
0.0
 10
9533.205256202
 20
22319.59193787782
 10
9687.755256202166
 20
22319.59193787782
 10
9687.755256202166
 20
22279.59193787782
 10
9533.205256202
 20
22279.59193787782
  0
LINE
  5
440
330
1F
100
AcDbEntity
  8
画層1
  6
Continuous
100
AcDbLine
 10
9324.605256202142
 20
22274.81565853907
 30
0.0
 11
9324.605256202142
 21
22324.81565853907
 31
0.0
  0
CIRCLE
  5
441
330
1F
100
AcDbEntity
  8
画層1
  6
Continuous
100
AcDbCircle
 10
9432.755256202165
 20
22299.81565853907
 30
0.0
 40
10.9509940156
  0
LINE
  5
442
330
1F
100
AcDbEntity
  8
画層1
  6
Continuous
100
AcDbLine
 10
9274.605256202141
 20
22274.81565853907
 30
0.0
 11
9274.605256202141
 21
22324.81565853907
 31
0.0
  0
LINE
  5
443
330
1F
100
AcDbEntity
  8
画層1
  6
Continuous
100
AcDbLine
 10
9141.455256202
 20
22324.81565853907
 30
0.0
 11
9141.455256202
 21
22274.81565853907
 31
0.0
  0
CIRCLE
  5
444
330
1F
100
AcDbEntity
  8
画層1
  6
Continuous
100
AcDbCircle
 10
9166.455256202
 20
22299.81565853907
 30
0.0
 40
10.9509940156
  0
LINE
  5
445
330
1F
100
AcDbEntity
  8
画層1
  6
Continuous
100
AcDbLine
 10
9191.455256202001
 20
22359.81565853907
 30
0.0
 11
9407.755256202165
 21
22359.81565853907
 31
0.0
  0
LINE
  5
446
330
1F
100
AcDbEntity
  8
画層1
  6
Continuous
100
AcDbLine
 10
9191.455256202001
 20
22339.81565853907
 30
0.0
 11
9407.755256202165
 21
22339.81565853907
 31
0.0
  0
LINE
  5
447
330
1F
100
AcDbEntity
  8
画層1
  6
Continuous
100
AcDbLine
 10
9141.455256202
 20
22274.81565853907
 30
0.0
 11
9457.755256202165
 21
22274.81565853907
 31
0.0
  0
LINE
  5
448
330
1F
100
AcDbEntity
  8
画層1
  6
Continuous
100
AcDbLine
 10
9457.755256202165
 20
22324.81565853907
 30
0.0
 11
9141.455256202
 21
22324.81565853907
 31
0.0
  0
DIMENSION
  5
449
330
1F
100
AcDbEntity
  8
寸法
  6
Continuous
100
AcDbDimension
  2
*D28
 10
9407.755256202165
 20
22959.81565853907
 30
0.0
 11
9299.605256202083
 21
23259.81565853907
 31
0.0
 70
    32
  1
φ<>
 71
     5
 42
216.300000000163
  3
1_100
100
AcDbAlignedDimension
 13
9191.455256202001
 23
22359.81565853907
 33
0.0
 14
9407.755256202165
 24
22359.81565853907
 34
0.0
100
AcDbRotatedDimension
  0
LEADER
  5
44A
330
1F
100
AcDbEntity
  8
寸法引出
  6
Continuous
100
AcDbLeader
  3
1_100
 71
     0
 73
     0
 75
     1
 40
300.0
 41
2940.000000000001
 76
     3
 10
9299.605256201909
 20
22359.81565853907
 30
0.0
 10
8085.885059671451
 20
23285.02661831922
 30
0.0
 10
8025.88505967145
 20
23285.02661831922
 30
0.0
340
44B
  0
MTEXT
  5
44B
102
{ACAD_REACTORS
330
44A
102
}
330
1F
100
AcDbEntity
  8
寸法文字
  6
Continuous
100
AcDbMText
 10
7925.88505967145
 20
23385.02661831921
 30
0.0
 40
300.0
 41
0.0
 71
     9
 72
     1
  1
上部ネット下り防止付き
  7
1_100
 73
     1
 44
1.0
1001
ACAD
1000
MTEXTBEGIN
1070
    73
1070
     1
1070
    44
1040
1.0
1070
    74
1070
     0
1000
MTEXTEND
  0
LINE
  5
44C
330
1F
100
AcDbEntity
  8
画層1-1
  6
Continuous
100
AcDbLine
 10
9507.755256202049
 20
22249.81565853918
 30
0.0
 11
9457.755256202046
 21
22249.81565853907
 31
0.0
  0
LINE
  5
44D
330
1F
100
AcDbEntity
  8
画層1
  6
Continuous
100
AcDbLine
 10
19457.75525620204
 20
19784.81565853907
 30
0.0
 11
19457.75525620204
 21
19834.81565853907
 31
0.0
  0
CIRCLE
  5
44E
330
1F
100
AcDbEntity
  8
画層1
  6
Continuous
100
AcDbCircle
 10
19432.75525620205
 20
19809.81565853907
 30
0.0
 40
10.9509940156
  0
LINE
  5
44F
330
1F
100
AcDbEntity
  8
画層1
  6
Continuous
100
AcDbLine
 10
19274.60525620214
 20
19784.81565853907
 30
0.0
 11
19274.60525620214
 21
19834.81565853907
 31
0.0
  0
LINE
  5
450
330
1F
100
AcDbEntity
  8
画層1
  6
Continuous
100
AcDbLine
 10
19324.60525620214
 20
19784.81565853907
 30
0.0
 11
19324.60525620214
 21
19834.81565853907
 31
0.0
  0
CIRCLE
  5
451
330
1F
100
AcDbEntity
  8
画層1
  6
Continuous
100
AcDbCircle
 10
19166.455256202
 20
19809.81565853907
 30
0.0
 40
10.9509940156
  0
LINE
  5
452
330
1F
100
AcDbEntity
  8
画層1
  6
Continuous
100
AcDbLine
 10
19141.455256202
 20
19834.81565853907
 30
0.0
 11
19141.455256202
 21
19784.81565853907
 31
0.0
  0
LINE
  5
453
330
1F
100
AcDbEntity
  8
画層1
  6
Continuous
100
AcDbLine
 10
19141.455256202
 20
19784.81565853907
 30
0.0
 11
19457.75525620204
 21
19784.81565853907
 31
0.0
  0
LINE
  5
454
330
1F
100
AcDbEntity
  8
画層1
  6
Continuous
100
AcDbLine
 10
19457.75525620204
 20
19834.81565853907
 30
0.0
 11
19141.455256202
 21
19834.81565853907
 31
0.0
  0
LEADER
  5
455
330
1F
100
AcDbEntity
  8
寸法引出
  6
Continuous
100
AcDbLeader
  3
1_100
 71
     0
 73
     0
 74
     0
 75
     1
 40
346.6666666666666
 41
3117.142857142857
 76
     3
 10
16335.22257368124
 20
22299.81565853907
 30
0.0
 10
16802.98985079429
 20
23134.99035524205
 30
0.0
 10
16862.98985079429
 20
23134.99035524205
 30
0.0
340
456
  0
MTEXT
  5
456
102
{ACAD_REACTORS
330
455
102
}
330
1F
100
AcDbEntity
  8
寸法文字
  6
Continuous
100
AcDbMText
 10
16962.98985079429
 20
23234.99035524204
 30
0.0
 40
300.0
 41
0.0
 71
     7
 72
     1
  1
メッセンワイヤー38m㎡
  7
1_100
 73
     1
 44
1.0
1001
ACAD
1000
MTEXTBEGIN
1070
    73
1070
     1
1070
    44
1040
1.0
1070
    74
1070
     0
1000
MTEXTEND
  0
LINE
  5
457
330
1F
100
AcDbEntity
  8
画層1
  6
Continuous
100
AcDbLine
 10
19457.75525620216
 20
22274.81565853907
 30
0.0
 11
19141.455256202
 21
22274.81565853907
 31
0.0
  0
LINE
  5
458
330
1F
100
AcDbEntity
  8
画層1
  6
Continuous
100
AcDbLine
 10
19141.455256202
 20
22224.81565853907
 30
0.0
 11
19457.75525620216
 21
22224.81565853907
 31
0.0
  0
LINE
  5
459
330
1F
100
AcDbEntity
  8
画層1
  6
Continuous
100
AcDbLine
 10
19141.455256202
 20
22274.81565853907
 30
0.0
 11
19141.455256202
 21
22224.81565853907
 31
0.0
  0
LINE
  5
45A
330
1F
100
AcDbEntity
  8
画層1
  6
Continuous
100
AcDbLine
 10
19324.60525620214
 20
22224.81565853907
 30
0.0
 11
19324.60525620214
 21
22274.81565853907
 31
0.0
  0
LINE
  5
45B
330
1F
100
AcDbEntity
  8
画層1
  6
Continuous
100
AcDbLine
 10
19274.60525620214
 20
22224.81565853907
 30
0.0
 11
19274.60525620214
 21
22274.81565853907
 31
0.0
  0
CIRCLE
  5
45C
330
1F
100
AcDbEntity
  8
画層1
  6
Continuous
100
AcDbCircle
 10
19166.455256202
 20
22249.81565853907
 30
0.0
 40
10.9509940156
  0
CIRCLE
  5
45D
330
1F
100
AcDbEntity
  8
画層1
  6
Continuous
100
AcDbCircle
 10
19432.75525620216
 20
22249.81565853907
 30
0.0
 40
10.9509940156
  0
LINE
  5
45E
330
1F
100
AcDbEntity
  8
画層1
  6
Continuous
100
AcDbLine
 10
19457.75525620216
 20
22224.81565853907
 30
0.0
 11
19457.75525620216
 21
22274.81565853907
 31
0.0
  0
LINE
  5
45F
330
1F
100
AcDbEntity
  8
画層1
  6
Continuous
100
AcDbLine
 10
19457.75525620216
 20
22274.81565853907
 30
0.0
 11
19457.75525620216
 21
22324.81565853907
 31
0.0
  0
CIRCLE
  5
460
330
1F
100
AcDbEntity
  8
画層1
  6
Continuous
100
AcDbCircle
 10
19432.75525620216
 20
22299.81565853907
 30
0.0
 40
10.9509940156
  0
CIRCLE
  5
461
330
1F
100
AcDbEntity
  8
画層1
  6
Continuous
100
AcDbCircle
 10
19166.455256202
 20
22299.81565853907
 30
0.0
 40
10.9509940156
  0
LINE
  5
462
330
1F
100
AcDbEntity
  8
画層1
  6
Continuous
100
AcDbLine
 10
19274.60525620214
 20
22274.81565853907
 30
0.0
 11
19274.60525620214
 21
22324.81565853907
 31
0.0
  0
LINE
  5
463
330
1F
100
AcDbEntity
  8
画層1
  6
Continuous
100
AcDbLine
 10
19324.60525620214
 20
22274.81565853907
 30
0.0
 11
19324.60525620214
 21
22324.81565853907
 31
0.0
  0
LINE
  5
464
330
1F
100
AcDbEntity
  8
画層1
  6
Continuous
100
AcDbLine
 10
19141.455256202
 20
22324.81565853907
 30
0.0
 11
19141.455256202
 21
22274.81565853907
 31
0.0
  0
LINE
  5
465
330
1F
100
AcDbEntity
  8
画層1
  6
Continuous
100
AcDbLine
 10
19191.455256202
 20
22339.81565853907
 30
0.0
 11
19407.75525620216
 21
22339.81565853907
 31
0.0
  0
LINE
  5
466
330
1F
100
AcDbEntity
  8
画層1
  6
Continuous
100
AcDbLine
 10
19191.455256202
 20
22359.81565853907
 30
0.0
 11
19407.75525620216
 21
22359.81565853907
 31
0.0
  0
LINE
  5
467
330
1F
100
AcDbEntity
  8
画層1
  6
Continuous
100
AcDbLine
 10
19141.455256202
 20
22274.81565853907
 30
0.0
 11
19457.75525620216
 21
22274.81565853907
 31
0.0
  0
LINE
  5
468
330
1F
100
AcDbEntity
  8
画層1
  6
Continuous
100
AcDbLine
 10
19457.75525620216
 20
22324.81565853907
 30
0.0
 11
19141.455256202
 21
22324.81565853907
 31
0.0
  0
LINE
  5
469
330
1F
100
AcDbEntity
  8
画層1-1
  6
Continuous
100
AcDbLine
 10
19091.455256202
 20
22249.81565853918
 30
0.0
 11
19141.455256202
 21
22249.81565853907
 31
0.0
  0
LEADER
  5
46A
330
1F
100
AcDbEntity
  8
寸法引出
  6
Continuous
100
AcDbLeader
  3
1_100
 71
     0
 73
     0
 74
     0
 75
     1
 40
846.6666666666665
 41
5162.142857142854
 76
     3
 10
21637.18179280262
 20
22299.81565853907
 30
0.0
 10
22147.30366326576
 20
23375.30681822193
 30
0.0
 10
22207.30366326575
 20
23375.30681822193
 30
0.0
340
46B
  0
MTEXT
  5
46B
102
{ACAD_REACTORS
330
46A
102
}
330
1F
100
AcDbEntity
  8
寸法文字
  6
Continuous
100
AcDbMText
 10
22307.30366326576
 20
23475.30681822193
 30
0.0
 40
300.0
 41
0.0
 71
     7
 72
     1
  1
ネット上下6mm合繊ロープに4mm合繊\Pロープにて38m㎡ワイヤーに巻付
  7
1_100
 73
     1
 44
1.0
1001
ACAD
1000
MTEXTBEGIN
1070
    73
1070
     1
1070
    44
1040
1.0
1070
    74
1070
     0
1000
MTEXTEND
  0
MTEXT
  5
46D
330
1F
100
AcDbEntity
  8
寸法文字
  6
Continuous
100
AcDbMText
 10
13435.88073539917
 20
23841.14462127083
 30
0.0
 40
300.0
 41
0.0
 71
     1
 72
     1
  1
（STK-540鋼管）
  7
1_100
 73
     1
 44
1.0
1001
ACAD
1000
ACAD_MTEXT_DEFINED_HEIGHT_BEGIN
1070
    46
1040
0.0
1000
ACAD_MTEXT_DEFINED_HEIGHT_END
1000
MTEXTBEGIN
1070
    73
1070
     1
1070
    44
1040
1.0
1070
    74
1070
     0
1000
MTEXTEND
  0
DIMENSION
  5
46E
330
1F
100
AcDbEntity
  8
寸法
  6
Continuous
100
AcDbDimension
  2
*D29
 10
33299.60525620214
 20
22299.81565853907
 30
0.0
 11
33021.03382763072
 21
21054.81565853907
 31
0.0
 70
    32
 71
     5
 42
2490.0
  3
1_100
100
AcDbAlignedDimension
 13
32299.03603160542
 23
19809.81565853907
 33
0.0
 14
32299.03603160542
 24
22299.81565853907
 34
0.0
 50
90.0
100
AcDbRotatedDimension
  0
LINE
  5
46F
330
1F
100
AcDbEntity
  8
画層1
  6
Continuous
100
AcDbLine
 10
31274.60525620214
 20
19784.8156585386
 30
0.0
 11
31274.60525620214
 21
19834.8156585386
 31
0.0
  0
LINE
  5
470
330
1F
100
AcDbEntity
  8
画層1
  6
Continuous
100
AcDbLine
 10
31324.60525620214
 20
19784.8156585386
 30
0.0
 11
31324.60525620214
 21
19834.8156585386
 31
0.0
  0
LINE
  5
471
330
1F
100
AcDbEntity
  8
画層1
  6
Continuous
100
AcDbLine
 10
31324.60525620214
 20
19784.8156585386
 30
0.0
 11
31407.75525620205
 21
19784.8156585386
 31
0.0
  0
LINE
  5
472
330
1F
100
AcDbEntity
  8
画層1
  6
Continuous
100
AcDbLine
 10
31191.45525620223
 20
19784.8156585386
 30
0.0
 11
31274.60525620214
 21
19784.8156585386
 31
0.0
  0
LINE
  5
473
330
1F
100
AcDbEntity
  8
画層1
  6
Continuous
100
AcDbLine
 10
31407.75525620205
 20
19834.8156585386
 30
0.0
 11
31324.60525620214
 21
19834.8156585386
 31
0.0
  0
LINE
  5
474
330
1F
100
AcDbEntity
  8
画層1
  6
Continuous
100
AcDbLine
 10
31249.60525620214
 20
19809.81565853907
 30
0.0
 11
31349.60525620214
 21
19809.81565853907
 31
0.0
  0
LINE
  5
475
330
1F
100
AcDbEntity
  8
画層1
  6
Continuous
100
AcDbLine
 10
31274.60525620214
 20
19834.8156585386
 30
0.0
 11
31191.45525620223
 21
19834.8156585386
 31
0.0
  0
LINE
  5
476
330
1F
100
AcDbEntity
  8
画層1
  6
Continuous
100
AcDbLine
 10
31141.45525620223
 20
19834.8156585386
 30
0.0
 11
31141.45525620223
 21
19784.8156585386
 31
0.0
  0
LINE
  5
477
330
1F
100
AcDbEntity
  8
画層1
  6
Continuous
100
AcDbLine
 10
31141.45525620223
 20
19809.81565853907
 30
0.0
 11
31191.45525620223
 21
19809.81565853907
 31
0.0
  0
LEADER
  5
478
330
1F
100
AcDbEntity
  8
寸法引出
  6
Continuous
100
AcDbLeader
  3
1_100
 71
     0
 73
     0
 74
     0
 75
     1
 40
300.0
 41
4699.285714285711
 76
     3
 10
31407.75525620205
 20
21687.20172517991
 30
0.0
 10
32817.31626731529
 20
23769.19319725665
 30
0.0
 10
32877.31626731528
 20
23769.19319725665
 30
0.0
340
479
  0
MTEXT
  5
479
102
{ACAD_REACTORS
330
478
102
}
330
1F
100
AcDbEntity
  8
寸法文字
  6
Continuous
100
AcDbMText
 10
32977.31626731529
 20
23869.19319725665
 30
0.0
 40
300.0
 41
0.0
 71
     7
 72
     1
  1
主柱KSポールφ216.3厚さ5.0mm
  7
1_100
 73
     1
 44
1.0
1001
ACAD
1000
ACAD_MTEXT_DEFINED_HEIGHT_BEGIN
1070
    46
1040
0.0
1000
ACAD_MTEXT_DEFINED_HEIGHT_END
1000
MTEXTBEGIN
1070
    73
1070
     1
1070
    44
1040
1.0
1070
    74
1070
     0
1000
MTEXTEND
  0
LINE
  5
47A
330
1F
100
AcDbEntity
  8
画層1
  6
Continuous
100
AcDbLine
 10
31274.60525620214
 20
22274.8156585386
 30
0.0
 11
31274.60525620214
 21
22324.8156585386
 31
0.0
  0
LINE
  5
47B
330
1F
100
AcDbEntity
  8
画層1
  6
Continuous
100
AcDbLine
 10
31324.60525620214
 20
22274.8156585386
 30
0.0
 11
31324.60525620214
 21
22324.8156585386
 31
0.0
  0
LINE
  5
47C
330
1F
100
AcDbEntity
  8
画層1
  6
Continuous
100
AcDbLine
 10
31407.75525620205
 20
22324.8156585386
 30
0.0
 11
31324.60525620214
 21
22324.8156585386
 31
0.0
  0
LINE
  5
47D
330
1F
100
AcDbEntity
  8
画層1
  6
Continuous
100
AcDbLine
 10
31324.60525620214
 20
22274.8156585386
 30
0.0
 11
31407.75525620205
 21
22274.8156585386
 31
0.0
  0
LINE
  5
47E
330
1F
100
AcDbEntity
  8
画層1
  6
Continuous
100
AcDbLine
 10
31249.60525620214
 20
22299.81565853907
 30
0.0
 11
31349.60525620214
 21
22299.81565853907
 31
0.0
  0
LINE
  5
47F
330
1F
100
AcDbEntity
  8
画層1
  6
Continuous
100
AcDbLine
 10
31191.45525620223
 20
22359.8156585386
 30
0.0
 11
31407.75525620205
 21
22359.8156585386
 31
0.0
  0
LINE
  5
480
330
1F
100
AcDbEntity
  8
画層1
  6
Continuous
100
AcDbLine
 10
31191.45525620223
 20
22339.8156585386
 30
0.0
 11
31407.75525620205
 21
22339.8156585386
 31
0.0
  0
LINE
  5
481
330
1F
100
AcDbEntity
  8
画層1
  6
Continuous
100
AcDbLine
 10
31274.60525620214
 20
22324.8156585386
 30
0.0
 11
31191.45525620223
 21
22324.8156585386
 31
0.0
  0
LINE
  5
482
330
1F
100
AcDbEntity
  8
画層1
  6
Continuous
100
AcDbLine
 10
31191.45525620223
 20
22274.8156585386
 30
0.0
 11
31274.60525620214
 21
22274.8156585386
 31
0.0
  0
LINE
  5
483
330
1F
100
AcDbEntity
  8
画層1
  6
Continuous
100
AcDbLine
 10
31141.45525620223
 20
22324.8156585386
 30
0.0
 11
31141.45525620223
 21
22274.8156585386
 31
0.0
  0
LINE
  5
484
330
1F
100
AcDbEntity
  8
画層1
  6
Continuous
100
AcDbLine
 10
31141.45525620223
 20
22299.81565853907
 30
0.0
 11
31191.45525620223
 21
22299.81565853907
 31
0.0
  0
DIMENSION
  5
485
330
1F
100
AcDbEntity
  8
寸法
  6
Continuous
100
AcDbDimension
  2
*D30
 10
31407.75525620205
 20
22959.81565853907
 30
0.0
 11
31299.60525620214
 21
23259.81565853907
 31
0.0
 70
    32
  1
φ<>
 71
     5
 42
216.2999999998137
  3
1_100
100
AcDbAlignedDimension
 13
31191.45525620223
 23
22359.8156585386
 33
0.0
 14
31407.75525620205
 24
22359.8156585386
 34
0.0
100
AcDbRotatedDimension
  0
MTEXT
  5
486
330
1F
100
AcDbEntity
  8
寸法文字
  6
Continuous
100
AcDbMText
 10
33130.85685243851
 20
23653.91249336547
 30
0.0
 40
300.0
 41
0.0
 71
     1
 72
     1
  1
（溶融亜鉛メッキ450g/㎡）
  7
1_100
 73
     1
 44
1.0
1001
ACAD
1000
MTEXTBEGIN
1070
    73
1070
     1
1070
    44
1040
1.0
1070
    74
1070
     0
1000
MTEXTEND
  0
DIMENSION
  5
487
330
1F
100
AcDbEntity
  8
寸法
  6
Continuous
100
AcDbDimension
  2
*D31
 10
33299.60525620214
 20
22359.81565853907
 30
0.0
 11
32985.40461807323
 21
22658.25070545811
 31
0.0
 70
   160
 71
     5
 42
60.0
  3
1_100
100
AcDbAlignedDimension
 13
32299.03603160542
 23
22299.81565853907
 33
0.0
 14
32299.03603160542
 24
22359.81565853907
 34
0.0
 50
90.0
100
AcDbRotatedDimension
  0
LINE
  5
488
330
1F
100
AcDbEntity
  8
画層1-1
  6
Continuous
100
AcDbLine
 10
23717.96813799702
 20
17906.79860655392
 30
0.0
 11
26799.60525620202
 21
14783.59261385904
 31
0.0
  0
LWPOLYLINE
  5
489
330
1F
100
AcDbEntity
  8
寸法引出
100
AcDbPolyline
 90
        2
 70
     0
 43
0.0
 10
26787.77018625426
 20
7978.738634159324
 10
19299.60525620202
 20
7978.738634159324
1001
ACAD
1000
DSTYLE
1002
{
1070
    41
1040
3.0
1070
   341
1005
0
1002
}
  0
LINE
  5
48A
330
1F
100
AcDbEntity
  8
寸法引出
  6
ByBlock
100
AcDbLine
 10
26487.77018625426
 20
8059.123391159323
 30
0.0
 11
26787.77018625426
 21
7978.738634159324
 31
0.0
  0
LINE
  5
48B
330
1F
100
AcDbEntity
  8
寸法引出
  6
ByBlock
100
AcDbLine
 10
26787.77018625426
 20
7978.738634159324
 30
0.0
 11
26487.77018625426
 21
7898.353877159322
 31
0.0
  0
TEXT
  5
738
330
1F
100
AcDbEntity
  8
図面枠
  6
Continuous
 62
     3
100
AcDbText
 10
1107.306423290443
 20
535.0379209766606
 30
0.0
 40
300.0
  1
1/100
 41
0.75
  7
1_100
 11
1107.306423290443
 21
535.0379209766606
 31
0.0
100
AcDbText
 73
     1
  0
MTEXT
  5
A77
330
1F
100
AcDbEntity
  8
寸法文字
  6
Continuous
100
AcDbMText
 10
12342.11803597925
 20
21243.40073213949
 30
0.0
 40
200.0
 41
0.0
 71
     1
 72
     1
  1
※KRP-40　1100D18本40mm目（再生ポリエステル100%）\P※KSP-24　37.5mm目（ｽｰﾊﾟｰﾎﾟﾘｴﾁﾚﾝ）
  7
1_100
 73
     1
 44
1.0
1001
ACAD
1000
MTEXTBEGIN
1070
    73
1070
     1
1070
    44
1040
1.0
1070
    74
1070
     0
1000
MTEXTEND
  0
MTEXT
  5
A78
330
1F
100
AcDbEntity
  8
寸法文字
  6
Continuous
100
AcDbMText
 10
12317.54918367666
 20
21425.17365027419
 30
0.0
 40
300.0
 41
0.0
 71
     7
 72
     1
  1
ネット\Pクレモナ250D/80本×37.5mm目
  7
1_100
 73
     1
 44
0.6
1001
ACAD
1000
MTEXTBEGIN
1070
    73
1070
     1
1070
    44
1040
0.6
1070
    74
1070
     0
1000
MTEXTEND
  0
LEADER
  5
A79
330
1F
100
AcDbEntity
  8
寸法引出
100
AcDbLeader
  3
1_50
 71
     0
 76
     3
 10
11791.53778599499
 20
20683.69060230711
 30
0.0
 10
12117.54918367666
 20
21325.17365027419
 30
0.0
 10
18036.65676379104
 20
21325.17365027419
 30
0.0
1001
ACAD
1000
DSTYLE
1002
{
1070
    41
1040
1.0
1070
   341
1005
87
1070
   147
1040
0.625
1070
    77
1070
     0
1002
}
  0
ENDSEC
  0
SECTION
  2
OBJECTS
  0
DICTIONARY
  5
C
330
0
100
AcDbDictionary
281
     1
  3
ACAD_COLOR
350
6B
  3
ACAD_GROUP
350
D
  3
ACAD_LAYOUT
350
1A
  3
ACAD_MATERIAL
350
6A
  3
ACAD_MLINESTYLE
350
17
  3
ACAD_PLOTSETTINGS
350
19
  3
ACAD_PLOTSTYLENAME
350
E
  3
ACAD_TABLESTYLE
350
782
  3
ACDBHEADERROUNDTRIPXREC
350
A83
  3
AcDbVariableDictionary
350
5E
  3
ADE_QUERY_LIBRARY
350
A7F
  3
AEC_CLASSIFICATION_SYSTEM_DEFS
350
A75
  3
AEC_VARS
350
7AF
  3
ASE_INDEX_DICTIONARY
350
A7D
  3
Autodesk_MAP
350
7B1
  3
Root
350
78A
1001
ADE
1000
ADE02C004
1000
[Query]
1000
CaseSensitiveMatch=0
1000
SaveCurrQueryInSession=1
1000
MkSelSetWithQryObj=0
1000
ShowBlockAsInsPt=0
1000
CreateAssociativeHatchObjects=0
1000
ReferenceBoundaryForAreaLocation=1
1000
ShowImageAsBoundary=1
1000
DefaultJoinOperator=2
1000
ColorForAdd=red
1000
ColorForRemove=red
1000
BlockLocnForQuery=1
1000
TextLocnForQuery=1
1000
IncludeAllObjectsInGroups=0
1000
AlwaysUseLibraryDefinitions=0
1000
PreviewDefinitionsFrom=2
1000
[Save Back]
1000
RedefineBlockDefinitions=1
1000
RedefineLayerDefinitions=1
1000
RedefineTextStyleDefinitions=1
1000
RemoveUnusedGroups=1
1000
EraseSavedBackObjects=1
1000
RemoveLockAfterSave=1
1000
CreateHistoryFileOfChanges=0
1000
CreateBackupFileOfSourceDwg=1
1000
DontAddObjectsToSaveSet=0
1000
MarkObjectsForEditingWithoutPrompting=0
1000
[Coordinate Transformation]
1000
RestoreLastActiveDwgsOnStartup=1
1000
ActivateDwgsOnAttach=1
1000
AdjustSizesAndScalesForChangesInUnits=1
1000
AdjustRotationsForMapDistortions=1
1000
AdjustSizesAndScalesForMapDistortions=1
1000
AdjustElevations=1
1000
AdjustZeroRotationObjects=1
1000
ReconnectDbOnWSOpen=1
1000
NoOfSQLConditionsInHistory=10
  0
DICTIONARY
  5
6B
102
{ACAD_REACTORS
330
C
102
}
330
C
100
AcDbDictionary
281
     1
  0
DICTIONARY
  5
D
102
{ACAD_REACTORS
330
C
102
}
330
C
100
AcDbDictionary
281
     1
  0
DICTIONARY
  5
1A
102
{ACAD_REACTORS
330
C
102
}
330
C
100
AcDbDictionary
281
     1
  3
Model
350
22
  3
レイアウト1
350
51
  3
レイアウト2
350
56
  0
DICTIONARY
  5
6A
102
{ACAD_REACTORS
330
C
102
}
330
C
100
AcDbDictionary
281
     1
  0
DICTIONARY
  5
17
102
{ACAD_REACTORS
330
C
102
}
330
C
100
AcDbDictionary
281
     1
  3
Standard
350
18
  0
DICTIONARY
  5
19
102
{ACAD_REACTORS
330
C
102
}
330
C
100
AcDbDictionary
281
     1
  0
ACDBDICTIONARYWDFLT
  5
E
102
{ACAD_REACTORS
330
C
102
}
330
C
100
AcDbDictionary
281
     1
  3
Normal
350
F
100
AcDbDictionaryWithDefault
340
F
  0
DICTIONARY
  5
782
102
{ACAD_REACTORS
330
C
102
}
330
C
100
AcDbDictionary
281
     1
  3
Legend
350
7B5
  3
Standard
350
783
  0
DICTIONARY
  5
A83
102
{ACAD_REACTORS
330
C
102
}
330
C
100
AcDbDictionary
281
     1
  0
DICTIONARY
  5
5E
102
{ACAD_REACTORS
330
C
102
}
330
C
100
AcDbDictionary
281
     1
  3
CTABLESTYLE
350
A81
  3
DIMASSOC
350
5F
  3
HIDETEXT
350
63
  3
PROJECTNAME
350
71A
  0
DICTIONARY
  5
A7F
102
{ACAD_REACTORS
330
C
102
}
330
C
100
AcDbDictionary
281
     1
  3
_CurrQry
350
A80
  0
DICTIONARY
  5
A75
102
{ACAD_REACTORS
330
C
102
}
330
C
100
AcDbDictionary
281
     1
  0
DICTIONARY
  5
7AF
102
{ACAD_REACTORS
330
C
102
}
330
C
100
AcDbDictionary
281
     1
  3
AEC_VARS_DWG_SETUP
350
7B0
  0
DICTIONARY
  5
A7D
102
{ACAD_REACTORS
330
C
102
}
330
C
100
AcDbDictionary
281
     1
  3
ASEBlockHierarchyIndexRecord
350
A7E
1001
DCO15
1040
1621574151.64
  0
DICTIONARY
  5
7B1
102
{ACAD_REACTORS
330
C
102
}
330
C
100
AcDbDictionary
281
     1
  3
MAP_DISPLAY_MANAGEMENT_DICTIONARY
350
7B2
  3
MAP_DISPLAY_STYLELIBRARY_DICTIONARY
350
7B3
  0
LAYOUT
  5
22
102
{ACAD_XDICTIONARY
360
A84
102
}
102
{ACAD_REACTORS
330
1A
102
}
330
1A
100
AcDbPlotSettings
  1

  2
EPSON PM-3000C
  4
A4
  6

 40
3.757083177566528
 41
14.7637300491333
 42
3.757080078125
 43
3.757080078125
 44
209.9733276367186
 45
296.9683227539062
 46
0.0
 47
0.0
 48
0.0
 49
0.0
140
0.0
141
0.0
142
1.0
143
143.635766801674
 70
 11952
 72
     1
 73
     1
 74
     0
  7
2.ctb
 75
     0
147
0.0069620542450319
148
-595.0580107458916
149
984.3009771912456
100
AcDbLayout
  1
Model
 70
     1
 71
     0
 10
0.0
 20
0.0
 11
12.0
 21
9.0
 12
0.0
 22
0.0
 32
0.0
 14
0.0
 24
0.0
 34
0.0
 15
0.0
 25
0.0
 35
0.0
146
0.0
 13
0.0
 23
0.0
 33
0.0
 16
1.0
 26
0.0
 36
0.0
 17
0.0
 27
1.0
 37
0.0
 76
     0
330
1F
  0
LAYOUT
  5
51
102
{ACAD_XDICTIONARY
360
A86
102
}
102
{ACAD_REACTORS
330
1A
102
}
330
1A
100
AcDbPlotSettings
  1

  2
None
  4

  6

 40
0.0
 41
0.0
 42
0.0
 43
0.0
 44
0.0
 45
0.0
 46
0.0
 47
0.0
 48
0.0
 49
0.0
140
0.0
141
0.0
142
1.0
143
1.0
 70
   688
 72
     0
 73
     0
 74
     5
  7

 75
    16
147
1.0
148
0.0
149
0.0
100
AcDbLayout
  1
レイアウト1
 70
     1
 71
     1
 10
0.0
 20
0.0
 11
12.0
 21
9.0
 12
0.0
 22
0.0
 32
0.0
 14
0.0
 24
0.0
 34
0.0
 15
0.0
 25
0.0
 35
0.0
146
0.0
 13
0.0
 23
0.0
 33
0.0
 16
1.0
 26
0.0
 36
0.0
 17
0.0
 27
1.0
 37
0.0
 76
     0
330
50
  0
LAYOUT
  5
56
102
{ACAD_XDICTIONARY
360
A88
102
}
102
{ACAD_REACTORS
330
1A
102
}
330
1A
100
AcDbPlotSettings
  1

  2
None
  4

  6

 40
0.0
 41
0.0
 42
0.0
 43
0.0
 44
0.0
 45
0.0
 46
0.0
 47
0.0
 48
0.0
 49
0.0
140
0.0
141
0.0
142
1.0
143
1.0
 70
   688
 72
     0
 73
     0
 74
     5
  7

 75
    16
147
1.0
148
0.0
149
0.0
100
AcDbLayout
  1
レイアウト2
 70
     1
 71
     2
 10
0.0
 20
0.0
 11
12.0
 21
9.0
 12
0.0
 22
0.0
 32
0.0
 14
0.0
 24
0.0
 34
0.0
 15
0.0
 25
0.0
 35
0.0
146
0.0
 13
0.0
 23
0.0
 33
0.0
 16
1.0
 26
0.0
 36
0.0
 17
0.0
 27
1.0
 37
0.0
 76
     0
330
55
  0
MLINESTYLE
  5
18
102
{ACAD_REACTORS
330
17
102
}
330
17
100
AcDbMlineStyle
  2
STANDARD
 70
     0
  3

 62
   256
 51
90.0
 52
90.0
 71
     2
 49
0.5
 62
   256
  6
BYLAYER
 49
-0.5
 62
   256
  6
BYLAYER
  0
ACDBPLACEHOLDER
  5
F
102
{ACAD_REACTORS
330
E
102
}
330
E
  0
TABLESTYLE
  5
7B5
102
{ACAD_REACTORS
330
782
102
}
330
782
100
AcDbTableStyle
  3

 70
     0
 71
     1
 40
0.06
 41
0.06
280
     0
281
     0
  7
Standard
140
0.4
170
     4
 62
     0
 63
     7
283
     0
274
    -2
284
     0
 64
     0
275
    -2
285
     0
 65
     0
276
    -2
286
     1
 66
     0
277
    -2
287
     1
 67
     0
278
    -2
288
     0
 68
     0
279
    -2
289
     1
 69
     0
  7
Standard
140
0.5
170
     5
 62
     0
 63
     7
283
     0
274
    -2
284
     1
 64
     0
275
    -2
285
     0
 65
     0
276
    -2
286
     1
 66
     0
277
    -2
287
     1
 67
     0
278
    -2
288
     0
 68
     0
279
    -2
289
     1
 69
     0
  7
Standard
140
0.4
170
     4
 62
     0
 63
     7
283
     0
274
    -2
284
     1
 64
     0
275
    -2
285
     0
 65
     0
276
    -2
286
     1
 66
     0
277
    -2
287
     1
 67
     0
278
    -2
288
     0
 68
     0
279
    -2
289
     1
 69
     0
  0
TABLESTYLE
  5
783
102
{ACAD_REACTORS
330
782
102
}
330
782
100
AcDbTableStyle
  3
Standard
 70
     0
 71
     0
 40
1.5
 41
1.5
280
     0
281
     0
  7
Standard
140
4.5
170
     2
 62
     0
 63
     7
283
     0
274
    -2
284
     1
 64
     0
275
    -2
285
     1
 65
     0
276
    -2
286
     1
 66
     0
277
    -2
287
     1
 67
     0
278
    -2
288
     1
 68
     0
279
    -2
289
     1
 69
     0
  7
Standard
140
6.0
170
     5
 62
     0
 63
     7
283
     0
274
    -2
284
     1
 64
     0
275
    -2
285
     1
 65
     0
276
    -2
286
     1
 66
     0
277
    -2
287
     1
 67
     0
278
    -2
288
     1
 68
     0
279
    -2
289
     1
 69
     0
  7
Standard
140
4.5
170
     5
 62
     0
 63
     7
283
     0
274
    -2
284
     1
 64
     0
275
    -2
285
     1
 65
     0
276
    -2
286
     1
 66
     0
277
    -2
287
     1
 67
     0
278
    -2
288
     1
 68
     0
279
    -2
289
     1
 69
     0
  0
DICTIONARYVAR
  5
A81
102
{ACAD_REACTORS
330
5E
102
}
330
5E
100
DictionaryVariables
280
     0
  1
STANDARD
  0
DICTIONARYVAR
  5
5F
102
{ACAD_REACTORS
330
5E
102
}
330
5E
100
DictionaryVariables
280
     0
  1
2
  0
DICTIONARYVAR
  5
63
102
{ACAD_REACTORS
330
5E
102
}
330
5E
100
DictionaryVariables
280
     0
  1
1
  0
DICTIONARYVAR
  5
71A
102
{ACAD_REACTORS
330
5E
102
}
330
5E
100
DictionaryVariables
280
     0
  1

  0
XRECORD
  5
A80
102
{ACAD_REACTORS
330
A7F
102
}
330
A7F
100
AcDbXrecord
280
     1
1000
ADE02C001
1070
     1
1070
     0
1002
{
1002
}
1002
{
1002
}
1002
{
1002
}
1000

  0
XRECORD
  5
A7E
102
{ACAD_REACTORS
330
A7D
102
}
330
A7D
100
AcDbXrecord
280
     1
330
3C8
330
3C9
330
3CA
330
3F1
330
3F2
330
3F3
330
39A
330
39B
330
39C
330
5E7
330
5E8
330
5F0
330
5F1
330
5F9
330
5FA
330
602
330
603
330
60E
330
60F
330
616
330
617
330
622
330
623
330
62A
330
62B
330
633
330
634
330
63C
330
63D
330
645
330
646
330
650
330
651
330
65A
330
65B
330
665
330
666
330
66D
330
66E
330
678
330
679
330
684
330
685
330
68C
330
68D
330
695
330
696
330
69F
330
6A0
330
6A7
330
6A8
330
6B0
330
6B1
330
6BC
330
6BD
330
6C7
330
6C8
330
6CF
330
6D0
330
6DB
330
6DC
330
6E6
330
6E7
  0
DMMAPMANAGER
  5
7B2
102
{ACAD_REACTORS
330
7B1
102
}
330
7B1
100
AcDbDictionary
281
     1
  3
DisplayMap1
350
7B4
100
AcDbDictionaryWithDefault
340
7B4
100
AcMapDMMapManager
 70
     1
340
7B4
  0
DMSTYLELIBRARY
  5
7B3
102
{ACAD_REACTORS
330
7B1
102
}
330
7B1
100
AcMapDMStyleLibrary
 70
     1
 70
     1
360
7B9
  0
DICTIONARY
  5
A84
330
22
100
AcDbDictionary
280
     1
281
     1
  3
ACAD_XREC_ROUNDTRIP
360
A85
  0
DICTIONARY
  5
A86
330
51
100
AcDbDictionary
280
     1
281
     1
  3
ACAD_XREC_ROUNDTRIP
360
A87
  0
DICTIONARY
  5
A88
330
56
100
AcDbDictionary
280
     1
281
     1
  3
ACAD_XREC_ROUNDTRIP
360
A89
  0
DMMAP
  5
7B4
102
{ACAD_REACTORS
330
7B2
330
7B6
102
}
330
7B2
100
AcMapDMMap
 70
     1
  1
既定値
 70
     1
330
0
100
AcMapDMMap
 70
     1
 90
        1
360
7B6
 90
        1
 40
1.797693134862314E+99
 70
     1
100
AcMapDMMap
 70
     2
 70
     0
 40
1.797693134862314E+99
290
     0
290
     1
 40
1.0
 40
3.0
  1
Legend
 90
        1
 40
1.797693134862314E+99
  1

 70
     0
 40
1.0
 70
     1
 90
        0
 90
        1
360
7B7
  0
DMSTYLECATEGORY
  5
7B9
102
{ACAD_REACTORS
330
7B3
102
}
330
7B3
100
AcMapDMStyleCategory
 70
     1
  1
スタイルを表示
 70
     0
  0
XRECORD
  5
A85
102
{ACAD_REACTORS
330
A84
102
}
330
A84
100
AcDbXrecord
280
     1
102
SHADEPLOT
 70
     0
102
SHADEPLOTRESLEVEL
 70
     2
102
SHADEPLOTCUSTOMDPI
 70
   300
  0
XRECORD
  5
A87
102
{ACAD_REACTORS
330
A86
102
}
330
A86
100
AcDbXrecord
280
     1
102
SHADEPLOT
 70
     0
102
SHADEPLOTRESLEVEL
 70
     2
102
SHADEPLOTCUSTOMDPI
 70
   300
  0
XRECORD
  5
A89
102
{ACAD_REACTORS
330
A88
102
}
330
A88
100
AcDbXrecord
280
     1
102
SHADEPLOT
 70
     0
102
SHADEPLOTRESLEVEL
 70
     2
102
SHADEPLOTCUSTOMDPI
 70
   300
  0
DMBASEELEMENT
  5
7B6
102
{ACAD_REACTORS
330
7B4
102
}
330
7B4
100
AcMapDMBaseElement
 70
     1
  1
マップ ベース
 70
     1
330
7B4
100
AcMapDMBaseElement
 70
     1
  1

 70
     2
  1

 70
     1
 40
1.797693134862314E+99
 70
     1
 70
     1
 70
     1
 70
     1
360
7B8
100
AcMapDMBaseElement
 70
     1
  0
DMDEFAULTSTYLE
  5
7B7
102
{ACAD_REACTORS
330
7B4
102
}
330
7B4
100
AcMapDMDefaultStyle
 70
     1
 90
        1
  1
既定値
100
AcMapDMDefaultStyle
 70
     1
280
   100
 90
     0
  0
DMSTYLEREFERENCE
  5
7B8
330
7B6
100
AcMapDMStyleReference
 70
     1
 70
     0
340
7B7
330
7B4
  0
ENDSEC
  0
EOF
