  0
SECTION
  2
HEADER
  9
$ACADVER
  1
AC1015
  9
$ACADMAINTVER
 70
    20
  9
$DWGCODEPAGE
  3
ANSI_932
  9
$INSBASE
 10
0.0
 20
0.0
 30
0.0
  9
$EXTMIN
 10
5206.377718800649
 20
883.7281546861268
 30
-0.0015258207003583
  9
$EXTMAX
 10
44210.36234594536
 20
27026.49171503803
 30
0.0000000349246037
  9
$LIMMIN
 10
0.0
 20
0.0
  9
$LIMMAX
 10
420.0
 20
297.0
  9
$ORTHOMODE
 70
     1
  9
$REGENMODE
 70
     1
  9
$FILLMODE
 70
     1
  9
$QTEXTMODE
 70
     0
  9
$MIRRTEXT
 70
     0
  9
$LTSCALE
 40
1.0
  9
$ATTMODE
 70
     1
  9
$TEXTSIZE
 40
2.5
  9
$TRACEWID
 40
1.0
  9
$TEXTSTYLE
  7
Standard
  9
$CLAYER
  8
0
  9
$CELTYPE
  6
ByLayer
  9
$CECOLOR
 62
   256
  9
$CELTSCALE
 40
1.0
  9
$DISPSILH
 70
     0
  9
$DIMSCALE
 40
500.0
  9
$DIMASZ
 40
2.5
  9
$DIMEXO
 40
0.625
  9
$DIMDLI
 40
3.75
  9
$DIMRND
 40
0.0
  9
$DIMDLE
 40
0.0
  9
$DIMEXE
 40
1.25
  9
$DIMTP
 40
0.0
  9
$DIMTM
 40
0.0
  9
$DIMTXT
 40
2.5
  9
$DIMCEN
 40
2.5
  9
$DIMTSZ
 40
0.0
  9
$DIMTOL
 70
     0
  9
$DIMLIM
 70
     0
  9
$DIMTIH
 70
     0
  9
$DIMTOH
 70
     0
  9
$DIMSE1
 70
     0
  9
$DIMSE2
 70
     0
  9
$DIMTAD
 70
     1
  9
$DIMZIN
 70
     8
  9
$DIMBLK
  1

  9
$DIMASO
 70
     1
  9
$DIMSHO
 70
     1
  9
$DIMPOST
  1

  9
$DIMAPOST
  1

  9
$DIMALT
 70
     0
  9
$DIMALTD
 70
     3
  9
$DIMALTF
 40
0.03937007874016
  9
$DIMLFAC
 40
1.0
  9
$DIMTOFL
 70
     1
  9
$DIMTVP
 40
0.0
  9
$DIMTIX
 70
     0
  9
$DIMSOXD
 70
     0
  9
$DIMSAH
 70
     0
  9
$DIMBLK1
  1

  9
$DIMBLK2
  1

  9
$DIMSTYLE
  2
ISO-25
  9
$DIMCLRD
 70
     0
  9
$DIMCLRE
 70
     0
  9
$DIMCLRT
 70
     0
  9
$DIMTFAC
 40
1.0
  9
$DIMGAP
 40
0.625
  9
$DIMJUST
 70
     0
  9
$DIMSD1
 70
     0
  9
$DIMSD2
 70
     0
  9
$DIMTOLJ
 70
     0
  9
$DIMTZIN
 70
     8
  9
$DIMALTZ
 70
     0
  9
$DIMALTTZ
 70
     0
  9
$DIMUPT
 70
     0
  9
$DIMDEC
 70
     2
  9
$DIMTDEC
 70
     2
  9
$DIMALTU
 70
     2
  9
$DIMALTTD
 70
     3
  9
$DIMTXSTY
  7
Standard
  9
$DIMAUNIT
 70
     0
  9
$DIMADEC
 70
     0
  9
$DIMALTRND
 40
0.0
  9
$DIMAZIN
 70
     0
  9
$DIMDSEP
 70
    44
  9
$DIMATFIT
 70
     3
  9
$DIMFRAC
 70
     0
  9
$DIMLDRBLK
  1

  9
$DIMLUNIT
 70
     2
  9
$DIMLWD
 70
    -2
  9
$DIMLWE
 70
    -2
  9
$DIMTMOVE
 70
     0
  9
$LUNITS
 70
     2
  9
$LUPREC
 70
     4
  9
$SKETCHINC
 40
1.0
  9
$FILLETRAD
 40
0.0
  9
$AUNITS
 70
     0
  9
$AUPREC
 70
     0
  9
$MENU
  1
.
  9
$ELEVATION
 40
0.0
  9
$PELEVATION
 40
0.0
  9
$THICKNESS
 40
0.0
  9
$LIMCHECK
 70
     0
  9
$CHAMFERA
 40
0.0
  9
$CHAMFERB
 40
0.0
  9
$CHAMFERC
 40
0.0
  9
$CHAMFERD
 40
0.0
  9
$SKPOLY
 70
     0
  9
$TDCREATE
 40
2454357.833874780
  9
$TDUCREATE
 40
2454357.458874780
  9
$TDUPDATE
 40
2454571.432306852
  9
$TDUUPDATE
 40
2454571.057306852
  9
$TDINDWG
 40
0.0262373958
  9
$TDUSRTIMER
 40
0.0262372106
  9
$USRTIMER
 70
     1
  9
$ANGBASE
 50
0.0
  9
$ANGDIR
 70
     0
  9
$PDMODE
 70
     0
  9
$PDSIZE
 40
0.0
  9
$PLINEWID
 40
0.0
  9
$SPLFRAME
 70
     0
  9
$SPLINETYPE
 70
     6
  9
$SPLINESEGS
 70
     8
  9
$HANDSEED
  5
A0B
  9
$SURFTAB1
 70
     6
  9
$SURFTAB2
 70
     6
  9
$SURFTYPE
 70
     6
  9
$SURFU
 70
     6
  9
$SURFV
 70
     6
  9
$UCSBASE
  2

  9
$UCSNAME
  2

  9
$UCSORG
 10
0.0
 20
0.0
 30
0.0
  9
$UCSXDIR
 10
1.0
 20
0.0
 30
0.0
  9
$UCSYDIR
 10
0.0
 20
1.0
 30
0.0
  9
$UCSORTHOREF
  2

  9
$UCSORTHOVIEW
 70
     0
  9
$UCSORGTOP
 10
0.0
 20
0.0
 30
0.0
  9
$UCSORGBOTTOM
 10
0.0
 20
0.0
 30
0.0
  9
$UCSORGLEFT
 10
0.0
 20
0.0
 30
0.0
  9
$UCSORGRIGHT
 10
0.0
 20
0.0
 30
0.0
  9
$UCSORGFRONT
 10
0.0
 20
0.0
 30
0.0
  9
$UCSORGBACK
 10
0.0
 20
0.0
 30
0.0
  9
$PUCSBASE
  2

  9
$PUCSNAME
  2

  9
$PUCSORG
 10
0.0
 20
0.0
 30
0.0
  9
$PUCSXDIR
 10
1.0
 20
0.0
 30
0.0
  9
$PUCSYDIR
 10
0.0
 20
1.0
 30
0.0
  9
$PUCSORTHOREF
  2

  9
$PUCSORTHOVIEW
 70
     0
  9
$PUCSORGTOP
 10
0.0
 20
0.0
 30
0.0
  9
$PUCSORGBOTTOM
 10
0.0
 20
0.0
 30
0.0
  9
$PUCSORGLEFT
 10
0.0
 20
0.0
 30
0.0
  9
$PUCSORGRIGHT
 10
0.0
 20
0.0
 30
0.0
  9
$PUCSORGFRONT
 10
0.0
 20
0.0
 30
0.0
  9
$PUCSORGBACK
 10
0.0
 20
0.0
 30
0.0
  9
$USERI1
 70
     0
  9
$USERI2
 70
     0
  9
$USERI3
 70
     0
  9
$USERI4
 70
     0
  9
$USERI5
 70
     0
  9
$USERR1
 40
0.0
  9
$USERR2
 40
0.0
  9
$USERR3
 40
0.0
  9
$USERR4
 40
0.0
  9
$USERR5
 40
0.0
  9
$WORLDVIEW
 70
     1
  9
$SHADEDGE
 70
     3
  9
$SHADEDIF
 70
    70
  9
$TILEMODE
 70
     1
  9
$MAXACTVP
 70
    64
  9
$PINSBASE
 10
0.0
 20
0.0
 30
0.0
  9
$PLIMCHECK
 70
     0
  9
$PEXTMIN
 10
26.66999878883363
 20
20.31999878883363
 30
0.0
  9
$PEXTMAX
 10
240.0299890995026
 20
182.8799890995025
 30
0.0
  9
$PLIMMIN
 10
-6.350006103515625
 20
-6.349999904632567
  9
$PLIMMAX
 10
273.0499877929688
 20
209.5499939918518
  9
$UNITMODE
 70
     0
  9
$VISRETAIN
 70
     1
  9
$PLINEGEN
 70
     0
  9
$PSLTSCALE
 70
     1
  9
$TREEDEPTH
 70
  3020
  9
$CMLSTYLE
  2
Standard
  9
$CMLJUST
 70
     0
  9
$CMLSCALE
 40
20.0
  9
$PROXYGRAPHICS
 70
     1
  9
$MEASUREMENT
 70
     1
  9
$CELWEIGHT
370
    -1
  9
$ENDCAPS
280
     0
  9
$JOINSTYLE
280
     0
  9
$LWDISPLAY
290
     0
  9
$INSUNITS
 70
     6
  9
$HYPERLINKBASE
  1

  9
$STYLESHEET
  1
2.CTB
  9
$XEDIT
290
     1
  9
$CEPSNTYPE
380
     0
  9
$PSTYLEMODE
290
     1
  9
$FINGERPRINTGUID
  2
{FDEAD578-A652-11D2-9A35-0060089B3A3F}
  9
$VERSIONGUID
  2
{FCC7C6EF-4E7C-48F6-A0D2-D7BE02B629F3}
  9
$EXTNAMES
290
     1
  9
$PSVPSCALE
 40
0.0
  9
$OLESTARTUP
290
     0
  0
ENDSEC
  0
SECTION
  2
CLASSES
  0
CLASS
  1
ACDBDICTIONARYWDFLT
  2
AcDbDictionaryWithDefault
  3
ObjectDBX Classes
 90
        0
280
     0
281
     0
  0
CLASS
  1
ACDBPLACEHOLDER
  2
AcDbPlaceHolder
  3
ObjectDBX Classes
 90
        0
280
     0
281
     0
  0
CLASS
  1
LAYOUT
  2
AcDbLayout
  3
ObjectDBX Classes
 90
        0
280
     0
281
     0
  0
CLASS
  1
DICTIONARYVAR
  2
AcDbDictionaryVar
  3
ObjectDBX Classes
 90
        0
280
     0
281
     0
  0
CLASS
  1
SORTENTSTABLE
  2
AcDbSortentsTable
  3
ObjectDBX Classes
 90
    32768
280
     0
281
     0
  0
CLASS
  1
TABLESTYLE
  2
AcDbTableStyle
  3
ObjectDBX Classes
 90
     2047
280
     0
281
     0
  0
CLASS
  1
AECC_TREE_NODE
  2
AeccDbTreeNode
  3
AeccvBase10|Product Desc: Autodesk Civil 3D |Company: Autodesk,Inc. |WEB Address: www.autodesk.com
 90
     1023
280
     0
281
     0
  0
CLASS
  1
AECC_CLASS_NODE
  2
AeccDbClassNode
  3
AeccLand10|Product Desc: Autodesk Civil 3D |Company: Autodesk,Inc. |WEB Address: www.autodesk.com
 90
     1023
280
     0
281
     0
  0
CLASS
  1
AECC_ROOT_SETTINGS_NODE
  2
AeccDbRootSettingsNode
  3
AeccvBase10|Product Desc: Autodesk Civil 3D |Company: Autodesk,Inc. |WEB Address: www.autodesk.com
 90
     1023
280
     0
281
     0
  0
CLASS
  1
AEC_VARS_DWG_SETUP
  2
AecDbVarsDwgSetup
  3
AecBase40|Product Desc: Autodesk Architectural Desktop 2005 |Company: Autodesk,Inc. |WEB Address: www.autodesk.com
 90
      129
280
     0
281
     0
  0
CLASS
  1
DMMAPMANAGER
  2
AcMapDMMapManager
  3
AcMapDisplayManagement
 90
     1024
280
     0
281
     0
  0
CLASS
  1
DMSTYLELIBRARY
  2
AcMapDMStyleLibrary
  3
AcMapDisplayManagement
 90
     1024
280
     0
281
     0
  0
CLASS
  1
DMMAP
  2
AcMapDMMap
  3
AcMapDisplayManagement
 90
     1024
280
     0
281
     0
  0
CLASS
  1
DMBASEELEMENT
  2
AcMapDMBaseElement
  3
AcMapDisplayManagement
 90
     1024
280
     0
281
     0
  0
CLASS
  1
DMDEFAULTSTYLE
  2
AcMapDMDefaultStyle
  3
AcMapDisplayManagement
 90
     1024
280
     0
281
     0
  0
CLASS
  1
DMSTYLEREFERENCE
  2
AcMapDMStyleReference
  3
AcMapDisplayManagement
 90
     1024
280
     0
281
     0
  0
CLASS
  1
DMSTYLECATEGORY
  2
AcMapDMStyleCategory
  3
AcMapDisplayManagement
 90
     1024
280
     0
281
     0
  0
CLASS
  1
AECC_SETTINGS_NODE
  2
AeccDbSettingsNode
  3
AeccvBase10|Product Desc: Autodesk Civil 3D |Company: Autodesk,Inc. |WEB Address: www.autodesk.com
 90
     1023
280
     0
281
     0
  0
CLASS
  1
AECC_PROFILE_VIEW_STYLE
  2
AeccDbGraphStyleProfile
  3
AeccLand10|Product Desc: Autodesk Civil 3D |Company: Autodesk,Inc. |WEB Address: www.autodesk.com
 90
      129
280
     0
281
     0
  0
CLASS
  1
AECC_PROFILE_VIEW_BAND_STYLE_SET
  2
AeccDbGraphProfileBandStyleSet
  3
AeccLand10|Product Desc: Autodesk Civil 3D |Company: Autodesk,Inc. |WEB Address: www.autodesk.com
 90
      129
280
     0
281
     0
  0
CLASS
  1
AECC_PROFILE_VIEW_DATA_BAND_STYLE
  2
AeccDbGraphStyleProfileDataBands
  3
AeccLand10|Product Desc: Autodesk Civil 3D |Company: Autodesk,Inc. |WEB Address: www.autodesk.com
 90
      129
280
     0
281
     0
  0
CLASS
  1
AECC_LABEL_NODE
  2
AeccDbLabelNode
  3
AeccLand10|Product Desc: Autodesk Civil 3D |Company: Autodesk,Inc. |WEB Address: www.autodesk.com
 90
     1023
280
     0
281
     0
  0
CLASS
  1
AECC_LABEL_COLLECTOR_STYLE
  2
AeccDbLabelStyleCollector
  3
AeccLand10|Product Desc: Autodesk Civil 3D |Company: Autodesk,Inc. |WEB Address: www.autodesk.com
 90
     1023
280
     0
281
     0
  0
CLASS
  1
AECC_LABEL_TEXT_STYLE
  2
AeccDbLabelStyleText
  3
AeccLand10|Product Desc: Autodesk Civil 3D |Company: Autodesk,Inc. |WEB Address: www.autodesk.com
 90
     1023
280
     0
281
     0
  0
CLASS
  1
AECC_PROFILE_VIEW_HORIZONTAL_GEOMETRY_BAND_STYLE
  2
AeccDbGraphStyleHorGeometryBands
  3
AeccLand10|Product Desc: Autodesk Civil 3D |Company: Autodesk,Inc. |WEB Address: www.autodesk.com
 90
      129
280
     0
281
     0
  0
CLASS
  1
AECC_PROFILE_VIEW_VERTICAL_GEOMETRY_BAND_STYLE
  2
AeccDbGraphStyleVertGeometryBands
  3
AeccLand10|Product Desc: Autodesk Civil 3D |Company: Autodesk,Inc. |WEB Address: www.autodesk.com
 90
      129
280
     0
281
     0
  0
CLASS
  1
AECC_LABEL_RADIAL_LINE_STYLE
  2
AeccDbLabelStyleRadialLine
  3
AeccLand10|Product Desc: Autodesk Civil 3D |Company: Autodesk,Inc. |WEB Address: www.autodesk.com
 90
     1023
280
     0
281
     0
  0
CLASS
  1
AECC_POINT_STYLE
  2
AeccDbPointStyle
  3
AeccLand10|Product Desc: Autodesk Civil 3D |Company: Autodesk,Inc. |WEB Address: www.autodesk.com
 90
      895
280
     0
281
     0
  0
CLASS
  1
AECC_PROFILE_LABEL_SET
  2
AeccDbVAlignStnLabelsDlgTemplate
  3
AeccLand10|Product Desc: Autodesk Civil 3D |Company: Autodesk,Inc. |WEB Address: www.autodesk.com
 90
     1023
280
     0
281
     0
  0
CLASS
  1
AECC_SECTION_VIEW_STYLE
  2
AeccDbGraphStyleCrossSection
  3
AeccLand10|Product Desc: Autodesk Civil 3D |Company: Autodesk,Inc. |WEB Address: www.autodesk.com
 90
      129
280
     0
281
     0
  0
CLASS
  1
AECC_SECTION_VIEW_BAND_STYLE_SET
  2
AeccDbGraphSectionBandStyleSet
  3
AeccLand10|Product Desc: Autodesk Civil 3D |Company: Autodesk,Inc. |WEB Address: www.autodesk.com
 90
      129
280
     0
281
     0
  0
CLASS
  1
AECC_SECTION_VIEW_DATA_BAND_STYLE
  2
AeccDbGraphStyleSectionDataBands
  3
AeccLand10|Product Desc: Autodesk Civil 3D |Company: Autodesk,Inc. |WEB Address: www.autodesk.com
 90
      129
280
     0
281
     0
  0
CLASS
  1
AECC_SECTION_LABEL_SET
  2
AeccDbSectionLabelsDlgTemplate
  3
AeccLand10|Product Desc: Autodesk Civil 3D |Company: Autodesk,Inc. |WEB Address: www.autodesk.com
 90
     1023
280
     0
281
     0
  0
CLASS
  1
AECC_ALIGNMENT_STYLE
  2
AeccDbAlignmentStyle
  3
AeccLand10|Product Desc: Autodesk Civil 3D |Company: Autodesk,Inc. |WEB Address: www.autodesk.com
 90
     1023
280
     0
281
     0
  0
CLASS
  1
AECC_LABEL_VECTOR_ARROW_STYLE
  2
AeccDbLabelStyleVectorArrow
  3
AeccLand10|Product Desc: Autodesk Civil 3D |Company: Autodesk,Inc. |WEB Address: www.autodesk.com
 90
     1023
280
     0
281
     0
  0
CLASS
  1
AECC_ALIGNMENT_LABEL_SET
  2
AeccDbAlignStnLabelsDlgTemplate
  3
AeccLand10|Product Desc: Autodesk Civil 3D |Company: Autodesk,Inc. |WEB Address: www.autodesk.com
 90
     1023
280
     0
281
     0
  0
CLASS
  1
AECC_SURFACE_STYLE
  2
AeccDbSurfaceStyle
  3
AeccLand10|Product Desc: Autodesk Civil 3D |Company: Autodesk,Inc. |WEB Address: www.autodesk.com
 90
      129
280
     0
281
     0
  0
CLASS
  1
AECC_LEGEND_TABLE_STYLE
  2
AeccDbLegendScheduleTableStyle
  3
AeccLand10|Product Desc: Autodesk Civil 3D |Company: Autodesk,Inc. |WEB Address: www.autodesk.com
 90
     1023
280
     0
281
     0
  0
CLASS
  1
AECC_SECTION_STYLE
  2
AeccDbSectionStyle
  3
AeccLand10|Product Desc: Autodesk Civil 3D |Company: Autodesk,Inc. |WEB Address: www.autodesk.com
 90
     1023
280
     0
281
     0
  0
CLASS
  1
AECC_GRADING_STYLE
  2
AeccDbGradingStyle
  3
AeccLand10|Product Desc: Autodesk Civil 3D |Company: Autodesk,Inc. |WEB Address: www.autodesk.com
 90
     1023
280
     0
281
     0
  0
CLASS
  1
AECC_GRADING_CRITERIA
  2
AeccDbGradingCriteria
  3
AeccLand10|Product Desc: Autodesk Civil 3D |Company: Autodesk,Inc. |WEB Address: www.autodesk.com
 90
     1023
280
     0
281
     0
  0
CLASS
  1
AECC_PARCEL_STYLE
  2
AeccDbParcelStyle
  3
AeccLand10|Product Desc: Autodesk Civil 3D |Company: Autodesk,Inc. |WEB Address: www.autodesk.com
 90
      129
280
     0
281
     0
  0
CLASS
  1
AECC_SAMPLE_LINE_GROUP_STYLE
  2
AeccDbSampleLineGroupStyle
  3
AeccLand10|Product Desc: Autodesk Civil 3D |Company: Autodesk,Inc. |WEB Address: www.autodesk.com
 90
      129
280
     0
281
     0
  0
CLASS
  1
AECC_SHEET_STYLE
  2
AeccDbSheetStyle
  3
AeccLand10|Product Desc: Autodesk Civil 3D |Company: Autodesk,Inc. |WEB Address: www.autodesk.com
 90
      129
280
     0
281
     0
  0
CLASS
  1
AECC_SAMPLE_LINE_STYLE
  2
AeccDbSampleLineStyle
  3
AeccLand10|Product Desc: Autodesk Civil 3D |Company: Autodesk,Inc. |WEB Address: www.autodesk.com
 90
     1023
280
     0
281
     0
  0
CLASS
  1
AECC_PROFILE_STYLE
  2
AeccDbVAlignmentStyle
  3
AeccLand10|Product Desc: Autodesk Civil 3D |Company: Autodesk,Inc. |WEB Address: www.autodesk.com
 90
     1023
280
     0
281
     0
  0
CLASS
  1
AECC_STATION_FORMAT_STYLE
  2
AeccDbStationFormatStyle
  3
AeccLand10|Product Desc: Autodesk Civil 3D |Company: Autodesk,Inc. |WEB Address: www.autodesk.com
 90
     1023
280
     0
281
     0
  0
CLASS
  1
AECC_TABLE_STYLE
  2
AeccDbScheduleTableStyle
  3
AeccLand10|Product Desc: Autodesk Civil 3D |Company: Autodesk,Inc. |WEB Address: www.autodesk.com
 90
     1023
280
     0
281
     0
  0
CLASS
  1
AECC_GRADING_CRITERIA_SET
  2
AeccDbGradingCriteriaSet
  3
AeccLand10|Product Desc: Autodesk Civil 3D |Company: Autodesk,Inc. |WEB Address: www.autodesk.com
 90
     1023
280
     0
281
     0
  0
CLASS
  1
AECC_FORMAT_MANAGER_OBJECT
  2
AeccDbFormatManagerObject
  3
AeccLand10|Product Desc: Autodesk Civil 3D |Company: Autodesk,Inc. |WEB Address: www.autodesk.com
 90
     1023
280
     0
281
     0
  0
CLASS
  1
AECC_POINT_DESCRIPTION_KEY_SET_NODE
  2
AeccDbPointDescKeySetsNode
  3
AeccvBase10|Product Desc: Autodesk Civil 3D |Company: Autodesk,Inc. |WEB Address: www.autodesk.com
 90
     1023
280
     0
281
     0
  0
ENDSEC
  0
SECTION
  2
TABLES
  0
TABLE
  2
VPORT
  5
8
330
0
100
AcDbSymbolTable
 70
     2
  0
VPORT
  5
9FB
330
8
100
AcDbSymbolTableRecord
100
AcDbViewportTableRecord
  2
*Active
 70
     0
 10
0.0
 20
0.0
 11
1.0
 21
1.0
 12
22105.18117297268
 22
13513.24585751901
 13
0.0
 23
0.0
 14
10.0
 24
10.0
 15
10.0
 25
10.0
 16
0.0
 26
0.0
 36
1.0
 17
0.0
 27
0.0
 37
0.0
 40
71296.42564229575
 41
0.6282940360610265
 42
50.0
 43
0.0
 44
0.0
 50
0.0
 51
0.0
 71
     0
 72
  1000
 73
     1
 74
     1
 75
     0
 76
     0
 77
     0
 78
     0
281
     0
 65
     1
110
0.0
120
0.0
130
0.0
111
1.0
121
0.0
131
0.0
112
0.0
122
1.0
132
0.0
 79
     0
146
0.0
  0
ENDTAB
  0
TABLE
  2
LTYPE
  5
5
330
0
100
AcDbSymbolTable
 70
     3
  0
LTYPE
  5
14
330
5
100
AcDbSymbolTableRecord
100
AcDbLinetypeTableRecord
  2
ByBlock
 70
     0
  3

 72
    65
 73
     0
 40
0.0
  0
LTYPE
  5
15
330
5
100
AcDbSymbolTableRecord
100
AcDbLinetypeTableRecord
  2
ByLayer
 70
     0
  3

 72
    65
 73
     0
 40
0.0
  0
LTYPE
  5
16
330
5
100
AcDbSymbolTableRecord
100
AcDbLinetypeTableRecord
  2
Continuous
 70
     0
  3
Solid line
 72
    65
 73
     0
 40
0.0
  0
LTYPE
  5
1C4
330
5
100
AcDbSymbolTableRecord
100
AcDbLinetypeTableRecord
  2
DASHED
 70
     0
  3
__ __ __ __ __ __ __ __ __ __ __ __ __ __ __
 72
    65
 73
     2
 40
3.0
 49
2.0
 74
     0
 49
-1.0
 74
     0
  0
LTYPE
  5
1C5
330
5
100
AcDbSymbolTableRecord
100
AcDbLinetypeTableRecord
  2
DASHDOT
 70
     0
  3
__ . __ . __ . __ . __ . __ . __ . __ . __ . __
 72
    65
 73
     4
 40
8.5
 49
6.0
 74
     0
 49
-1.0
 74
     0
 49
0.5
 74
     0
 49
-1.0
 74
     0
  0
ENDTAB
  0
TABLE
  2
LAYER
  5
2
330
0
100
AcDbSymbolTable
 70
    13
  0
LAYER
  5
10
330
2
100
AcDbSymbolTableRecord
100
AcDbLayerTableRecord
  2
0
 70
     0
 62
     7
  6
Continuous
370
    -3
390
F
  0
LAYER
  5
1C6
330
2
100
AcDbSymbolTableRecord
100
AcDbLayerTableRecord
  2
DEFPOINTS
 70
     0
 62
     4
  6
Continuous
290
     0
370
    -3
390
F
  0
LAYER
  5
1C7
330
2
100
AcDbSymbolTableRecord
100
AcDbLayerTableRecord
  2
寸法
 70
     0
 62
     6
  6
Continuous
370
    -3
390
F
  0
LAYER
  5
1C8
330
2
100
AcDbSymbolTableRecord
100
AcDbLayerTableRecord
  2
画層1-1
 70
     0
 62
    82
  6
Continuous
370
    -3
390
F
  0
LAYER
  5
1C9
330
2
100
AcDbSymbolTableRecord
100
AcDbLayerTableRecord
  2
図面枠
 70
     0
 62
     7
  6
Continuous
370
    -3
390
F
  0
LAYER
  5
1CA
330
2
100
AcDbSymbolTableRecord
100
AcDbLayerTableRecord
  2
ﾊｯﾁﾝｸﾞ
 70
     0
 62
     1
  6
Continuous
370
    -3
390
F
  0
LAYER
  5
1CB
330
2
100
AcDbSymbolTableRecord
100
AcDbLayerTableRecord
  2
画層1
 70
     0
 62
     7
  6
Continuous
370
    -3
390
F
  0
LAYER
  5
1CC
330
2
100
AcDbSymbolTableRecord
100
AcDbLayerTableRecord
  2
画層2
 70
     0
 62
    40
  6
Continuous
370
    -3
390
F
  0
LAYER
  5
1CD
330
2
100
AcDbSymbolTableRecord
100
AcDbLayerTableRecord
  2
通り芯
 70
     0
 62
     4
  6
Continuous
370
    13
390
F
  0
LAYER
  5
1CE
330
2
100
AcDbSymbolTableRecord
100
AcDbLayerTableRecord
  2
ﾈｯﾄ
 70
     0
 62
   230
  6
Continuous
370
    13
390
F
  0
LAYER
  5
1CF
330
2
100
AcDbSymbolTableRecord
100
AcDbLayerTableRecord
  2
画層2-1
 70
     0
 62
     7
  6
Continuous
370
    -3
390
F
  0
LAYER
  5
1D0
330
2
100
AcDbSymbolTableRecord
100
AcDbLayerTableRecord
  2
寸法文字
 70
     0
 62
     6
  6
Continuous
370
    -3
390
F
  0
LAYER
  5
1D1
330
2
100
AcDbSymbolTableRecord
100
AcDbLayerTableRecord
  2
寸法引出
 70
     0
 62
     3
  6
Continuous
370
    -3
390
F
  0
ENDTAB
  0
TABLE
  2
STYLE
  5
3
330
0
100
AcDbSymbolTable
 70
     4
  0
STYLE
  5
11
330
3
100
AcDbSymbolTableRecord
100
AcDbTextStyleTableRecord
  2
Standard
 70
     0
 40
0.0
 41
1.0
 50
0.0
 71
     0
 42
2.5
  3
txt
  4

  0
STYLE
  5
1D2
330
3
100
AcDbSymbolTableRecord
100
AcDbTextStyleTableRecord
  2
1_100
 70
     0
 40
0.0
 41
0.75
 50
0.0
 71
     0
 42
2.5
  3
romans.shx
  4
extfont2.shx
  0
STYLE
  5
1D3
330
3
100
AcDbSymbolTableRecord
100
AcDbTextStyleTableRecord
  2
STYLE1
 70
     0
 40
0.0
 41
0.75
 50
0.0
 71
     0
 42
0.2
  3
HGRSKP.TTF
  4

1001
ACAD
1000
HGSeikaishotaiPRO
1071
    32833
  0
STYLE
  5
1D4
330
3
100
AcDbSymbolTableRecord
100
AcDbTextStyleTableRecord
  2
MSP明朝
 70
     0
 40
0.0
 41
0.75
 50
0.0
 71
     0
 42
0.2
  3
MS PMincho.ttf
  4

1001
ACAD
1000
MS PMincho
1071
    32786
  0
ENDTAB
  0
TABLE
  2
VIEW
  5
6
330
0
100
AcDbSymbolTable
 70
     0
  0
ENDTAB
  0
TABLE
  2
UCS
  5
7
330
0
100
AcDbSymbolTable
 70
     0
  0
ENDTAB
  0
TABLE
  2
APPID
  5
9
330
0
100
AcDbSymbolTable
 70
     4
  0
APPID
  5
12
330
9
100
AcDbSymbolTableRecord
100
AcDbRegAppTableRecord
  2
ACAD
 70
     0
  0
APPID
  5
1D7
330
9
100
AcDbSymbolTableRecord
100
AcDbRegAppTableRecord
  2
AcDbBlockRepETag
 70
     0
  0
APPID
  5
9CF
330
9
100
AcDbSymbolTableRecord
100
AcDbRegAppTableRecord
  2
ADE
 70
     0
  0
APPID
  5
9D0
330
9
100
AcDbSymbolTableRecord
100
AcDbRegAppTableRecord
  2
DCO15
 70
     0
  0
ENDTAB
  0
TABLE
  2
DIMSTYLE
  5
A
330
0
100
AcDbSymbolTable
 70
     4
100
AcDbDimStyleTable
 71
     0
  0
DIMSTYLE
105
27
330
A
100
AcDbSymbolTableRecord
100
AcDbDimStyleTableRecord
  2
ISO-25
 70
     0
 41
2.5
 42
0.625
 43
3.75
 44
1.25
 73
     0
 74
     0
 77
     1
 78
     8
140
2.5
141
2.5
143
0.03937007874016
147
0.625
171
     3
172
     1
271
     2
272
     2
274
     3
278
    44
283
     0
284
     8
340
11
  0
DIMSTYLE
105
1D5
330
A
100
AcDbSymbolTableRecord
100
AcDbDimStyleTableRecord
  2
STANDARD
 70
     0
340
11
  0
DIMSTYLE
105
1D6
102
{ACAD_REACTORS
330
323
330
336
330
339
330
33A
330
33F
330
342
330
347
330
352
330
353
330
37E
330
37F
330
39A
330
39B
330
39E
330
39F
330
3B4
330
3F3
330
416
330
421
330
449
330
44A
102
}
330
A
100
AcDbSymbolTableRecord
100
AcDbDimStyleTableRecord
  2
1_100
 70
     0
 40
100.0
 41
0.6
 42
3.0
 43
10.0
 44
0.0
 73
     0
 74
     0
 77
     1
 78
     8
140
3.0
141
0.0
147
1.0
172
     1
173
     1
176
   256
177
   256
178
   256
271
     1
272
     1
277
     6
279
     2
284
     8
340
1D2
341
87
343
87
344
87
  0
DIMSTYLE
105
9CE
330
A
100
AcDbSymbolTableRecord
100
AcDbDimStyleTableRecord
  2
1_50
 70
     0
 40
50.0
 41
1.0
 42
3.0
 43
10.0
 44
0.0
 73
     0
 74
     0
 77
     1
 78
    12
140
3.0
141
0.0
147
1.0
172
     1
173
     1
176
   256
177
   256
178
   256
271
     1
272
     1
277
     6
279
     2
340
1D2
341
87
343
87
344
87
  0
ENDTAB
  0
TABLE
  2
BLOCK_RECORD
  5
1
330
0
100
AcDbSymbolTable
 70
    27
  0
BLOCK_RECORD
  5
1F
330
1
100
AcDbSymbolTableRecord
100
AcDbBlockTableRecord
  2
*Model_Space
340
22
  0
BLOCK_RECORD
  5
55
330
1
100
AcDbSymbolTableRecord
100
AcDbBlockTableRecord
  2
*Paper_Space
340
56
  0
BLOCK_RECORD
  5
50
330
1
100
AcDbSymbolTableRecord
100
AcDbBlockTableRecord
  2
*Paper_Space0
340
51
  0
BLOCK_RECORD
  5
87
330
1
100
AcDbSymbolTableRecord
100
AcDbBlockTableRecord
  2
_ORIGIN
340
0
102
{BLKREFS
331
56F
331
570
331
578
331
579
331
581
331
582
331
58A
331
58B
331
593
331
594
331
59C
331
59D
331
5A5
331
5A6
331
5AF
331
5B0
331
5B8
331
5B9
331
5C1
331
5C2
331
5CB
331
5CC
331
5D7
331
5D8
331
5DF
331
5E0
331
5EB
331
5EC
331
5F3
331
5F4
331
5FC
331
5FD
331
613
331
614
331
61B
331
61C
331
627
331
628
331
62F
331
630
331
9EF
331
9F0
102
}
  0
BLOCK_RECORD
  5
8C
330
1
100
AcDbSymbolTableRecord
100
AcDbBlockTableRecord
  2
RM
340
0
310
28000000200000002000000001000800000000000004000000000000000000000000000000000000000000004000000080000000FF000000002000004020000080200000FF200000004000004040000080400000FF400000006000004060000080600000FF600000008000004080000080800000FF80000000A0000040A000
310
0080A00000FFA0000000C0000040C0000080C00000FFC0000000FF000040FF000080FF0000FFFF0000000020004000200080002000FF002000002020004020200080202000FF202000004020004040200080402000FF402000006020004060200080602000FF602000008020004080200080802000FF80200000A0200040A0
310
200080A02000FFA0200000C0200040C0200080C02000FFC0200000FF200040FF200080FF2000FFFF2000000040004000400080004000FF004000002040004020400080204000FF204000004040004040400080404000FF404000006040004060400080604000FF604000008040004080400080804000FF80400000A0400040
310
A0400080A04000FFA0400000C0400040C0400080C04000FFC0400000FF400040FF400080FF4000FFFF4000000060004000600080006000FF006000002060004020600080206000FF206000004060004040600080406000FF406000006060004060600080606000FF606000008060004080600080806000FF80600000A06000
310
40A0600080A06000FFA0600000C0600040C0600080C06000FFC0600000FF600040FF600080FF6000FFFF6000000080004000800080008000FF008000002080004020800080208000FF208000004080004040800080408000FF408000006080004060800080608000FF608000008080004080800080808000FF80800000A080
310
0040A0800080A08000FFA0800000C0800040C0800080C08000FFC0800000FF800040FF800080FF8000FFFF80000000A0004000A0008000A000FF00A0000020A0004020A0008020A000FF20A0000040A0004040A0008040A000FF40A0000060A0004060A0008060A000FF60A0000080A0004080A0008080A000FF80A00000A0
310
A00040A0A00080A0A000FFA0A00000C0A00040C0A00080C0A000FFC0A00000FFA00040FFA00080FFA000FFFFA0000000C0004000C0008000C000FF00C0000020C0004020C0008020C000FF20C0000040C0004040C0008040C000FF40C0000060C0004060C0008060C000FF60C0000080C0004080C0008080C000FF80C00000
310
A0C00040A0C00080A0C000FFA0C00000C0C00040C0C00080C0C000FFC0C00000FFC00040FFC00080FFC000FFFFC0000000FF004000FF008000FF00FF00FF000020FF004020FF008020FF00FF20FF000040FF004040FF008040FF00FF40FF000060FF004060FF008060FF00FF60FF000080FF004080FF008080FF00FF80FF00
310
00A0FF0040A0FF0080A0FF00FFA0FF0000C0FF0040C0FF0080C0FF00FFC0FF0000FFFF0040FFFF0080FFFF00FFFFFF00FFFFFFFFFFFFFFFFFFFFFFFFFFFFFFFFFFFFFFFFFFFFFFFFFFFFFFFFFFFFFFFFFFFFFFFFFFFFFFFFFFFFFFFFFFFFFFFFFFFFFFFFFFFFFFFFFFFFFFFFFFFFFFFFFFFFFFFFFFFFFFFFFFFFFFFFFFFFFF
310
FFFFFFFFFFFFFFFFFFFFFFFFFFFFFFFFFFFFFFFFFFFFFFFFFFFFFFFFFFFFFFFFFFFFFFFFFFFFFFFFFFFFFFFFFFFFFFFFFFFFFFFFFFFFFFFFFFFFFFFFFFFFFFFFFFFFFFFFFFFFFFFFFFFFFFFFFFFFFFFFFFFFFFFFFFFFFFFFFFFFFFFFFFFFFFFFFFFFFFFFFFFFFFFFFFFFFFFFFFFFFFFFFFFFFFFFFFFFFFFFFFFFFFFFFFFFFF
310
FFFFFFFFFFFFFFFFFFFFFFFFFFFFFFFFFFFFFFFFFFFFFFFFFFFFFFFFFFFFFFFFFFFFFFFFFFFFFFFFFFFFFFFFFFFFFFFFFFFFFFFFFFFFFFFFFFFFFFFFFFFFFFFFFFFFFFFFFFFFFFFFFFFFFFFFFFFFFFFFFFFFFFFFFFFFFFFFFFFFFFFFFFFFFFFFFFFFFFFFFFFFFFFFFFFFFFFFFFFFFFFFFFFFFFFFFFFFFFFFFFFFFFFFFFFFFF
310
FFFFFFFFFFFFFFFFFFFFFFFFFFFFFFFFFFFFFFFFFFFFFFFFFFFFFFFFFFFFFFFFFFFFFFFFFFFFFFFFFFFFFFFFFFFFFFFFFFFFFFFFFFE0FFFFFFFFE0FFFFE0FFFFFFFFE0FFFFFFE0E0FFFFFFE0FFFFFFE0FFFFFFFFFFFFE0FFFFFFFFE0E0FFFFFFFFE0FFFFFFE0FFFFE0FFE0FFFFFFE0FFFFFFFFFFFFFFFFE0FFFFFFE0E0FFFF
310
FFE0FFFFFFE0FFFFFFFFE0FFFFFFE0FFFFFFFFFFFFFFFFFFFFE0FFFFFFFFE0FFE0FFFFFFE0FFE0FFFFFFFFE0FFE0FFFFFFFFE0FFFFE0FFFFFFFFE0FFFFFFFFE0FFFFFFE0FFFFFFE0E0FFFFFFE0FFFFFFFFE0FFFFFFFFE0E0FFFFFFE0FFFFFFFFE0FFE0FFE0FFFFFFFFE0FFFFFFE0FFFFE0FFFFFFFFFFFFFFE0FFFFFFE0FFFF
310
FFFFE0FFFFFFE0FFFFFFFFE0FFFFFFE0E0FFFFFFFFFFFFFFFFFFE0FFFFFFE0FFFFFFFFE0FFFFFFE0FFFFFFFFE0FFFFFFE0FFFFFFFFFFFFFFFFFFFFFFFFFFFFFFFFFFFFFFFFFFFFFFFFFFFFFFFFFFFFFFFFFFFFFFFFFFFFFFFFFFFFFFFFFFFFFFFFFFFFFFFFFFFFFFFFFFFFFFFFFFFFFFFFFFFFFFFFFFFFFFFFFFFFFFFFFFFF
310
FFFFFFFFFFFFFFFFFFFFFFFFFFFFFFFFFFFFFFFFFFFFFFFFFFFFFFFFFFFFFFFFFFFFFFFFFFFFFFFFFFFFFFFFFFFFFFFFFFFFFFFFFFFFFFFFFFFFFFFFFFFFFFFFFFFFFFFFFFFFFFFFFFFFFFFFFFFFFFFFFFFFFFFFFFFFFFFFFFFFFFFFFFFFFFFFFFFFFFFFFFFFFFFFFFFFFFFFFFFFFFFFFFFFFFFFFFFFFFFFFFFFFFFFFFFFFF
310
FFFFFFFFFFFFFFFFFFFFFFFFFFFFFFFFFFFFFFFFFFFFFFFFFFFFFFFFFFFFFFFFFFFFFFFFFFFFFFFFFFFFFFFFFFFFFFFFFFFFFFFFFFFFFFFFFFFFFFFFFFFFFFFFFFFFFFFFFFFFFFFFFFFFFFFFFFFFFFFFFFFFFFFFFFFFFFFFFFFFFFFFFFFFFFFFFFFFFFFFFFFFFFFFFFFFFFFFFFFFFFFFFFFFFFFFFFFFFFFFFFFFFFFFFFFFFF
310
FFFFFFFFFFFFFFFFFFFFFFFFFFFFFFFFFFFFFFFFFFFFFFFFFFFFFFFFFFFFFFFFFFFFFFFFFFFFFFFFFFFFFFFFFFFFFFFFFFFFFFFFFFFFFFFF
102
{BLKREFS
331
34C
331
378
331
37A
102
}
  0
BLOCK_RECORD
  5
9B
330
1
100
AcDbSymbolTableRecord
100
AcDbBlockTableRecord
  2
RH
340
0
310
28000000200000002000000001000800000000000004000000000000000000000000000000000000000000004000000080000000FF000000002000004020000080200000FF200000004000004040000080400000FF400000006000004060000080600000FF600000008000004080000080800000FF80000000A0000040A000
310
0080A00000FFA0000000C0000040C0000080C00000FFC0000000FF000040FF000080FF0000FFFF0000000020004000200080002000FF002000002020004020200080202000FF202000004020004040200080402000FF402000006020004060200080602000FF602000008020004080200080802000FF80200000A0200040A0
310
200080A02000FFA0200000C0200040C0200080C02000FFC0200000FF200040FF200080FF2000FFFF2000000040004000400080004000FF004000002040004020400080204000FF204000004040004040400080404000FF404000006040004060400080604000FF604000008040004080400080804000FF80400000A0400040
310
A0400080A04000FFA0400000C0400040C0400080C04000FFC0400000FF400040FF400080FF4000FFFF4000000060004000600080006000FF006000002060004020600080206000FF206000004060004040600080406000FF406000006060004060600080606000FF606000008060004080600080806000FF80600000A06000
310
40A0600080A06000FFA0600000C0600040C0600080C06000FFC0600000FF600040FF600080FF6000FFFF6000000080004000800080008000FF008000002080004020800080208000FF208000004080004040800080408000FF408000006080004060800080608000FF608000008080004080800080808000FF80800000A080
310
0040A0800080A08000FFA0800000C0800040C0800080C08000FFC0800000FF800040FF800080FF8000FFFF80000000A0004000A0008000A000FF00A0000020A0004020A0008020A000FF20A0000040A0004040A0008040A000FF40A0000060A0004060A0008060A000FF60A0000080A0004080A0008080A000FF80A00000A0
310
A00040A0A00080A0A000FFA0A00000C0A00040C0A00080C0A000FFC0A00000FFA00040FFA00080FFA000FFFFA0000000C0004000C0008000C000FF00C0000020C0004020C0008020C000FF20C0000040C0004040C0008040C000FF40C0000060C0004060C0008060C000FF60C0000080C0004080C0008080C000FF80C00000
310
A0C00040A0C00080A0C000FFA0C00000C0C00040C0C00080C0C000FFC0C00000FFC00040FFC00080FFC000FFFFC0000000FF004000FF008000FF00FF00FF000020FF004020FF008020FF00FF20FF000040FF004040FF008040FF00FF40FF000060FF004060FF008060FF00FF60FF000080FF004080FF008080FF00FF80FF00
310
00A0FF0040A0FF0080A0FF00FFA0FF0000C0FF0040C0FF0080C0FF00FFC0FF0000FFFF0040FFFF0080FFFF00FFFFFF00FFFFFFFFFFFFFFFFFFFFFFFFFFFFFFFFFFFFFFFFFFFFFFFFFFFFFFFFFFFFFFFFFFFFFFFFFFFFFFFFFFFFFFFFFFFFFFFFFFFFFFFFFFFFFFFFFFFFFFFFFFFFFFFFFFFFFFFFFFFFFFFFFFFFFFFFFFFFFF
310
FFFFFFFFFFFFFFFFFFFFFFFFFFFFFFFFFFFFFFFFFFFFFFFFFFFFFFFFFFFFFFFFFFFFFFFFFFFFFFFFFFFFFFFFFFFFFFFFFFFFFFFFFFFFFFFFFFFFFFFFFFFFFFFFFFFFFFFFFFFFFFFFFFFFFFFFFFFFFFFFFFFFFFFFFFFFFFFFFFFFFFFFFFFFFFFFFFFFFFFFFFFFFFFFFFFFFFFFFFFFFFFFFFFFFFFFFFFFFFFFFFFFFFFFFFFFFF
310
FFFFFFFFFFFFFFFFFFFFFFFFFFFFFFFFFFFFFFFFFFFFFFFFFFFFFFFFFFFFFFFFFFFFFFFFFFFFFFFFFFFFFFFFFFFFFFFFFFFFFFFFFFFFFFFFFFFFFFFFFFFFFFFFFFFFFFFFFFFFFFFFFFFFFFFFFFFFFFFFFFFFFFFFFFFFFFFFFFFFFFFFFFFFFFFFFFFFFFFFFFFFFFFFFFFFFFFFFFFFFFFFFFFFFFFFFFFFFFFFFFFFFFFFFFFFFF
310
FFFFFFFFFFFFFFFFFFFFFFFFFFFFFFFFFFFFFFFFFFFFFFFFFFFFFFFFFFFFFFFFFFFFFFFFFFFFFFFFFFFFFFFFFFFFFFFFFFFFFFFFFFFFE0FFFFFFE0FFFFFFE0E0FFFFFFE0FFFFFFFFE0FFFFE0FFFFFFFFE0FFFFFFFFFFFFE0FFFFFFE0FFE0FFFFE0FFFFFFE0FFFFFFFFE0E0FFFFFFFFE0FFFFFFFFFFFFFFFFE0FFFFFFE0FFFF
310
FFFFE0FFFFFFE0FFFFFFE0E0FFFFFFE0FFFFFFFFFFE0FFFFFFFFE0FFE0FFFFFFFFE0FFE0FFFFFFE0FFE0FFFFFFFFE0FFFFFFFFFFFFFFE0FFFFFFFFE0FFFFFFE0E0FFFFFFE0FFFFFFE0FFFFFFFFE0FFFFFFFFE0FFFFFFFFE0FFFFE0FFFFFFE0FFFFFFFFE0FFE0FFE0FFFFFFFFE0FFFFFFE0E0FFFFFFFFFFFFE0E0FFFFFFE0FF
310
FFFFFFE0FFFFFFE0FFFFFFFFE0FFFFFFE0FFFFFFFFFFFFFFFFE0FFFFFFE0FFFFFFFFE0FFFFFFE0FFFFFFFFE0FFFFFFE0FFFFFFFFFFFFFFFFFFFFFFFFFFFFFFFFFFFFFFFFFFFFFFFFFFFFFFFFFFFFFFFFFFFFFFFFFFFFFFFFFFFFFFFFFFFFFFFFFFFFFFFFFFFFFFFFFFFFFFFFFFFFFFFFFFFFFFFFFFFFFFFFFFFFFFFFFFFFFF
310
FFFFFFFFFFFFFFFFFFFFFFFFFFFFFFFFFFFFFFFFFFFFFFFFFFFFFFFFFFFFFFFFFFFFFFFFFFFFFFFFFFFFFFFFFFFFFFFFFFFFFFFFFFFFFFFFFFFFFFFFFFFFFFFFFFFFFFFFFFFFFFFFFFFFFFFFFFFFFFFFFFFFFFFFFFFFFFFFFFFFFFFFFFFFFFFFFFFFFFFFFFFFFFFFFFFFFFFFFFFFFFFFFFFFFFFFFFFFFFFFFFFFFFFFFFFFFF
310
FFFFFFFFFFFFFFFFFFFFFFFFFFFFFFFFFFFFFFFFFFFFFFFFFFFFFFFFFFFFFFFFFFFFFFFFFFFFFFFFFFFFFFFFFFFFFFFFFFFFFFFFFFFFFFFFFFFFFFFFFFFFFFFFFFFFFFFFFFFFFFFFFFFFFFFFFFFFFFFFFFFFFFFFFFFFFFFFFFFFFFFFFFFFFFFFFFFFFFFFFFFFFFFFFFFFFFFFFFFFFFFFFFFFFFFFFFFFFFFFFFFFFFFFFFFFFF
310
FFFFFFFFFFFFFFFFFFFFFFFFFFFFFFFFFFFFFFFFFFFFFFFFFFFFFFFFFFFFFFFFFFFFFFFFFFFFFFFFFFFFFFFFFFFFFFFFFFFFFFFFFFFFFFFF
102
{BLKREFS
331
34D
331
379
331
37B
102
}
  0
BLOCK_RECORD
  5
AA
330
1
100
AcDbSymbolTableRecord
100
AcDbBlockTableRecord
  2
sai450
340
0
310
28000000200000002000000001000800000000000004000000000000000000000000000000000000000000004000000080000000FF000000002000004020000080200000FF200000004000004040000080400000FF400000006000004060000080600000FF600000008000004080000080800000FF80000000A0000040A000
310
0080A00000FFA0000000C0000040C0000080C00000FFC0000000FF000040FF000080FF0000FFFF0000000020004000200080002000FF002000002020004020200080202000FF202000004020004040200080402000FF402000006020004060200080602000FF602000008020004080200080802000FF80200000A0200040A0
310
200080A02000FFA0200000C0200040C0200080C02000FFC0200000FF200040FF200080FF2000FFFF2000000040004000400080004000FF004000002040004020400080204000FF204000004040004040400080404000FF404000006040004060400080604000FF604000008040004080400080804000FF80400000A0400040
310
A0400080A04000FFA0400000C0400040C0400080C04000FFC0400000FF400040FF400080FF4000FFFF4000000060004000600080006000FF006000002060004020600080206000FF206000004060004040600080406000FF406000006060004060600080606000FF606000008060004080600080806000FF80600000A06000
310
40A0600080A06000FFA0600000C0600040C0600080C06000FFC0600000FF600040FF600080FF6000FFFF6000000080004000800080008000FF008000002080004020800080208000FF208000004080004040800080408000FF408000006080004060800080608000FF608000008080004080800080808000FF80800000A080
310
0040A0800080A08000FFA0800000C0800040C0800080C08000FFC0800000FF800040FF800080FF8000FFFF80000000A0004000A0008000A000FF00A0000020A0004020A0008020A000FF20A0000040A0004040A0008040A000FF40A0000060A0004060A0008060A000FF60A0000080A0004080A0008080A000FF80A00000A0
310
A00040A0A00080A0A000FFA0A00000C0A00040C0A00080C0A000FFC0A00000FFA00040FFA00080FFA000FFFFA0000000C0004000C0008000C000FF00C0000020C0004020C0008020C000FF20C0000040C0004040C0008040C000FF40C0000060C0004060C0008060C000FF60C0000080C0004080C0008080C000FF80C00000
310
A0C00040A0C00080A0C000FFA0C00000C0C00040C0C00080C0C000FFC0C00000FFC00040FFC00080FFC000FFFFC0000000FF004000FF008000FF00FF00FF000020FF004020FF008020FF00FF20FF000040FF004040FF008040FF00FF40FF000060FF004060FF008060FF00FF60FF000080FF004080FF008080FF00FF80FF00
310
00A0FF0040A0FF0080A0FF00FFA0FF0000C0FF0040C0FF0080C0FF00FFC0FF0000FFFF0040FFFF0080FFFF00FFFFFF00FFFFFFFFFFFFFFFFFFFFFFFFFFFFFFFFFFFFFFFFFFFFFFFFFFFFFFFFFFFFFFFFFFFFFFFFFFFFFFFFFFFFFFFFFFFFFFFFFFFFFFFFFFFFFFFFFFFFFFFFFFFFFFFFFFFFFFFFFFFFFFFFFFFFFFFFFFFFFF
310
FFFFFFFFFFFFFFFFFFFFFFFFFFFFFFFFFFFFFFFFFFFFFFFFFFFFFFFFFFFFFFFFFFFFFFFFFFFFFFFFFFFFFFFFFFFFFFFFFFFFFFFFFFFFFFFFFFFFFFFFFFFFFFFFFFFFFFFFFFFFFFFFFFFFFFFFFFFFFFFFFFFFFFFFFFFFFFFFFFFFFFFFFFFFFFFFFFFFFFFFFFFFFFFFFFFFFFFFFFFFFFFFFFFFFFFFFFFFFFFFFFFFFFFFFFFFFF
310
FFFFFFFFFFFFFFFFFFFFFFFFFFFFFFFFFFFFFFFFFFFFFFFFFFFFFFFFFFFFFFFFFFFFFFFFFFFFFFFFFFFFFFFFFFFFFFFFFFFFFFFFFFFFFFFFFFFFFFFFFFFFFFFFFFFFFFFFFFFFFFFFFFFFFFFFFFFFFFFFFFFFFFFFFFFFFFFFFFFFFFFFFFFFFFFFFFFFFFFFFFFFFFFFFFFFFFFFFFFFFFFFFFFFFFFFFFFFFFFFFFFFFFFFFFFFFF
310
FFFFFFFFFFFFFFFFFFFFFFFFFFFFFFFFFFFFFFFFFFFFFFFFFFFFFFFFFFFFFFFFFFFFFFFFFFFFFFFFFFFFFFFFFFFFFFFFFFFFFFFFE0FFE0FFFFFFE0FFE0FFFFFFFFE0E0FFFFFFFFE0E0FFFFFFFFE0E0FFFFFFFFFFFFE0E0FFFFFFFFE0E0FFFFFFFFE0E0FFFFFFFFFFE0FFFFFFFFFFE0FFFFFFFFFFFFE0FFFFFFFFFFE0FFFFFF
310
FFFFE0E0FFFFFFFFFFE0FFFFFFFFFFE0FFFFFFFFFFFFFFE0FFFFFFFFFFE0FFFFFFFFFFE0FFFFFFFFFFFFE0FFFFFFFFFFE0FFFFFFFFFFFFE0FFFFFFFFFFE0FFFFFFFFFFFFE0FFFFFFFFFFE0FFFFFFFFFFE0FFFFFFFFFFFFFFE0FFFFFFFFFFE0FFFFFFFFFFE0E0FFFFFFFFFFE0FFFFFFFFFFE0FFFFFFFFFFFFE0FFFFFFFFFFE0
310
FFFFFFFFFFFFE0FFFFFFFFFFE0FFFFFFFFFFE0FFFFFFFFFFE0FFE0FFFFFFE0FFE0FFFFFFFFE0E0FFFFFFFFE0FFE0FFFFFFE0FFE0FFFFFFFFFFFFFFFFFFFFFFFFFFFFFFFFFFFFFFFFFFFFFFFFFFFFFFFFFFFFFFFFFFFFFFFFFFFFFFFFFFFFFFFFFFFFFFFFFFFFFFFFFFFFFFFFFFFFFFFFFFFFFFFFFFFFFFFFFFFFFFFFFFFFFF
310
FFFFFFFFFFFFFFFFFFFFFFFFFFFFFFFFFFFFFFFFFFFFFFFFFFFFFFFFFFFFFFFFFFFFFFFFFFFFFFFFFFFFFFFFFFFFFFFFFFFFFFFFFFFFFFFFFFFFFFFFFFFFFFFFFFFFFFFFFFFFFFFFFFFFFFFFFFFFFFFFFFFFFFFFFFFFFFFFFFFFFFFFFFFFFFFFFFFFFFFFFFFFFFFFFFFFFFFFFFFFFFFFFFFFFFFFFFFFFFFFFFFFFFFFFFFFFF
310
FFFFFFFFFFFFFFFFFFFFFFFFFFFFFFFFFFFFFFFFFFFFFFFFFFFFFFFFFFFFFFFFFFFFFFFFFFFFFFFFFFFFFFFFFFFFFFFFFFFFFFFFFFFFFFFFFFFFFFFFFFFFFFFFFFFFFFFFFFFFFFFFFFFFFFFFFFFFFFFFFFFFFFFFFFFFFFFFFFFFFFFFFFFFFFFFFFFFFFFFFFFFFFFFFFFFFFFFFFFFFFFFFFFFFFFFFFFFFFFFFFFFFFFFFFFFFF
310
FFFFFFFFFFFFFFFFFFFFFFFFFFFFFFFFFFFFFFFFFFFFFFFFFFFFFFFFFFFFFFFFFFFFFFFFFFFFFFFFFFFFFFFFFFFFFFFFFFFFFFFFFFFFFFFF
102
{BLKREFS
331
34B
331
376
331
377
102
}
  0
BLOCK_RECORD
  5
464
330
1
100
AcDbSymbolTableRecord
100
AcDbBlockTableRecord
  2
*D5
340
0
  0
BLOCK_RECORD
  5
470
330
1
100
AcDbSymbolTableRecord
100
AcDbBlockTableRecord
  2
*D6
340
0
  0
BLOCK_RECORD
  5
47C
330
1
100
AcDbSymbolTableRecord
100
AcDbBlockTableRecord
  2
*D7
340
0
  0
BLOCK_RECORD
  5
488
330
1
100
AcDbSymbolTableRecord
100
AcDbBlockTableRecord
  2
*D8
340
0
  0
BLOCK_RECORD
  5
494
330
1
100
AcDbSymbolTableRecord
100
AcDbBlockTableRecord
  2
*D9
340
0
  0
BLOCK_RECORD
  5
4A0
330
1
100
AcDbSymbolTableRecord
100
AcDbBlockTableRecord
  2
*D10
340
0
  0
BLOCK_RECORD
  5
4AC
330
1
100
AcDbSymbolTableRecord
100
AcDbBlockTableRecord
  2
*D11
340
0
  0
BLOCK_RECORD
  5
4B8
330
1
100
AcDbSymbolTableRecord
100
AcDbBlockTableRecord
  2
*D12
340
0
  0
BLOCK_RECORD
  5
4C4
330
1
100
AcDbSymbolTableRecord
100
AcDbBlockTableRecord
  2
*D13
340
0
  0
BLOCK_RECORD
  5
4D0
330
1
100
AcDbSymbolTableRecord
100
AcDbBlockTableRecord
  2
*D14
340
0
  0
BLOCK_RECORD
  5
4DC
330
1
100
AcDbSymbolTableRecord
100
AcDbBlockTableRecord
  2
*D15
340
0
  0
BLOCK_RECORD
  5
4EA
330
1
100
AcDbSymbolTableRecord
100
AcDbBlockTableRecord
  2
*D16
340
0
  0
BLOCK_RECORD
  5
4F8
330
1
100
AcDbSymbolTableRecord
100
AcDbBlockTableRecord
  2
*D17
340
0
  0
BLOCK_RECORD
  5
504
330
1
100
AcDbSymbolTableRecord
100
AcDbBlockTableRecord
  2
*D18
340
0
  0
BLOCK_RECORD
  5
512
330
1
100
AcDbSymbolTableRecord
100
AcDbBlockTableRecord
  2
*D19
340
0
  0
BLOCK_RECORD
  5
51E
330
1
100
AcDbSymbolTableRecord
100
AcDbBlockTableRecord
  2
*D20
340
0
  0
BLOCK_RECORD
  5
52A
330
1
100
AcDbSymbolTableRecord
100
AcDbBlockTableRecord
  2
*D21
340
0
  0
BLOCK_RECORD
  5
538
330
1
100
AcDbSymbolTableRecord
100
AcDbBlockTableRecord
  2
*D22
340
0
  0
BLOCK_RECORD
  5
546
330
1
100
AcDbSymbolTableRecord
100
AcDbBlockTableRecord
  2
*D23
340
0
  0
BLOCK_RECORD
  5
552
330
1
100
AcDbSymbolTableRecord
100
AcDbBlockTableRecord
  2
*D24
340
0
  0
BLOCK_RECORD
  5
560
330
1
100
AcDbSymbolTableRecord
100
AcDbBlockTableRecord
  2
*D25
340
0
  0
ENDTAB
  0
ENDSEC
  0
SECTION
  2
BLOCKS
  0
BLOCK
  5
20
330
1F
100
AcDbEntity
  8
0
100
AcDbBlockBegin
  2
*Model_Space
 70
     0
 10
0.0
 20
0.0
 30
0.0
  3
*Model_Space
  1

  0
ENDBLK
  5
21
330
1F
100
AcDbEntity
  8
0
100
AcDbBlockEnd
  0
BLOCK
  5
57
330
55
100
AcDbEntity
 67
     1
  8
0
100
AcDbBlockBegin
  2
*Paper_Space
 70
     0
 10
0.0
 20
0.0
 30
0.0
  3
*Paper_Space
  1

  0
ENDBLK
  5
58
330
55
100
AcDbEntity
 67
     1
  8
0
100
AcDbBlockEnd
  0
BLOCK
  5
52
330
50
100
AcDbEntity
  8
0
100
AcDbBlockBegin
  2
*Paper_Space0
 70
     0
 10
0.0
 20
0.0
 30
0.0
  3
*Paper_Space0
  1

  0
VIEWPORT
  5
64B
102
{ACAD_XDICTIONARY
360
A03
102
}
330
50
100
AcDbEntity
  8
0
100
AcDbViewport
 10
133.3499908447265
 20
101.5999970436096
 30
0.0
 40
351.5213134087588
 41
228.4221935424805
 69
     0
 12
133.3499908447265
 22
101.5999970436096
 13
0.0
 23
0.0
 14
10.0
 24
10.0
 15
10.0
 25
10.0
 16
0.0
 26
0.0
 36
1.0
 17
0.0
 27
0.0
 37
0.0
 42
50.0
 43
0.0
 44
0.0
 45
228.4221935424805
 50
0.0
 51
0.0
 72
  1000
 90
    32800
  1

281
     0
 71
     1
 74
     0
110
0.0
120
0.0
130
0.0
111
1.0
121
0.0
131
0.0
112
0.0
122
1.0
132
0.0
 79
     0
146
0.0
  0
VIEWPORT
  5
64D
102
{ACAD_XDICTIONARY
360
A05
102
}
330
50
100
AcDbEntity
  8
0
100
AcDbViewport
 10
133.3499939441681
 20
101.5999939441681
 30
0.0
 40
213.3599903106689
 41
162.5599903106689
 69
     0
 12
24709.01309100041
 22
13954.94432044018
 13
0.0
 23
0.0
 14
10.0
 24
10.0
 15
10.0
 25
10.0
 16
0.0
 26
0.0
 36
1.0
 17
0.0
 27
0.0
 37
0.0
 42
50.0
 43
0.0
 44
0.0
 45
30085.71385875107
 50
0.0
 51
0.0
 72
  1000
 90
    32864
  1

281
     0
 71
     1
 74
     0
110
0.0
120
0.0
130
0.0
111
1.0
121
0.0
131
0.0
112
0.0
122
1.0
132
0.0
 79
     0
146
0.0
  0
ENDBLK
  5
53
330
50
100
AcDbEntity
  8
0
100
AcDbBlockEnd
  0
BLOCK
  5
88
330
87
100
AcDbEntity
  8
0
100
AcDbBlockBegin
  2
_ORIGIN
 70
     0
 10
0.0
 20
0.0
 30
0.0
  3
_ORIGIN
  1

  0
CIRCLE
  5
89
330
87
100
AcDbEntity
  8
0
  6
ByBlock
 62
     0
100
AcDbCircle
 10
0.0
 20
0.0
 30
0.0
 40
0.5
  0
LINE
  5
8A
330
87
100
AcDbEntity
  8
0
  6
ByBlock
 62
     0
100
AcDbLine
 10
0.0
 20
0.0
 30
0.0
 11
-1.0
 21
0.0
 31
0.0
  0
ENDBLK
  5
8B
330
87
100
AcDbEntity
  8
0
100
AcDbBlockEnd
  0
BLOCK
  5
8D
330
8C
100
AcDbEntity
  8
0
100
AcDbBlockBegin
  2
RM
 70
     0
 10
0.0
 20
0.0
 30
0.0
  3
RM
  1

  0
LINE
  5
8E
330
8C
100
AcDbEntity
  8
ﾊｯﾁﾝｸﾞ
  6
Continuous
100
AcDbLine
 10
360.1652361541055
 20
-91.67026152741163
 30
0.0
 11
388.4949746266939
 21
-120.0000000004656
 31
0.0
  0
LINE
  5
8F
330
8C
100
AcDbEntity
  8
ﾊｯﾁﾝｸﾞ
  6
Continuous
100
AcDbLine
 10
399.7632159003988
 20
-52.07228178094375
 30
0.0
 11
467.690934119746
 21
-120.0000000004074
 31
0.0
  0
LINE
  5
90
330
8C
100
AcDbEntity
  8
ﾊｯﾁﾝｸﾞ
  6
Continuous
100
AcDbLine
 10
372.6395381879993
 20
-0.0000000004074536
 30
0.0
 11
280.9692766605877
 21
-91.67026152741163
 31
0.0
  0
LINE
  5
91
330
8C
100
AcDbEntity
  8
ﾊｯﾁﾝｸﾞ
  6
Continuous
100
AcDbLine
 10
451.8354976810513
 20
-0.0000000004074536
 30
0.0
 11
331.8354976801202
 21
-120.0000000004074
 31
0.0
  0
LINE
  5
92
330
8C
100
AcDbEntity
  8
ﾊｯﾁﾝｸﾞ
  6
Continuous
100
AcDbLine
 10
439.3611956469249
 20
-12.47430203453405
 30
0.0
 11
493.1240446297452
 21
-66.23715101747075
 31
0.0
  0
LINE
  5
93
330
8C
100
AcDbEntity
  8
ﾊｯﾁﾝｸﾞ
  6
Continuous
100
AcDbLine
 10
55.85570021579043
 20
-0.0000000004656613
 30
0.0
 11
-0.0000000002328306
 21
-55.85570021602325
 31
0.0
  0
LINE
  5
94
330
8C
100
AcDbEntity
  8
ﾊｯﾁﾝｸﾞ
  6
Continuous
100
AcDbLine
 10
135.0516597088426
 20
-0.000000000349246
 30
0.0
 11
15.05165970791131
 21
-120.0000000004656
 31
0.0
  0
LINE
  5
95
330
8C
100
AcDbEntity
  8
ﾊｯﾁﾝｸﾞ
  6
Continuous
100
AcDbLine
 10
214.2476192018949
 20
-0.000000000349246
 30
0.0
 11
94.24761920119637
 21
-120.0000000004656
 31
0.0
  0
LINE
  5
96
330
8C
100
AcDbEntity
  8
ﾊｯﾁﾝｸﾞ
  6
Continuous
100
AcDbLine
 10
122.577357674716
 20
-91.67026152741163
 30
0.0
 11
150.9070961475372
 21
-120.0000000004656
 31
0.0
  0
LINE
  5
97
330
8C
100
AcDbEntity
  8
ﾊｯﾁﾝｸﾞ
  6
Continuous
100
AcDbLine
 10
162.1753374212421
 20
-52.07228178094375
 30
0.0
 11
230.1030556405895
 21
-120.0000000004074
 31
0.0
  0
LINE
  5
98
330
8C
100
AcDbEntity
  8
ﾊｯﾁﾝｸﾞ
  6
Continuous
100
AcDbLine
 10
201.7733171675354
 20
-12.47430203453405
 30
0.0
 11
309.2990151336417
 21
-120.0000000004074
 31
0.0
  0
LINE
  5
99
330
8C
100
AcDbEntity
  8
ﾊｯﾁﾝｸﾞ
  6
Continuous
100
AcDbLine
 10
293.4435786949471
 20
-0.0000000002910383
 30
0.0
 11
241.3712969140615
 21
-52.07228178094375
 31
0.0
  0
ENDBLK
  5
9A
330
8C
100
AcDbEntity
  8
0
100
AcDbBlockEnd
  0
BLOCK
  5
9C
330
9B
100
AcDbEntity
  8
0
100
AcDbBlockBegin
  2
RH
 70
     0
 10
0.0
 20
0.0
 30
0.0
  3
RH
  1

  0
LINE
  5
9D
330
9B
100
AcDbEntity
  8
ﾊｯﾁﾝｸﾞ
  6
Continuous
100
AcDbLine
 10
-55.85570021625607
 20
0.0
 30
0.0
 11
-0.0000000002328306
 21
-55.8557002155576
 31
0.0
  0
LINE
  5
9E
330
9B
100
AcDbEntity
  8
ﾊｯﾁﾝｸﾞ
  6
Continuous
100
AcDbLine
 10
-135.0516597093083
 20
0.0000000001164153
 30
0.0
 11
-15.05165970837697
 21
-120.0
 31
0.0
  0
LINE
  5
9F
330
9B
100
AcDbEntity
  8
ﾊｯﾁﾝｸﾞ
  6
Continuous
100
AcDbLine
 10
-214.2476192023605
 20
0.0000000001164153
 30
0.0
 11
-94.24761920166201
 21
-120.0
 31
0.0
  0
LINE
  5
A0
330
9B
100
AcDbEntity
  8
ﾊｯﾁﾝｸﾞ
  6
Continuous
100
AcDbLine
 10
-122.5773576751817
 20
-91.67026152694599
 30
0.0
 11
-150.9070961480029
 21
-120.0
 31
0.0
  0
LINE
  5
A1
330
9B
100
AcDbEntity
  8
ﾊｯﾁﾝｸﾞ
  6
Continuous
100
AcDbLine
 10
-162.1753374217078
 20
-52.07228178047808
 30
0.0
 11
-230.1030556410551
 21
-119.9999999999418
 31
0.0
  0
LINE
  5
A2
330
9B
100
AcDbEntity
  8
ﾊｯﾁﾝｸﾞ
  6
Continuous
100
AcDbLine
 10
-201.7733171680011
 20
-12.47430203406838
 30
0.0
 11
-309.2990151341073
 21
-119.9999999999418
 31
0.0
  0
LINE
  5
A3
330
9B
100
AcDbEntity
  8
ﾊｯﾁﾝｸﾞ
  6
Continuous
100
AcDbLine
 10
-360.1652361545712
 20
-91.67026152694599
 30
0.0
 11
-388.4949746271595
 21
-120.0
 31
0.0
  0
LINE
  5
A4
330
9B
100
AcDbEntity
  8
ﾊｯﾁﾝｸﾞ
  6
Continuous
100
AcDbLine
 10
-399.7632159008645
 20
-52.07228178047808
 30
0.0
 11
-467.6909341202117
 21
-119.9999999999418
 31
0.0
  0
LINE
  5
A5
330
9B
100
AcDbEntity
  8
ﾊｯﾁﾝｸﾞ
  6
Continuous
100
AcDbLine
 10
-293.4435786954127
 20
0.000000000174623
 30
0.0
 11
-241.3712969145272
 21
-52.07228178047808
 31
0.0
  0
LINE
  5
A6
330
9B
100
AcDbEntity
  8
ﾊｯﾁﾝｸﾞ
  6
Continuous
100
AcDbLine
 10
-372.6395381884649
 20
0.0000000000582077
 30
0.0
 11
-280.9692766610533
 21
-91.67026152700421
 31
0.0
  0
LINE
  5
A7
330
9B
100
AcDbEntity
  8
ﾊｯﾁﾝｸﾞ
  6
Continuous
100
AcDbLine
 10
-451.8354976815171
 20
0.0000000000582077
 30
0.0
 11
-331.8354976805858
 21
-119.9999999999418
 31
0.0
  0
LINE
  5
A8
330
9B
100
AcDbEntity
  8
ﾊｯﾁﾝｸﾞ
  6
Continuous
100
AcDbLine
 10
-439.3611956473905
 20
-12.47430203406838
 30
0.0
 11
-493.1240446302108
 21
-66.23715101700509
 31
0.0
  0
ENDBLK
  5
A9
330
9B
100
AcDbEntity
  8
0
100
AcDbBlockEnd
  0
BLOCK
  5
AB
330
AA
100
AcDbEntity
  8
0
100
AcDbBlockBegin
  2
sai450
 70
     0
 10
0.0
 20
0.0
 30
0.0
  3
sai450
  1

  0
LINE
  5
AC
330
AA
100
AcDbEntity
  8
ﾊｯﾁﾝｸﾞ
  6
Continuous
100
AcDbLine
 10
184.9591232701205
 20
0.0
 30
0.0
 11
201.0662565772654
 21
-21.8430756283924
 31
0.0
  0
LINE
  5
AD
330
AA
100
AcDbEntity
  8
ﾊｯﾁﾝｸﾞ
  6
Continuous
100
AcDbLine
 10
168.7806191118434
 20
-77.76344007329317
 30
0.0
 11
181.6189029712695
 21
-100.0
 31
0.0
  0
LINE
  5
AE
330
AA
100
AcDbEntity
  8
ﾊｯﾁﾝｸﾞ
  6
Continuous
100
AcDbLine
 10
155.9423352523008
 20
-100.0
 30
0.0
 11
213.6773621712346
 21
0.0
 31
0.0
  0
LINE
  5
AF
330
AA
100
AcDbEntity
  8
ﾊｯﾁﾝｸﾞ
  6
Continuous
100
AcDbLine
 10
64.33979487384203
 20
-100.0
 30
0.0
 11
122.0748217927758
 21
0.0
 31
0.0
  0
LINE
  5
B0
330
AA
100
AcDbEntity
  8
ﾊｯﾁﾝｸﾞ
  6
Continuous
100
AcDbLine
 10
-27.26274550461676
 20
-100.0
 30
0.0
 11
30.47228141431697
 21
0.0
 31
0.0
  0
LINE
  5
B1
330
AA
100
AcDbEntity
  8
ﾊｯﾁﾝｸﾞ
  6
Continuous
100
AcDbLine
 10
77.17807873338461
 20
-77.76344007329317
 30
0.0
 11
90.01636259281076
 21
-100.0
 31
0.0
  0
LINE
  5
B2
330
AA
100
AcDbEntity
  8
ﾊｯﾁﾝｸﾞ
  6
Continuous
100
AcDbLine
 10
-14.4244616451906
 20
-77.76344007329317
 30
0.0
 11
-1.586177785531616
 21
-100.0
 31
0.0
  0
LINE
  5
B3
330
AA
100
AcDbEntity
  8
ﾊｯﾁﾝｸﾞ
  6
Continuous
100
AcDbLine
 10
1.754042513202874
 20
0.0
 30
0.0
 11
17.86117582034785
 21
-21.8430756283924
 31
0.0
  0
LINE
  5
B4
330
AA
100
AcDbEntity
  8
ﾊｯﾁﾝｸﾞ
  6
Continuous
100
AcDbLine
 10
93.35658289166168
 20
0.0
 30
0.0
 11
109.4637161988066
 21
-21.8430756283924
 31
0.0
  0
LINE
  5
B5
330
AA
100
AcDbEntity
  8
ﾊｯﾁﾝｸﾞ
  6
Continuous
100
AcDbLine
 10
-181.4510382437146
 20
0.0
 30
0.0
 11
-165.3439049364533
 21
-21.8430756283924
 31
0.0
  0
LINE
  5
B6
330
AA
100
AcDbEntity
  8
ﾊｯﾁﾝｸﾞ
  6
Continuous
100
AcDbLine
 10
-197.6295424019918
 20
-77.76344007329317
 30
0.0
 11
-184.7912585424492
 21
-100.0
 31
0.0
  0
LINE
  5
B7
330
AA
100
AcDbEntity
  8
ﾊｯﾁﾝｸﾞ
  6
Continuous
100
AcDbLine
 10
-210.4678262615343
 20
-100.0
 30
0.0
 11
-152.7327993426006
 21
0.0
 31
0.0
  0
LINE
  5
B8
330
AA
100
AcDbEntity
  8
ﾊｯﾁﾝｸﾞ
  6
Continuous
100
AcDbLine
 10
-118.8652858830755
 20
-100.0
 30
0.0
 11
-61.13025896414182
 21
0.0
 31
0.0
  0
LINE
  5
B9
330
AA
100
AcDbEntity
  8
ﾊｯﾁﾝｸﾞ
  6
Continuous
100
AcDbLine
 10
-106.027002023533
 20
-77.76344007329317
 30
0.0
 11
-93.18871816399042
 21
-100.0
 31
0.0
  0
LINE
  5
BA
330
AA
100
AcDbEntity
  8
ﾊｯﾁﾝｸﾞ
  6
Continuous
100
AcDbLine
 10
-89.84849786525591
 20
0.0
 30
0.0
 11
-73.74136455799453
 21
-21.8430756283924
 31
0.0
  0
ENDBLK
  5
BB
330
AA
100
AcDbEntity
  8
0
100
AcDbBlockEnd
  0
BLOCK
  5
46E
330
464
100
AcDbEntity
  8
0
100
AcDbBlockBegin
  2
*D5
 70
     1
 10
0.0
 20
0.0
 30
0.0
  3
*D5
  1

  0
LINE
  5
56C
330
464
100
AcDbEntity
  8
DEFPOINTS
  6
Continuous
370
    -2
100
AcDbLine
 10
36176.04642433205
 20
16132.60760768495
 30
0.0
 11
42980.67410398642
 21
16132.60760768495
 31
0.0
  0
LINE
  5
56D
330
464
100
AcDbEntity
  8
DEFPOINTS
  6
Continuous
370
    -2
100
AcDbLine
 10
36150.49642433202
 20
23632.60760768507
 30
0.0
 11
42980.67410398642
 21
23632.60760768507
 31
0.0
  0
LINE
  5
56E
330
464
100
AcDbEntity
  8
DEFPOINTS
  6
Continuous
370
    -2
100
AcDbLine
 10
42980.67410398642
 20
16192.60760768495
 30
0.0
 11
42980.67410398642
 21
23572.60760768507
 31
0.0
  0
INSERT
  5
56F
330
464
100
AcDbEntity
  8
DEFPOINTS
  6
Continuous
370
    -2
100
AcDbBlockReference
  2
_ORIGIN
 10
42980.67410398642
 20
16132.60760768495
 30
0.0
 41
60.0
 42
60.0
 43
60.0
 50
270.0
  0
INSERT
  5
570
330
464
100
AcDbEntity
  8
DEFPOINTS
  6
Continuous
370
    -2
100
AcDbBlockReference
  2
_ORIGIN
 10
42980.67410398642
 20
23632.60760768507
 30
0.0
 41
60.0
 42
60.0
 43
60.0
 50
90.0
  0
MTEXT
  5
571
330
464
100
AcDbEntity
  8
DEFPOINTS
  6
Continuous
100
AcDbMText
 10
42702.102675415
 20
19882.60760768502
 30
0.0
 40
300.0
 41
0.0
 71
     5
 72
     1
  1
\A1;7,500
  7
1_100
 11
0.0000000000000001
 21
1.0
 31
0.0
 73
     1
 44
1.0
1001
ACAD
1000
MTEXTBEGIN
1070
    73
1070
     1
1070
    44
1040
1.0
1070
    74
1070
     0
1000
MTEXTEND
  0
POINT
  5
572
330
464
100
AcDbEntity
  8
DEFPOINTS
  6
Continuous
 62
     0
100
AcDbPoint
 10
35876.04642433205
 20
16132.60760768495
 30
0.0
  0
POINT
  5
573
330
464
100
AcDbEntity
  8
DEFPOINTS
  6
Continuous
 62
     0
100
AcDbPoint
 10
35850.49642433201
 20
23632.60760768507
 30
0.0
  0
POINT
  5
574
330
464
100
AcDbEntity
  8
DEFPOINTS
  6
Continuous
 62
     0
100
AcDbPoint
 10
42980.67410398642
 20
23632.60760768507
 30
0.0
  0
ENDBLK
  5
46F
330
464
100
AcDbEntity
  8
0
100
AcDbBlockEnd
  0
BLOCK
  5
47A
330
470
100
AcDbEntity
  8
0
100
AcDbBlockBegin
  2
*D6
 70
     1
 10
0.0
 20
0.0
 30
0.0
  3
*D6
  1

  0
LINE
  5
575
330
470
100
AcDbEntity
  8
寸法
  6
Continuous
370
    -2
100
AcDbLine
 10
31542.3464243321
 20
11632.60760768495
 30
0.0
 11
33242.34642433209
 21
11632.60760768495
 31
0.0
  0
LINE
  5
576
330
470
100
AcDbEntity
  8
寸法
  6
Continuous
370
    -2
100
AcDbLine
 10
31542.3464243321
 20
23632.60760768496
 30
0.0
 11
33242.3464243321
 21
23632.60760768496
 31
0.0
  0
LINE
  5
577
330
470
100
AcDbEntity
  8
寸法
  6
Continuous
370
    -2
100
AcDbLine
 10
33242.34642433209
 20
11692.60760768495
 30
0.0
 11
33242.3464243321
 21
23572.60760768496
 31
0.0
  0
INSERT
  5
578
330
470
100
AcDbEntity
  8
寸法
  6
Continuous
370
    -2
100
AcDbBlockReference
  2
_ORIGIN
 10
33242.34642433209
 20
11632.60760768495
 30
0.0
 41
60.0
 42
60.0
 43
60.0
 50
270.0
  0
INSERT
  5
579
330
470
100
AcDbEntity
  8
寸法
  6
Continuous
370
    -2
100
AcDbBlockReference
  2
_ORIGIN
 10
33242.3464243321
 20
23632.60760768496
 30
0.0
 41
60.0
 42
60.0
 43
60.0
 50
90.0
  0
MTEXT
  5
57A
330
470
100
AcDbEntity
  8
寸法
  6
Continuous
100
AcDbMText
 10
32963.77499576067
 20
17632.60760768496
 30
0.0
 40
300.0
 41
0.0
 71
     5
 72
     1
  1
\A1;12,000
  7
1_100
 11
0.0000000000000001
 21
1.0
 31
0.0
 73
     1
 44
1.0
1001
ACAD
1000
MTEXTBEGIN
1070
    73
1070
     1
1070
    44
1040
1.0
1070
    74
1070
     0
1000
MTEXTEND
  0
POINT
  5
57B
330
470
100
AcDbEntity
  8
DEFPOINTS
  6
Continuous
 62
     0
100
AcDbPoint
 10
31242.3464243321
 20
11632.60760768495
 30
0.0
  0
POINT
  5
57C
330
470
100
AcDbEntity
  8
DEFPOINTS
  6
Continuous
 62
     0
100
AcDbPoint
 10
31242.3464243321
 20
23632.60760768496
 30
0.0
  0
POINT
  5
57D
330
470
100
AcDbEntity
  8
DEFPOINTS
  6
Continuous
 62
     0
100
AcDbPoint
 10
33242.3464243321
 20
23632.60760768496
 30
0.0
  0
ENDBLK
  5
47B
330
470
100
AcDbEntity
  8
0
100
AcDbBlockEnd
  0
BLOCK
  5
486
330
47C
100
AcDbEntity
  8
0
100
AcDbBlockBegin
  2
*D7
 70
     1
 10
0.0
 20
0.0
 30
0.0
  3
*D7
  1

  0
LINE
  5
57E
330
47C
100
AcDbEntity
  8
寸法
  6
Continuous
370
    -2
100
AcDbLine
 10
31542.3464243321
 20
17592.60760768507
 30
0.0
 11
32242.3464243321
 21
17592.60760768507
 31
0.0
  0
LINE
  5
57F
330
47C
100
AcDbEntity
  8
寸法
  6
Continuous
370
    -2
100
AcDbLine
 10
31542.3464243321
 20
14612.60760768484
 30
0.0
 11
32242.3464243321
 21
14612.60760768484
 31
0.0
  0
LINE
  5
580
330
47C
100
AcDbEntity
  8
寸法
  6
Continuous
370
    -2
100
AcDbLine
 10
32242.3464243321
 20
17532.60760768507
 30
0.0
 11
32242.3464243321
 21
14672.60760768484
 31
0.0
  0
INSERT
  5
581
330
47C
100
AcDbEntity
  8
寸法
  6
Continuous
370
    -2
100
AcDbBlockReference
  2
_ORIGIN
 10
32242.3464243321
 20
17592.60760768507
 30
0.0
 41
60.0
 42
60.0
 43
60.0
 50
90.0
  0
INSERT
  5
582
330
47C
100
AcDbEntity
  8
寸法
  6
Continuous
370
    -2
100
AcDbBlockReference
  2
_ORIGIN
 10
32242.3464243321
 20
14612.60760768484
 30
0.0
 41
60.0
 42
60.0
 43
60.0
 50
270.0
  0
MTEXT
  5
583
330
47C
100
AcDbEntity
  8
寸法
  6
Continuous
100
AcDbMText
 10
31963.77499576067
 20
16102.60760768496
 30
0.0
 40
300.0
 41
0.0
 71
     5
 72
     1
  1
\A1;2,980
  7
1_100
 11
0.0000000000000001
 21
1.0
 31
0.0
 73
     1
 44
1.0
1001
ACAD
1000
MTEXTBEGIN
1070
    73
1070
     1
1070
    44
1040
1.0
1070
    74
1070
     0
1000
MTEXTEND
  0
POINT
  5
584
330
47C
100
AcDbEntity
  8
DEFPOINTS
  6
Continuous
 62
     0
100
AcDbPoint
 10
31242.3464243321
 20
17592.60760768507
 30
0.0
  0
POINT
  5
585
330
47C
100
AcDbEntity
  8
DEFPOINTS
  6
Continuous
 62
     0
100
AcDbPoint
 10
31242.3464243321
 20
14612.60760768484
 30
0.0
  0
POINT
  5
586
330
47C
100
AcDbEntity
  8
DEFPOINTS
  6
Continuous
 62
     0
100
AcDbPoint
 10
32242.3464243321
 20
14612.60760768484
 30
0.0
  0
ENDBLK
  5
487
330
47C
100
AcDbEntity
  8
0
100
AcDbBlockEnd
  0
BLOCK
  5
492
330
488
100
AcDbEntity
  8
0
100
AcDbBlockBegin
  2
*D8
 70
     1
 10
0.0
 20
0.0
 30
0.0
  3
*D8
  1

  0
LINE
  5
587
330
488
100
AcDbEntity
  8
寸法
  6
Continuous
370
    -2
100
AcDbLine
 10
37542.3464243321
 20
11632.60760768495
 30
0.0
 11
38242.34642433209
 21
11632.60760768495
 31
0.0
  0
LINE
  5
588
330
488
100
AcDbEntity
  8
寸法
  6
Continuous
370
    -2
100
AcDbLine
 10
37542.3464243321
 20
23632.60760768496
 30
0.0
 11
38242.3464243321
 21
23632.60760768496
 31
0.0
  0
LINE
  5
589
330
488
100
AcDbEntity
  8
寸法
  6
Continuous
370
    -2
100
AcDbLine
 10
38242.34642433209
 20
11692.60760768495
 30
0.0
 11
38242.3464243321
 21
23572.60760768496
 31
0.0
  0
INSERT
  5
58A
330
488
100
AcDbEntity
  8
寸法
  6
Continuous
370
    -2
100
AcDbBlockReference
  2
_ORIGIN
 10
38242.34642433209
 20
11632.60760768495
 30
0.0
 41
60.0
 42
60.0
 43
60.0
 50
270.0
  0
INSERT
  5
58B
330
488
100
AcDbEntity
  8
寸法
  6
Continuous
370
    -2
100
AcDbBlockReference
  2
_ORIGIN
 10
38242.3464243321
 20
23632.60760768496
 30
0.0
 41
60.0
 42
60.0
 43
60.0
 50
90.0
  0
MTEXT
  5
58C
330
488
100
AcDbEntity
  8
寸法
  6
Continuous
100
AcDbMText
 10
37963.77499576067
 20
17632.60760768496
 30
0.0
 40
300.0
 41
0.0
 71
     5
 72
     1
  1
\A1;12,000
  7
1_100
 11
0.0000000000000001
 21
1.0
 31
0.0
 73
     1
 44
1.0
1001
ACAD
1000
MTEXTBEGIN
1070
    73
1070
     1
1070
    44
1040
1.0
1070
    74
1070
     0
1000
MTEXTEND
  0
POINT
  5
58D
330
488
100
AcDbEntity
  8
DEFPOINTS
  6
Continuous
 62
     0
100
AcDbPoint
 10
37242.3464243321
 20
11632.60760768495
 30
0.0
  0
POINT
  5
58E
330
488
100
AcDbEntity
  8
DEFPOINTS
  6
Continuous
 62
     0
100
AcDbPoint
 10
37242.3464243321
 20
23632.60760768496
 30
0.0
  0
POINT
  5
58F
330
488
100
AcDbEntity
  8
DEFPOINTS
  6
Continuous
 62
     0
100
AcDbPoint
 10
38242.3464243321
 20
23632.60760768496
 30
0.0
  0
ENDBLK
  5
493
330
488
100
AcDbEntity
  8
0
100
AcDbBlockEnd
  0
BLOCK
  5
49E
330
494
100
AcDbEntity
  8
0
100
AcDbBlockBegin
  2
*D9
 70
     1
 10
0.0
 20
0.0
 30
0.0
  3
*D9
  1

  0
LINE
  5
590
330
494
100
AcDbEntity
  8
寸法
  6
Continuous
370
    -2
100
AcDbLine
 10
37542.3464243321
 20
9132.607607684953
 30
0.0
 11
38242.3464243321
 21
9132.607607684953
 31
0.0
  0
LINE
  5
591
330
494
100
AcDbEntity
  8
寸法
  6
Continuous
370
    -2
100
AcDbLine
 10
37542.3464243321
 20
11632.60760768495
 30
0.0
 11
38242.3464243321
 21
11632.60760768495
 31
0.0
  0
LINE
  5
592
330
494
100
AcDbEntity
  8
寸法
  6
Continuous
370
    -2
100
AcDbLine
 10
38242.3464243321
 20
9192.607607684957
 30
0.0
 11
38242.3464243321
 21
11572.60760768495
 31
0.0
  0
INSERT
  5
593
330
494
100
AcDbEntity
  8
寸法
  6
Continuous
370
    -2
100
AcDbBlockReference
  2
_ORIGIN
 10
38242.3464243321
 20
9132.607607684953
 30
0.0
 41
60.0
 42
60.0
 43
60.0
 50
270.0
  0
INSERT
  5
594
330
494
100
AcDbEntity
  8
寸法
  6
Continuous
370
    -2
100
AcDbBlockReference
  2
_ORIGIN
 10
38242.3464243321
 20
11632.60760768495
 30
0.0
 41
60.0
 42
60.0
 43
60.0
 50
90.0
  0
MTEXT
  5
595
330
494
100
AcDbEntity
  8
寸法
  6
Continuous
100
AcDbMText
 10
37963.77499576067
 20
10382.60760768496
 30
0.0
 40
300.0
 41
0.0
 71
     5
 72
     1
  1
\A1;2,500
  7
1_100
 11
0.0000000000000001
 21
1.0
 31
0.0
 73
     1
 44
1.0
1001
ACAD
1000
MTEXTBEGIN
1070
    73
1070
     1
1070
    44
1040
1.0
1070
    74
1070
     0
1000
MTEXTEND
  0
POINT
  5
596
330
494
100
AcDbEntity
  8
DEFPOINTS
  6
Continuous
 62
     0
100
AcDbPoint
 10
37242.3464243321
 20
9132.607607684953
 30
0.0
  0
POINT
  5
597
330
494
100
AcDbEntity
  8
DEFPOINTS
  6
Continuous
 62
     0
100
AcDbPoint
 10
37242.3464243321
 20
11632.60760768495
 30
0.0
  0
POINT
  5
598
330
494
100
AcDbEntity
  8
DEFPOINTS
  6
Continuous
 62
     0
100
AcDbPoint
 10
38242.3464243321
 20
11632.60760768495
 30
0.0
  0
ENDBLK
  5
49F
330
494
100
AcDbEntity
  8
0
100
AcDbBlockEnd
  0
BLOCK
  5
4AA
330
4A0
100
AcDbEntity
  8
0
100
AcDbBlockBegin
  2
*D10
 70
     1
 10
0.0
 20
0.0
 30
0.0
  3
*D10
  1

  0
LINE
  5
599
330
4A0
100
AcDbEntity
  8
DEFPOINTS
370
    -2
100
AcDbLine
 10
36176.04642433205
 20
16132.60760768495
 30
0.0
 11
42980.67410398642
 21
16132.60760768495
 31
0.0
  0
LINE
  5
59A
330
4A0
100
AcDbEntity
  8
DEFPOINTS
370
    -2
100
AcDbLine
 10
38192.3464243321
 20
9132.607607684953
 30
0.0
 11
42980.67410398642
 21
9132.607607684953
 31
0.0
  0
LINE
  5
59B
330
4A0
100
AcDbEntity
  8
DEFPOINTS
370
    -2
100
AcDbLine
 10
42980.67410398642
 20
16072.60760768495
 30
0.0
 11
42980.67410398642
 21
9192.607607684957
 31
0.0
  0
INSERT
  5
59C
330
4A0
100
AcDbEntity
  8
DEFPOINTS
370
    -2
100
AcDbBlockReference
  2
_ORIGIN
 10
42980.67410398642
 20
16132.60760768495
 30
0.0
 41
60.0
 42
60.0
 43
60.0
 50
90.0
  0
INSERT
  5
59D
330
4A0
100
AcDbEntity
  8
DEFPOINTS
370
    -2
100
AcDbBlockReference
  2
_ORIGIN
 10
42980.67410398642
 20
9132.607607684953
 30
0.0
 41
60.0
 42
60.0
 43
60.0
 50
270.0
  0
MTEXT
  5
59E
330
4A0
100
AcDbEntity
  8
DEFPOINTS
100
AcDbMText
 10
42702.102675415
 20
12632.60760768496
 30
0.0
 40
300.0
 41
0.0
 71
     5
 72
     1
  1
\A1;7,000
  7
1_100
 11
0.0000000000000001
 21
1.0
 31
0.0
 73
     1
 44
1.0
1001
ACAD
1000
MTEXTBEGIN
1070
    73
1070
     1
1070
    44
1040
1.0
1070
    74
1070
     0
1000
MTEXTEND
  0
POINT
  5
59F
330
4A0
100
AcDbEntity
  8
DEFPOINTS
 62
     0
100
AcDbPoint
 10
35876.04642433205
 20
16132.60760768495
 30
0.0
  0
POINT
  5
5A0
330
4A0
100
AcDbEntity
  8
DEFPOINTS
 62
     0
100
AcDbPoint
 10
37892.3464243321
 20
9132.607607684953
 30
0.0
  0
POINT
  5
5A1
330
4A0
100
AcDbEntity
  8
DEFPOINTS
 62
     0
100
AcDbPoint
 10
42980.67410398642
 20
9132.607607684953
 30
0.0
  0
ENDBLK
  5
4AB
330
4A0
100
AcDbEntity
  8
0
100
AcDbBlockEnd
  0
BLOCK
  5
4B6
330
4AC
100
AcDbEntity
  8
0
100
AcDbBlockBegin
  2
*D11
 70
     1
 10
0.0
 20
0.0
 30
0.0
  3
*D11
  1

  0
LINE
  5
5A2
330
4AC
100
AcDbEntity
  8
寸法
  6
Continuous
370
    -2
100
AcDbLine
 10
13242.3464243321
 20
7927.75416360299
 30
0.0
 11
13242.3464243321
 21
7552.754163603342
 31
0.0
  0
LINE
  5
5A3
330
4AC
100
AcDbEntity
  8
寸法
  6
Continuous
370
    -2
100
AcDbLine
 10
23242.3464243321
 20
8277.913476139465
 30
0.0
 11
23242.3464243321
 21
7552.754163603342
 31
0.0
  0
LINE
  5
5A4
330
4AC
100
AcDbEntity
  8
寸法
  6
Continuous
370
    -2
100
AcDbLine
 10
13302.3464243321
 20
7552.754163603342
 30
0.0
 11
23182.3464243321
 21
7552.754163603342
 31
0.0
  0
INSERT
  5
5A5
330
4AC
100
AcDbEntity
  8
寸法
  6
Continuous
370
    -2
100
AcDbBlockReference
  2
_ORIGIN
 10
13242.3464243321
 20
7552.754163603342
 30
0.0
 41
60.0
 42
60.0
 43
60.0
 50
180.0
  0
INSERT
  5
5A6
330
4AC
100
AcDbEntity
  8
寸法
  6
Continuous
370
    -2
100
AcDbBlockReference
  2
_ORIGIN
 10
23242.3464243321
 20
7552.754163603342
 30
0.0
 41
60.0
 42
60.0
 43
60.0
  0
MTEXT
  5
5A7
330
4AC
100
AcDbEntity
  8
寸法
  6
Continuous
100
AcDbMText
 10
18242.3464243321
 20
7831.325592174768
 30
0.0
 40
300.0
 41
0.0
 71
     5
 72
     1
  1
\A1;10,000
  7
1_100
 73
     1
 44
1.0
1001
ACAD
1000
MTEXTBEGIN
1070
    73
1070
     1
1070
    44
1040
1.0
1070
    74
1070
     0
1000
MTEXTEND
  0
POINT
  5
5A8
330
4AC
100
AcDbEntity
  8
DEFPOINTS
  6
Continuous
 62
     0
100
AcDbPoint
 10
13242.3464243321
 20
8227.754163602991
 30
0.0
  0
POINT
  5
5A9
330
4AC
100
AcDbEntity
  8
DEFPOINTS
  6
Continuous
 62
     0
100
AcDbPoint
 10
23242.3464243321
 20
8577.913476139467
 30
0.0
  0
POINT
  5
5AA
330
4AC
100
AcDbEntity
  8
DEFPOINTS
  6
Continuous
 62
     0
100
AcDbPoint
 10
23242.3464243321
 20
7552.754163603342
 30
0.0
  0
ENDBLK
  5
4B7
330
4AC
100
AcDbEntity
  8
0
100
AcDbBlockEnd
  0
BLOCK
  5
4C2
330
4B8
100
AcDbEntity
  8
0
100
AcDbBlockBegin
  2
*D12
 70
     1
 10
0.0
 20
0.0
 30
0.0
  3
*D12
  1

  0
LINE
  5
5AB
330
4B8
100
AcDbEntity
  8
寸法
  6
Continuous
370
    -2
100
AcDbLine
 10
13017.3464243321
 20
8732.607607684839
 30
0.0
 11
13017.3464243321
 21
8532.60760768507
 31
0.0
  0
LINE
  5
5AC
330
4B8
100
AcDbEntity
  8
寸法
  6
Continuous
370
    -2
100
AcDbLine
 10
13467.3464243321
 20
8732.607607684839
 30
0.0
 11
13467.3464243321
 21
8532.60760768507
 31
0.0
  0
LINE
  5
5AD
330
4B8
100
AcDbEntity
  8
寸法
  6
Continuous
370
    -2
100
AcDbLine
 10
13077.3464243321
 20
8532.60760768507
 30
0.0
 11
13407.3464243321
 21
8532.60760768507
 31
0.0
  0
MTEXT
  5
5AE
330
4B8
100
AcDbEntity
  8
寸法
  6
Continuous
100
AcDbMText
 10
12287.56877733555
 20
8733.395319846733
 30
0.0
 40
300.0
 41
0.0
 71
     5
 72
     1
  1
\A1;φ450
  7
1_100
 73
     1
 44
1.0
1001
ACAD
1000
MTEXTBEGIN
1070
    73
1070
     1
1070
    44
1040
1.0
1070
    74
1070
     0
1000
MTEXTEND
  0
INSERT
  5
5AF
330
4B8
100
AcDbEntity
  8
寸法
  6
Continuous
370
    -2
100
AcDbBlockReference
  2
_ORIGIN
 10
13017.3464243321
 20
8532.60760768507
 30
0.0
 41
60.0
 42
60.0
 43
60.0
 50
180.0
  0
INSERT
  5
5B0
330
4B8
100
AcDbEntity
  8
寸法
  6
Continuous
370
    -2
100
AcDbBlockReference
  2
_ORIGIN
 10
13467.3464243321
 20
8532.60760768507
 30
0.0
 41
60.0
 42
60.0
 43
60.0
  0
POINT
  5
5B1
330
4B8
100
AcDbEntity
  8
DEFPOINTS
  6
Continuous
 62
     0
100
AcDbPoint
 10
13017.3464243321
 20
9032.607607684838
 30
0.0
  0
POINT
  5
5B2
330
4B8
100
AcDbEntity
  8
DEFPOINTS
  6
Continuous
 62
     0
100
AcDbPoint
 10
13467.3464243321
 20
9032.607607684838
 30
0.0
  0
POINT
  5
5B3
330
4B8
100
AcDbEntity
  8
DEFPOINTS
  6
Continuous
 62
     0
100
AcDbPoint
 10
13467.3464243321
 20
8532.60760768507
 30
0.0
  0
ENDBLK
  5
4C3
330
4B8
100
AcDbEntity
  8
0
100
AcDbBlockEnd
  0
BLOCK
  5
4CE
330
4C4
100
AcDbEntity
  8
0
100
AcDbBlockBegin
  2
*D13
 70
     1
 10
0.0
 20
0.0
 30
0.0
  3
*D13
  1

  0
LINE
  5
5B4
330
4C4
100
AcDbEntity
  8
寸法
  6
Continuous
370
    -2
100
AcDbLine
 10
12892.34642433209
 20
8732.607607684723
 30
0.0
 11
12892.34642433209
 21
7995.28772823179
 31
0.0
  0
LINE
  5
5B5
330
4C4
100
AcDbEntity
  8
寸法
  6
Continuous
370
    -2
100
AcDbLine
 10
13592.3464243321
 20
8732.607607684723
 30
0.0
 11
13592.3464243321
 21
7995.28772823179
 31
0.0
  0
LINE
  5
5B6
330
4C4
100
AcDbEntity
  8
寸法
  6
Continuous
370
    -2
100
AcDbLine
 10
12952.34642433209
 20
7995.28772823179
 30
0.0
 11
13532.3464243321
 21
7995.28772823179
 31
0.0
  0
MTEXT
  5
5B7
330
4C4
100
AcDbEntity
  8
寸法
  6
Continuous
100
AcDbMText
 10
12308.38958625947
 20
8157.913260095446
 30
0.0
 40
300.0
 41
0.0
 71
     5
 72
     1
  1
\A1;□700
  7
1_100
 73
     1
 44
1.0
1001
ACAD
1000
MTEXTBEGIN
1070
    73
1070
     1
1070
    44
1040
1.0
1070
    74
1070
     0
1000
MTEXTEND
  0
INSERT
  5
5B8
330
4C4
100
AcDbEntity
  8
寸法
  6
Continuous
370
    -2
100
AcDbBlockReference
  2
_ORIGIN
 10
12892.34642433209
 20
7995.28772823179
 30
0.0
 41
60.0
 42
60.0
 43
60.0
 50
180.0
  0
INSERT
  5
5B9
330
4C4
100
AcDbEntity
  8
寸法
  6
Continuous
370
    -2
100
AcDbBlockReference
  2
_ORIGIN
 10
13592.3464243321
 20
7995.28772823179
 30
0.0
 41
60.0
 42
60.0
 43
60.0
  0
POINT
  5
5BA
330
4C4
100
AcDbEntity
  8
DEFPOINTS
  6
Continuous
 62
     0
100
AcDbPoint
 10
12892.34642433209
 20
9032.607607684722
 30
0.0
  0
POINT
  5
5BB
330
4C4
100
AcDbEntity
  8
DEFPOINTS
  6
Continuous
 62
     0
100
AcDbPoint
 10
13592.3464243321
 20
9032.607607684722
 30
0.0
  0
POINT
  5
5BC
330
4C4
100
AcDbEntity
  8
DEFPOINTS
  6
Continuous
 62
     0
100
AcDbPoint
 10
13592.3464243321
 20
7995.28772823179
 30
0.0
  0
ENDBLK
  5
4CF
330
4C4
100
AcDbEntity
  8
0
100
AcDbBlockEnd
  0
BLOCK
  5
4DA
330
4D0
100
AcDbEntity
  8
0
100
AcDbBlockBegin
  2
*D14
 70
     1
 10
0.0
 20
0.0
 30
0.0
  3
*D14
  1

  0
LINE
  5
5BD
330
4D0
100
AcDbEntity
  8
寸法
  6
Continuous
370
    -2
100
AcDbLine
 10
35517.3464243321
 20
8732.607607684952
 30
0.0
 11
35517.3464243321
 21
8532.607607685188
 31
0.0
  0
LINE
  5
5BE
330
4D0
100
AcDbEntity
  8
寸法
  6
Continuous
370
    -2
100
AcDbLine
 10
35967.3464243321
 20
8732.607607684952
 30
0.0
 11
35967.3464243321
 21
8532.607607685188
 31
0.0
  0
LINE
  5
5BF
330
4D0
100
AcDbEntity
  8
寸法
  6
Continuous
370
    -2
100
AcDbLine
 10
35577.3464243321
 20
8532.607607685188
 30
0.0
 11
35907.3464243321
 21
8532.607607685188
 31
0.0
  0
MTEXT
  5
5C0
330
4D0
100
AcDbEntity
  8
寸法
  6
Continuous
100
AcDbMText
 10
34787.56877733555
 20
8733.395319846851
 30
0.0
 40
300.0
 41
0.0
 71
     5
 72
     1
  1
\A1;φ450
  7
1_100
 73
     1
 44
1.0
1001
ACAD
1000
MTEXTBEGIN
1070
    73
1070
     1
1070
    44
1040
1.0
1070
    74
1070
     0
1000
MTEXTEND
  0
INSERT
  5
5C1
330
4D0
100
AcDbEntity
  8
寸法
  6
Continuous
370
    -2
100
AcDbBlockReference
  2
_ORIGIN
 10
35517.3464243321
 20
8532.607607685188
 30
0.0
 41
60.0
 42
60.0
 43
60.0
 50
180.0
  0
INSERT
  5
5C2
330
4D0
100
AcDbEntity
  8
寸法
  6
Continuous
370
    -2
100
AcDbBlockReference
  2
_ORIGIN
 10
35967.3464243321
 20
8532.607607685188
 30
0.0
 41
60.0
 42
60.0
 43
60.0
  0
POINT
  5
5C3
330
4D0
100
AcDbEntity
  8
DEFPOINTS
  6
Continuous
 62
     0
100
AcDbPoint
 10
35517.3464243321
 20
9032.607607684957
 30
0.0
  0
POINT
  5
5C4
330
4D0
100
AcDbEntity
  8
DEFPOINTS
  6
Continuous
 62
     0
100
AcDbPoint
 10
35967.3464243321
 20
9032.607607684957
 30
0.0
  0
POINT
  5
5C5
330
4D0
100
AcDbEntity
  8
DEFPOINTS
  6
Continuous
 62
     0
100
AcDbPoint
 10
35967.3464243321
 20
8532.607607685188
 30
0.0
  0
ENDBLK
  5
4DB
330
4D0
100
AcDbEntity
  8
0
100
AcDbBlockEnd
  0
BLOCK
  5
4E8
330
4DC
100
AcDbEntity
  8
0
100
AcDbBlockBegin
  2
*D15
 70
     1
 10
0.0
 20
0.0
 30
0.0
  3
*D15
  1

  0
LINE
  5
5C6
330
4DC
100
AcDbEntity
  8
寸法
  6
Continuous
370
    -2
100
AcDbLine
 10
35392.3464243321
 20
8732.607607684839
 30
0.0
 11
35392.3464243321
 21
8232.607607684839
 31
0.0
  0
LINE
  5
5C7
330
4DC
100
AcDbEntity
  8
寸法
  6
Continuous
370
    -2
100
AcDbLine
 10
36092.3464243321
 20
8732.607607684839
 30
0.0
 11
36092.3464243321
 21
8232.607607684839
 31
0.0
  0
LINE
  5
5C8
330
4DC
100
AcDbEntity
  8
寸法
  6
Continuous
370
    -2
100
AcDbLine
 10
35332.3464243321
 20
8232.607607684839
 30
0.0
 11
35272.3464243321
 21
8232.607607684839
 31
0.0
  0
LINE
  5
5C9
330
4DC
100
AcDbEntity
  8
寸法
  6
Continuous
370
    -2
100
AcDbLine
 10
36152.3464243321
 20
8232.607607684839
 30
0.0
 11
36212.3464243321
 21
8232.607607684839
 31
0.0
  0
LINE
  5
5CA
330
4DC
100
AcDbEntity
  8
寸法
  6
Continuous
370
    -2
100
AcDbLine
 10
35392.3464243321
 20
8232.607607684839
 30
0.0
 11
36092.3464243321
 21
8232.607607684839
 31
0.0
  0
INSERT
  5
5CB
330
4DC
100
AcDbEntity
  8
寸法
  6
Continuous
370
    -2
100
AcDbBlockReference
  2
_ORIGIN
 10
35392.3464243321
 20
8232.607607684839
 30
0.0
 41
60.0
 42
60.0
 43
60.0
  0
INSERT
  5
5CC
330
4DC
100
AcDbEntity
  8
寸法
  6
Continuous
370
    -2
100
AcDbBlockReference
  2
_ORIGIN
 10
36092.3464243321
 20
8232.607607684839
 30
0.0
 41
60.0
 42
60.0
 43
60.0
 50
180.0
  0
MTEXT
  5
5CD
330
4DC
100
AcDbEntity
  8
寸法
  6
Continuous
100
AcDbMText
 10
35742.3464243321
 20
7982.607607684838
 30
0.0
 40
300.0
 41
0.0
 71
     5
 72
     1
  1
\A1;□700
  7
1_100
 73
     1
 44
1.0
1001
ACAD
1000
MTEXTBEGIN
1070
    73
1070
     1
1070
    44
1040
1.0
1070
    74
1070
     0
1000
MTEXTEND
  0
POINT
  5
5CE
330
4DC
100
AcDbEntity
  8
DEFPOINTS
  6
Continuous
 62
     0
100
AcDbPoint
 10
35392.3464243321
 20
9032.607607684838
 30
0.0
  0
POINT
  5
5CF
330
4DC
100
AcDbEntity
  8
DEFPOINTS
  6
Continuous
 62
     0
100
AcDbPoint
 10
36092.3464243321
 20
9032.607607684838
 30
0.0
  0
POINT
  5
5D0
330
4DC
100
AcDbEntity
  8
DEFPOINTS
  6
Continuous
 62
     0
100
AcDbPoint
 10
36092.3464243321
 20
8232.607607684839
 30
0.0
  0
ENDBLK
  5
4E9
330
4DC
100
AcDbEntity
  8
0
100
AcDbBlockEnd
  0
BLOCK
  5
4F6
330
4EA
100
AcDbEntity
  8
0
100
AcDbBlockBegin
  2
*D16
 70
     1
 10
0.0
 20
0.0
 30
0.0
  3
*D16
  1

  0
LINE
  5
5D1
330
4EA
100
AcDbEntity
  8
寸法
  6
Continuous
370
    -2
100
AcDbLine
 10
31542.3464243321
 20
11632.60760768495
 30
0.0
 11
32242.3464243321
 21
11632.60760768495
 31
0.0
  0
LINE
  5
5D2
330
4EA
100
AcDbEntity
  8
寸法
  6
Continuous
370
    -2
100
AcDbLine
 10
31542.3464243321
 20
11332.60760768484
 30
0.0
 11
32242.3464243321
 21
11332.60760768484
 31
0.0
  0
LINE
  5
5D3
330
4EA
100
AcDbEntity
  8
寸法
  6
Continuous
370
    -2
100
AcDbLine
 10
32242.3464243321
 20
11692.60760768495
 30
0.0
 11
32242.3464243321
 21
11752.60760768495
 31
0.0
  0
LINE
  5
5D4
330
4EA
100
AcDbEntity
  8
寸法
  6
Continuous
370
    -2
100
AcDbLine
 10
32242.3464243321
 20
11272.60760768484
 30
0.0
 11
32242.3464243321
 21
11212.60760768484
 31
0.0
  0
MTEXT
  5
5D5
330
4EA
100
AcDbEntity
  8
寸法
  6
Continuous
100
AcDbMText
 10
32507.28760683278
 20
11220.7917135768
 30
0.0
 40
300.0
 41
0.0
 71
     5
 72
     1
  1
\A1;300
  7
1_100
 11
0.0000000000000001
 21
1.0
 31
0.0
 73
     1
 44
1.0
1001
ACAD
1000
MTEXTBEGIN
1070
    73
1070
     1
1070
    44
1040
1.0
1070
    74
1070
     0
1000
MTEXTEND
  0
LINE
  5
5D6
330
4EA
100
AcDbEntity
  8
寸法
  6
Continuous
370
    -2
100
AcDbLine
 10
32242.3464243321
 20
11632.60760768495
 30
0.0
 11
32242.3464243321
 21
11332.60760768484
 31
0.0
  0
INSERT
  5
5D7
330
4EA
100
AcDbEntity
  8
寸法
  6
Continuous
370
    -2
100
AcDbBlockReference
  2
_ORIGIN
 10
32242.3464243321
 20
11632.60760768495
 30
0.0
 41
60.0
 42
60.0
 43
60.0
 50
270.0
  0
INSERT
  5
5D8
330
4EA
100
AcDbEntity
  8
寸法
  6
Continuous
370
    -2
100
AcDbBlockReference
  2
_ORIGIN
 10
32242.3464243321
 20
11332.60760768484
 30
0.0
 41
60.0
 42
60.0
 43
60.0
 50
90.0
  0
POINT
  5
5D9
330
4EA
100
AcDbEntity
  8
DEFPOINTS
  6
Continuous
 62
     0
100
AcDbPoint
 10
31242.3464243321
 20
11632.60760768495
 30
0.0
  0
POINT
  5
5DA
330
4EA
100
AcDbEntity
  8
DEFPOINTS
  6
Continuous
 62
     0
100
AcDbPoint
 10
31242.3464243321
 20
11332.60760768484
 30
0.0
  0
POINT
  5
5DB
330
4EA
100
AcDbEntity
  8
DEFPOINTS
  6
Continuous
 62
     0
100
AcDbPoint
 10
32242.3464243321
 20
11332.60760768484
 30
0.0
  0
ENDBLK
  5
4F7
330
4EA
100
AcDbEntity
  8
0
100
AcDbBlockEnd
  0
BLOCK
  5
502
330
4F8
100
AcDbEntity
  8
0
100
AcDbBlockBegin
  2
*D17
 70
     1
 10
0.0
 20
0.0
 30
0.0
  3
*D17
  1

  0
LINE
  5
5DC
330
4F8
100
AcDbEntity
  8
寸法
  6
Continuous
370
    -2
100
AcDbLine
 10
31542.3464243321
 20
11632.60760768495
 30
0.0
 11
33242.3464243321
 21
11632.60760768495
 31
0.0
  0
LINE
  5
5DD
330
4F8
100
AcDbEntity
  8
寸法
  6
Continuous
370
    -2
100
AcDbLine
 10
31542.3464243321
 20
9132.607607684953
 30
0.0
 11
33242.3464243321
 21
9132.607607684953
 31
0.0
  0
LINE
  5
5DE
330
4F8
100
AcDbEntity
  8
寸法
  6
Continuous
370
    -2
100
AcDbLine
 10
33242.3464243321
 20
11572.60760768495
 30
0.0
 11
33242.3464243321
 21
9192.607607684957
 31
0.0
  0
INSERT
  5
5DF
330
4F8
100
AcDbEntity
  8
寸法
  6
Continuous
370
    -2
100
AcDbBlockReference
  2
_ORIGIN
 10
33242.3464243321
 20
11632.60760768495
 30
0.0
 41
60.0
 42
60.0
 43
60.0
 50
90.0
  0
INSERT
  5
5E0
330
4F8
100
AcDbEntity
  8
寸法
  6
Continuous
370
    -2
100
AcDbBlockReference
  2
_ORIGIN
 10
33242.3464243321
 20
9132.607607684953
 30
0.0
 41
60.0
 42
60.0
 43
60.0
 50
270.0
  0
MTEXT
  5
5E1
330
4F8
100
AcDbEntity
  8
寸法
  6
Continuous
100
AcDbMText
 10
32963.77499576067
 20
10382.60760768496
 30
0.0
 40
300.0
 41
0.0
 71
     5
 72
     1
  1
\A1;2,500
  7
1_100
 11
0.0000000000000001
 21
1.0
 31
0.0
 73
     1
 44
1.0
1001
ACAD
1000
MTEXTBEGIN
1070
    73
1070
     1
1070
    44
1040
1.0
1070
    74
1070
     0
1000
MTEXTEND
  0
POINT
  5
5E2
330
4F8
100
AcDbEntity
  8
DEFPOINTS
  6
Continuous
 62
     0
100
AcDbPoint
 10
31242.3464243321
 20
11632.60760768495
 30
0.0
  0
POINT
  5
5E3
330
4F8
100
AcDbEntity
  8
DEFPOINTS
  6
Continuous
 62
     0
100
AcDbPoint
 10
31242.3464243321
 20
9132.607607684953
 30
0.0
  0
POINT
  5
5E4
330
4F8
100
AcDbEntity
  8
DEFPOINTS
  6
Continuous
 62
     0
100
AcDbPoint
 10
33242.3464243321
 20
9132.607607684953
 30
0.0
  0
ENDBLK
  5
503
330
4F8
100
AcDbEntity
  8
0
100
AcDbBlockEnd
  0
BLOCK
  5
510
330
504
100
AcDbEntity
  8
0
100
AcDbBlockBegin
  2
*D18
 70
     1
 10
0.0
 20
0.0
 30
0.0
  3
*D18
  1

  0
LINE
  5
5E5
330
504
100
AcDbEntity
  8
寸法
  6
Continuous
370
    -2
100
AcDbLine
 10
31542.3464243321
 20
9132.607607684953
 30
0.0
 11
32242.3464243321
 21
9132.607607684953
 31
0.0
  0
LINE
  5
5E6
330
504
100
AcDbEntity
  8
寸法
  6
Continuous
370
    -2
100
AcDbLine
 10
31542.3464243321
 20
9032.60760768507
 30
0.0
 11
32242.3464243321
 21
9032.60760768507
 31
0.0
  0
LINE
  5
5E7
330
504
100
AcDbEntity
  8
寸法
  6
Continuous
370
    -2
100
AcDbLine
 10
32242.3464243321
 20
9192.607607684957
 30
0.0
 11
32242.3464243321
 21
9252.607607684955
 31
0.0
  0
LINE
  5
5E8
330
504
100
AcDbEntity
  8
寸法
  6
Continuous
370
    -2
100
AcDbLine
 10
32242.3464243321
 20
8972.607607685072
 30
0.0
 11
32242.3464243321
 21
8912.607607685071
 31
0.0
  0
MTEXT
  5
5E9
330
504
100
AcDbEntity
  8
寸法
  6
Continuous
100
AcDbMText
 10
31982.72977342944
 20
8607.248046861771
 30
0.0
 40
300.0
 41
0.0
 71
     5
 72
     1
  1
\A1;100
  7
1_100
 11
0.0000000000000001
 21
1.0
 31
0.0
 73
     1
 44
1.0
1001
ACAD
1000
MTEXTBEGIN
1070
    73
1070
     1
1070
    44
1040
1.0
1070
    74
1070
     0
1000
MTEXTEND
  0
LINE
  5
5EA
330
504
100
AcDbEntity
  8
寸法
  6
Continuous
370
    -2
100
AcDbLine
 10
32242.3464243321
 20
9132.607607684953
 30
0.0
 11
32242.3464243321
 21
9032.60760768507
 31
0.0
  0
INSERT
  5
5EB
330
504
100
AcDbEntity
  8
寸法
  6
Continuous
370
    -2
100
AcDbBlockReference
  2
_ORIGIN
 10
32242.3464243321
 20
9132.607607684953
 30
0.0
 41
60.0
 42
60.0
 43
60.0
 50
270.0
  0
INSERT
  5
5EC
330
504
100
AcDbEntity
  8
寸法
  6
Continuous
370
    -2
100
AcDbBlockReference
  2
_ORIGIN
 10
32242.3464243321
 20
9032.60760768507
 30
0.0
 41
60.0
 42
60.0
 43
60.0
 50
90.0
  0
POINT
  5
5ED
330
504
100
AcDbEntity
  8
DEFPOINTS
  6
Continuous
 62
     0
100
AcDbPoint
 10
31242.3464243321
 20
9132.607607684953
 30
0.0
  0
POINT
  5
5EE
330
504
100
AcDbEntity
  8
DEFPOINTS
  6
Continuous
 62
     0
100
AcDbPoint
 10
31242.3464243321
 20
9032.60760768507
 30
0.0
  0
POINT
  5
5EF
330
504
100
AcDbEntity
  8
DEFPOINTS
  6
Continuous
 62
     0
100
AcDbPoint
 10
32242.3464243321
 20
9032.60760768507
 30
0.0
  0
ENDBLK
  5
511
330
504
100
AcDbEntity
  8
0
100
AcDbBlockEnd
  0
BLOCK
  5
51C
330
512
100
AcDbEntity
  8
0
100
AcDbBlockBegin
  2
*D19
 70
     1
 10
0.0
 20
0.0
 30
0.0
  3
*D19
  1

  0
LINE
  5
5F0
330
512
100
AcDbEntity
  8
寸法
  6
Continuous
370
    -2
100
AcDbLine
 10
31542.3464243321
 20
11332.60760768484
 30
0.0
 11
32242.3464243321
 21
11332.60760768484
 31
0.0
  0
LINE
  5
5F1
330
512
100
AcDbEntity
  8
寸法
  6
Continuous
370
    -2
100
AcDbLine
 10
31542.3464243321
 20
9132.607607684953
 30
0.0
 11
32242.3464243321
 21
9132.607607684953
 31
0.0
  0
LINE
  5
5F2
330
512
100
AcDbEntity
  8
寸法
  6
Continuous
370
    -2
100
AcDbLine
 10
32242.3464243321
 20
11272.60760768484
 30
0.0
 11
32242.3464243321
 21
9192.607607684957
 31
0.0
  0
INSERT
  5
5F3
330
512
100
AcDbEntity
  8
寸法
  6
Continuous
370
    -2
100
AcDbBlockReference
  2
_ORIGIN
 10
32242.3464243321
 20
11332.60760768484
 30
0.0
 41
60.0
 42
60.0
 43
60.0
 50
90.0
  0
INSERT
  5
5F4
330
512
100
AcDbEntity
  8
寸法
  6
Continuous
370
    -2
100
AcDbBlockReference
  2
_ORIGIN
 10
32242.3464243321
 20
9132.607607684953
 30
0.0
 41
60.0
 42
60.0
 43
60.0
 50
270.0
  0
MTEXT
  5
5F5
330
512
100
AcDbEntity
  8
寸法
  6
Continuous
100
AcDbMText
 10
31963.77499576067
 20
10232.6076076849
 30
0.0
 40
300.0
 41
0.0
 71
     5
 72
     1
  1
\A1;2,200
  7
1_100
 11
0.0000000000000001
 21
1.0
 31
0.0
 73
     1
 44
1.0
1001
ACAD
1000
MTEXTBEGIN
1070
    73
1070
     1
1070
    44
1040
1.0
1070
    74
1070
     0
1000
MTEXTEND
  0
POINT
  5
5F6
330
512
100
AcDbEntity
  8
DEFPOINTS
  6
Continuous
 62
     0
100
AcDbPoint
 10
31242.3464243321
 20
11332.60760768484
 30
0.0
  0
POINT
  5
5F7
330
512
100
AcDbEntity
  8
DEFPOINTS
  6
Continuous
 62
     0
100
AcDbPoint
 10
31242.3464243321
 20
9132.607607684953
 30
0.0
  0
POINT
  5
5F8
330
512
100
AcDbEntity
  8
DEFPOINTS
  6
Continuous
 62
     0
100
AcDbPoint
 10
32242.3464243321
 20
9132.607607684953
 30
0.0
  0
ENDBLK
  5
51D
330
512
100
AcDbEntity
  8
0
100
AcDbBlockEnd
  0
BLOCK
  5
528
330
51E
100
AcDbEntity
  8
0
100
AcDbBlockBegin
  2
*D20
 70
     1
 10
0.0
 20
0.0
 30
0.0
  3
*D20
  1

  0
LINE
  5
5F9
330
51E
100
AcDbEntity
  8
寸法
  6
Continuous
370
    -2
100
AcDbLine
 10
31542.3464243321
 20
14612.60760768484
 30
0.0
 11
32242.3464243321
 21
14612.60760768484
 31
0.0
  0
LINE
  5
5FA
330
51E
100
AcDbEntity
  8
寸法
  6
Continuous
370
    -2
100
AcDbLine
 10
31542.3464243321
 20
11632.60760768495
 30
0.0
 11
32242.3464243321
 21
11632.60760768495
 31
0.0
  0
LINE
  5
5FB
330
51E
100
AcDbEntity
  8
寸法
  6
Continuous
370
    -2
100
AcDbLine
 10
32242.3464243321
 20
14552.60760768484
 30
0.0
 11
32242.3464243321
 21
11692.60760768495
 31
0.0
  0
INSERT
  5
5FC
330
51E
100
AcDbEntity
  8
寸法
  6
Continuous
370
    -2
100
AcDbBlockReference
  2
_ORIGIN
 10
32242.3464243321
 20
14612.60760768484
 30
0.0
 41
60.0
 42
60.0
 43
60.0
 50
90.0
  0
INSERT
  5
5FD
330
51E
100
AcDbEntity
  8
寸法
  6
Continuous
370
    -2
100
AcDbBlockReference
  2
_ORIGIN
 10
32242.3464243321
 20
11632.60760768495
 30
0.0
 41
60.0
 42
60.0
 43
60.0
 50
270.0
  0
MTEXT
  5
5FE
330
51E
100
AcDbEntity
  8
寸法
  6
Continuous
100
AcDbMText
 10
31963.77499576067
 20
13122.6076076849
 30
0.0
 40
300.0
 41
0.0
 71
     5
 72
     1
  1
\A1;2,980
  7
1_100
 11
0.0000000000000001
 21
1.0
 31
0.0
 73
     1
 44
1.0
1001
ACAD
1000
MTEXTBEGIN
1070
    73
1070
     1
1070
    44
1040
1.0
1070
    74
1070
     0
1000
MTEXTEND
  0
POINT
  5
5FF
330
51E
100
AcDbEntity
  8
DEFPOINTS
  6
Continuous
 62
     0
100
AcDbPoint
 10
31242.3464243321
 20
14612.60760768484
 30
0.0
  0
POINT
  5
600
330
51E
100
AcDbEntity
  8
DEFPOINTS
  6
Continuous
 62
     0
100
AcDbPoint
 10
31242.3464243321
 20
11632.60760768495
 30
0.0
  0
POINT
  5
601
330
51E
100
AcDbEntity
  8
DEFPOINTS
  6
Continuous
 62
     0
100
AcDbPoint
 10
32242.3464243321
 20
11632.60760768495
 30
0.0
  0
ENDBLK
  5
529
330
51E
100
AcDbEntity
  8
0
100
AcDbBlockEnd
  0
BLOCK
  5
536
330
52A
100
AcDbEntity
  8
0
100
AcDbBlockBegin
  2
*D21
 70
     1
 10
0.0
 20
0.0
 30
0.0
  3
*D21
  1

  0
LINE
  5
9E9
330
52A
100
AcDbEntity
  8
寸法
  6
Continuous
370
    -2
100
AcDbLine
 10
13134.19642433219
 20
23932.60760768496
 30
0.0
 11
13134.19642433219
 21
24232.60760768496
 31
0.0
  0
LINE
  5
9EA
330
52A
100
AcDbEntity
  8
寸法
  6
Continuous
370
    -2
100
AcDbLine
 10
13350.496424332
 20
23932.60760768496
 30
0.0
 11
13350.496424332
 21
24232.60760768496
 31
0.0
  0
LINE
  5
9EB
330
52A
100
AcDbEntity
  8
寸法
  6
Continuous
370
    -2
100
AcDbLine
 10
13074.19642433219
 20
24232.60760768496
 30
0.0
 11
13014.19642433219
 21
24232.60760768496
 31
0.0
  0
LINE
  5
9EC
330
52A
100
AcDbEntity
  8
寸法
  6
Continuous
370
    -2
100
AcDbLine
 10
13410.496424332
 20
24232.60760768496
 30
0.0
 11
13470.496424332
 21
24232.60760768496
 31
0.0
  0
MTEXT
  5
9ED
330
52A
100
AcDbEntity
  8
寸法
  6
Continuous
100
AcDbMText
 10
13242.34642433209
 20
24532.60760768496
 30
0.0
 40
300.0
 41
0.0
 71
     5
 72
     1
  1
\A1;φ216.3
  7
1_100
 73
     1
 44
1.0
1001
ACAD
1000
MTEXTBEGIN
1070
    73
1070
     1
1070
    44
1040
1.0
1070
    74
1070
     0
1000
MTEXTEND
  0
LINE
  5
9EE
330
52A
100
AcDbEntity
  8
寸法
  6
Continuous
370
    -2
100
AcDbLine
 10
13134.19642433219
 20
24232.60760768496
 30
0.0
 11
13350.496424332
 21
24232.60760768496
 31
0.0
  0
INSERT
  5
9EF
330
52A
100
AcDbEntity
  8
寸法
  6
Continuous
370
    -2
100
AcDbBlockReference
  2
_ORIGIN
 10
13134.19642433219
 20
24232.60760768496
 30
0.0
 41
60.0
 42
60.0
 43
60.0
  0
INSERT
  5
9F0
330
52A
100
AcDbEntity
  8
寸法
  6
Continuous
370
    -2
100
AcDbBlockReference
  2
_ORIGIN
 10
13350.496424332
 20
24232.60760768496
 30
0.0
 41
60.0
 42
60.0
 43
60.0
 50
180.0
  0
POINT
  5
9F1
330
52A
100
AcDbEntity
  8
DEFPOINTS
  6
Continuous
 62
     0
100
AcDbPoint
 10
13134.19642433219
 20
23632.60760768496
 30
0.0
  0
POINT
  5
9F2
330
52A
100
AcDbEntity
  8
DEFPOINTS
  6
Continuous
 62
     0
100
AcDbPoint
 10
13350.496424332
 20
23632.60760768496
 30
0.0
  0
POINT
  5
9F3
330
52A
100
AcDbEntity
  8
DEFPOINTS
  6
Continuous
 62
     0
100
AcDbPoint
 10
13350.496424332
 20
24232.60760768496
 30
0.0
  0
ENDBLK
  5
537
330
52A
100
AcDbEntity
  8
0
100
AcDbBlockEnd
  0
BLOCK
  5
544
330
538
100
AcDbEntity
  8
0
100
AcDbBlockBegin
  2
*D22
 70
     1
 10
0.0
 20
0.0
 30
0.0
  3
*D22
  1

  0
LINE
  5
60D
330
538
100
AcDbEntity
  8
寸法
  6
Continuous
370
    -2
100
AcDbLine
 10
35634.19642433196
 20
23932.60760768496
 30
0.0
 11
35634.19642433196
 21
24232.60760768496
 31
0.0
  0
LINE
  5
60E
330
538
100
AcDbEntity
  8
寸法
  6
Continuous
370
    -2
100
AcDbLine
 10
35850.49642433201
 20
23932.60760768496
 30
0.0
 11
35850.49642433201
 21
24232.60760768496
 31
0.0
  0
LINE
  5
60F
330
538
100
AcDbEntity
  8
寸法
  6
Continuous
370
    -2
100
AcDbLine
 10
35574.19642433196
 20
24232.60760768496
 30
0.0
 11
35514.19642433196
 21
24232.60760768496
 31
0.0
  0
LINE
  5
610
330
538
100
AcDbEntity
  8
寸法
  6
Continuous
370
    -2
100
AcDbLine
 10
35910.49642433202
 20
24232.60760768496
 30
0.0
 11
35970.49642433201
 21
24232.60760768496
 31
0.0
  0
MTEXT
  5
611
330
538
100
AcDbEntity
  8
寸法
  6
Continuous
100
AcDbMText
 10
35742.34642433198
 20
24532.60760768496
 30
0.0
 40
300.0
 41
0.0
 71
     5
 72
     1
  1
\A1;φ216.3
  7
1_100
 73
     1
 44
1.0
1001
ACAD
1000
MTEXTBEGIN
1070
    73
1070
     1
1070
    44
1040
1.0
1070
    74
1070
     0
1000
MTEXTEND
  0
LINE
  5
612
330
538
100
AcDbEntity
  8
寸法
  6
Continuous
370
    -2
100
AcDbLine
 10
35634.19642433196
 20
24232.60760768496
 30
0.0
 11
35850.49642433201
 21
24232.60760768496
 31
0.0
  0
INSERT
  5
613
330
538
100
AcDbEntity
  8
寸法
  6
Continuous
370
    -2
100
AcDbBlockReference
  2
_ORIGIN
 10
35634.19642433196
 20
24232.60760768496
 30
0.0
 41
60.0
 42
60.0
 43
60.0
  0
INSERT
  5
614
330
538
100
AcDbEntity
  8
寸法
  6
Continuous
370
    -2
100
AcDbBlockReference
  2
_ORIGIN
 10
35850.49642433201
 20
24232.60760768496
 30
0.0
 41
60.0
 42
60.0
 43
60.0
 50
180.0
  0
POINT
  5
615
330
538
100
AcDbEntity
  8
DEFPOINTS
  6
Continuous
 62
     0
100
AcDbPoint
 10
35634.19642433196
 20
23632.60760768496
 30
0.0
  0
POINT
  5
616
330
538
100
AcDbEntity
  8
DEFPOINTS
  6
Continuous
 62
     0
100
AcDbPoint
 10
35850.49642433201
 20
23632.60760768496
 30
0.0
  0
POINT
  5
617
330
538
100
AcDbEntity
  8
DEFPOINTS
  6
Continuous
 62
     0
100
AcDbPoint
 10
35850.49642433201
 20
24232.60760768496
 30
0.0
  0
ENDBLK
  5
545
330
538
100
AcDbEntity
  8
0
100
AcDbBlockEnd
  0
BLOCK
  5
550
330
546
100
AcDbEntity
  8
0
100
AcDbBlockBegin
  2
*D23
 70
     1
 10
0.0
 20
0.0
 30
0.0
  3
*D23
  1

  0
LINE
  5
618
330
546
100
AcDbEntity
  8
寸法
  6
Continuous
370
    -2
100
AcDbLine
 10
31542.3464243321
 20
20582.60760768507
 30
0.0
 11
32242.3464243321
 21
20582.60760768507
 31
0.0
  0
LINE
  5
619
330
546
100
AcDbEntity
  8
寸法
  6
Continuous
370
    -2
100
AcDbLine
 10
31542.3464243321
 20
17592.60760768507
 30
0.0
 11
32242.3464243321
 21
17592.60760768507
 31
0.0
  0
LINE
  5
61A
330
546
100
AcDbEntity
  8
寸法
  6
Continuous
370
    -2
100
AcDbLine
 10
32242.3464243321
 20
20522.60760768507
 30
0.0
 11
32242.3464243321
 21
17652.60760768507
 31
0.0
  0
INSERT
  5
61B
330
546
100
AcDbEntity
  8
寸法
  6
Continuous
370
    -2
100
AcDbBlockReference
  2
_ORIGIN
 10
32242.3464243321
 20
20582.60760768507
 30
0.0
 41
60.0
 42
60.0
 43
60.0
 50
90.0
  0
INSERT
  5
61C
330
546
100
AcDbEntity
  8
寸法
  6
Continuous
370
    -2
100
AcDbBlockReference
  2
_ORIGIN
 10
32242.3464243321
 20
17592.60760768507
 30
0.0
 41
60.0
 42
60.0
 43
60.0
 50
270.0
  0
MTEXT
  5
61D
330
546
100
AcDbEntity
  8
寸法
  6
Continuous
100
AcDbMText
 10
31963.77499576067
 20
19087.60760768507
 30
0.0
 40
300.0
 41
0.0
 71
     5
 72
     1
  1
\A1;2,990
  7
1_100
 11
0.0000000000000001
 21
1.0
 31
0.0
 73
     1
 44
1.0
1001
ACAD
1000
MTEXTBEGIN
1070
    73
1070
     1
1070
    44
1040
1.0
1070
    74
1070
     0
1000
MTEXTEND
  0
POINT
  5
61E
330
546
100
AcDbEntity
  8
DEFPOINTS
  6
Continuous
 62
     0
100
AcDbPoint
 10
31242.3464243321
 20
20582.60760768507
 30
0.0
  0
POINT
  5
61F
330
546
100
AcDbEntity
  8
DEFPOINTS
  6
Continuous
 62
     0
100
AcDbPoint
 10
31242.3464243321
 20
17592.60760768507
 30
0.0
  0
POINT
  5
620
330
546
100
AcDbEntity
  8
DEFPOINTS
  6
Continuous
 62
     0
100
AcDbPoint
 10
32242.3464243321
 20
17592.60760768507
 30
0.0
  0
ENDBLK
  5
551
330
546
100
AcDbEntity
  8
0
100
AcDbBlockEnd
  0
BLOCK
  5
55E
330
552
100
AcDbEntity
  8
0
100
AcDbBlockBegin
  2
*D24
 70
     1
 10
0.0
 20
0.0
 30
0.0
  3
*D24
  1

  0
LINE
  5
621
330
552
100
AcDbEntity
  8
寸法
  6
Continuous
370
    -2
100
AcDbLine
 10
31542.3464243321
 20
23632.60760768496
 30
0.0
 11
32242.3464243321
 21
23632.60760768496
 31
0.0
  0
LINE
  5
622
330
552
100
AcDbEntity
  8
寸法
  6
Continuous
370
    -2
100
AcDbLine
 10
31542.3464243321
 20
23572.60760768496
 30
0.0
 11
32242.3464243321
 21
23572.60760768496
 31
0.0
  0
LINE
  5
623
330
552
100
AcDbEntity
  8
寸法
  6
Continuous
370
    -2
100
AcDbLine
 10
32242.3464243321
 20
23692.60760768496
 30
0.0
 11
32242.3464243321
 21
23752.60760768496
 31
0.0
  0
LINE
  5
624
330
552
100
AcDbEntity
  8
寸法
  6
Continuous
370
    -2
100
AcDbLine
 10
32242.3464243321
 20
23512.60760768496
 30
0.0
 11
32242.3464243321
 21
23452.60760768496
 31
0.0
  0
MTEXT
  5
625
330
552
100
AcDbEntity
  8
寸法
  6
Continuous
100
AcDbMText
 10
31961.02748065696
 20
23961.97151945815
 30
0.0
 40
300.0
 41
0.0
 71
     5
 72
     1
  1
\A1;60
  7
1_100
 11
0.0000000000000001
 21
1.0
 31
0.0
 73
     1
 44
1.0
1001
ACAD
1000
MTEXTBEGIN
1070
    73
1070
     1
1070
    44
1040
1.0
1070
    74
1070
     0
1000
MTEXTEND
  0
LINE
  5
626
330
552
100
AcDbEntity
  8
寸法
  6
Continuous
370
    -2
100
AcDbLine
 10
32242.3464243321
 20
23632.60760768496
 30
0.0
 11
32242.3464243321
 21
23572.60760768496
 31
0.0
  0
INSERT
  5
627
330
552
100
AcDbEntity
  8
寸法
  6
Continuous
370
    -2
100
AcDbBlockReference
  2
_ORIGIN
 10
32242.3464243321
 20
23632.60760768496
 30
0.0
 41
60.0
 42
60.0
 43
60.0
 50
270.0
  0
INSERT
  5
628
330
552
100
AcDbEntity
  8
寸法
  6
Continuous
370
    -2
100
AcDbBlockReference
  2
_ORIGIN
 10
32242.3464243321
 20
23572.60760768496
 30
0.0
 41
60.0
 42
60.0
 43
60.0
 50
90.0
  0
POINT
  5
629
330
552
100
AcDbEntity
  8
DEFPOINTS
  6
Continuous
 62
     0
100
AcDbPoint
 10
31242.3464243321
 20
23632.60760768496
 30
0.0
  0
POINT
  5
62A
330
552
100
AcDbEntity
  8
DEFPOINTS
  6
Continuous
 62
     0
100
AcDbPoint
 10
31242.3464243321
 20
23572.60760768496
 30
0.0
  0
POINT
  5
62B
330
552
100
AcDbEntity
  8
DEFPOINTS
  6
Continuous
 62
     0
100
AcDbPoint
 10
32242.3464243321
 20
23572.60760768496
 30
0.0
  0
ENDBLK
  5
55F
330
552
100
AcDbEntity
  8
0
100
AcDbBlockEnd
  0
BLOCK
  5
56A
330
560
100
AcDbEntity
  8
0
100
AcDbBlockBegin
  2
*D25
 70
     1
 10
0.0
 20
0.0
 30
0.0
  3
*D25
  1

  0
LINE
  5
62C
330
560
100
AcDbEntity
  8
寸法
  6
Continuous
370
    -2
100
AcDbLine
 10
31542.3464243321
 20
23572.60760768496
 30
0.0
 11
32242.3464243321
 21
23572.60760768496
 31
0.0
  0
LINE
  5
62D
330
560
100
AcDbEntity
  8
寸法
  6
Continuous
370
    -2
100
AcDbLine
 10
31542.3464243321
 20
20582.60760768507
 30
0.0
 11
32242.3464243321
 21
20582.60760768507
 31
0.0
  0
LINE
  5
62E
330
560
100
AcDbEntity
  8
寸法
  6
Continuous
370
    -2
100
AcDbLine
 10
32242.3464243321
 20
23512.60760768496
 30
0.0
 11
32242.3464243321
 21
20642.60760768507
 31
0.0
  0
INSERT
  5
62F
330
560
100
AcDbEntity
  8
寸法
  6
Continuous
370
    -2
100
AcDbBlockReference
  2
_ORIGIN
 10
32242.3464243321
 20
23572.60760768496
 30
0.0
 41
60.0
 42
60.0
 43
60.0
 50
90.0
  0
INSERT
  5
630
330
560
100
AcDbEntity
  8
寸法
  6
Continuous
370
    -2
100
AcDbBlockReference
  2
_ORIGIN
 10
32242.3464243321
 20
20582.60760768507
 30
0.0
 41
60.0
 42
60.0
 43
60.0
 50
270.0
  0
MTEXT
  5
631
330
560
100
AcDbEntity
  8
寸法
  6
Continuous
100
AcDbMText
 10
31963.77499576067
 20
22077.60760768502
 30
0.0
 40
300.0
 41
0.0
 71
     5
 72
     1
  1
\A1;2,990
  7
1_100
 11
0.0000000000000001
 21
1.0
 31
0.0
 73
     1
 44
1.0
1001
ACAD
1000
MTEXTBEGIN
1070
    73
1070
     1
1070
    44
1040
1.0
1070
    74
1070
     0
1000
MTEXTEND
  0
POINT
  5
632
330
560
100
AcDbEntity
  8
DEFPOINTS
  6
Continuous
 62
     0
100
AcDbPoint
 10
31242.3464243321
 20
23572.60760768496
 30
0.0
  0
POINT
  5
633
330
560
100
AcDbEntity
  8
DEFPOINTS
  6
Continuous
 62
     0
100
AcDbPoint
 10
31242.3464243321
 20
20582.60760768507
 30
0.0
  0
POINT
  5
634
330
560
100
AcDbEntity
  8
DEFPOINTS
  6
Continuous
 62
     0
100
AcDbPoint
 10
32242.3464243321
 20
20582.60760768507
 30
0.0
  0
ENDBLK
  5
56B
330
560
100
AcDbEntity
  8
0
100
AcDbBlockEnd
  0
ENDSEC
  0
SECTION
  2
ENTITIES
  0
DIMENSION
  5
323
330
1F
100
AcDbEntity
  8
DEFPOINTS
  6
Continuous
100
AcDbDimension
  2
*D5
 10
42980.67410398642
 20
23632.60760768507
 30
0.0
 11
42702.102675415
 21
19882.60760768502
 31
0.0
 70
    32
 71
     5
 42
7500.000000000118
  3
1_100
100
AcDbAlignedDimension
 13
35876.04642433205
 23
16132.60760768495
 33
0.0
 14
35850.49642433201
 24
23632.60760768507
 34
0.0
 50
90.0
100
AcDbRotatedDimension
  0
LINE
  5
324
330
1F
100
AcDbEntity
  8
画層1
  6
Continuous
100
AcDbLine
 10
35634.19642433196
 20
16132.60760768495
 30
0.0
 11
35634.19642433196
 21
23632.60760768496
 31
0.0
  0
LINE
  5
325
330
1F
100
AcDbEntity
  8
画層1
  6
Continuous
100
AcDbLine
 10
35850.49642433201
 20
16132.60760768495
 30
0.0
 11
35850.49642433201
 21
23632.60760768496
 31
0.0
  0
LEADER
  5
326
330
1F
100
AcDbEntity
  8
寸法引出
  6
Continuous
100
AcDbLeader
  3
1_100
 71
     0
 73
     0
 75
     1
 40
300.0
 41
1319.999999999999
 76
     3
 10
23111.85470536116
 20
17567.60760768496
 30
0.0
 10
22668.52675462396
 20
16707.09976988488
 30
0.0
 10
22608.52675462396
 20
16707.09976988488
 30
0.0
340
327
  0
MTEXT
  5
327
102
{ACAD_REACTORS
330
326
102
}
330
1F
100
AcDbEntity
  8
寸法文字
  6
Continuous
100
AcDbMText
 10
22508.52675462396
 20
16807.09976988488
 30
0.0
 40
300.0
 41
0.0
 71
     9
 72
     1
  1
バンド金具
  7
1_100
 73
     1
 44
1.0
1001
ACAD
1000
MTEXTBEGIN
1070
    73
1070
     1
1070
    44
1040
1.0
1070
    74
1070
     0
1000
MTEXTEND
  0
LINE
  5
328
330
1F
100
AcDbEntity
  8
画層1
  6
Continuous
100
AcDbLine
 10
23134.19642433219
 20
16132.60760768484
 30
0.0
 11
23134.19642433219
 21
23632.60760768496
 31
0.0
  0
LINE
  5
329
330
1F
100
AcDbEntity
  8
画層1
  6
Continuous
100
AcDbLine
 10
23350.49642433224
 20
16132.60760768484
 30
0.0
 11
23350.49642433224
 21
23632.60760768496
 31
0.0
  0
LINE
  5
32A
330
1F
100
AcDbEntity
  8
画層1
  6
Continuous
100
AcDbLine
 10
13350.496424332
 20
23632.60760768496
 30
0.0
 11
13350.496424332
 21
16132.60760768484
 31
0.0
  0
LINE
  5
32B
330
1F
100
AcDbEntity
  8
画層1
  6
Continuous
100
AcDbLine
 10
13134.19642433219
 20
23632.60760768496
 30
0.0
 11
13134.19642433219
 21
16132.60760768484
 31
0.0
  0
LINE
  5
32C
330
1F
100
AcDbEntity
  8
寸法引出
  6
Continuous
100
AcDbLine
 10
18825.11439873309
 20
16862.25344481466
 30
0.0
 11
19706.24385723411
 21
18264.09032040676
 31
0.0
  0
LINE
  5
32D
330
1F
100
AcDbEntity
  8
画層1-1
  6
Continuous
100
AcDbLine
 10
13375.49642433224
 20
23522.60760768496
 30
0.0
 11
23083.64642433215
 21
11657.60760768449
 31
0.0
  0
LINE
  5
32E
330
1F
100
AcDbEntity
  8
画層1-1
  6
Continuous
100
AcDbLine
 10
23109.19642433219
 20
23522.60760768496
 30
0.0
 11
13401.04642433205
 21
11657.60760768507
 31
0.0
  0
LINE
  5
32F
330
1F
100
AcDbEntity
  8
通り芯
  6
DASHDOT
 48
100.0
100
AcDbLine
 10
13242.3464243321
 20
8825.581139452449
 30
0.0
 11
13242.3464243321
 21
23750.70629298715
 31
0.0
  0
LINE
  5
330
330
1F
100
AcDbEntity
  8
画層1
  6
Continuous
100
AcDbLine
 10
13242.3464243321
 20
23572.60760768496
 30
0.0
 11
13242.3464243321
 21
11657.60760768495
 31
0.0
  0
LINE
  5
331
330
1F
100
AcDbEntity
  8
DEFPOINTS
100
AcDbLine
 10
15216.29094708406
 20
23629.75760768486
 30
0.0
 11
16825.53237330201
 21
11632.60760768484
 31
0.0
  0
LINE
  5
332
330
1F
100
AcDbEntity
  8
通り芯
  6
DASHDOT
 48
100.0
100
AcDbLine
 10
35742.3464243321
 20
8825.581139452562
 30
0.0
 11
35742.3464243321
 21
23750.70629298715
 31
0.0
  0
LINE
  5
333
330
1F
100
AcDbEntity
  8
通り芯
  6
DASHDOT
 48
100.0
100
AcDbLine
 10
23242.3464243321
 20
8825.581139452449
 30
0.0
 11
23242.3464243321
 21
23750.70629298715
 31
0.0
  0
LINE
  5
334
330
1F
100
AcDbEntity
  8
画層1-1
  6
Continuous
100
AcDbLine
 10
30742.3464243321
 20
20667.7268889073
 30
0.0
 11
23401.04642433205
 21
11657.60760768507
 31
0.0
  0
LINE
  5
335
102
{ACAD_REACTORS
330
33E
102
}
330
1F
100
AcDbEntity
  8
DEFPOINTS
100
AcDbLine
 10
28279.39259962107
 20
23629.75760768486
 30
0.0
 11
29888.6340258389
 21
11632.60760768484
 31
0.0
  0
DIMENSION
  5
336
330
1F
100
AcDbEntity
  8
寸法
  6
Continuous
100
AcDbDimension
  2
*D6
 10
33242.3464243321
 20
23632.60760768496
 30
0.0
 11
32963.77499576067
 21
17632.60760768496
 31
0.0
 70
    32
 71
     5
 42
12000.0
  3
1_100
100
AcDbAlignedDimension
 13
31242.3464243321
 23
11632.60760768495
 33
0.0
 14
31242.3464243321
 24
23632.60760768496
 34
0.0
 50
90.0
100
AcDbRotatedDimension
  0
LINE
  5
337
102
{ACAD_REACTORS
330
33E
102
}
330
1F
100
AcDbEntity
  8
DEFPOINTS
100
AcDbLine
 10
30742.3464243321
 20
23632.60760768507
 30
0.0
 11
30742.3464243321
 21
11632.60760768484
 31
0.0
  0
LINE
  5
338
330
1F
100
AcDbEntity
  8
画層1-1
  6
Continuous
100
AcDbLine
 10
23375.49642433224
 20
23522.60760768496
 30
0.0
 11
27027.22356712072
 21
19094.0989443731
 31
0.0
  0
DIMENSION
  5
339
330
1F
100
AcDbEntity
  8
寸法
  6
Continuous
100
AcDbDimension
  2
*D7
 10
32242.3464243321
 20
14612.60760768484
 30
0.0
 11
31963.77499576067
 21
16102.60760768496
 31
0.0
 70
    32
 71
     5
 42
2980.000000000235
  3
1_100
100
AcDbAlignedDimension
 13
31242.3464243321
 23
17592.60760768507
 33
0.0
 14
31242.3464243321
 24
14612.60760768484
 34
0.0
 50
90.0
100
AcDbRotatedDimension
  0
DIMENSION
  5
33A
330
1F
100
AcDbEntity
  8
寸法
  6
Continuous
100
AcDbDimension
  2
*D8
 10
38242.3464243321
 20
23632.60760768496
 30
0.0
 11
37963.77499576067
 21
17632.60760768496
 31
0.0
 70
    32
 71
     5
 42
12000.0
  3
1_100
100
AcDbAlignedDimension
 13
37242.3464243321
 23
11632.60760768495
 33
0.0
 14
37242.3464243321
 24
23632.60760768496
 34
0.0
 50
90.0
100
AcDbRotatedDimension
  0
LINE
  5
33B
330
1F
100
AcDbEntity
  8
画層1-1
  6
DASHED
 48
100.0
100
AcDbLine
 10
35583.64642433192
 20
23572.60760768496
 30
0.0
 11
35583.64642433192
 21
11657.60760768484
 31
0.0
  0
LINE
  5
33C
330
1F
100
AcDbEntity
  8
画層1
  6
Continuous
100
AcDbLine
 10
35742.3464243321
 20
23572.60760768496
 30
0.0
 11
35742.3464243321
 21
11657.60760768484
 31
0.0
  0
HATCH
  5
33D
330
1F
100
AcDbEntity
  8
ﾈｯﾄ
 62
   230
370
    13
100
AcDbHatch
 10
0.0
 20
0.0
 30
0.0
210
0.0
220
0.0
230
1.0
  2
NET
 70
     0
 71
     0
 91
        1
 92
        7
 72
     0
 73
     1
 93
       31
 10
15223.95678001174
 20
23572.60760768496
 10
13675.49642433224
 20
23572.60760768496
 10
13675.49642433224
 20
23552.60760768496
 10
13501.04642433205
 20
23552.60760768496
 10
13501.04642433205
 20
23572.60760768496
 10
13400.49642433223
 20
23572.60760768496
 10
13400.49642433223
 20
23547.60760768496
 10
13400.49642433212
 20
23497.6076076849
 10
13350.496424332
 20
23497.60760768484
 10
13350.496424332
 20
20607.60760768496
 10
13400.49642433223
 20
20607.60760768496
 10
13400.49642433212
 20
20557.60760768496
 10
13350.496424332
 20
20557.6076076849
 10
13350.496424332
 20
17617.60760768495
 10
13400.49642433223
 20
17617.60760768495
 10
13400.49642433212
 20
17567.60760768496
 10
13350.496424332
 20
17567.6076076849
 10
13350.496424332
 20
16632.60760768484
 10
13376.04642433205
 20
16632.60760768484
 10
13376.04642433205
 20
14637.6076076846
 10
13426.04642433205
 20
14637.6076076846
 10
13426.04642433205
 20
14587.6076076846
 10
13376.04642433205
 20
14587.6076076846
 10
13376.04642433205
 20
11682.60760768484
 10
13426.04642433205
 20
11682.60760768484
 10
13426.04642433205
 20
11657.60760768484
 10
13526.5964243321
 20
11657.60760768489
 10
13526.59642433198
 20
11677.60760768484
 10
13701.04642433205
 20
11677.60760768484
 10
13701.04642433217
 20
11657.60760768489
 10
16822.17899056894
 20
11657.60760768495
 97
        0
 75
     0
 76
     1
 52
0.0
 41
1000.0
 77
     0
 78
     2
 53
0.0
 43
-205237.4207137523
 44
-242187.2017397765
 45
0.0
 46
125.0
 79
     0
 53
90.0
 43
-205237.4207137523
 44
-242187.2017397765
 45
-125.0
 46
0.0000000000000077
 79
     0
 47
65.27721437619539
 98
        1
 10
14561.00064948408
 20
18056.19438230926
  0
HATCH
  5
33E
330
1F
100
AcDbEntity
  8
ﾈｯﾄ
 62
   230
370
    13
100
AcDbHatch
 10
0.0
 20
0.0
 30
0.0
210
0.0
220
0.0
230
1.0
  2
NET
 70
     0
 71
     1
 91
        1
 92
        7
 72
     0
 73
     1
 93
        4
 10
30742.34642433209
 20
23572.60760768496
 10
28287.05843254874
 20
23572.60760768496
 10
29885.28064310586
 20
11657.60760768506
 10
30742.3464243321
 20
11657.60760768507
 97
        4
330
3C8
330
335
330
348
330
337
 75
     0
 76
     1
 52
0.0
 41
1000.0
 77
     0
 78
     2
 53
0.0
 43
-205237.4207137523
 44
-242187.2017397765
 45
0.0
 46
125.0
 79
     0
 53
90.0
 43
-205237.4207137523
 44
-242187.2017397765
 45
-125.0
 46
0.0000000000000077
 79
     0
 47
60.90617069026199
 98
        1
 10
30145.87628457949
 20
19940.79915255336
  0
DIMENSION
  5
33F
330
1F
100
AcDbEntity
  8
寸法
  6
Continuous
100
AcDbDimension
  2
*D9
 10
38242.3464243321
 20
11632.60760768495
 30
0.0
 11
37963.77499576067
 21
10382.60760768496
 31
0.0
 70
    32
 71
     5
 42
2500.0
  3
1_100
100
AcDbAlignedDimension
 13
37242.3464243321
 23
9132.607607684953
 33
0.0
 14
37242.3464243321
 24
11632.60760768495
 34
0.0
 50
90.0
100
AcDbRotatedDimension
  0
LEADER
  5
340
330
1F
100
AcDbEntity
  8
寸法引出
  6
Continuous
100
AcDbLeader
  3
1_100
 71
     0
 73
     0
 74
     0
 75
     1
 40
800.0
 41
3415.714285714287
 76
     3
 10
35876.04642433205
 20
13885.48653740783
 30
0.0
 10
38717.4118350623
 20
16284.05421953164
 30
0.0
 10
38777.4118350623
 20
16284.05421953164
 30
0.0
340
341
  0
MTEXT
  5
341
102
{ACAD_REACTORS
330
340
102
}
330
1F
100
AcDbEntity
  8
寸法文字
  6
Continuous
100
AcDbMText
 10
38877.4118350623
 20
16384.05421953164
 30
0.0
 40
300.0
 41
0.0
 71
     7
 72
     1
  1
主柱KSポール　　　　　\Pφ267.4厚さ5.0mm　　
  7
1_100
 73
     1
 44
1.0
1001
ACAD
1000
ACAD_MTEXT_DEFINED_HEIGHT_BEGIN
1070
    46
1040
0.0
1000
ACAD_MTEXT_DEFINED_HEIGHT_END
1000
MTEXTBEGIN
1070
    73
1070
     1
1070
    44
1040
1.0
1070
    74
1070
     0
1000
MTEXTEND
  0
DIMENSION
  5
342
330
1F
100
AcDbEntity
  8
DEFPOINTS
100
AcDbDimension
  2
*D10
 10
42980.67410398642
 20
9132.607607684953
 30
0.0
 11
42702.102675415
 21
12632.60760768496
 31
0.0
 70
    32
 71
     5
 42
6999.999999999999
  3
1_100
100
AcDbAlignedDimension
 13
35876.04642433205
 23
16132.60760768495
 33
0.0
 14
37892.3464243321
 24
9132.607607684953
 34
0.0
 50
90.0
100
AcDbRotatedDimension
  0
TEXT
  5
343
330
1F
100
AcDbEntity
  8
図面枠
  6
Continuous
 62
     3
100
AcDbText
 10
5550.04745910799
 20
984.2217466681757
 30
0.0
 40
300.0
  1
1/100
 41
0.75
  7
1_100
 11
5550.04745910799
 21
984.2217466681757
 31
0.0
100
AcDbText
 73
     1
  0
TEXT
  5
344
330
1F
100
AcDbEntity
  8
図面枠
  6
Continuous
 62
     3
100
AcDbText
 10
7272.419958207456
 20
984.4409941596238
 30
0.0
 40
300.0
  1
KS1-H12
 41
0.75
  7
1_100
 11
7272.419958207456
 21
984.4409941596238
 31
0.0
100
AcDbText
 73
     1
  0
LEADER
  5
345
330
1F
100
AcDbEntity
  8
寸法引出
  6
Continuous
100
AcDbLeader
  3
1_100
 71
     0
 73
     0
 75
     1
 40
300.0
 41
2603.571428571428
 76
     3
 10
22936.43808597138
 20
11806.61656812
 30
0.0
 10
22357.78920361887
 20
10759.48776449779
 30
0.0
 10
22297.78920361887
 20
10759.48776449779
 30
0.0
340
346
  0
MTEXT
  5
346
102
{ACAD_REACTORS
330
345
102
}
330
1F
100
AcDbEntity
  8
寸法文字
  6
Continuous
100
AcDbMText
 10
22197.78920361886
 20
10859.48776449779
 30
0.0
 40
300.0
 41
0.0
 71
     9
 72
     1
  1
タンバックル12mm
  7
1_100
 73
     1
 44
1.0
1001
ACAD
1000
MTEXTBEGIN
1070
    73
1070
     1
1070
    44
1040
1.0
1070
    74
1070
     0
1000
MTEXTEND
  0
DIMENSION
  5
347
330
1F
100
AcDbEntity
  8
寸法
  6
Continuous
100
AcDbDimension
  2
*D11
 10
23242.3464243321
 20
7552.754163603342
 30
0.0
 11
18242.3464243321
 21
7831.325592174768
 31
0.0
 70
    32
 71
     5
 42
10000.0
  3
1_100
100
AcDbAlignedDimension
 13
13242.3464243321
 23
8227.754163602991
 33
0.0
 14
23242.3464243321
 24
8577.913476139467
 34
0.0
100
AcDbRotatedDimension
  0
LINE
  5
348
102
{ACAD_REACTORS
330
33E
102
}
330
1F
100
AcDbEntity
  8
画層1
  6
Continuous
100
AcDbLine
 10
13242.3464243321
 20
11657.60760768484
 30
0.0
 11
30742.3464243321
 21
11657.60760768507
 31
0.0
  0
LINE
  5
349
102
{ACAD_REACTORS
330
373
330
3B8
102
}
330
1F
100
AcDbEntity
  8
画層2
  6
Continuous
100
AcDbLine
 10
9689.189363524294
 20
11632.60760768484
 30
0.0
 11
30742.3464243321
 21
11632.60760768472
 31
0.0
  0
LINE
  5
34A
330
1F
100
AcDbEntity
  8
画層1-1
  6
Continuous
100
AcDbLine
 10
13242.3464243321
 20
14612.6076076846
 30
0.0
 11
30742.3464243321
 21
14612.60760768484
 31
0.0
  0
INSERT
  5
34B
330
1F
100
AcDbEntity
  8
ﾊｯﾁﾝｸﾞ
  6
Continuous
100
AcDbBlockReference
  2
sai450
 10
13242.3464243321
 20
9132.607607684724
 30
0.0
  0
INSERT
  5
34C
330
1F
100
AcDbEntity
  8
ﾊｯﾁﾝｸﾞ
  6
Continuous
100
AcDbBlockReference
  2
RM
 10
13592.34642433221
 20
11632.6076076853
 30
0.0
  0
INSERT
  5
34D
330
1F
100
AcDbEntity
  8
ﾊｯﾁﾝｸﾞ
  6
Continuous
100
AcDbBlockReference
  2
RH
 10
12892.34642433221
 20
11632.60760768484
 30
0.0
  0
LEADER
  5
34E
330
1F
100
AcDbEntity
  8
寸法引出
  6
Continuous
100
AcDbLeader
  3
1_100
 71
     0
 73
     0
 75
     1
 40
300.0
 41
4699.285714285712
 76
     3
 10
13108.64642433214
 20
15659.09804304658
 30
0.0
 10
12159.34883990683
 20
16325.38075366818
 30
0.0
 10
12099.34883990683
 20
16325.38075366818
 30
0.0
340
34F
  0
MTEXT
  5
34F
102
{ACAD_REACTORS
330
34E
102
}
330
1F
100
AcDbEntity
  8
寸法文字
  6
Continuous
100
AcDbMText
 10
11999.34883990683
 20
16425.38075366818
 30
0.0
 40
300.0
 41
0.0
 71
     9
 72
     1
  1
主柱KSポールφ267.4厚さ5.0mm
  7
1_100
 73
     1
 44
1.0
1001
ACAD
1000
ACAD_MTEXT_DEFINED_HEIGHT_BEGIN
1070
    46
1040
0.0
1000
ACAD_MTEXT_DEFINED_HEIGHT_END
1000
MTEXTBEGIN
1070
    73
1070
     1
1070
    44
1040
1.0
1070
    74
1070
     0
1000
MTEXTEND
  0
MTEXT
  5
350
330
1F
100
AcDbEntity
  8
寸法文字
  6
Continuous
100
AcDbMText
 10
11284.65768046931
 20
16135.68293170658
 30
0.0
 40
300.0
 41
0.0
 71
     3
 72
     1
  1
（STKT-590鋼管）
  7
1_100
 73
     1
 44
1.0
1001
ACAD
1000
MTEXTBEGIN
1070
    73
1070
     1
1070
    44
1040
1.0
1070
    74
1070
     0
1000
MTEXTEND
  0
LINE
  5
351
330
1F
100
AcDbEntity
  8
画層1
  6
Continuous
100
AcDbLine
 10
13108.64642433214
 20
16132.60760768484
 30
0.0
 11
13376.04642433205
 21
16132.60760768484
 31
0.0
  0
DIMENSION
  5
352
330
1F
100
AcDbEntity
  8
寸法
  6
Continuous
100
AcDbDimension
  2
*D12
 10
13467.3464243321
 20
8532.60760768507
 30
0.0
 11
12287.56877733555
 21
8733.395319846733
 31
0.0
 70
   160
  1
φ<>
 71
     5
 42
450.0
  3
1_100
100
AcDbAlignedDimension
 13
13017.3464243321
 23
9032.607607684838
 33
0.0
 14
13467.3464243321
 24
9032.607607684838
 34
0.0
100
AcDbRotatedDimension
  0
DIMENSION
  5
353
330
1F
100
AcDbEntity
  8
寸法
  6
Continuous
100
AcDbDimension
  2
*D13
 10
13592.3464243321
 20
7995.28772823179
 30
0.0
 11
12308.38958625947
 21
8157.913260095446
 31
0.0
 70
   160
  1
□<>
 71
     5
 42
700.0
  3
1_100
100
AcDbAlignedDimension
 13
12892.34642433209
 23
9032.607607684722
 33
0.0
 14
13592.3464243321
 24
9032.607607684722
 34
0.0
100
AcDbRotatedDimension
1001
ACAD
1000
DSTYLE
1002
{
1070
    77
1070
     2
1070
   174
1070
     1
1002
}
  0
LEADER
  5
354
330
1F
100
AcDbEntity
  8
寸法引出
  6
Continuous
100
AcDbLeader
  3
1_100
 71
     0
 73
     0
 74
     0
 75
     1
 40
300.0
 41
495.0
 76
     3
 10
13467.3464243321
 20
9080.677948463749
 30
0.0
 10
14127.27192350009
 20
9726.64070504291
 30
0.0
 10
14187.27192350009
 20
9726.64070504291
 30
0.0
340
355
  0
MTEXT
  5
355
102
{ACAD_REACTORS
330
354
102
}
330
1F
100
AcDbEntity
  8
寸法文字
  6
Continuous
100
AcDbMText
 10
14287.27192350009
 20
9826.64070504291
 30
0.0
 40
300.0
 41
0.0
 71
     7
 72
     1
  1
砕石
  7
1_100
 73
     1
 44
1.0
1001
ACAD
1000
MTEXTBEGIN
1070
    73
1070
     1
1070
    44
1040
1.0
1070
    74
1070
     0
1000
MTEXTEND
  0
LEADER
  5
356
330
1F
100
AcDbEntity
  8
寸法引出
  6
Continuous
100
AcDbLeader
  3
1_100
 71
     0
 73
     0
 74
     0
 75
     1
 40
300.0
 41
1547.142857142856
 76
     3
 10
13467.3464243321
 20
9980.428321699072
 30
0.0
 10
14107.71496172456
 20
10611.2338065566
 30
0.0
 10
14167.71496172456
 20
10611.2338065566
 30
0.0
340
357
  0
MTEXT
  5
357
102
{ACAD_REACTORS
330
356
102
}
330
1F
100
AcDbEntity
  8
寸法文字
  6
Continuous
100
AcDbMText
 10
14267.71496172456
 20
10711.2338065566
 30
0.0
 40
300.0
 41
0.0
 71
     7
 72
     1
  1
コンクリート
  7
1_100
 73
     1
 44
1.0
1001
ACAD
1000
MTEXTBEGIN
1070
    73
1070
     1
1070
    44
1040
1.0
1070
    74
1070
     0
1000
MTEXTEND
  0
LINE
  5
358
330
1F
100
AcDbEntity
  8
画層2-1
  6
Continuous
100
AcDbLine
 10
13108.64642433214
 20
11482.60760768484
 30
0.0
 11
13376.04642433205
 21
11482.60760768484
 31
0.0
  0
LEADER
  5
359
330
1F
100
AcDbEntity
  8
寸法引出
  6
Continuous
100
AcDbLeader
  3
1_100
 71
     0
 73
     0
 75
     1
 40
300.0
 41
1095.0
 76
     3
 10
13128.13914454726
 20
11698.9599265836
 30
0.0
 10
12154.79656113717
 20
12396.67761120355
 30
0.0
 10
12094.79656113717
 20
12396.67761120355
 30
0.0
340
35A
  0
MTEXT
  5
35A
102
{ACAD_REACTORS
330
359
102
}
330
1F
100
AcDbEntity
  8
寸法文字
  6
Continuous
100
AcDbMText
 10
11994.79656113717
 20
12496.67761120355
 30
0.0
 40
300.0
 41
0.0
 71
     9
 72
     1
  1
FRP被覆
  7
1_100
 73
     1
 44
1.0
1001
ACAD
1000
MTEXTBEGIN
1070
    73
1070
     1
1070
    44
1040
1.0
1070
    74
1070
     0
1000
MTEXTEND
  0
TEXT
  5
35B
330
1F
100
AcDbEntity
  8
寸法
  6
Continuous
100
AcDbText
 10
9882.073648800352
 20
11712.60760768484
 30
0.0
 40
300.0
  1
▽GL
 41
0.75
  7
1_100
 11
9882.073648800352
 21
11712.60760768484
 31
0.0
100
AcDbText
 73
     1
  0
MTEXT
  5
35C
330
1F
100
AcDbEntity
  8
寸法文字
  6
Continuous
100
AcDbMText
 10
11891.23019350201
 20
12279.86386807756
 30
0.0
 40
300.0
 41
0.0
 71
     3
 72
     1
  1
（250）
  7
1_100
 73
     1
 44
1.0
1001
ACAD
1000
MTEXTBEGIN
1070
    73
1070
     1
1070
    44
1040
1.0
1070
    74
1070
     0
1000
MTEXTEND
  0
LWPOLYLINE
  5
35D
330
1F
100
AcDbEntity
  8
画層1-1
100
AcDbPolyline
 90
        4
 70
     1
 43
0.0
 10
13526.5964243321
 20
14592.6076076846
 10
13701.04642433205
 20
14592.6076076846
 10
13701.04642433205
 20
14632.6076076846
 10
13526.5964243321
 20
14632.6076076846
  0
LINE
  5
35E
330
1F
100
AcDbEntity
  8
画層1
  6
Continuous
100
AcDbLine
 10
13426.04642433205
 20
14637.6076076846
 30
0.0
 11
13058.64642433214
 21
14637.6076076846
 31
0.0
  0
LINE
  5
35F
330
1F
100
AcDbEntity
  8
画層1
  6
Continuous
100
AcDbLine
 10
13426.04642433205
 20
14587.6076076846
 30
0.0
 11
13426.04642433205
 21
14637.6076076846
 31
0.0
  0
LINE
  5
360
330
1F
100
AcDbEntity
  8
画層1
  6
Continuous
100
AcDbLine
 10
13058.64642433214
 20
14587.6076076846
 30
0.0
 11
13426.04642433205
 21
14587.6076076846
 31
0.0
  0
CIRCLE
  5
361
330
1F
100
AcDbEntity
  8
画層1
  6
Continuous
100
AcDbCircle
 10
13083.64642433214
 20
14612.6076076846
 30
0.0
 40
10.7662971851
  0
LINE
  5
362
330
1F
100
AcDbEntity
  8
画層1
  6
Continuous
100
AcDbLine
 10
13058.64642433214
 20
14637.6076076846
 30
0.0
 11
13058.64642433214
 21
14587.6076076846
 31
0.0
  0
CIRCLE
  5
363
330
1F
100
AcDbEntity
  8
画層1
  6
Continuous
100
AcDbCircle
 10
13401.04642433205
 20
14612.6076076846
 30
0.0
 40
10.7662971851
  0
CIRCLE
  5
364
330
1F
100
AcDbEntity
  8
画層1
  6
Continuous
100
AcDbCircle
 10
13242.3464243321
 20
14612.6076076846
 30
0.0
 40
10.7662971851
  0
LINE
  5
365
330
1F
100
AcDbEntity
  8
画層1
  6
Continuous
100
AcDbLine
 10
13267.3464243321
 20
14587.6076076846
 30
0.0
 11
13267.3464243321
 21
14637.6076076846
 31
0.0
  0
LINE
  5
366
330
1F
100
AcDbEntity
  8
画層1
  6
Continuous
100
AcDbLine
 10
13217.3464243321
 20
14637.6076076846
 30
0.0
 11
13217.3464243321
 21
14587.6076076846
 31
0.0
  0
LWPOLYLINE
  5
367
330
1F
100
AcDbEntity
  8
画層1-1
100
AcDbPolyline
 90
        4
 70
     1
 43
0.0
 10
13572.34130982959
 20
11899.50380552133
 10
13603.35117891289
 20
11874.2374638898
 10
13493.15834647228
 20
11738.99567235067
 10
13462.14847738899
 20
11764.26201398221
  0
LWPOLYLINE
  5
368
330
1F
100
AcDbEntity
  8
画層1
100
AcDbPolyline
 90
        4
 70
     1
 43
0.0
 10
13526.5964243321
 20
11637.60760768484
 10
13701.04642433205
 20
11637.60760768484
 10
13701.04642433205
 20
11677.60760768484
 10
13526.5964243321
 20
11677.60760768484
  0
LINE
  5
369
330
1F
100
AcDbEntity
  8
画層2-1
  6
Continuous
100
AcDbLine
 10
13108.64642433214
 20
11732.60760768484
 30
0.0
 11
13376.04642433205
 21
11732.60760768484
 31
0.0
  0
CIRCLE
  5
36A
330
1F
100
AcDbEntity
  8
画層1
  6
Continuous
100
AcDbCircle
 10
13083.64642433214
 20
11657.60760768484
 30
0.0
 40
10.7662971851
  0
LINE
  5
36B
330
1F
100
AcDbEntity
  8
画層1
  6
Continuous
100
AcDbLine
 10
13267.3464243321
 20
11632.60760768484
 30
0.0
 11
13267.3464243321
 21
11682.60760768484
 31
0.0
  0
LINE
  5
36C
330
1F
100
AcDbEntity
  8
画層1
  6
Continuous
100
AcDbLine
 10
13217.3464243321
 20
11682.60760768484
 30
0.0
 11
13217.3464243321
 21
11632.60760768484
 31
0.0
  0
CIRCLE
  5
36D
330
1F
100
AcDbEntity
  8
画層1
  6
Continuous
100
AcDbCircle
 10
13401.04642433205
 20
11657.60760768484
 30
0.0
 40
10.7662971851
  0
CIRCLE
  5
36E
330
1F
100
AcDbEntity
  8
画層1
  6
Continuous
100
AcDbCircle
 10
13242.3464243321
 20
11657.60760768484
 30
0.0
 40
10.7662971851
  0
LWPOLYLINE
  5
36F
330
1F
100
AcDbEntity
  8
画層1
100
AcDbPolyline
 90
        4
 70
     1
 43
0.0
 10
13222.3464243321
 20
12082.60760768484
 10
13262.3464243321
 20
12082.60760768484
 10
13262.3464243321
 20
11882.60760768484
 10
13222.3464243321
 20
11882.60760768484
  0
LWPOLYLINE
  5
370
330
1F
100
AcDbEntity
  8
画層1
  6
Continuous
100
AcDbPolyline
 90
        4
 70
     1
 43
0.0
 10
13058.64642433214
 20
11682.60760768484
 10
13426.04642433205
 20
11682.60760768484
 10
13426.04642433205
 20
11632.60760768484
 10
13058.64642433214
 20
11632.60760768484
  0
LWPOLYLINE
  5
371
102
{ACAD_REACTORS
330
373
102
}
330
1F
100
AcDbEntity
  8
画層2
100
AcDbPolyline
 90
        8
 70
     0
 43
0.0
 10
12892.34642433221
 20
11632.60760768484
 10
12892.34642433221
 20
11332.60760768484
 10
13017.34642433221
 20
11332.60760768484
 10
13017.34642433221
 20
9032.607607684838
 10
13467.34642433221
 20
9032.607607684838
 10
13467.34642433221
 20
11332.60760768484
 10
13592.34642433221
 20
11332.60760768484
 10
13592.34642433221
 20
11632.6076076853
  0
LINE
  5
372
102
{ACAD_REACTORS
330
373
102
}
330
1F
100
AcDbEntity
  8
画層2
100
AcDbLine
 10
13467.34642433221
 20
9132.607607684837
 30
0.0
 11
13017.34642433221
 21
9132.607607684837
 31
0.0
  0
HATCH
  5
373
330
1F
100
AcDbEntity
  8
ﾊｯﾁﾝｸﾞ
100
AcDbHatch
 10
0.0
 20
0.0
 30
0.0
210
0.0
220
0.0
230
1.0
  2
PLAST
 70
     0
 71
     1
 91
        1
 92
        7
 72
     0
 73
     1
 93
        8
 10
13467.34642433221
 20
11332.60760768484
 10
13592.34642433221
 20
11332.60760768484
 10
13592.34642433221
 20
11632.60760768481
 10
12892.34642433221
 20
11632.60760768482
 10
12892.34642433221
 20
11332.60760768484
 10
13017.34642433221
 20
11332.60760768484
 10
13017.34642433221
 20
9132.607607684837
 10
13467.34642433221
 20
9132.607607684837
 97
        3
330
371
330
349
330
372
 75
     0
 76
     1
 52
45.0
 41
2000.0
 77
     0
 78
     3
 53
45.0
 43
-205237.4207137523
 44
-242187.2017397765
 45
-353.5533905932737
 46
353.5533905932738
 79
     0
 53
45.0
 43
-205281.6148875765
 44
-242143.0075659523
 45
-353.5533905932737
 46
353.5533905932738
 79
     0
 53
45.0
 43
-205325.8090614006
 44
-242098.8133921281
 45
-353.5533905932737
 46
353.5533905932738
 79
     0
 47
51.45826164593856
 98
        1
 10
13252.99046701027
 20
10485.10404056571
  0
LINE
  5
374
330
1F
100
AcDbEntity
  8
画層1
  6
Continuous
100
AcDbLine
 10
13376.04642433205
 20
16132.60760768484
 30
0.0
 11
13376.04642433205
 21
9132.607607684953
 31
0.0
  0
LINE
  5
375
330
1F
100
AcDbEntity
  8
画層1
  6
Continuous
100
AcDbLine
 10
13108.64642433214
 20
9132.607607684953
 30
0.0
 11
13108.64642433214
 21
16132.60760768484
 31
0.0
  0
INSERT
  5
376
330
1F
100
AcDbEntity
  8
ﾊｯﾁﾝｸﾞ
  6
Continuous
100
AcDbBlockReference
  2
sai450
 10
23242.3464243321
 20
9132.60760768478
 30
0.0
  0
INSERT
  5
377
330
1F
100
AcDbEntity
  8
ﾊｯﾁﾝｸﾞ
  6
Continuous
100
AcDbBlockReference
  2
sai450
 10
35742.3464243321
 20
9132.607607684837
 30
0.0
  0
INSERT
  5
378
330
1F
100
AcDbEntity
  8
ﾊｯﾁﾝｸﾞ
  6
Continuous
100
AcDbBlockReference
  2
RM
 10
23592.3464243321
 20
11632.60760768524
 30
0.0
  0
INSERT
  5
379
330
1F
100
AcDbEntity
  8
ﾊｯﾁﾝｸﾞ
  6
Continuous
100
AcDbBlockReference
  2
RH
 10
22892.3464243321
 20
11632.60760768478
 30
0.0
  0
INSERT
  5
37A
330
1F
100
AcDbEntity
  8
ﾊｯﾁﾝｸﾞ
  6
Continuous
100
AcDbBlockReference
  2
RM
 10
36092.3464243321
 20
11632.6076076853
 30
0.0
  0
INSERT
  5
37B
330
1F
100
AcDbEntity
  8
ﾊｯﾁﾝｸﾞ
  6
Continuous
100
AcDbBlockReference
  2
RH
 10
35392.3464243321
 20
11632.60760768484
 30
0.0
  0
LINE
  5
37C
330
1F
100
AcDbEntity
  8
画層1
  6
Continuous
100
AcDbLine
 10
35608.64642433192
 20
16132.60760768495
 30
0.0
 11
35876.04642433205
 21
16132.60760768495
 31
0.0
  0
LINE
  5
37D
330
1F
100
AcDbEntity
  8
画層1
  6
Continuous
100
AcDbLine
 10
23108.64642433215
 20
16132.60760768484
 30
0.0
 11
23376.04642433205
 21
16132.60760768484
 31
0.0
  0
DIMENSION
  5
37E
330
1F
100
AcDbEntity
  8
寸法
  6
Continuous
100
AcDbDimension
  2
*D14
 10
35967.3464243321
 20
8532.607607685188
 30
0.0
 11
34787.56877733555
 21
8733.395319846851
 31
0.0
 70
   160
  1
φ<>
 71
     5
 42
450.0
  3
1_100
100
AcDbAlignedDimension
 13
35517.3464243321
 23
9032.607607684957
 33
0.0
 14
35967.3464243321
 24
9032.607607684957
 34
0.0
100
AcDbRotatedDimension
  0
DIMENSION
  5
37F
330
1F
100
AcDbEntity
  8
寸法
  6
Continuous
100
AcDbDimension
  2
*D15
 10
36092.3464243321
 20
8232.607607684839
 30
0.0
 11
35742.3464243321
 21
7982.607607684838
 31
0.0
 70
    32
  1
□<>
 71
     5
 42
700.0
  3
1_100
100
AcDbAlignedDimension
 13
35392.3464243321
 23
9032.607607684838
 33
0.0
 14
36092.3464243321
 24
9032.607607684838
 34
0.0
100
AcDbRotatedDimension
1001
ACAD
1000
DSTYLE
1002
{
1070
    77
1070
     2
1070
   174
1070
     1
1002
}
  0
LINE
  5
380
330
1F
100
AcDbEntity
  8
画層2-1
  6
Continuous
100
AcDbLine
 10
35608.64642433192
 20
11482.60760768484
 30
0.0
 11
35876.04642433205
 21
11482.60760768484
 31
0.0
  0
TEXT
  5
381
330
1F
100
AcDbEntity
  8
寸法
  6
Continuous
100
AcDbText
 10
34423.99738787741
 20
11712.60760768484
 30
0.0
 40
300.0
  1
▽GL
 41
0.75
  7
1_100
 11
34423.99738787741
 21
11712.60760768484
 31
0.0
100
AcDbText
 73
     1
  0
LINE
  5
382
102
{ACAD_REACTORS
330
399
102
}
330
1F
100
AcDbEntity
  8
画層2
  6
Continuous
100
AcDbLine
 10
34351.31649845931
 20
11632.60760768484
 30
0.0
 11
36662.62654567787
 21
11632.60760768484
 31
0.0
  0
LINE
  5
383
330
1F
100
AcDbEntity
  8
画層1
  6
Continuous
100
AcDbLine
 10
35717.3464243321
 20
14637.60760768484
 30
0.0
 11
35608.64642433192
 21
14637.60760768484
 31
0.0
  0
LINE
  5
384
330
1F
100
AcDbEntity
  8
画層1
  6
Continuous
100
AcDbLine
 10
35608.64642433192
 20
14587.60760768495
 30
0.0
 11
35717.3464243321
 21
14587.60760768495
 31
0.0
  0
LINE
  5
385
330
1F
100
AcDbEntity
  8
画層1
  6
Continuous
100
AcDbLine
 10
35767.3464243321
 20
14587.60760768495
 30
0.0
 11
35876.04642433205
 21
14587.60760768495
 31
0.0
  0
LINE
  5
386
330
1F
100
AcDbEntity
  8
画層1
  6
Continuous
100
AcDbLine
 10
35876.04642433205
 20
14637.60760768484
 30
0.0
 11
35767.3464243321
 21
14637.60760768484
 31
0.0
  0
CIRCLE
  5
387
330
1F
100
AcDbEntity
  8
画層1
  6
Continuous
100
AcDbCircle
 10
35742.3464243321
 20
14612.60760768495
 30
0.0
 40
10.7662971851
  0
LINE
  5
388
330
1F
100
AcDbEntity
  8
画層1
  6
Continuous
100
AcDbLine
 10
35767.3464243321
 20
14587.60760768495
 30
0.0
 11
35767.3464243321
 21
14637.60760768484
 31
0.0
  0
LINE
  5
389
330
1F
100
AcDbEntity
  8
画層1
  6
Continuous
100
AcDbLine
 10
35717.3464243321
 20
14637.60760768484
 30
0.0
 11
35717.3464243321
 21
14587.60760768495
 31
0.0
  0
LINE
  5
38A
330
1F
100
AcDbEntity
  8
画層1
  6
Continuous
100
AcDbLine
 10
35558.64642433192
 20
14637.60760768484
 30
0.0
 11
35558.64642433192
 21
14587.60760768484
 31
0.0
  0
LINE
  5
38B
330
1F
100
AcDbEntity
  8
画層1
  6
Continuous
100
AcDbLine
 10
35558.64642433192
 20
14612.60760768484
 30
0.0
 11
35608.64642433192
 21
14612.60760768484
 31
0.0
  0
LINE
  5
38C
330
1F
100
AcDbEntity
  8
画層1
  6
Continuous
100
AcDbLine
 10
35717.3464243321
 20
11682.60760768484
 30
0.0
 11
35608.64642433192
 21
11682.60760768484
 31
0.0
  0
LINE
  5
38D
330
1F
100
AcDbEntity
  8
画層1
  6
Continuous
100
AcDbLine
 10
35876.04642433205
 20
11682.60760768484
 30
0.0
 11
35767.3464243321
 21
11682.60760768484
 31
0.0
  0
CIRCLE
  5
38E
330
1F
100
AcDbEntity
  8
画層1
  6
Continuous
100
AcDbCircle
 10
35742.3464243321
 20
11657.60760768484
 30
0.0
 40
10.7662971851
  0
LINE
  5
38F
330
1F
100
AcDbEntity
  8
画層2-1
  6
Continuous
100
AcDbLine
 10
35608.64642433192
 20
11732.60760768484
 30
0.0
 11
35876.04642433205
 21
11732.60760768484
 31
0.0
  0
LINE
  5
390
330
1F
100
AcDbEntity
  8
画層1
  6
Continuous
100
AcDbLine
 10
35608.64642433192
 20
11632.60760768484
 30
0.0
 11
35717.3464243321
 21
11632.60760768484
 31
0.0
  0
LINE
  5
391
330
1F
100
AcDbEntity
  8
画層1
  6
Continuous
100
AcDbLine
 10
35767.3464243321
 20
11632.60760768484
 30
0.0
 11
35876.04642433205
 21
11632.60760768484
 31
0.0
  0
LINE
  5
392
330
1F
100
AcDbEntity
  8
画層1
  6
Continuous
100
AcDbLine
 10
35717.3464243321
 20
11682.60760768484
 30
0.0
 11
35717.3464243321
 21
11632.60760768484
 31
0.0
  0
LINE
  5
393
330
1F
100
AcDbEntity
  8
画層1
  6
Continuous
100
AcDbLine
 10
35767.3464243321
 20
11632.60760768484
 30
0.0
 11
35767.3464243321
 21
11682.60760768484
 31
0.0
  0
LINE
  5
394
330
1F
100
AcDbEntity
  8
画層1
  6
Continuous
100
AcDbLine
 10
35558.64642433192
 20
11682.60760768472
 30
0.0
 11
35558.64642433192
 21
11632.60760768472
 31
0.0
  0
LINE
  5
395
330
1F
100
AcDbEntity
  8
画層1
  6
Continuous
100
AcDbLine
 10
35558.64642433192
 20
11657.60760768472
 30
0.0
 11
35608.64642433192
 21
11657.60760768484
 31
0.0
  0
LWPOLYLINE
  5
396
330
1F
100
AcDbEntity
  8
画層1
100
AcDbPolyline
 90
        4
 70
     1
 43
0.0
 10
35722.3464243321
 20
12082.60760768484
 10
35762.3464243321
 20
12082.60760768484
 10
35762.3464243321
 20
11882.60760768484
 10
35722.3464243321
 20
11882.60760768484
  0
LWPOLYLINE
  5
397
102
{ACAD_REACTORS
330
399
102
}
330
1F
100
AcDbEntity
  8
画層2
100
AcDbPolyline
 90
        8
 70
     0
 43
0.0
 10
35392.3464243321
 20
11632.60760768484
 10
35392.3464243321
 20
11332.60760768484
 10
35517.3464243321
 20
11332.60760768484
 10
35517.3464243321
 20
9032.607607684838
 10
35967.3464243321
 20
9032.607607684838
 10
35967.3464243321
 20
11332.60760768484
 10
36092.3464243321
 20
11332.60760768484
 10
36092.3464243321
 20
11632.6076076853
  0
LINE
  5
398
102
{ACAD_REACTORS
330
399
102
}
330
1F
100
AcDbEntity
  8
画層2
100
AcDbLine
 10
35967.3464243321
 20
9132.607607684837
 30
0.0
 11
35517.3464243321
 21
9132.607607684837
 31
0.0
  0
HATCH
  5
399
330
1F
100
AcDbEntity
  8
ﾊｯﾁﾝｸﾞ
100
AcDbHatch
 10
0.0
 20
0.0
 30
0.0
210
0.0
220
0.0
230
1.0
  2
PLAST
 70
     0
 71
     1
 91
        1
 92
        7
 72
     0
 73
     1
 93
        8
 10
35967.3464243321
 20
11332.60760768484
 10
36092.3464243321
 20
11332.60760768484
 10
36092.3464243321
 20
11632.60760768484
 10
35392.3464243321
 20
11632.60760768483
 10
35392.34642433209
 20
11332.60760768484
 10
35517.34642433209
 20
11332.60760768484
 10
35517.34642433209
 20
9132.607607684837
 10
35967.34642433209
 20
9132.607607684837
 97
        3
330
397
330
382
330
398
 75
     0
 76
     1
 52
45.0
 41
2000.0
 77
     0
 78
     3
 53
45.0
 43
-205237.4207137523
 44
-242187.2017397765
 45
-353.5533905932737
 46
353.5533905932738
 79
     0
 53
45.0
 43
-205281.6148875765
 44
-242143.0075659523
 45
-353.5533905932737
 46
353.5533905932738
 79
     0
 53
45.0
 43
-205325.8090614006
 44
-242098.8133921281
 45
-353.5533905932737
 46
353.5533905932738
 79
     0
 47
51.45826164593856
 98
        1
 10
35757.64037456944
 20
10433.64527977169
  0
DIMENSION
  5
39A
330
1F
100
AcDbEntity
  8
寸法
  6
Continuous
100
AcDbDimension
  2
*D16
 10
32242.3464243321
 20
11332.60760768484
 30
0.0
 11
32507.28760683278
 21
11220.7917135768
 31
0.0
 70
   160
 71
     5
 42
300.0000000001163
  3
1_100
100
AcDbAlignedDimension
 13
31242.3464243321
 23
11632.60760768495
 33
0.0
 14
31242.3464243321
 24
11332.60760768484
 34
0.0
 50
90.0
100
AcDbRotatedDimension
  0
DIMENSION
  5
39B
330
1F
100
AcDbEntity
  8
寸法
  6
Continuous
100
AcDbDimension
  2
*D17
 10
33242.3464243321
 20
9132.607607684953
 30
0.0
 11
32963.77499576067
 21
10382.60760768496
 31
0.0
 70
    32
 71
     5
 42
2500.0
  3
1_100
100
AcDbAlignedDimension
 13
31242.3464243321
 23
11632.60760768495
 33
0.0
 14
31242.3464243321
 24
9132.607607684953
 34
0.0
 50
90.0
100
AcDbRotatedDimension
  0
TEXT
  5
39C
330
1F
100
AcDbEntity
  8
寸法
  6
Continuous
100
AcDbText
 10
26402.86540954057
 20
7648.159638297087
 30
0.0
 40
300.0
  1
10,000
 41
0.75
  7
1_100
 11
26402.86540954057
 21
7648.159638297087
 31
0.0
100
AcDbText
 73
     1
  0
LINE
  5
39D
330
1F
100
AcDbEntity
  8
画層2-1
  6
Continuous
100
AcDbLine
 10
23108.64642433215
 20
11482.60760768484
 30
0.0
 11
23376.04642433205
 21
11482.60760768484
 31
0.0
  0
DIMENSION
  5
39E
330
1F
100
AcDbEntity
  8
寸法
  6
Continuous
100
AcDbDimension
  2
*D18
 10
32242.3464243321
 20
9032.60760768507
 30
0.0
 11
31982.72977342944
 21
8607.248046861771
 31
0.0
 70
   160
 71
     5
 42
99.99999999988361
  3
1_100
100
AcDbAlignedDimension
 13
31242.3464243321
 23
9132.607607684953
 33
0.0
 14
31242.3464243321
 24
9032.60760768507
 34
0.0
 50
90.0
100
AcDbRotatedDimension
  0
DIMENSION
  5
39F
330
1F
100
AcDbEntity
  8
寸法
  6
Continuous
100
AcDbDimension
  2
*D19
 10
32242.3464243321
 20
9132.607607684953
 30
0.0
 11
31963.77499576067
 21
10232.6076076849
 31
0.0
 70
    32
 71
     5
 42
2199.999999999883
  3
1_100
100
AcDbAlignedDimension
 13
31242.3464243321
 23
11332.60760768484
 33
0.0
 14
31242.3464243321
 24
9132.607607684953
 34
0.0
 50
90.0
100
AcDbRotatedDimension
  0
MTEXT
  5
3A0
102
{ACAD_REACTORS
330
3A1
102
}
330
1F
100
AcDbEntity
  8
寸法文字
  6
Continuous
100
AcDbMText
 10
25327.08552110333
 20
12638.82210129416
 30
0.0
 40
300.0
 41
0.0
 71
     7
 72
     1
  1
メッセンワイヤー22m㎡
  7
1_100
 73
     1
 44
1.0
1001
ACAD
1000
MTEXTBEGIN
1070
    73
1070
     1
1070
    44
1040
1.0
1070
    74
1070
     0
1000
MTEXTEND
  0
LEADER
  5
3A1
330
1F
100
AcDbEntity
  8
寸法引出
  6
Continuous
100
AcDbLeader
  3
1_100
 71
     0
 73
     0
 74
     0
 75
     1
 40
346.6666666666666
 41
3117.142857142858
 76
     3
 10
24713.61712798951
 20
11657.60760768495
 30
0.0
 10
25167.08552110333
 20
12538.82210129416
 30
0.0
 10
25227.08552110333
 20
12538.82210129416
 30
0.0
340
3A0
  0
LINE
  5
3A2
330
1F
100
AcDbEntity
  8
寸法引出
  6
Continuous
100
AcDbLine
 10
24241.60656855928
 20
14612.60760768472
 30
0.0
 11
25167.08552110333
 21
12538.82210129416
 31
0.0
  0
CIRCLE
  5
3A3
330
1F
100
AcDbEntity
  8
画層1
  6
Continuous
100
AcDbCircle
 10
23401.04642433205
 20
14612.6076076846
 30
0.0
 40
10.7662971851
  0
LINE
  5
3A4
330
1F
100
AcDbEntity
  8
画層1
  6
Continuous
100
AcDbLine
 10
23426.04642433205
 20
14587.6076076846
 30
0.0
 11
23426.04642433205
 21
14637.6076076846
 31
0.0
  0
LINE
  5
3A5
330
1F
100
AcDbEntity
  8
画層1
  6
Continuous
100
AcDbLine
 10
23267.3464243321
 20
14587.6076076846
 30
0.0
 11
23267.3464243321
 21
14637.6076076846
 31
0.0
  0
CIRCLE
  5
3A6
330
1F
100
AcDbEntity
  8
画層1
  6
Continuous
100
AcDbCircle
 10
23083.64642433215
 20
14612.6076076846
 30
0.0
 40
10.7662971851
  0
LINE
  5
3A7
330
1F
100
AcDbEntity
  8
画層1
  6
Continuous
100
AcDbLine
 10
23058.64642433215
 20
14637.6076076846
 30
0.0
 11
23058.64642433215
 21
14587.6076076846
 31
0.0
  0
CIRCLE
  5
3A8
330
1F
100
AcDbEntity
  8
画層1
  6
Continuous
100
AcDbCircle
 10
23242.3464243321
 20
14612.6076076846
 30
0.0
 40
10.7662971851
  0
LINE
  5
3A9
330
1F
100
AcDbEntity
  8
画層1
  6
Continuous
100
AcDbLine
 10
23217.3464243321
 20
14637.6076076846
 30
0.0
 11
23217.3464243321
 21
14587.6076076846
 31
0.0
  0
LINE
  5
3AA
330
1F
100
AcDbEntity
  8
画層1
  6
Continuous
100
AcDbLine
 10
23426.04642433205
 20
14637.6076076846
 30
0.0
 11
23058.64642433215
 21
14637.6076076846
 31
0.0
  0
LINE
  5
3AB
330
1F
100
AcDbEntity
  8
画層1
  6
Continuous
100
AcDbLine
 10
23058.64642433215
 20
14587.6076076846
 30
0.0
 11
23426.04642433205
 21
14587.6076076846
 31
0.0
  0
LWPOLYLINE
  5
3AC
330
1F
100
AcDbEntity
  8
画層1-1
100
AcDbPolyline
 90
        4
 70
     1
 43
0.0
 10
23572.3413098296
 20
11899.50380552133
 10
23603.35117891289
 20
11874.2374638898
 10
23493.15834647229
 20
11738.99567235067
 10
23462.14847738922
 20
11764.26201398221
  0
LWPOLYLINE
  5
3AD
330
1F
100
AcDbEntity
  8
画層1-1
100
AcDbPolyline
 90
        4
 70
     1
 43
0.0
 10
22912.35153883414
 20
11899.50380552122
 10
22881.34166975108
 20
11874.23746388957
 10
22991.53450219168
 20
11738.99567235056
 10
23022.54437127498
 20
11764.26201398209
  0
CIRCLE
  5
3AE
330
1F
100
AcDbEntity
  8
画層1
  6
Continuous
100
AcDbCircle
 10
23401.04642433205
 20
11657.60760768484
 30
0.0
 40
10.7662971851
  0
LINE
  5
3AF
330
1F
100
AcDbEntity
  8
画層1
  6
Continuous
100
AcDbLine
 10
23267.3464243321
 20
11632.60760768484
 30
0.0
 11
23267.3464243321
 21
11682.60760768484
 31
0.0
  0
LINE
  5
3B0
330
1F
100
AcDbEntity
  8
画層1
  6
Continuous
100
AcDbLine
 10
23217.3464243321
 20
11682.60760768484
 30
0.0
 11
23217.3464243321
 21
11632.60760768484
 31
0.0
  0
CIRCLE
  5
3B1
330
1F
100
AcDbEntity
  8
画層1
  6
Continuous
100
AcDbCircle
 10
23083.64642433215
 20
11657.60760768484
 30
0.0
 40
10.7662971851
  0
CIRCLE
  5
3B2
330
1F
100
AcDbEntity
  8
画層1
  6
Continuous
100
AcDbCircle
 10
23242.3464243321
 20
11657.60760768484
 30
0.0
 40
10.7662971851
  0
LINE
  5
3B3
330
1F
100
AcDbEntity
  8
画層2-1
  6
Continuous
100
AcDbLine
 10
23108.64642433215
 20
11732.60760768484
 30
0.0
 11
23376.04642433205
 21
11732.60760768484
 31
0.0
  0
DIMENSION
  5
3B4
330
1F
100
AcDbEntity
  8
寸法
  6
Continuous
100
AcDbDimension
  2
*D20
 10
32242.3464243321
 20
11632.60760768495
 30
0.0
 11
31963.77499576067
 21
13122.6076076849
 31
0.0
 70
    32
 71
     5
 42
2979.999999999884
  3
1_100
100
AcDbAlignedDimension
 13
31242.3464243321
 23
14612.60760768484
 33
0.0
 14
31242.3464243321
 24
11632.60760768495
 34
0.0
 50
90.0
100
AcDbRotatedDimension
  0
LWPOLYLINE
  5
3B5
330
1F
100
AcDbEntity
  8
画層1
  6
Continuous
100
AcDbPolyline
 90
        4
 70
     1
 43
0.0
 10
23058.64642433215
 20
11682.60760768484
 10
23426.04642433205
 20
11682.60760768484
 10
23426.04642433205
 20
11632.60760768484
 10
23058.64642433215
 20
11632.60760768484
  0
LWPOLYLINE
  5
3B6
102
{ACAD_REACTORS
330
3B8
102
}
330
1F
100
AcDbEntity
  8
画層2
100
AcDbPolyline
 90
        8
 70
     0
 43
0.0
 10
22892.34642433222
 20
11632.60760768478
 10
22892.34642433222
 20
11332.60760768478
 10
23017.34642433222
 20
11332.60760768478
 10
23017.34642433222
 20
9032.607607684779
 10
23467.34642433222
 20
9032.607607684779
 10
23467.34642433222
 20
11332.60760768478
 10
23592.34642433222
 20
11332.60760768478
 10
23592.34642433222
 20
11632.60760768524
  0
LINE
  5
3B7
102
{ACAD_REACTORS
330
3B8
102
}
330
1F
100
AcDbEntity
  8
画層2
100
AcDbLine
 10
23467.34642433222
 20
9132.60760768478
 30
0.0
 11
23017.34642433222
 21
9132.60760768478
 31
0.0
  0
HATCH
  5
3B8
330
1F
100
AcDbEntity
  8
ﾊｯﾁﾝｸﾞ
100
AcDbHatch
 10
0.0
 20
0.0
 30
0.0
210
0.0
220
0.0
230
1.0
  2
PLAST
 70
     0
 71
     1
 91
        1
 92
        7
 72
     0
 73
     1
 93
        8
 10
23467.34642433222
 20
11332.60760768478
 10
23592.34642433222
 20
11332.60760768478
 10
23592.34642433222
 20
11632.60760768476
 10
22892.34642433222
 20
11632.60760768477
 10
22892.34642433222
 20
11332.60760768478
 10
23017.34642433222
 20
11332.60760768478
 10
23017.34642433222
 20
9132.60760768478
 10
23467.34642433222
 20
9132.607607684782
 97
        3
330
3B6
330
349
330
3B7
 75
     0
 76
     1
 52
45.0
 41
2000.0
 77
     0
 78
     3
 53
45.0
 43
-205237.4207137523
 44
-242187.2017397765
 45
-353.5533905932737
 46
353.5533905932738
 79
     0
 53
45.0
 43
-205281.6148875765
 44
-242143.0075659523
 45
-353.5533905932737
 46
353.5533905932738
 79
     0
 53
45.0
 43
-205325.8090614006
 44
-242098.8133921281
 45
-353.5533905932737
 46
353.5533905932738
 79
     0
 47
51.45826164593856
 98
        1
 10
23398.10794999146
 20
10382.18651897744
  0
LINE
  5
3B9
330
1F
100
AcDbEntity
  8
画層1
  6
Continuous
100
AcDbLine
 10
35608.64642433192
 20
9132.607607684953
 30
0.0
 11
35608.64642433192
 21
16132.60760768495
 31
0.0
  0
LINE
  5
3BA
330
1F
100
AcDbEntity
  8
画層1
  6
Continuous
100
AcDbLine
 10
35876.04642433205
 20
16132.60760768495
 30
0.0
 11
35876.04642433205
 21
9132.607607684953
 31
0.0
  0
LINE
  5
3BB
330
1F
100
AcDbEntity
  8
画層1
  6
Continuous
100
AcDbLine
 10
23376.04642433205
 20
16132.60760768484
 30
0.0
 11
23376.04642433205
 21
9132.607607684953
 31
0.0
  0
LINE
  5
3BC
330
1F
100
AcDbEntity
  8
画層1
  6
Continuous
100
AcDbLine
 10
23108.64642433215
 20
9132.607607684953
 30
0.0
 11
23108.64642433215
 21
16132.60760768484
 31
0.0
  0
MTEXT
  5
3BD
330
1F
100
AcDbEntity
  8
寸法文字
  6
Continuous
100
AcDbMText
 10
38785.40041993161
 20
16169.69541736044
 30
0.0
 40
300.0
 41
0.0
 71
     1
 72
     1
  1
（溶融亜鉛メッキ450g/㎡）
  7
1_100
 73
     1
 44
1.0
1001
ACAD
1000
MTEXTBEGIN
1070
    73
1070
     1
1070
    44
1040
1.0
1070
    74
1070
     0
1000
MTEXTEND
  0
LEADER
  5
3BE
330
1F
100
AcDbEntity
  8
寸法引出
  6
Continuous
100
AcDbLeader
  3
1_100
 71
     0
 73
     0
 74
     0
 75
     1
 40
300.0
 41
4699.285714285712
 76
     3
 10
35850.49642433201
 20
22887.56185193463
 30
0.0
 10
37030.02497855689
 20
24809.82000981739
 30
0.0
 10
37090.02497855689
 20
24809.82000981739
 30
0.0
340
3BF
  0
MTEXT
  5
3BF
102
{ACAD_REACTORS
330
3BE
102
}
330
1F
100
AcDbEntity
  8
寸法文字
  6
Continuous
100
AcDbMText
 10
37190.02497855689
 20
24909.82000981738
 30
0.0
 40
300.0
 41
0.0
 71
     7
 72
     1
  1
主柱KSポールφ216.3厚さ3.5mm
  7
1_100
 73
     1
 44
1.0
1001
ACAD
1000
ACAD_MTEXT_DEFINED_HEIGHT_BEGIN
1070
    46
1040
0.0
1000
ACAD_MTEXT_DEFINED_HEIGHT_END
1000
MTEXTBEGIN
1070
    73
1070
     1
1070
    44
1040
1.0
1070
    74
1070
     0
1000
MTEXTEND
  0
MTEXT
  5
3C0
330
1F
100
AcDbEntity
  8
寸法文字
  6
Continuous
100
AcDbMText
 10
37110.62760730808
 20
24691.19931070519
 30
0.0
 40
300.0
 41
0.0
 71
     1
 72
     1
  1
（溶融亜鉛メッキ450g/㎡）
  7
1_100
 73
     1
 44
1.0
1001
ACAD
1000
MTEXTBEGIN
1070
    73
1070
     1
1070
    44
1040
1.0
1070
    74
1070
     0
1000
MTEXTEND
  0
LEADER
  5
3C1
330
1F
100
AcDbEntity
  8
寸法引出
  6
Continuous
100
AcDbLeader
  3
1_100
 71
     0
 73
     0
 74
     0
 75
     1
 40
716.6666666666665
 41
3117.142857142857
 76
     3
 10
19178.09336454908
 20
18718.13530304147
 30
0.0
 10
19706.24385723411
 20
18264.09032040676
 30
0.0
 10
19766.24385723411
 20
18264.09032040676
 30
0.0
340
3C2
  0
MTEXT
  5
3C2
102
{ACAD_REACTORS
330
3C1
102
}
330
1F
100
AcDbEntity
  8
寸法文字
  6
Continuous
100
AcDbMText
 10
19866.24385723411
 20
18364.09032040675
 30
0.0
 40
300.0
 41
0.0
 71
     7
 72
     1
  1
筋違\Pメッセンワイヤー38m㎡
  7
1_100
 73
     1
 44
0.7400000000000002
1001
ACAD
1000
MTEXTBEGIN
1070
    73
1070
     1
1070
    44
1040
0.7400000000000002
1070
    74
1070
     0
1000
MTEXTEND
  0
LEADER
  5
3C3
330
1F
100
AcDbEntity
  8
寸法引出
  6
Continuous
100
AcDbLeader
  3
1_100
 71
     0
 73
     0
 74
     0
 75
     1
 40
346.6666666666666
 41
3117.142857142857
 76
     3
 10
20603.71780811784
 20
23572.60760768496
 30
0.0
 10
20810.09947950147
 20
23956.01031158993
 30
0.0
 10
20870.09947950147
 20
23956.01031158993
 30
0.0
340
3C4
  0
MTEXT
  5
3C4
102
{ACAD_REACTORS
330
3C3
102
}
330
1F
100
AcDbEntity
  8
寸法文字
  6
Continuous
100
AcDbMText
 10
20970.09947950147
 20
24056.01031158993
 30
0.0
 40
300.0
 41
0.0
 71
     7
 72
     1
  1
メッセンワイヤー38m㎡
  7
1_100
 73
     1
 44
1.0
1001
ACAD
1000
MTEXTBEGIN
1070
    73
1070
     1
1070
    44
1040
1.0
1070
    74
1070
     0
1000
MTEXTEND
  0
LWPOLYLINE
  5
3C5
330
1F
100
AcDbEntity
  8
画層1-1
  6
Continuous
100
AcDbPolyline
 90
        4
 70
     1
 43
0.0
 10
13450.49642433224
 20
23592.50760768508
 10
23034.19642433219
 20
23592.50760768508
 10
23034.19642433219
 20
23452.70760768507
 10
13450.49642433224
 20
23452.70760768507
  0
LEADER
  5
3C6
330
1F
100
AcDbEntity
  8
寸法引出
  6
Continuous
100
AcDbLeader
  3
1_100
 71
     0
 73
     0
 74
     0
 75
     1
 40
300.0
 41
5880.0
 76
     3
 10
15934.9960105973
 20
23518.38634091306
 30
0.0
 10
16430.24179519712
 20
24511.43091042844
 30
0.0
 10
16490.24179519711
 20
24511.43091042844
 30
0.0
340
3C7
  0
MTEXT
  5
3C7
102
{ACAD_REACTORS
330
3C6
102
}
330
1F
100
AcDbEntity
  8
寸法文字
  6
Continuous
100
AcDbMText
 10
16590.24179519712
 20
24611.43091042845
 30
0.0
 40
300.0
 41
0.0
 71
     7
 72
     1
  1
端末・コーナー補強ポールφ139.8×3.0mm
  7
1_100
 73
     1
 44
1.0
1001
ACAD
1000
ACAD_MTEXT_DEFINED_HEIGHT_BEGIN
1070
    46
1040
0.0
1000
ACAD_MTEXT_DEFINED_HEIGHT_END
1000
MTEXTBEGIN
1070
    73
1070
     1
1070
    44
1040
1.0
1070
    74
1070
     0
1000
MTEXTEND
  0
LINE
  5
3C8
102
{ACAD_REACTORS
330
33E
102
}
330
1F
100
AcDbEntity
  8
画層1
  6
Continuous
100
AcDbLine
 10
13242.3464243321
 20
23572.60760768496
 30
0.0
 11
30742.3464243321
 21
23572.60760768496
 31
0.0
  0
LINE
  5
3C9
330
1F
100
AcDbEntity
  8
画層1-1
  6
Continuous
100
AcDbLine
 10
13242.3464243321
 20
17592.60760768496
 30
0.0
 11
30742.3464243321
 21
17592.60760768507
 31
0.0
  0
LINE
  5
3CA
330
1F
100
AcDbEntity
  8
画層1-1
  6
Continuous
100
AcDbLine
 10
13242.3464243321
 20
20582.60760768496
 30
0.0
 11
30742.3464243321
 21
20582.60760768496
 31
0.0
  0
LEADER
  5
3CB
330
1F
100
AcDbEntity
  8
寸法引出
  6
Continuous
100
AcDbLeader
  3
1_100
 71
     0
 73
     0
 75
     1
 40
346.6666666666666
 41
3117.142857142858
 76
     3
 10
13242.3464243321
 20
19637.23290592145
 30
0.0
 10
12154.79924456866
 20
20489.16498603315
 30
0.0
 10
12094.79924456866
 20
20489.16498603315
 30
0.0
340
3CC
  0
MTEXT
  5
3CC
102
{ACAD_REACTORS
330
3CB
102
}
330
1F
100
AcDbEntity
  8
寸法文字
  6
Continuous
100
AcDbMText
 10
11994.79924456866
 20
20589.16498603315
 30
0.0
 40
300.0
 41
0.0
 71
     9
 72
     1
  1
メッセンワイヤー22m㎡
  7
1_100
 73
     1
 44
1.0
1001
ACAD
1000
MTEXTBEGIN
1070
    73
1070
     1
1070
    44
1040
1.0
1070
    74
1070
     0
1000
MTEXTEND
  0
LEADER
  5
3CD
330
1F
100
AcDbEntity
  8
寸法引出
  6
Continuous
100
AcDbLeader
  3
1_100
 71
     0
 73
     0
 75
     1
 40
300.0
 41
2603.571428571428
 76
     3
 10
13578.89480468279
 20
17612.60760768496
 30
0.0
 10
12092.65985325605
 20
18738.55728361899
 30
0.0
 10
12032.65985325605
 20
18738.55728361899
 30
0.0
340
3CE
  0
MTEXT
  5
3CE
102
{ACAD_REACTORS
330
3CD
102
}
330
1F
100
AcDbEntity
  8
寸法文字
  6
Continuous
100
AcDbMText
 10
11932.65985325605
 20
18838.557283619
 30
0.0
 40
300.0
 41
0.0
 71
     9
 72
     1
  1
タンバックル12mm
  7
1_100
 73
     1
 44
1.0
1001
ACAD
1000
MTEXTBEGIN
1070
    73
1070
     1
1070
    44
1040
1.0
1070
    74
1070
     0
1000
MTEXTEND
  0
LWPOLYLINE
  5
3CF
330
1F
100
AcDbEntity
  8
画層1-1
100
AcDbPolyline
 90
        4
 70
     1
 43
0.0
 10
13501.04642433205
 20
17612.60760768496
 10
13675.49642433224
 20
17612.60760768496
 10
13675.49642433224
 20
17572.60760768495
 10
13501.04642433205
 20
17572.60760768495
  0
LINE
  5
3D0
330
1F
100
AcDbEntity
  8
画層1
  6
Continuous
100
AcDbLine
 10
13400.49642433223
 20
17617.60760768495
 30
0.0
 11
13084.19642433219
 21
17617.60760768495
 31
0.0
  0
LINE
  5
3D1
330
1F
100
AcDbEntity
  8
画層1
  6
Continuous
100
AcDbLine
 10
13400.49642433223
 20
17567.60760768496
 30
0.0
 11
13400.49642433223
 21
17617.60760768495
 31
0.0
  0
LINE
  5
3D2
330
1F
100
AcDbEntity
  8
画層1
  6
Continuous
100
AcDbLine
 10
13084.19642433219
 20
17567.60760768496
 30
0.0
 11
13400.49642433223
 21
17567.60760768496
 31
0.0
  0
LINE
  5
3D3
330
1F
100
AcDbEntity
  8
画層1
  6
Continuous
100
AcDbLine
 10
13084.19642433219
 20
17617.60760768495
 30
0.0
 11
13084.19642433219
 21
17567.60760768496
 31
0.0
  0
CIRCLE
  5
3D4
330
1F
100
AcDbEntity
  8
画層1
  6
Continuous
100
AcDbCircle
 10
13109.19642433219
 20
17592.60760768496
 30
0.0
 40
10.7662971851
  0
LINE
  5
3D5
330
1F
100
AcDbEntity
  8
画層1
  6
Continuous
100
AcDbLine
 10
13267.3464243321
 20
17567.60760768496
 30
0.0
 11
13267.3464243321
 21
17617.60760768495
 31
0.0
  0
LINE
  5
3D6
330
1F
100
AcDbEntity
  8
画層1
  6
Continuous
100
AcDbLine
 10
13217.3464243321
 20
17617.60760768495
 30
0.0
 11
13217.3464243321
 21
17567.60760768496
 31
0.0
  0
CIRCLE
  5
3D7
330
1F
100
AcDbEntity
  8
画層1
  6
Continuous
100
AcDbCircle
 10
13375.49642433224
 20
17592.60760768496
 30
0.0
 40
10.7662971851
  0
CIRCLE
  5
3D8
330
1F
100
AcDbEntity
  8
画層1
  6
Continuous
100
AcDbCircle
 10
13242.3464243321
 20
17592.60760768496
 30
0.0
 40
10.7662971851
  0
LEADER
  5
3D9
330
1F
100
AcDbEntity
  8
寸法引出
  6
Continuous
100
AcDbLeader
  3
1_100
 71
     0
 73
     0
 75
     1
 40
300.0
 41
2940.000000000001
 76
     3
 10
13242.3464243321
 20
23632.60760768496
 30
0.0
 10
12028.62622780152
 20
24557.81856746511
 30
0.0
 10
11968.62622780152
 20
24557.81856746511
 30
0.0
340
3DA
  0
MTEXT
  5
3DA
102
{ACAD_REACTORS
330
3D9
102
}
330
1F
100
AcDbEntity
  8
寸法文字
  6
Continuous
100
AcDbMText
 10
11868.62622780152
 20
24657.81856746509
 30
0.0
 40
300.0
 41
0.0
 71
     9
 72
     1
  1
上部ネット下り防止付き
  7
1_100
 73
     1
 44
1.0
1001
ACAD
1000
MTEXTBEGIN
1070
    73
1070
     1
1070
    44
1040
1.0
1070
    74
1070
     0
1000
MTEXTEND
  0
LEADER
  5
3DB
330
1F
100
AcDbEntity
  8
寸法引出
  6
Continuous
100
AcDbLeader
  3
1_100
 71
     0
 73
     0
 75
     1
 40
300.0
 41
4699.285714285712
 76
     3
 10
13134.19642433219
 20
22196.18549011023
 30
0.0
 10
12077.00656846326
 20
23011.35174688015
 30
0.0
 10
12017.00656846326
 20
23011.35174688015
 30
0.0
340
3DC
  0
MTEXT
  5
3DC
102
{ACAD_REACTORS
330
3DB
102
}
330
1F
100
AcDbEntity
  8
寸法文字
  6
Continuous
100
AcDbMText
 10
11917.00656846326
 20
23111.35174688014
 30
0.0
 40
300.0
 41
0.0
 71
     9
 72
     1
  1
主柱KSポールφ216.3厚さ3.5mm
  7
1_100
 73
     1
 44
1.0
1001
ACAD
1000
ACAD_MTEXT_DEFINED_HEIGHT_BEGIN
1070
    46
1040
0.0
1000
ACAD_MTEXT_DEFINED_HEIGHT_END
1000
MTEXTBEGIN
1070
    73
1070
     1
1070
    44
1040
1.0
1070
    74
1070
     0
1000
MTEXTEND
  0
MTEXT
  5
3DD
330
1F
100
AcDbEntity
  8
寸法文字
  6
Continuous
100
AcDbMText
 10
11206.75055247613
 20
22841.15465076249
 30
0.0
 40
300.0
 41
0.0
 71
     3
 72
     1
  1
（STKT-590鋼管）
  7
1_100
 73
     1
 44
1.0
1001
ACAD
1000
MTEXTBEGIN
1070
    73
1070
     1
1070
    44
1040
1.0
1070
    74
1070
     0
1000
MTEXTEND
  0
CIRCLE
  5
3DE
330
1F
100
AcDbEntity
  8
画層1
  6
Continuous
100
AcDbCircle
 10
13242.3464243321
 20
23522.60760768496
 30
0.0
 40
10.7662971851
  0
CIRCLE
  5
3DF
330
1F
100
AcDbEntity
  8
画層1
  6
Continuous
100
AcDbCircle
 10
13375.49642433224
 20
23522.60760768496
 30
0.0
 40
10.7662971851
  0
LINE
  5
3E0
330
1F
100
AcDbEntity
  8
画層1
  6
Continuous
100
AcDbLine
 10
13217.3464243321
 20
23547.60760768496
 30
0.0
 11
13217.3464243321
 21
23497.60760768496
 31
0.0
  0
LINE
  5
3E1
330
1F
100
AcDbEntity
  8
画層1
  6
Continuous
100
AcDbLine
 10
13267.3464243321
 20
23497.60760768496
 30
0.0
 11
13267.3464243321
 21
23547.60760768496
 31
0.0
  0
CIRCLE
  5
3E2
330
1F
100
AcDbEntity
  8
画層1
  6
Continuous
100
AcDbCircle
 10
13109.19642433219
 20
23522.60760768496
 30
0.0
 40
10.7662971851
  0
LINE
  5
3E3
330
1F
100
AcDbEntity
  8
画層1
  6
Continuous
100
AcDbLine
 10
13084.19642433219
 20
23547.60760768496
 30
0.0
 11
13084.19642433219
 21
23497.60760768496
 31
0.0
  0
LINE
  5
3E4
330
1F
100
AcDbEntity
  8
画層1
  6
Continuous
100
AcDbLine
 10
13400.49642433223
 20
23547.60760768496
 30
0.0
 11
13084.19642433219
 21
23547.60760768496
 31
0.0
  0
LINE
  5
3E5
330
1F
100
AcDbEntity
  8
画層1
  6
Continuous
100
AcDbLine
 10
13084.19642433219
 20
23497.60760768496
 30
0.0
 11
13400.49642433223
 21
23497.60760768496
 31
0.0
  0
LINE
  5
3E6
330
1F
100
AcDbEntity
  8
画層1
  6
Continuous
100
AcDbLine
 10
13400.49642433223
 20
23497.60760768496
 30
0.0
 11
13400.49642433223
 21
23547.60760768496
 31
0.0
  0
LWPOLYLINE
  5
3E7
330
1F
100
AcDbEntity
  8
画層1
100
AcDbPolyline
 90
        4
 70
     1
 43
0.0
 10
13501.04642433205
 20
23592.60760768496
 10
13675.49642433224
 20
23592.60760768496
 10
13675.49642433224
 20
23552.60760768496
 10
13501.04642433205
 20
23552.60760768496
  0
LINE
  5
3E8
330
1F
100
AcDbEntity
  8
画層1
  6
Continuous
100
AcDbLine
 10
13400.49642433223
 20
23547.60760768496
 30
0.0
 11
13400.49642433223
 21
23597.60760768496
 31
0.0
  0
LINE
  5
3E9
330
1F
100
AcDbEntity
  8
画層1
  6
Continuous
100
AcDbLine
 10
13084.19642433219
 20
23547.60760768496
 30
0.0
 11
13400.49642433223
 21
23547.60760768496
 31
0.0
  0
LINE
  5
3EA
330
1F
100
AcDbEntity
  8
画層1
  6
Continuous
100
AcDbLine
 10
13134.19642433219
 20
23632.60760768496
 30
0.0
 11
13350.496424332
 21
23632.60760768496
 31
0.0
  0
LINE
  5
3EB
330
1F
100
AcDbEntity
  8
画層1
  6
Continuous
100
AcDbLine
 10
13400.49642433223
 20
23597.60760768496
 30
0.0
 11
13084.19642433219
 21
23597.60760768496
 31
0.0
  0
LINE
  5
3EC
330
1F
100
AcDbEntity
  8
画層1
  6
Continuous
100
AcDbLine
 10
13084.19642433219
 20
23597.60760768496
 30
0.0
 11
13084.19642433219
 21
23547.60760768496
 31
0.0
  0
CIRCLE
  5
3ED
330
1F
100
AcDbEntity
  8
画層1
  6
Continuous
100
AcDbCircle
 10
13109.19642433219
 20
23572.60760768496
 30
0.0
 40
10.7662971851
  0
LINE
  5
3EE
330
1F
100
AcDbEntity
  8
画層1
  6
Continuous
100
AcDbLine
 10
13267.3464243321
 20
23547.60760768496
 30
0.0
 11
13267.3464243321
 21
23597.60760768496
 31
0.0
  0
LINE
  5
3EF
330
1F
100
AcDbEntity
  8
画層1
  6
Continuous
100
AcDbLine
 10
13217.3464243321
 20
23597.60760768496
 30
0.0
 11
13217.3464243321
 21
23547.60760768496
 31
0.0
  0
CIRCLE
  5
3F0
330
1F
100
AcDbEntity
  8
画層1
  6
Continuous
100
AcDbCircle
 10
13375.49642433224
 20
23572.60760768496
 30
0.0
 40
10.7662971851
  0
CIRCLE
  5
3F1
330
1F
100
AcDbEntity
  8
画層1
  6
Continuous
100
AcDbCircle
 10
13242.3464243321
 20
23572.60760768496
 30
0.0
 40
10.7662971851
  0
LINE
  5
3F2
330
1F
100
AcDbEntity
  8
画層1
  6
Continuous
100
AcDbLine
 10
13375.49642433224
 20
23572.60760768496
 30
0.0
 11
13501.04642433205
 21
23572.60760768496
 31
0.0
  0
DIMENSION
  5
3F3
330
1F
100
AcDbEntity
  8
寸法
  6
Continuous
100
AcDbDimension
  2
*D21
 10
13350.496424332
 20
24232.60760768496
 30
0.0
 11
13242.34642433209
 21
24532.60760768496
 31
0.0
 70
    32
  1
φ<>
 71
     5
 42
216.2999999998101
  3
1_100
100
AcDbAlignedDimension
 13
13134.19642433219
 23
23632.60760768496
 33
0.0
 14
13350.496424332
 24
23632.60760768496
 34
0.0
100
AcDbRotatedDimension
  0
LWPOLYLINE
  5
3F4
330
1F
100
AcDbEntity
  8
画層1-1
100
AcDbPolyline
 90
        4
 70
     1
 43
0.0
 10
13501.04642433205
 20
20602.60760768496
 10
13675.49642433224
 20
20602.60760768496
 10
13675.49642433224
 20
20562.60760768496
 10
13501.04642433205
 20
20562.60760768496
  0
LINE
  5
3F5
330
1F
100
AcDbEntity
  8
画層1
  6
Continuous
100
AcDbLine
 10
13400.49642433223
 20
20607.60760768496
 30
0.0
 11
13084.19642433219
 21
20607.60760768496
 31
0.0
  0
LINE
  5
3F6
330
1F
100
AcDbEntity
  8
画層1
  6
Continuous
100
AcDbLine
 10
13400.49642433223
 20
20557.60760768496
 30
0.0
 11
13400.49642433223
 21
20607.60760768496
 31
0.0
  0
LINE
  5
3F7
330
1F
100
AcDbEntity
  8
画層1
  6
Continuous
100
AcDbLine
 10
13084.19642433219
 20
20557.60760768496
 30
0.0
 11
13400.49642433223
 21
20557.60760768496
 31
0.0
  0
CIRCLE
  5
3F8
330
1F
100
AcDbEntity
  8
画層1
  6
Continuous
100
AcDbCircle
 10
13109.19642433219
 20
20582.60760768496
 30
0.0
 40
10.7662971851
  0
LINE
  5
3F9
330
1F
100
AcDbEntity
  8
画層1
  6
Continuous
100
AcDbLine
 10
13084.19642433219
 20
20607.60760768496
 30
0.0
 11
13084.19642433219
 21
20557.60760768496
 31
0.0
  0
CIRCLE
  5
3FA
330
1F
100
AcDbEntity
  8
画層1
  6
Continuous
100
AcDbCircle
 10
13375.49642433224
 20
20582.60760768496
 30
0.0
 40
10.7662971851
  0
CIRCLE
  5
3FB
330
1F
100
AcDbEntity
  8
画層1
  6
Continuous
100
AcDbCircle
 10
13242.3464243321
 20
20582.60760768496
 30
0.0
 40
10.7662971851
  0
LINE
  5
3FC
330
1F
100
AcDbEntity
  8
画層1
  6
Continuous
100
AcDbLine
 10
13267.3464243321
 20
20557.60760768496
 30
0.0
 11
13267.3464243321
 21
20607.60760768496
 31
0.0
  0
LINE
  5
3FD
330
1F
100
AcDbEntity
  8
画層1
  6
Continuous
100
AcDbLine
 10
13217.3464243321
 20
20607.60760768496
 30
0.0
 11
13217.3464243321
 21
20557.60760768496
 31
0.0
  0
LINE
  5
3FF
330
1F
100
AcDbEntity
  8
画層1-1
  6
Continuous
100
AcDbLine
 10
13450.496424332
 20
23522.60760768507
 30
0.0
 11
13400.496424332
 21
23522.60760768496
 31
0.0
  0
MTEXT
  5
400
330
1F
100
AcDbEntity
  8
寸法文字
  6
Continuous
100
AcDbMText
 10
17275.39862254505
 20
24338.43416740493
 30
0.0
 40
300.0
 41
0.0
 71
     1
 72
     1
  1
（STK-540鋼管）
  7
1_100
 73
     1
 44
1.0
1001
ACAD
1000
ACAD_MTEXT_DEFINED_HEIGHT_BEGIN
1070
    46
1040
0.0
1000
ACAD_MTEXT_DEFINED_HEIGHT_END
1000
MTEXTBEGIN
1070
    73
1070
     1
1070
    44
1040
1.0
1070
    74
1070
     0
1000
MTEXTEND
  0
LINE
  5
403
330
1F
100
AcDbEntity
  8
画層1
  6
Continuous
100
AcDbLine
 10
35717.3464243321
 20
17617.60760768507
 30
0.0
 11
35634.19642433196
 21
17617.60760768507
 31
0.0
  0
LINE
  5
404
330
1F
100
AcDbEntity
  8
画層1
  6
Continuous
100
AcDbLine
 10
35634.19642433196
 20
17567.60760768507
 30
0.0
 11
35717.3464243321
 21
17567.60760768507
 31
0.0
  0
CIRCLE
  5
405
330
1F
100
AcDbEntity
  8
画層1
  6
Continuous
100
AcDbCircle
 10
35742.3464243321
 20
17592.60760768507
 30
0.0
 40
10.7662971851
  0
LINE
  5
406
330
1F
100
AcDbEntity
  8
画層1
  6
Continuous
100
AcDbLine
 10
35850.49642433201
 20
17617.60760768507
 30
0.0
 11
35767.3464243321
 21
17617.60760768507
 31
0.0
  0
LINE
  5
407
330
1F
100
AcDbEntity
  8
画層1
  6
Continuous
100
AcDbLine
 10
35767.3464243321
 20
17567.60760768507
 30
0.0
 11
35850.49642433201
 21
17567.60760768507
 31
0.0
  0
LINE
  5
408
330
1F
100
AcDbEntity
  8
画層1
  6
Continuous
100
AcDbLine
 10
35717.3464243321
 20
17617.60760768507
 30
0.0
 11
35717.3464243321
 21
17567.60760768507
 31
0.0
  0
LINE
  5
409
330
1F
100
AcDbEntity
  8
画層1
  6
Continuous
100
AcDbLine
 10
35767.3464243321
 20
17567.60760768507
 30
0.0
 11
35767.3464243321
 21
17617.60760768507
 31
0.0
  0
LINE
  5
40A
330
1F
100
AcDbEntity
  8
画層1
  6
Continuous
100
AcDbLine
 10
35558.64642433192
 20
17617.60760768507
 30
0.0
 11
35558.64642433192
 21
17567.60760768507
 31
0.0
  0
LINE
  5
40B
330
1F
100
AcDbEntity
  8
画層1
  6
Continuous
100
AcDbLine
 10
35558.64642433192
 20
17592.60760768507
 30
0.0
 11
35634.19642433196
 21
17592.60760768507
 31
0.0
  0
LINE
  5
40C
330
1F
100
AcDbEntity
  8
画層1
  6
Continuous
100
AcDbLine
 10
35717.3464243321
 20
23597.60760768496
 30
0.0
 11
35634.19642433196
 21
23597.60760768496
 31
0.0
  0
LINE
  5
40D
330
1F
100
AcDbEntity
  8
画層1
  6
Continuous
100
AcDbLine
 10
35634.19642433196
 20
23632.60760768496
 30
0.0
 11
35850.49642433201
 21
23632.60760768507
 31
0.0
  0
LINE
  5
40E
330
1F
100
AcDbEntity
  8
画層1
  6
Continuous
100
AcDbLine
 10
35634.19642433196
 20
23547.60760768496
 30
0.0
 11
35717.3464243321
 21
23547.60760768496
 31
0.0
  0
CIRCLE
  5
40F
330
1F
100
AcDbEntity
  8
画層1
  6
Continuous
100
AcDbCircle
 10
35742.3464243321
 20
23572.60760768496
 30
0.0
 40
10.7662971851
  0
LINE
  5
410
330
1F
100
AcDbEntity
  8
画層1
  6
Continuous
100
AcDbLine
 10
35850.49642433201
 20
23597.60760768496
 30
0.0
 11
35767.3464243321
 21
23597.60760768496
 31
0.0
  0
LINE
  5
411
330
1F
100
AcDbEntity
  8
画層1
  6
Continuous
100
AcDbLine
 10
35767.3464243321
 20
23547.60760768496
 30
0.0
 11
35850.49642433201
 21
23547.60760768496
 31
0.0
  0
LINE
  5
412
330
1F
100
AcDbEntity
  8
画層1
  6
Continuous
100
AcDbLine
 10
35717.3464243321
 20
23597.60760768496
 30
0.0
 11
35717.3464243321
 21
23547.60760768496
 31
0.0
  0
LINE
  5
413
330
1F
100
AcDbEntity
  8
画層1
  6
Continuous
100
AcDbLine
 10
35767.3464243321
 20
23547.60760768496
 30
0.0
 11
35767.3464243321
 21
23597.60760768496
 31
0.0
  0
LINE
  5
414
330
1F
100
AcDbEntity
  8
画層1
  6
Continuous
100
AcDbLine
 10
35558.64642433192
 20
23597.60760768496
 30
0.0
 11
35558.64642433192
 21
23547.60760768496
 31
0.0
  0
LINE
  5
415
330
1F
100
AcDbEntity
  8
画層1
  6
Continuous
100
AcDbLine
 10
35558.64642433192
 20
23572.60760768496
 30
0.0
 11
35634.19642433196
 21
23572.60760768496
 31
0.0
  0
DIMENSION
  5
416
330
1F
100
AcDbEntity
  8
寸法
  6
Continuous
100
AcDbDimension
  2
*D22
 10
35850.49642433201
 20
24232.60760768496
 30
0.0
 11
35742.34642433198
 21
24532.60760768496
 31
0.0
 70
    32
  1
φ<>
 71
     5
 42
216.3000000000466
  3
1_100
100
AcDbAlignedDimension
 13
35634.19642433196
 23
23632.60760768496
 33
0.0
 14
35850.49642433201
 24
23632.60760768496
 34
0.0
100
AcDbRotatedDimension
  0
LINE
  5
417
330
1F
100
AcDbEntity
  8
画層1
  6
Continuous
100
AcDbLine
 10
35717.3464243321
 20
20607.60760768507
 30
0.0
 11
35717.3464243321
 21
20557.60760768507
 31
0.0
  0
LINE
  5
418
330
1F
100
AcDbEntity
  8
画層1
  6
Continuous
100
AcDbLine
 10
35767.3464243321
 20
20557.60760768507
 30
0.0
 11
35767.3464243321
 21
20607.60760768507
 31
0.0
  0
CIRCLE
  5
419
330
1F
100
AcDbEntity
  8
画層1
  6
Continuous
100
AcDbCircle
 10
35742.3464243321
 20
20582.60760768507
 30
0.0
 40
10.7662971851
  0
LINE
  5
41A
330
1F
100
AcDbEntity
  8
画層1
  6
Continuous
100
AcDbLine
 10
35634.19642433196
 20
20557.60760768507
 30
0.0
 11
35717.3464243321
 21
20557.60760768507
 31
0.0
  0
LINE
  5
41B
330
1F
100
AcDbEntity
  8
画層1
  6
Continuous
100
AcDbLine
 10
35767.3464243321
 20
20557.60760768507
 30
0.0
 11
35850.49642433201
 21
20557.60760768507
 31
0.0
  0
LINE
  5
41C
330
1F
100
AcDbEntity
  8
画層1
  6
Continuous
100
AcDbLine
 10
35717.3464243321
 20
20607.60760768507
 30
0.0
 11
35634.19642433196
 21
20607.60760768507
 31
0.0
  0
LINE
  5
41D
330
1F
100
AcDbEntity
  8
画層1
  6
Continuous
100
AcDbLine
 10
35850.49642433201
 20
20607.60760768507
 30
0.0
 11
35767.3464243321
 21
20607.60760768507
 31
0.0
  0
LINE
  5
41E
330
1F
100
AcDbEntity
  8
画層1
  6
Continuous
100
AcDbLine
 10
35558.64642433192
 20
20607.60760768507
 30
0.0
 11
35558.64642433192
 21
20557.60760768507
 31
0.0
  0
LINE
  5
41F
330
1F
100
AcDbEntity
  8
画層1
  6
Continuous
100
AcDbLine
 10
35558.64642433192
 20
20582.60760768507
 30
0.0
 11
35634.19642433196
 21
20582.60760768507
 31
0.0
  0
LINE
  5
420
330
1F
100
AcDbEntity
  8
寸法引出
  6
Continuous
100
AcDbLine
 10
23908.35630546019
 20
20582.60760768496
 30
0.0
 11
25036.39875598506
 21
18547.43227770643
 31
0.0
  0
DIMENSION
  5
421
330
1F
100
AcDbEntity
  8
寸法
  6
Continuous
100
AcDbDimension
  2
*D23
 10
32242.3464243321
 20
17592.60760768507
 30
0.0
 11
31963.77499576067
 21
19087.60760768507
 31
0.0
 70
    32
 71
     5
 42
2990.0
  3
1_100
100
AcDbAlignedDimension
 13
31242.3464243321
 23
20582.60760768507
 33
0.0
 14
31242.3464243321
 24
17592.60760768507
 34
0.0
 50
90.0
100
AcDbRotatedDimension
  0
MTEXT
  5
422
102
{ACAD_REACTORS
330
423
102
}
330
1F
100
AcDbEntity
  8
寸法文字
  6
Continuous
100
AcDbMText
 10
25196.39875598506
 20
18647.43227770643
 30
0.0
 40
300.0
 41
0.0
 71
     7
 72
     1
  1
メッセンワイヤー22m㎡
  7
1_100
 73
     1
 44
1.0
1001
ACAD
1000
MTEXTBEGIN
1070
    73
1070
     1
1070
    44
1040
1.0
1070
    74
1070
     0
1000
MTEXTEND
  0
LEADER
  5
423
330
1F
100
AcDbEntity
  8
寸法引出
  6
Continuous
100
AcDbLeader
  3
1_100
 71
     0
 73
     0
 74
     0
 75
     1
 40
346.6666666666666
 41
3117.142857142858
 76
     3
 10
24565.56776162118
 20
17592.60760768507
 30
0.0
 10
25036.39875598506
 20
18547.43227770643
 30
0.0
 10
25096.39875598506
 20
18547.43227770643
 30
0.0
340
422
  0
LINE
  5
424
330
1F
100
AcDbEntity
  8
画層1
  6
Continuous
100
AcDbLine
 10
23400.49642433224
 20
17567.60760768496
 30
0.0
 11
23400.49642433224
 21
17617.60760768495
 31
0.0
  0
CIRCLE
  5
425
330
1F
100
AcDbEntity
  8
画層1
  6
Continuous
100
AcDbCircle
 10
23375.49642433224
 20
17592.60760768496
 30
0.0
 40
10.7662971851
  0
LINE
  5
426
330
1F
100
AcDbEntity
  8
画層1
  6
Continuous
100
AcDbLine
 10
23267.3464243321
 20
17567.60760768496
 30
0.0
 11
23267.3464243321
 21
17617.60760768495
 31
0.0
  0
LINE
  5
427
330
1F
100
AcDbEntity
  8
画層1
  6
Continuous
100
AcDbLine
 10
23084.19642433219
 20
17617.60760768495
 30
0.0
 11
23084.19642433219
 21
17567.60760768496
 31
0.0
  0
LINE
  5
428
330
1F
100
AcDbEntity
  8
画層1
  6
Continuous
100
AcDbLine
 10
23217.3464243321
 20
17617.60760768495
 30
0.0
 11
23217.3464243321
 21
17567.60760768496
 31
0.0
  0
CIRCLE
  5
429
330
1F
100
AcDbEntity
  8
画層1
  6
Continuous
100
AcDbCircle
 10
23109.19642433219
 20
17592.60760768496
 30
0.0
 40
10.7662971851
  0
CIRCLE
  5
42A
330
1F
100
AcDbEntity
  8
画層1
  6
Continuous
100
AcDbCircle
 10
23242.3464243321
 20
17592.60760768496
 30
0.0
 40
10.7662971851
  0
LINE
  5
42B
330
1F
100
AcDbEntity
  8
画層1
  6
Continuous
100
AcDbLine
 10
23084.19642433219
 20
17567.60760768496
 30
0.0
 11
23400.49642433224
 21
17567.60760768496
 31
0.0
  0
LINE
  5
42C
330
1F
100
AcDbEntity
  8
画層1
  6
Continuous
100
AcDbLine
 10
23400.49642433224
 20
17617.60760768495
 30
0.0
 11
23084.19642433219
 21
17617.60760768495
 31
0.0
  0
CIRCLE
  5
42D
330
1F
100
AcDbEntity
  8
画層1
  6
Continuous
100
AcDbCircle
 10
23242.3464243321
 20
23522.60760768496
 30
0.0
 40
10.7662971851
  0
LINE
  5
42E
330
1F
100
AcDbEntity
  8
画層1
  6
Continuous
100
AcDbLine
 10
23217.3464243321
 20
23547.60760768496
 30
0.0
 11
23217.3464243321
 21
23497.60760768496
 31
0.0
  0
LINE
  5
42F
330
1F
100
AcDbEntity
  8
画層1
  6
Continuous
100
AcDbLine
 10
23267.3464243321
 20
23497.60760768496
 30
0.0
 11
23267.3464243321
 21
23547.60760768496
 31
0.0
  0
CIRCLE
  5
430
330
1F
100
AcDbEntity
  8
画層1
  6
Continuous
100
AcDbCircle
 10
23375.49642433224
 20
23522.60760768496
 30
0.0
 40
10.7662971851
  0
LINE
  5
431
330
1F
100
AcDbEntity
  8
画層1
  6
Continuous
100
AcDbLine
 10
23400.49642433224
 20
23497.60760768496
 30
0.0
 11
23400.49642433224
 21
23547.60760768496
 31
0.0
  0
CIRCLE
  5
432
330
1F
100
AcDbEntity
  8
画層1
  6
Continuous
100
AcDbCircle
 10
23109.19642433219
 20
23522.60760768496
 30
0.0
 40
10.7662971851
  0
LINE
  5
433
330
1F
100
AcDbEntity
  8
画層1
  6
Continuous
100
AcDbLine
 10
23084.19642433219
 20
23547.60760768496
 30
0.0
 11
23084.19642433219
 21
23497.60760768496
 31
0.0
  0
LINE
  5
434
330
1F
100
AcDbEntity
  8
画層1
  6
Continuous
100
AcDbLine
 10
23400.49642433224
 20
23547.60760768496
 30
0.0
 11
23084.19642433219
 21
23547.60760768496
 31
0.0
  0
LINE
  5
435
330
1F
100
AcDbEntity
  8
画層1
  6
Continuous
100
AcDbLine
 10
23084.19642433219
 20
23497.60760768496
 30
0.0
 11
23400.49642433224
 21
23497.60760768496
 31
0.0
  0
LINE
  5
436
330
1F
100
AcDbEntity
  8
画層1
  6
Continuous
100
AcDbLine
 10
23400.49642433224
 20
23547.60760768496
 30
0.0
 11
23400.49642433224
 21
23597.60760768496
 31
0.0
  0
CIRCLE
  5
437
330
1F
100
AcDbEntity
  8
画層1
  6
Continuous
100
AcDbCircle
 10
23375.49642433224
 20
23572.60760768496
 30
0.0
 40
10.7662971851
  0
LINE
  5
438
330
1F
100
AcDbEntity
  8
画層1
  6
Continuous
100
AcDbLine
 10
23267.3464243321
 20
23547.60760768496
 30
0.0
 11
23267.3464243321
 21
23597.60760768496
 31
0.0
  0
LINE
  5
439
330
1F
100
AcDbEntity
  8
画層1
  6
Continuous
100
AcDbLine
 10
23084.19642433219
 20
23597.60760768496
 30
0.0
 11
23084.19642433219
 21
23547.60760768496
 31
0.0
  0
LINE
  5
43A
330
1F
100
AcDbEntity
  8
画層1
  6
Continuous
100
AcDbLine
 10
23217.3464243321
 20
23597.60760768496
 30
0.0
 11
23217.3464243321
 21
23547.60760768496
 31
0.0
  0
CIRCLE
  5
43B
330
1F
100
AcDbEntity
  8
画層1
  6
Continuous
100
AcDbCircle
 10
23109.19642433219
 20
23572.60760768496
 30
0.0
 40
10.7662971851
  0
CIRCLE
  5
43C
330
1F
100
AcDbEntity
  8
画層1
  6
Continuous
100
AcDbCircle
 10
23242.3464243321
 20
23572.60760768496
 30
0.0
 40
10.7662971851
  0
LINE
  5
43D
330
1F
100
AcDbEntity
  8
画層1
  6
Continuous
100
AcDbLine
 10
23084.19642433219
 20
23547.60760768496
 30
0.0
 11
23400.49642433224
 21
23547.60760768496
 31
0.0
  0
LINE
  5
43E
330
1F
100
AcDbEntity
  8
画層1
  6
Continuous
100
AcDbLine
 10
23134.19642433219
 20
23632.60760768496
 30
0.0
 11
23350.49642433224
 21
23632.60760768496
 31
0.0
  0
LINE
  5
43F
330
1F
100
AcDbEntity
  8
画層1
  6
Continuous
100
AcDbLine
 10
23400.49642433224
 20
23597.60760768496
 30
0.0
 11
23084.19642433219
 21
23597.60760768496
 31
0.0
  0
LINE
  5
440
330
1F
100
AcDbEntity
  8
画層1
  6
Continuous
100
AcDbLine
 10
23400.49642433224
 20
20557.60760768496
 30
0.0
 11
23400.49642433224
 21
20607.60760768496
 31
0.0
  0
CIRCLE
  5
441
330
1F
100
AcDbEntity
  8
画層1
  6
Continuous
100
AcDbCircle
 10
23375.49642433224
 20
20582.60760768496
 30
0.0
 40
10.7662971851
  0
LINE
  5
442
330
1F
100
AcDbEntity
  8
画層1
  6
Continuous
100
AcDbLine
 10
23267.3464243321
 20
20557.60760768496
 30
0.0
 11
23267.3464243321
 21
20607.60760768496
 31
0.0
  0
CIRCLE
  5
443
330
1F
100
AcDbEntity
  8
画層1
  6
Continuous
100
AcDbCircle
 10
23109.19642433219
 20
20582.60760768496
 30
0.0
 40
10.7662971851
  0
LINE
  5
444
330
1F
100
AcDbEntity
  8
画層1
  6
Continuous
100
AcDbLine
 10
23084.19642433219
 20
20607.60760768496
 30
0.0
 11
23084.19642433219
 21
20557.60760768496
 31
0.0
  0
CIRCLE
  5
445
330
1F
100
AcDbEntity
  8
画層1
  6
Continuous
100
AcDbCircle
 10
23242.3464243321
 20
20582.60760768496
 30
0.0
 40
10.7662971851
  0
LINE
  5
446
330
1F
100
AcDbEntity
  8
画層1
  6
Continuous
100
AcDbLine
 10
23217.3464243321
 20
20607.60760768496
 30
0.0
 11
23217.3464243321
 21
20557.60760768496
 31
0.0
  0
LINE
  5
447
330
1F
100
AcDbEntity
  8
画層1
  6
Continuous
100
AcDbLine
 10
23400.49642433224
 20
20607.60760768496
 30
0.0
 11
23084.19642433219
 21
20607.60760768496
 31
0.0
  0
LINE
  5
448
330
1F
100
AcDbEntity
  8
画層1
  6
Continuous
100
AcDbLine
 10
23084.19642433219
 20
20557.60760768496
 30
0.0
 11
23400.49642433224
 21
20557.60760768496
 31
0.0
  0
DIMENSION
  5
449
330
1F
100
AcDbEntity
  8
寸法
  6
Continuous
100
AcDbDimension
  2
*D24
 10
32242.3464243321
 20
23572.60760768496
 30
0.0
 11
31961.02748065696
 21
23961.97151945815
 31
0.0
 70
   160
 71
     5
 42
60.0
  3
1_100
100
AcDbAlignedDimension
 13
31242.3464243321
 23
23632.60760768496
 33
0.0
 14
31242.3464243321
 24
23572.60760768496
 34
0.0
 50
90.0
100
AcDbRotatedDimension
  0
DIMENSION
  5
44A
330
1F
100
AcDbEntity
  8
寸法
  6
Continuous
100
AcDbDimension
  2
*D25
 10
32242.3464243321
 20
20582.60760768507
 30
0.0
 11
31963.77499576067
 21
22077.60760768502
 31
0.0
 70
    32
 71
     5
 42
2989.999999999884
  3
1_100
100
AcDbAlignedDimension
 13
31242.3464243321
 23
23572.60760768496
 33
0.0
 14
31242.3464243321
 24
20582.60760768507
 34
0.0
 50
90.0
100
AcDbRotatedDimension
  0
LINE
  5
44B
330
1F
100
AcDbEntity
  8
画層1-1
  6
Continuous
100
AcDbLine
 10
23034.19642433196
 20
23522.60760768507
 30
0.0
 11
23084.19642433196
 21
23522.60760768496
 31
0.0
  0
LEADER
  5
44C
330
1F
100
AcDbEntity
  8
寸法引出
  6
Continuous
100
AcDbLeader
  3
1_100
 71
     0
 73
     0
 74
     0
 75
     1
 40
846.6666666666665
 41
5162.142857142854
 76
     3
 10
24425.38699090502
 20
23572.60760768496
 30
0.0
 10
24725.09187469006
 20
24197.05991971481
 30
0.0
 10
24785.09187469006
 20
24197.05991971481
 30
0.0
340
44D
  0
MTEXT
  5
44D
102
{ACAD_REACTORS
330
44C
102
}
330
1F
100
AcDbEntity
  8
寸法文字
  6
Continuous
100
AcDbMText
 10
24885.09187469007
 20
24297.05991971482
 30
0.0
 40
300.0
 41
0.0
 71
     7
 72
     1
  1
ネット上下6mm合繊ロープに4mm合繊\Pロープにて38m㎡ワイヤーに巻付
  7
1_100
 73
     1
 44
1.0
1001
ACAD
1000
MTEXTBEGIN
1070
    73
1070
     1
1070
    44
1040
1.0
1070
    74
1070
     0
1000
MTEXTEND
  0
LWPOLYLINE
  5
44E
330
1F
100
AcDbEntity
  8
図面枠
100
AcDbPolyline
 90
        4
 70
     1
 43
0.0
 10
5209.013091000883
 20
1525.666894212183
 10
44209.01309100085
 20
1525.666894212183
 10
44209.01309100085
 20
27025.6668942122
 10
5209.013091000883
 20
27025.6668942122
  0
LWPOLYLINE
  5
44F
330
1F
100
AcDbEntity
  8
図面枠
100
AcDbPolyline
 90
        4
 70
     1
 43
0.0
 10
5209.013090999963
 20
1525.666894212183
 10
44209.01309099997
 20
1525.666894212183
 10
44209.01309099997
 20
27025.6668942122
 10
5209.013090999963
 20
27025.6668942122
  0
MTEXT
  5
450
330
1F
100
AcDbEntity
  8
寸法
  6
Continuous
 62
     3
100
AcDbMText
 10
24709.01309099997
 20
25554.04350554556
 30
0.0
 40
500.0
 41
0.0
 71
     8
 72
     1
  1
防球ネット　ＫＳ－Ⅰ型　Ｈ＝１２,０００
  7
MSP明朝
 73
     1
 44
1.0
1001
ACAD
1000
ACAD_MTEXT_DEFINED_HEIGHT_BEGIN
1070
    46
1040
0.0
1000
ACAD_MTEXT_DEFINED_HEIGHT_END
1000
MTEXTBEGIN
1070
    73
1070
     1
1070
    44
1040
1.0
1070
    74
1070
     0
1000
MTEXTEND
  0
LINE
  5
451
330
1F
100
AcDbEntity
  8
寸法
  6
Continuous
 62
     3
100
AcDbLine
 10
20382.2532243991
 20
25396.49387867684
 30
0.0
 11
29035.77295760265
 21
25396.49387867684
 31
0.0
  0
LINE
  5
452
330
1F
100
AcDbEntity
  8
寸法
  6
Continuous
 62
     3
100
AcDbLine
 10
20382.2532243991
 20
25456.49387867451
 30
0.0
 11
29035.77295760265
 21
25456.49387867451
 31
0.0
  0
MTEXT
  5
453
330
1F
100
AcDbEntity
  8
画層1-1
100
AcDbMText
 10
8025.611509371751
 20
5486.690359420805
 30
0.0
 40
300.0
 41
0.0
 71
     1
 72
     5
  1
{\F|c128;・※印表記のネットを使用する場合標準柱スパンは変更になる場合があります}
  7
1_100
 73
     1
 44
1.0
1001
AcDbBlockRepETag
1070
     1
1071
        0
1005
453
1001
ACAD
1000
MTEXTBEGIN
1070
    73
1070
     1
1070
    44
1040
1.0
1070
    74
1070
     0
1000
MTEXTEND
  0
MTEXT
  5
454
330
1F
100
AcDbEntity
  8
画層1-1
100
AcDbMText
 10
8025.611509371751
 20
2332.697543617564
 30
0.0
 40
300.0
 41
0.0
 71
     1
 72
     5
  1
・速度圧　q=0.6EVo （N/㎡）　・地表面粗度区分　　　・基礎　普通土質 [B] を選定
  7
1_100
 73
     1
 44
1.0
1001
AcDbBlockRepETag
1070
     1
1071
        1
1005
454
1001
ACAD
1000
MTEXTBEGIN
1070
    73
1070
     1
1070
    44
1040
1.0
1070
    74
1070
     0
1000
MTEXTEND
  0
MTEXT
  5
455
330
1F
100
AcDbEntity
  8
画層1-1
100
AcDbMText
 10
8025.611509371751
 20
7286.690359420807
 30
0.0
 40
300.0
 41
0.0
 71
     1
 72
     5
  1
・主柱．端末ポール．バンド金具．ボルトは溶融亜鉛メッキ仕上げとする
  7
1_100
 73
     1
 44
1.0
1001
AcDbBlockRepETag
1070
     1
1071
        2
1005
455
1001
ACAD
1000
MTEXTBEGIN
1070
    73
1070
     1
1070
    44
1040
1.0
1070
    74
1070
     0
1000
MTEXTEND
  0
MTEXT
  5
456
330
1F
100
AcDbEntity
  8
画層1-1
100
AcDbMText
 10
8025.611509371751
 20
6686.690359420804
 30
0.0
 40
300.0
 41
0.0
 71
     1
 72
     5
  1
・主柱ポール基礎部（ＧＬ）はＦＲＰ被覆補強とする
  7
1_100
 73
     1
 44
1.0
1001
AcDbBlockRepETag
1070
     1
1071
        3
1005
456
1001
ACAD
1000
MTEXTBEGIN
1070
    73
1070
     1
1070
    44
1040
1.0
1070
    74
1070
     0
1000
MTEXTEND
  0
MTEXT
  5
457
330
1F
100
AcDbEntity
  8
画層1-1
100
AcDbMText
 10
8025.611509371751
 20
4288.240484013389
 30
0.0
 40
300.0
 41
0.0
 71
     1
 72
     5
  1
・構造計算書．材料承認願いを提出後施工のこと
  7
1_100
 73
     1
 44
1.0
1001
AcDbBlockRepETag
1070
     1
1071
        4
1005
457
1001
ACAD
1000
MTEXTBEGIN
1070
    73
1070
     1
1070
    44
1040
1.0
1070
    74
1070
     0
1000
MTEXTEND
  0
MTEXT
  5
458
330
1F
100
AcDbEntity
  8
画層1-1
100
AcDbMText
 10
8025.611509371751
 20
6086.690359420805
 30
0.0
 40
300.0
 41
0.0
 71
     1
 72
     5
  1
・上部（補強ポール・ネット）下り防止金具付きとする
  7
1_100
 73
     1
 44
1.0
1001
AcDbBlockRepETag
1070
     1
1071
        5
1005
458
1001
ACAD
1000
MTEXTBEGIN
1070
    73
1070
     1
1070
    44
1040
1.0
1070
    74
1070
     0
1000
MTEXTEND
  0
POINT
  5
459
330
1F
100
AcDbEntity
  8
画層1-1
100
AcDbPoint
 10
5209.01310689558
 20
1504.413745571976
 30
0.0
1001
AcDbBlockRepETag
1070
     1
1071
        6
1005
459
  0
MTEXT
  5
45A
330
1F
100
AcDbEntity
  8
画層1-1
100
AcDbMText
 10
7525.611509371751
 20
3550.917968647278
 30
0.0
 40
400.0
 41
0.0
 71
     1
 72
     5
  1
設計条件
  7
1_100
 73
     1
 44
1.0
1001
AcDbBlockRepETag
1070
     1
1071
        7
1005
45A
1001
ACAD
1000
MTEXTBEGIN
1070
    73
1070
     1
1070
    44
1040
1.0
1070
    74
1070
     0
1000
MTEXTEND
  0
MTEXT
  5
45B
330
1F
100
AcDbEntity
  8
画層1-1
100
AcDbMText
 10
7525.611509371751
 20
4939.263585362438
 30
0.0
 40
400.0
 41
0.0
 71
     1
 72
     5
  1
特記
  7
1_100
 73
     1
 44
1.0
1001
AcDbBlockRepETag
1070
     1
1071
        8
1005
45B
1001
ACAD
1000
MTEXTBEGIN
1070
    73
1070
     1
1070
    44
1040
1.0
1070
    74
1070
     0
1000
MTEXTEND
  0
MTEXT
  5
45C
330
1F
100
AcDbEntity
  8
画層1-1
100
AcDbMText
 10
7525.611509371751
 20
7958.119327359579
 30
0.0
 40
400.0
 41
0.0
 71
     1
 72
     5
  1
仕様について
  7
1_100
 73
     1
 44
1.0
1001
AcDbBlockRepETag
1070
     1
1071
        9
1005
45C
1001
ACAD
1000
MTEXTBEGIN
1070
    73
1070
     1
1070
    44
1040
1.0
1070
    74
1070
     0
1000
MTEXTEND
  0
MTEXT
  5
45D
330
1F
100
AcDbEntity
  8
画層1-1
100
AcDbMText
 10
14922.33802007477
 20
2270.521062089727
 30
0.0
 40
300.0
 41
0.0
 71
     1
 72
     5
  1
Ⅲ
  7
STYLE1
 73
     1
 44
1.0
1001
AcDbBlockRepETag
1070
     1
1071
       10
1005
45D
1001
ACAD
1000
MTEXTBEGIN
1070
    73
1070
     1
1070
    44
1040
1.0
1070
    74
1070
     0
1000
MTEXTEND
  0
MTEXT
  5
45E
330
1F
100
AcDbEntity
  8
画層1-1
100
AcDbMText
 10
11009.08947938378
 20
2297.183968966419
 30
0.0
 40
120.0
 41
0.0
 71
     1
 72
     5
  1
2
  7
1_100
 73
     1
 44
1.0
1001
AcDbBlockRepETag
1070
     1
1071
       11
1005
45E
1001
ACAD
1000
MTEXTBEGIN
1070
    73
1070
     1
1070
    44
1040
1.0
1070
    74
1070
     0
1000
MTEXTEND
  0
MTEXT
  5
45F
330
1F
100
AcDbEntity
  8
画層1-1
100
AcDbMText
 10
8025.611509371751
 20
2856.706238779363
 30
0.0
 40
300.0
 41
0.0
 71
     1
 72
     5
  1
・設計荷重。建築基準法・同施工令（平成12年6月）に基づく風圧力に依る、基準風速。
  7
1_100
 73
     1
 44
1.0
1001
AcDbBlockRepETag
1070
     1
1071
       12
1005
45F
1001
ACAD
1000
ACAD_MTEXT_DEFINED_HEIGHT_BEGIN
1070
    46
1040
0.0
1000
ACAD_MTEXT_DEFINED_HEIGHT_END
1000
MTEXTBEGIN
1070
    73
1070
     1
1070
    44
1040
1.0
1070
    74
1070
     0
1000
MTEXTEND
  0
LINE
  5
460
330
1F
100
AcDbEntity
  8
画層1-1
  6
Continuous
100
AcDbLine
 10
27478.00229569421
 20
18547.43227770643
 30
0.0
 11
30742.34642433198
 21
14588.70927118281
 31
0.0
  0
LWPOLYLINE
  5
461
330
1F
100
AcDbEntity
  8
寸法引出
100
AcDbPolyline
 90
        2
 70
     0
 43
0.0
 10
30736.01794495338
 20
7552.754163603457
 10
23242.3464243321
 20
7552.754163603342
1001
ACAD
1000
DSTYLE
1002
{
1070
    41
1040
3.0
1070
   341
1005
0
1002
}
  0
LINE
  5
462
330
1F
100
AcDbEntity
  8
寸法引出
  6
ByBlock
100
AcDbLine
 10
30436.01794495338
 20
7633.138920603451
 30
0.0
 11
30736.01794495338
 21
7552.754163603457
 31
0.0
  0
LINE
  5
463
330
1F
100
AcDbEntity
  8
寸法引出
  6
ByBlock
100
AcDbLine
 10
30736.01794495338
 20
7552.754163603457
 30
0.0
 11
30436.01794495338
 21
7472.369406603452
 31
0.0
  0
MTEXT
  5
9D9
330
1F
100
AcDbEntity
  8
寸法文字
  6
Continuous
100
AcDbMText
 10
16021.75844944401
 20
22289.24285514762
 30
0.0
 40
200.0
 41
0.0
 71
     1
 72
     1
  1
※KRP-40　1100D18本40mm目（再生ポリエステル100%）\P※KSP-24　37.5mm目（ｽｰﾊﾟｰﾎﾟﾘｴﾁﾚﾝ）
  7
1_100
 73
     1
 44
1.0
1001
ACAD
1000
MTEXTBEGIN
1070
    73
1070
     1
1070
    44
1040
1.0
1070
    74
1070
     0
1000
MTEXTEND
  0
MTEXT
  5
9DA
330
1F
100
AcDbEntity
  8
寸法文字
  6
Continuous
100
AcDbMText
 10
15997.18959714142
 20
22471.01577328231
 30
0.0
 40
300.0
 41
0.0
 71
     7
 72
     1
  1
ネット\Pクレモナ250D/80本×37.5mm目
  7
1_100
 73
     1
 44
0.6
1001
ACAD
1000
MTEXTBEGIN
1070
    73
1070
     1
1070
    44
1040
0.6
1070
    74
1070
     0
1000
MTEXTEND
  0
LEADER
  5
9DB
330
1F
100
AcDbEntity
  8
寸法引出
100
AcDbLeader
  3
1_50
 71
     0
 76
     3
 10
15471.17819945975
 20
21729.53272531523
 30
0.0
 10
15797.18959714142
 20
22371.01577328231
 30
0.0
 10
21716.2971772558
 20
22371.01577328231
 30
0.0
1001
ACAD
1000
DSTYLE
1002
{
1070
    41
1040
1.0
1070
   341
1005
87
1070
   147
1040
0.625
1070
    77
1070
     0
1002
}
  0
VIEWPORT
  5
651
102
{ACAD_XDICTIONARY
360
A07
102
}
330
55
100
AcDbEntity
 67
     1
  8
0
100
AcDbViewport
 10
133.3499908447265
 20
101.5999970436096
 30
0.0
 40
351.5213134087588
 41
228.4221935424805
 68
     1
 69
     1
 12
133.3499908447265
 22
101.5999970436096
 13
0.0
 23
0.0
 14
10.0
 24
10.0
 15
10.0
 25
10.0
 16
0.0
 26
0.0
 36
1.0
 17
0.0
 27
0.0
 37
0.0
 42
50.0
 43
0.0
 44
0.0
 45
228.4221935424805
 50
0.0
 51
0.0
 72
  1000
 90
    32800
  1

281
     0
 71
     1
 74
     0
110
0.0
120
0.0
130
0.0
111
1.0
121
0.0
131
0.0
112
0.0
122
1.0
132
0.0
 79
     0
146
0.0
  0
VIEWPORT
  5
653
102
{ACAD_XDICTIONARY
360
A09
102
}
330
55
100
AcDbEntity
 67
     1
  8
0
100
AcDbViewport
 10
133.3499939441681
 20
101.5999939441681
 30
0.0
 40
213.3599903106689
 41
162.5599903106689
 68
     2
 69
     2
 12
24709.01309100041
 22
13954.94432044018
 13
0.0
 23
0.0
 14
10.0
 24
10.0
 15
10.0
 25
10.0
 16
0.0
 26
0.0
 36
1.0
 17
0.0
 27
0.0
 37
0.0
 42
50.0
 43
0.0
 44
0.0
 45
30085.71385875107
 50
0.0
 51
0.0
 72
  1000
 90
    32864
  1

281
     0
 71
     1
 74
     0
110
0.0
120
0.0
130
0.0
111
1.0
121
0.0
131
0.0
112
0.0
122
1.0
132
0.0
 79
     0
146
0.0
  0
ENDSEC
  0
SECTION
  2
OBJECTS
  0
DICTIONARY
  5
C
330
0
100
AcDbDictionary
281
     1
  3
ACAD_COLOR
350
6B
  3
ACAD_GROUP
350
D
  3
ACAD_LAYOUT
350
1A
  3
ACAD_MATERIAL
350
6A
  3
ACAD_MLINESTYLE
350
17
  3
ACAD_PLOTSETTINGS
350
19
  3
ACAD_PLOTSTYLENAME
350
E
  3
ACAD_TABLESTYLE
350
6E5
  3
ACDBHEADERROUNDTRIPXREC
350
9FC
  3
AcDbVariableDictionary
350
5E
  3
ADE_QUERY_LIBRARY
350
9F8
  3
AEC_CLASSIFICATION_SYSTEM_DEFS
350
9D7
  3
AEC_VARS
350
712
  3
ASE_INDEX_DICTIONARY
350
9F6
  3
Autodesk_MAP
350
714
  3
Root
350
6ED
1001
ADE
1000
ADE02C004
1000
[Query]
1000
CaseSensitiveMatch=0
1000
SaveCurrQueryInSession=1
1000
MkSelSetWithQryObj=0
1000
ShowBlockAsInsPt=0
1000
CreateAssociativeHatchObjects=0
1000
ReferenceBoundaryForAreaLocation=1
1000
ShowImageAsBoundary=1
1000
DefaultJoinOperator=2
1000
ColorForAdd=red
1000
ColorForRemove=red
1000
BlockLocnForQuery=1
1000
TextLocnForQuery=1
1000
IncludeAllObjectsInGroups=0
1000
AlwaysUseLibraryDefinitions=0
1000
PreviewDefinitionsFrom=2
1000
[Save Back]
1000
RedefineBlockDefinitions=1
1000
RedefineLayerDefinitions=1
1000
RedefineTextStyleDefinitions=1
1000
RemoveUnusedGroups=1
1000
EraseSavedBackObjects=1
1000
RemoveLockAfterSave=1
1000
CreateHistoryFileOfChanges=0
1000
CreateBackupFileOfSourceDwg=1
1000
DontAddObjectsToSaveSet=0
1000
MarkObjectsForEditingWithoutPrompting=0
1000
[Coordinate Transformation]
1000
RestoreLastActiveDwgsOnStartup=1
1000
ActivateDwgsOnAttach=1
1000
AdjustSizesAndScalesForChangesInUnits=1
1000
AdjustRotationsForMapDistortions=1
1000
AdjustSizesAndScalesForMapDistortions=1
1000
AdjustElevations=1
1000
AdjustZeroRotationObjects=1
1000
ReconnectDbOnWSOpen=1
1000
NoOfSQLConditionsInHistory=10
  0
DICTIONARY
  5
A03
330
64B
100
AcDbDictionary
280
     1
281
     1
  3
ACAD_XREC_ROUNDTRIP
360
A04
  0
DICTIONARY
  5
A05
330
64D
100
AcDbDictionary
280
     1
281
     1
  3
ACAD_XREC_ROUNDTRIP
360
A06
  0
DICTIONARY
  5
A07
330
651
100
AcDbDictionary
280
     1
281
     1
  3
ACAD_XREC_ROUNDTRIP
360
A08
  0
DICTIONARY
  5
A09
330
653
100
AcDbDictionary
280
     1
281
     1
  3
ACAD_XREC_ROUNDTRIP
360
A0A
  0
DICTIONARY
  5
6B
102
{ACAD_REACTORS
330
C
102
}
330
C
100
AcDbDictionary
281
     1
  0
DICTIONARY
  5
D
102
{ACAD_REACTORS
330
C
102
}
330
C
100
AcDbDictionary
281
     1
  0
DICTIONARY
  5
1A
102
{ACAD_REACTORS
330
C
102
}
330
C
100
AcDbDictionary
281
     1
  3
Model
350
22
  3
レイアウト1
350
51
  3
レイアウト2
350
56
  0
DICTIONARY
  5
6A
102
{ACAD_REACTORS
330
C
102
}
330
C
100
AcDbDictionary
281
     1
  0
DICTIONARY
  5
17
102
{ACAD_REACTORS
330
C
102
}
330
C
100
AcDbDictionary
281
     1
  3
Standard
350
18
  0
DICTIONARY
  5
19
102
{ACAD_REACTORS
330
C
102
}
330
C
100
AcDbDictionary
281
     1
  0
ACDBDICTIONARYWDFLT
  5
E
102
{ACAD_REACTORS
330
C
102
}
330
C
100
AcDbDictionary
281
     1
  3
Normal
350
F
100
AcDbDictionaryWithDefault
340
F
  0
DICTIONARY
  5
6E5
102
{ACAD_REACTORS
330
C
102
}
330
C
100
AcDbDictionary
281
     1
  3
Legend
350
718
  3
Standard
350
6E6
  0
DICTIONARY
  5
9FC
102
{ACAD_REACTORS
330
C
102
}
330
C
100
AcDbDictionary
281
     1
  0
DICTIONARY
  5
5E
102
{ACAD_REACTORS
330
C
102
}
330
C
100
AcDbDictionary
281
     1
  3
CTABLESTYLE
350
9FA
  3
DIMASSOC
350
5F
  3
HIDETEXT
350
63
  3
PROJECTNAME
350
67A
  0
DICTIONARY
  5
9F8
102
{ACAD_REACTORS
330
C
102
}
330
C
100
AcDbDictionary
281
     1
  3
_CurrQry
350
9F9
  0
DICTIONARY
  5
9D7
102
{ACAD_REACTORS
330
C
102
}
330
C
100
AcDbDictionary
281
     1
  0
DICTIONARY
  5
712
102
{ACAD_REACTORS
330
C
102
}
330
C
100
AcDbDictionary
281
     1
  3
AEC_VARS_DWG_SETUP
350
713
  0
DICTIONARY
  5
9F6
102
{ACAD_REACTORS
330
C
102
}
330
C
100
AcDbDictionary
281
     1
  3
ASEBlockHierarchyIndexRecord
350
9F7
1001
DCO15
1040
1621574247.312
  0
DICTIONARY
  5
714
102
{ACAD_REACTORS
330
C
102
}
330
C
100
AcDbDictionary
281
     1
  3
MAP_DISPLAY_MANAGEMENT_DICTIONARY
350
715
  3
MAP_DISPLAY_STYLELIBRARY_DICTIONARY
350
716
  0
XRECORD
  5
A04
102
{ACAD_REACTORS
330
A03
102
}
330
A03
100
AcDbXrecord
280
     1
102
SHADEPLOT
 70
     0
  0
XRECORD
  5
A06
102
{ACAD_REACTORS
330
A05
102
}
330
A05
100
AcDbXrecord
280
     1
102
SHADEPLOT
 70
     0
  0
XRECORD
  5
A08
102
{ACAD_REACTORS
330
A07
102
}
330
A07
100
AcDbXrecord
280
     1
102
SHADEPLOT
 70
     0
  0
XRECORD
  5
A0A
102
{ACAD_REACTORS
330
A09
102
}
330
A09
100
AcDbXrecord
280
     1
102
SHADEPLOT
 70
     0
  0
LAYOUT
  5
22
102
{ACAD_XDICTIONARY
360
9FD
102
}
102
{ACAD_REACTORS
330
1A
102
}
330
1A
100
AcDbPlotSettings
  1

  2
EPSON PM-3000C
  4
A4
  6

 40
3.757083177566528
 41
14.7637300491333
 42
3.757080078125
 43
3.757080078125
 44
209.9733276367186
 45
296.9683227539062
 46
0.0
 47
0.0
 48
0.0
 49
0.0
140
0.0
141
0.0
142
1.0
143
143.6351586607405
 70
 11952
 72
     1
 73
     1
 74
     0
  7
2.ctb
 75
     0
147
0.0069620837218689
148
-5038.100623461007
149
585.0171642328387
100
AcDbLayout
  1
Model
 70
     1
 71
     0
 10
0.0
 20
0.0
 11
12.0
 21
9.0
 12
0.0
 22
0.0
 32
0.0
 14
0.0
 24
0.0
 34
0.0
 15
0.0
 25
0.0
 35
0.0
146
0.0
 13
0.0
 23
0.0
 33
0.0
 16
1.0
 26
0.0
 36
0.0
 17
0.0
 27
1.0
 37
0.0
 76
     0
330
1F
  0
LAYOUT
  5
51
102
{ACAD_XDICTIONARY
360
9FF
102
}
102
{ACAD_REACTORS
330
1A
102
}
330
1A
100
AcDbPlotSettings
  1

  2
none_device
  4
Letter_(8.50_x_11.00_Inches)
  6

 40
6.349999904632567
 41
6.349999904632567
 42
6.350006103515625
 43
6.350006103515625
 44
215.8999938964844
 45
279.3999938964844
 46
0.0
 47
0.0
 48
0.0
 49
0.0
140
0.0
141
0.0
142
1.0
143
1.0
 70
   688
 72
     1
 73
     1
 74
     5
  7

 75
    16
147
1.0
148
0.0
149
0.0
100
AcDbLayout
  1
レイアウト1
 70
     1
 71
     1
 10
-6.350006103515625
 20
-6.349999904632567
 11
273.0499877929688
 21
209.5499939918518
 12
0.0
 22
0.0
 32
0.0
 14
26.66999878883363
 24
20.31999878883363
 34
0.0
 15
240.0299890995026
 25
182.8799890995025
 35
0.0
146
0.0
 13
0.0
 23
0.0
 33
0.0
 16
1.0
 26
0.0
 36
0.0
 17
0.0
 27
1.0
 37
0.0
 76
     0
330
50
331
64B
  0
LAYOUT
  5
56
102
{ACAD_XDICTIONARY
360
A01
102
}
102
{ACAD_REACTORS
330
1A
102
}
330
1A
100
AcDbPlotSettings
  1

  2
none_device
  4
Letter_(8.50_x_11.00_Inches)
  6

 40
6.349999904632567
 41
6.349999904632567
 42
6.350006103515625
 43
6.350006103515625
 44
215.8999938964844
 45
279.3999938964844
 46
0.0
 47
0.0
 48
0.0
 49
0.0
140
0.0
141
0.0
142
1.0
143
1.0
 70
   688
 72
     1
 73
     1
 74
     5
  7

 75
    16
147
1.0
148
0.0
149
0.0
100
AcDbLayout
  1
レイアウト2
 70
     1
 71
     2
 10
-6.350006103515625
 20
-6.349999904632567
 11
273.0499877929688
 21
209.5499939918518
 12
0.0
 22
0.0
 32
0.0
 14
26.66999878883363
 24
20.31999878883363
 34
0.0
 15
240.0299890995026
 25
182.8799890995025
 35
0.0
146
0.0
 13
0.0
 23
0.0
 33
0.0
 16
1.0
 26
0.0
 36
0.0
 17
0.0
 27
1.0
 37
0.0
 76
     0
330
55
331
651
  0
MLINESTYLE
  5
18
102
{ACAD_REACTORS
330
17
102
}
330
17
100
AcDbMlineStyle
  2
STANDARD
 70
     0
  3

 62
   256
 51
90.0
 52
90.0
 71
     2
 49
0.5
 62
   256
  6
BYLAYER
 49
-0.5
 62
   256
  6
BYLAYER
  0
ACDBPLACEHOLDER
  5
F
102
{ACAD_REACTORS
330
E
102
}
330
E
  0
TABLESTYLE
  5
718
102
{ACAD_REACTORS
330
6E5
102
}
330
6E5
100
AcDbTableStyle
  3

 70
     0
 71
     1
 40
0.06
 41
0.06
280
     0
281
     0
  7
Standard
140
0.4
170
     4
 62
     0
 63
     7
283
     0
274
    -2
284
     0
 64
     0
275
    -2
285
     0
 65
     0
276
    -2
286
     1
 66
     0
277
    -2
287
     1
 67
     0
278
    -2
288
     0
 68
     0
279
    -2
289
     1
 69
     0
  7
Standard
140
0.5
170
     5
 62
     0
 63
     7
283
     0
274
    -2
284
     1
 64
     0
275
    -2
285
     0
 65
     0
276
    -2
286
     1
 66
     0
277
    -2
287
     1
 67
     0
278
    -2
288
     0
 68
     0
279
    -2
289
     1
 69
     0
  7
Standard
140
0.4
170
     4
 62
     0
 63
     7
283
     0
274
    -2
284
     1
 64
     0
275
    -2
285
     0
 65
     0
276
    -2
286
     1
 66
     0
277
    -2
287
     1
 67
     0
278
    -2
288
     0
 68
     0
279
    -2
289
     1
 69
     0
  0
TABLESTYLE
  5
6E6
102
{ACAD_REACTORS
330
6E5
102
}
330
6E5
100
AcDbTableStyle
  3
Standard
 70
     0
 71
     0
 40
1.5
 41
1.5
280
     0
281
     0
  7
Standard
140
4.5
170
     2
 62
     0
 63
     7
283
     0
274
    -2
284
     1
 64
     0
275
    -2
285
     1
 65
     0
276
    -2
286
     1
 66
     0
277
    -2
287
     1
 67
     0
278
    -2
288
     1
 68
     0
279
    -2
289
     1
 69
     0
  7
Standard
140
6.0
170
     5
 62
     0
 63
     7
283
     0
274
    -2
284
     1
 64
     0
275
    -2
285
     1
 65
     0
276
    -2
286
     1
 66
     0
277
    -2
287
     1
 67
     0
278
    -2
288
     1
 68
     0
279
    -2
289
     1
 69
     0
  7
Standard
140
4.5
170
     5
 62
     0
 63
     7
283
     0
274
    -2
284
     1
 64
     0
275
    -2
285
     1
 65
     0
276
    -2
286
     1
 66
     0
277
    -2
287
     1
 67
     0
278
    -2
288
     1
 68
     0
279
    -2
289
     1
 69
     0
  0
DICTIONARYVAR
  5
9FA
102
{ACAD_REACTORS
330
5E
102
}
330
5E
100
DictionaryVariables
280
     0
  1
STANDARD
  0
DICTIONARYVAR
  5
5F
102
{ACAD_REACTORS
330
5E
102
}
330
5E
100
DictionaryVariables
280
     0
  1
2
  0
DICTIONARYVAR
  5
63
102
{ACAD_REACTORS
330
5E
102
}
330
5E
100
DictionaryVariables
280
     0
  1
1
  0
DICTIONARYVAR
  5
67A
102
{ACAD_REACTORS
330
5E
102
}
330
5E
100
DictionaryVariables
280
     0
  1

  0
XRECORD
  5
9F9
102
{ACAD_REACTORS
330
9F8
102
}
330
9F8
100
AcDbXrecord
280
     1
1000
ADE02C001
1070
     1
1070
     0
1002
{
1002
}
1002
{
1002
}
1002
{
1002
}
1000

  0
XRECORD
  5
9F7
102
{ACAD_REACTORS
330
9F6
102
}
330
9F6
100
AcDbXrecord
280
     1
330
378
330
379
330
37A
330
37B
330
34B
330
34C
330
34D
330
376
330
377
330
56F
330
570
330
578
330
579
330
581
330
582
330
58A
330
58B
330
593
330
594
330
59C
330
59D
330
5A5
330
5A6
330
5AF
330
5B0
330
5B8
330
5B9
330
5C1
330
5C2
330
5CB
330
5CC
330
5D7
330
5D8
330
5DF
330
5E0
330
5EB
330
5EC
330
5F3
330
5F4
330
5FC
330
5FD
330
608
330
609
330
613
330
614
330
61B
330
61C
330
627
330
628
330
62F
330
630
  0
DMMAPMANAGER
  5
715
102
{ACAD_REACTORS
330
714
102
}
330
714
100
AcDbDictionary
281
     1
  3
DisplayMap1
350
717
100
AcDbDictionaryWithDefault
340
717
100
AcMapDMMapManager
 70
     1
340
717
  0
DMSTYLELIBRARY
  5
716
102
{ACAD_REACTORS
330
714
102
}
330
714
100
AcMapDMStyleLibrary
 70
     1
 70
     1
360
71C
  0
DICTIONARY
  5
9FD
330
22
100
AcDbDictionary
280
     1
281
     1
  3
ACAD_XREC_ROUNDTRIP
360
9FE
  0
DICTIONARY
  5
9FF
330
51
100
AcDbDictionary
280
     1
281
     1
  3
ACAD_XREC_ROUNDTRIP
360
A00
  0
DICTIONARY
  5
A01
330
56
100
AcDbDictionary
280
     1
281
     1
  3
ACAD_XREC_ROUNDTRIP
360
A02
  0
DMMAP
  5
717
102
{ACAD_REACTORS
330
715
330
719
102
}
330
715
100
AcMapDMMap
 70
     1
  1
既定値
 70
     1
330
0
100
AcMapDMMap
 70
     1
 90
        1
360
719
 90
        1
 40
1.797693134862314E+99
 70
     1
100
AcMapDMMap
 70
     2
 70
     0
 40
1.797693134862314E+99
290
     0
290
     1
 40
1.0
 40
3.0
  1
Legend
 90
        1
 40
1.797693134862314E+99
  1

 70
     0
 40
1.0
 70
     1
 90
        0
 90
        1
360
71A
  0
DMSTYLECATEGORY
  5
71C
102
{ACAD_REACTORS
330
716
102
}
330
716
100
AcMapDMStyleCategory
 70
     1
  1
スタイルを表示
 70
     0
  0
XRECORD
  5
9FE
102
{ACAD_REACTORS
330
9FD
102
}
330
9FD
100
AcDbXrecord
280
     1
102
SHADEPLOT
 70
     0
102
SHADEPLOTRESLEVEL
 70
     2
102
SHADEPLOTCUSTOMDPI
 70
   300
  0
XRECORD
  5
A00
102
{ACAD_REACTORS
330
9FF
102
}
330
9FF
100
AcDbXrecord
280
     1
102
SHADEPLOT
 70
     0
102
SHADEPLOTRESLEVEL
 70
     2
102
SHADEPLOTCUSTOMDPI
 70
   300
  0
XRECORD
  5
A02
102
{ACAD_REACTORS
330
A01
102
}
330
A01
100
AcDbXrecord
280
     1
102
SHADEPLOT
 70
     0
102
SHADEPLOTRESLEVEL
 70
     2
102
SHADEPLOTCUSTOMDPI
 70
   300
  0
DMBASEELEMENT
  5
719
102
{ACAD_REACTORS
330
717
102
}
330
717
100
AcMapDMBaseElement
 70
     1
  1
マップ ベース
 70
     1
330
717
100
AcMapDMBaseElement
 70
     1
  1

 70
     2
  1

 70
     1
 40
1.797693134862314E+99
 70
     1
 70
     1
 70
     1
 70
     1
360
71B
100
AcMapDMBaseElement
 70
     1
  0
DMDEFAULTSTYLE
  5
71A
102
{ACAD_REACTORS
330
717
102
}
330
717
100
AcMapDMDefaultStyle
 70
     1
 90
        1
  1
既定値
100
AcMapDMDefaultStyle
 70
     1
280
   100
 90
     0
  0
DMSTYLEREFERENCE
  5
71B
330
719
100
AcMapDMStyleReference
 70
     1
 70
     0
340
71A
330
717
  0
ENDSEC
  0
EOF
