  0
SECTION
  2
HEADER
  9
$ACADVER
  1
AC1015
  9
$ACADMAINTVER
 70
    20
  9
$DWGCODEPAGE
  3
ANSI_932
  9
$INSBASE
 10
0.0
 20
0.0
 30
0.0
  9
$EXTMIN
 10
553.2321849526924
 20
173.3997285909754
 30
-0.0015258207003583
  9
$EXTMAX
 10
20054.05305289392
 20
13245.06923611634
 30
0.0000000349246037
  9
$LIMMIN
 10
0.0
 20
0.0
  9
$LIMMAX
 10
420.0
 20
297.0
  9
$ORTHOMODE
 70
     1
  9
$REGENMODE
 70
     1
  9
$FILLMODE
 70
     1
  9
$QTEXTMODE
 70
     0
  9
$MIRRTEXT
 70
     0
  9
$LTSCALE
 40
1.0
  9
$ATTMODE
 70
     1
  9
$TEXTSIZE
 40
2.5
  9
$TRACEWID
 40
1.0
  9
$TEXTSTYLE
  7
Standard
  9
$CLAYER
  8
0
  9
$CELTYPE
  6
ByLayer
  9
$CECOLOR
 62
   256
  9
$CELTSCALE
 40
1.0
  9
$DISPSILH
 70
     0
  9
$DIMSCALE
 40
500.0
  9
$DIMASZ
 40
2.5
  9
$DIMEXO
 40
0.625
  9
$DIMDLI
 40
3.75
  9
$DIMRND
 40
0.0
  9
$DIMDLE
 40
0.0
  9
$DIMEXE
 40
1.25
  9
$DIMTP
 40
0.0
  9
$DIMTM
 40
0.0
  9
$DIMTXT
 40
2.5
  9
$DIMCEN
 40
2.5
  9
$DIMTSZ
 40
0.0
  9
$DIMTOL
 70
     0
  9
$DIMLIM
 70
     0
  9
$DIMTIH
 70
     0
  9
$DIMTOH
 70
     0
  9
$DIMSE1
 70
     0
  9
$DIMSE2
 70
     0
  9
$DIMTAD
 70
     1
  9
$DIMZIN
 70
     8
  9
$DIMBLK
  1

  9
$DIMASO
 70
     1
  9
$DIMSHO
 70
     1
  9
$DIMPOST
  1

  9
$DIMAPOST
  1

  9
$DIMALT
 70
     0
  9
$DIMALTD
 70
     3
  9
$DIMALTF
 40
0.03937007874016
  9
$DIMLFAC
 40
1.0
  9
$DIMTOFL
 70
     1
  9
$DIMTVP
 40
0.0
  9
$DIMTIX
 70
     0
  9
$DIMSOXD
 70
     0
  9
$DIMSAH
 70
     0
  9
$DIMBLK1
  1

  9
$DIMBLK2
  1

  9
$DIMSTYLE
  2
ISO-25
  9
$DIMCLRD
 70
     0
  9
$DIMCLRE
 70
     0
  9
$DIMCLRT
 70
     0
  9
$DIMTFAC
 40
1.0
  9
$DIMGAP
 40
0.625
  9
$DIMJUST
 70
     0
  9
$DIMSD1
 70
     0
  9
$DIMSD2
 70
     0
  9
$DIMTOLJ
 70
     0
  9
$DIMTZIN
 70
     8
  9
$DIMALTZ
 70
     0
  9
$DIMALTTZ
 70
     0
  9
$DIMUPT
 70
     0
  9
$DIMDEC
 70
     2
  9
$DIMTDEC
 70
     2
  9
$DIMALTU
 70
     2
  9
$DIMALTTD
 70
     3
  9
$DIMTXSTY
  7
Standard
  9
$DIMAUNIT
 70
     0
  9
$DIMADEC
 70
     0
  9
$DIMALTRND
 40
0.0
  9
$DIMAZIN
 70
     0
  9
$DIMDSEP
 70
    44
  9
$DIMATFIT
 70
     3
  9
$DIMFRAC
 70
     0
  9
$DIMLDRBLK
  1

  9
$DIMLUNIT
 70
     2
  9
$DIMLWD
 70
    -2
  9
$DIMLWE
 70
    -2
  9
$DIMTMOVE
 70
     0
  9
$LUNITS
 70
     2
  9
$LUPREC
 70
     4
  9
$SKETCHINC
 40
1.0
  9
$FILLETRAD
 40
0.0
  9
$AUNITS
 70
     0
  9
$AUPREC
 70
     0
  9
$MENU
  1
.
  9
$ELEVATION
 40
0.0
  9
$PELEVATION
 40
0.0
  9
$THICKNESS
 40
0.0
  9
$LIMCHECK
 70
     0
  9
$CHAMFERA
 40
0.0
  9
$CHAMFERB
 40
0.0
  9
$CHAMFERC
 40
0.0
  9
$CHAMFERD
 40
0.0
  9
$SKPOLY
 70
     0
  9
$TDCREATE
 40
2454361.396257766
  9
$TDUCREATE
 40
2454361.021257766
  9
$TDUPDATE
 40
2454571.437830938
  9
$TDUUPDATE
 40
2454571.062830938
  9
$TDINDWG
 40
0.0394793750
  9
$TDUSRTIMER
 40
0.0394775579
  9
$USRTIMER
 70
     1
  9
$ANGBASE
 50
0.0
  9
$ANGDIR
 70
     0
  9
$PDMODE
 70
     0
  9
$PDSIZE
 40
0.0
  9
$PLINEWID
 40
0.0
  9
$SPLFRAME
 70
     0
  9
$SPLINETYPE
 70
     6
  9
$SPLINESEGS
 70
     8
  9
$HANDSEED
  5
D78
  9
$SURFTAB1
 70
     6
  9
$SURFTAB2
 70
     6
  9
$SURFTYPE
 70
     6
  9
$SURFU
 70
     6
  9
$SURFV
 70
     6
  9
$UCSBASE
  2

  9
$UCSNAME
  2

  9
$UCSORG
 10
0.0
 20
0.0
 30
0.0
  9
$UCSXDIR
 10
1.0
 20
0.0
 30
0.0
  9
$UCSYDIR
 10
0.0
 20
1.0
 30
0.0
  9
$UCSORTHOREF
  2

  9
$UCSORTHOVIEW
 70
     0
  9
$UCSORGTOP
 10
0.0
 20
0.0
 30
0.0
  9
$UCSORGBOTTOM
 10
0.0
 20
0.0
 30
0.0
  9
$UCSORGLEFT
 10
0.0
 20
0.0
 30
0.0
  9
$UCSORGRIGHT
 10
0.0
 20
0.0
 30
0.0
  9
$UCSORGFRONT
 10
0.0
 20
0.0
 30
0.0
  9
$UCSORGBACK
 10
0.0
 20
0.0
 30
0.0
  9
$PUCSBASE
  2

  9
$PUCSNAME
  2

  9
$PUCSORG
 10
0.0
 20
0.0
 30
0.0
  9
$PUCSXDIR
 10
1.0
 20
0.0
 30
0.0
  9
$PUCSYDIR
 10
0.0
 20
1.0
 30
0.0
  9
$PUCSORTHOREF
  2

  9
$PUCSORTHOVIEW
 70
     0
  9
$PUCSORGTOP
 10
0.0
 20
0.0
 30
0.0
  9
$PUCSORGBOTTOM
 10
0.0
 20
0.0
 30
0.0
  9
$PUCSORGLEFT
 10
0.0
 20
0.0
 30
0.0
  9
$PUCSORGRIGHT
 10
0.0
 20
0.0
 30
0.0
  9
$PUCSORGFRONT
 10
0.0
 20
0.0
 30
0.0
  9
$PUCSORGBACK
 10
0.0
 20
0.0
 30
0.0
  9
$USERI1
 70
     0
  9
$USERI2
 70
     0
  9
$USERI3
 70
     0
  9
$USERI4
 70
     0
  9
$USERI5
 70
     0
  9
$USERR1
 40
0.0
  9
$USERR2
 40
0.0
  9
$USERR3
 40
0.0
  9
$USERR4
 40
0.0
  9
$USERR5
 40
0.0
  9
$WORLDVIEW
 70
     1
  9
$SHADEDGE
 70
     3
  9
$SHADEDIF
 70
    70
  9
$TILEMODE
 70
     1
  9
$MAXACTVP
 70
    64
  9
$PINSBASE
 10
0.0
 20
0.0
 30
0.0
  9
$PLIMCHECK
 70
     0
  9
$PEXTMIN
 10
0.0
 20
0.0
 30
0.0
  9
$PEXTMAX
 10
0.0
 20
0.0
 30
0.0
  9
$PLIMMIN
 10
0.0
 20
0.0
  9
$PLIMMAX
 10
12.0
 20
9.0
  9
$UNITMODE
 70
     0
  9
$VISRETAIN
 70
     1
  9
$PLINEGEN
 70
     0
  9
$PSLTSCALE
 70
     1
  9
$TREEDEPTH
 70
  3020
  9
$CMLSTYLE
  2
Standard
  9
$CMLJUST
 70
     0
  9
$CMLSCALE
 40
20.0
  9
$PROXYGRAPHICS
 70
     1
  9
$MEASUREMENT
 70
     1
  9
$CELWEIGHT
370
    -1
  9
$ENDCAPS
280
     0
  9
$JOINSTYLE
280
     0
  9
$LWDISPLAY
290
     0
  9
$INSUNITS
 70
     6
  9
$HYPERLINKBASE
  1

  9
$STYLESHEET
  1
2.CTB
  9
$XEDIT
290
     1
  9
$CEPSNTYPE
380
     0
  9
$PSTYLEMODE
290
     1
  9
$FINGERPRINTGUID
  2
{FDEAD578-A652-11D2-9A35-0060089B3A3F}
  9
$VERSIONGUID
  2
{87A8CA68-39BA-485F-A896-C819339F36D7}
  9
$EXTNAMES
290
     1
  9
$PSVPSCALE
 40
0.0
  9
$OLESTARTUP
290
     0
  0
ENDSEC
  0
SECTION
  2
CLASSES
  0
CLASS
  1
ACDBDICTIONARYWDFLT
  2
AcDbDictionaryWithDefault
  3
ObjectDBX Classes
 90
        0
280
     0
281
     0
  0
CLASS
  1
ACDBPLACEHOLDER
  2
AcDbPlaceHolder
  3
ObjectDBX Classes
 90
        0
280
     0
281
     0
  0
CLASS
  1
LAYOUT
  2
AcDbLayout
  3
ObjectDBX Classes
 90
        0
280
     0
281
     0
  0
CLASS
  1
DICTIONARYVAR
  2
AcDbDictionaryVar
  3
ObjectDBX Classes
 90
        0
280
     0
281
     0
  0
CLASS
  1
SORTENTSTABLE
  2
AcDbSortentsTable
  3
ObjectDBX Classes
 90
    32768
280
     0
281
     0
  0
CLASS
  1
TABLESTYLE
  2
AcDbTableStyle
  3
ObjectDBX Classes
 90
     2047
280
     0
281
     0
  0
CLASS
  1
AECC_TREE_NODE
  2
AeccDbTreeNode
  3
AeccvBase10|Product Desc: Autodesk Civil 3D |Company: Autodesk,Inc. |WEB Address: www.autodesk.com
 90
     1023
280
     0
281
     0
  0
CLASS
  1
AECC_CLASS_NODE
  2
AeccDbClassNode
  3
AeccLand10|Product Desc: Autodesk Civil 3D |Company: Autodesk,Inc. |WEB Address: www.autodesk.com
 90
     1023
280
     0
281
     0
  0
CLASS
  1
AECC_ROOT_SETTINGS_NODE
  2
AeccDbRootSettingsNode
  3
AeccvBase10|Product Desc: Autodesk Civil 3D |Company: Autodesk,Inc. |WEB Address: www.autodesk.com
 90
     1023
280
     0
281
     0
  0
CLASS
  1
AEC_VARS_DWG_SETUP
  2
AecDbVarsDwgSetup
  3
AecBase40|Product Desc: Autodesk Architectural Desktop 2005 |Company: Autodesk,Inc. |WEB Address: www.autodesk.com
 90
      129
280
     0
281
     0
  0
CLASS
  1
DMMAPMANAGER
  2
AcMapDMMapManager
  3
AcMapDisplayManagement
 90
     1024
280
     0
281
     0
  0
CLASS
  1
DMSTYLELIBRARY
  2
AcMapDMStyleLibrary
  3
AcMapDisplayManagement
 90
     1024
280
     0
281
     0
  0
CLASS
  1
DMMAP
  2
AcMapDMMap
  3
AcMapDisplayManagement
 90
     1024
280
     0
281
     0
  0
CLASS
  1
DMBASEELEMENT
  2
AcMapDMBaseElement
  3
AcMapDisplayManagement
 90
     1024
280
     0
281
     0
  0
CLASS
  1
DMDEFAULTSTYLE
  2
AcMapDMDefaultStyle
  3
AcMapDisplayManagement
 90
     1024
280
     0
281
     0
  0
CLASS
  1
DMSTYLEREFERENCE
  2
AcMapDMStyleReference
  3
AcMapDisplayManagement
 90
     1024
280
     0
281
     0
  0
CLASS
  1
DMSTYLECATEGORY
  2
AcMapDMStyleCategory
  3
AcMapDisplayManagement
 90
     1024
280
     0
281
     0
  0
CLASS
  1
AECC_SETTINGS_NODE
  2
AeccDbSettingsNode
  3
AeccvBase10|Product Desc: Autodesk Civil 3D |Company: Autodesk,Inc. |WEB Address: www.autodesk.com
 90
     1023
280
     0
281
     0
  0
CLASS
  1
AECC_PROFILE_VIEW_STYLE
  2
AeccDbGraphStyleProfile
  3
AeccLand10|Product Desc: Autodesk Civil 3D |Company: Autodesk,Inc. |WEB Address: www.autodesk.com
 90
      129
280
     0
281
     0
  0
CLASS
  1
AECC_PROFILE_VIEW_BAND_STYLE_SET
  2
AeccDbGraphProfileBandStyleSet
  3
AeccLand10|Product Desc: Autodesk Civil 3D |Company: Autodesk,Inc. |WEB Address: www.autodesk.com
 90
      129
280
     0
281
     0
  0
CLASS
  1
AECC_PROFILE_VIEW_DATA_BAND_STYLE
  2
AeccDbGraphStyleProfileDataBands
  3
AeccLand10|Product Desc: Autodesk Civil 3D |Company: Autodesk,Inc. |WEB Address: www.autodesk.com
 90
      129
280
     0
281
     0
  0
CLASS
  1
AECC_LABEL_NODE
  2
AeccDbLabelNode
  3
AeccLand10|Product Desc: Autodesk Civil 3D |Company: Autodesk,Inc. |WEB Address: www.autodesk.com
 90
     1023
280
     0
281
     0
  0
CLASS
  1
AECC_LABEL_COLLECTOR_STYLE
  2
AeccDbLabelStyleCollector
  3
AeccLand10|Product Desc: Autodesk Civil 3D |Company: Autodesk,Inc. |WEB Address: www.autodesk.com
 90
     1023
280
     0
281
     0
  0
CLASS
  1
AECC_LABEL_TEXT_STYLE
  2
AeccDbLabelStyleText
  3
AeccLand10|Product Desc: Autodesk Civil 3D |Company: Autodesk,Inc. |WEB Address: www.autodesk.com
 90
     1023
280
     0
281
     0
  0
CLASS
  1
AECC_PROFILE_VIEW_HORIZONTAL_GEOMETRY_BAND_STYLE
  2
AeccDbGraphStyleHorGeometryBands
  3
AeccLand10|Product Desc: Autodesk Civil 3D |Company: Autodesk,Inc. |WEB Address: www.autodesk.com
 90
      129
280
     0
281
     0
  0
CLASS
  1
AECC_PROFILE_VIEW_VERTICAL_GEOMETRY_BAND_STYLE
  2
AeccDbGraphStyleVertGeometryBands
  3
AeccLand10|Product Desc: Autodesk Civil 3D |Company: Autodesk,Inc. |WEB Address: www.autodesk.com
 90
      129
280
     0
281
     0
  0
CLASS
  1
AECC_LABEL_RADIAL_LINE_STYLE
  2
AeccDbLabelStyleRadialLine
  3
AeccLand10|Product Desc: Autodesk Civil 3D |Company: Autodesk,Inc. |WEB Address: www.autodesk.com
 90
     1023
280
     0
281
     0
  0
CLASS
  1
AECC_POINT_STYLE
  2
AeccDbPointStyle
  3
AeccLand10|Product Desc: Autodesk Civil 3D |Company: Autodesk,Inc. |WEB Address: www.autodesk.com
 90
      895
280
     0
281
     0
  0
CLASS
  1
AECC_PROFILE_LABEL_SET
  2
AeccDbVAlignStnLabelsDlgTemplate
  3
AeccLand10|Product Desc: Autodesk Civil 3D |Company: Autodesk,Inc. |WEB Address: www.autodesk.com
 90
     1023
280
     0
281
     0
  0
CLASS
  1
AECC_SECTION_VIEW_STYLE
  2
AeccDbGraphStyleCrossSection
  3
AeccLand10|Product Desc: Autodesk Civil 3D |Company: Autodesk,Inc. |WEB Address: www.autodesk.com
 90
      129
280
     0
281
     0
  0
CLASS
  1
AECC_SECTION_VIEW_BAND_STYLE_SET
  2
AeccDbGraphSectionBandStyleSet
  3
AeccLand10|Product Desc: Autodesk Civil 3D |Company: Autodesk,Inc. |WEB Address: www.autodesk.com
 90
      129
280
     0
281
     0
  0
CLASS
  1
AECC_SECTION_VIEW_DATA_BAND_STYLE
  2
AeccDbGraphStyleSectionDataBands
  3
AeccLand10|Product Desc: Autodesk Civil 3D |Company: Autodesk,Inc. |WEB Address: www.autodesk.com
 90
      129
280
     0
281
     0
  0
CLASS
  1
AECC_SECTION_LABEL_SET
  2
AeccDbSectionLabelsDlgTemplate
  3
AeccLand10|Product Desc: Autodesk Civil 3D |Company: Autodesk,Inc. |WEB Address: www.autodesk.com
 90
     1023
280
     0
281
     0
  0
CLASS
  1
AECC_ALIGNMENT_STYLE
  2
AeccDbAlignmentStyle
  3
AeccLand10|Product Desc: Autodesk Civil 3D |Company: Autodesk,Inc. |WEB Address: www.autodesk.com
 90
     1023
280
     0
281
     0
  0
CLASS
  1
AECC_LABEL_VECTOR_ARROW_STYLE
  2
AeccDbLabelStyleVectorArrow
  3
AeccLand10|Product Desc: Autodesk Civil 3D |Company: Autodesk,Inc. |WEB Address: www.autodesk.com
 90
     1023
280
     0
281
     0
  0
CLASS
  1
AECC_ALIGNMENT_LABEL_SET
  2
AeccDbAlignStnLabelsDlgTemplate
  3
AeccLand10|Product Desc: Autodesk Civil 3D |Company: Autodesk,Inc. |WEB Address: www.autodesk.com
 90
     1023
280
     0
281
     0
  0
CLASS
  1
AECC_SURFACE_STYLE
  2
AeccDbSurfaceStyle
  3
AeccLand10|Product Desc: Autodesk Civil 3D |Company: Autodesk,Inc. |WEB Address: www.autodesk.com
 90
      129
280
     0
281
     0
  0
CLASS
  1
AECC_LEGEND_TABLE_STYLE
  2
AeccDbLegendScheduleTableStyle
  3
AeccLand10|Product Desc: Autodesk Civil 3D |Company: Autodesk,Inc. |WEB Address: www.autodesk.com
 90
     1023
280
     0
281
     0
  0
CLASS
  1
AECC_SECTION_STYLE
  2
AeccDbSectionStyle
  3
AeccLand10|Product Desc: Autodesk Civil 3D |Company: Autodesk,Inc. |WEB Address: www.autodesk.com
 90
     1023
280
     0
281
     0
  0
CLASS
  1
AECC_GRADING_STYLE
  2
AeccDbGradingStyle
  3
AeccLand10|Product Desc: Autodesk Civil 3D |Company: Autodesk,Inc. |WEB Address: www.autodesk.com
 90
     1023
280
     0
281
     0
  0
CLASS
  1
AECC_GRADING_CRITERIA
  2
AeccDbGradingCriteria
  3
AeccLand10|Product Desc: Autodesk Civil 3D |Company: Autodesk,Inc. |WEB Address: www.autodesk.com
 90
     1023
280
     0
281
     0
  0
CLASS
  1
AECC_PARCEL_STYLE
  2
AeccDbParcelStyle
  3
AeccLand10|Product Desc: Autodesk Civil 3D |Company: Autodesk,Inc. |WEB Address: www.autodesk.com
 90
      129
280
     0
281
     0
  0
CLASS
  1
AECC_SAMPLE_LINE_GROUP_STYLE
  2
AeccDbSampleLineGroupStyle
  3
AeccLand10|Product Desc: Autodesk Civil 3D |Company: Autodesk,Inc. |WEB Address: www.autodesk.com
 90
      129
280
     0
281
     0
  0
CLASS
  1
AECC_SHEET_STYLE
  2
AeccDbSheetStyle
  3
AeccLand10|Product Desc: Autodesk Civil 3D |Company: Autodesk,Inc. |WEB Address: www.autodesk.com
 90
      129
280
     0
281
     0
  0
CLASS
  1
AECC_SAMPLE_LINE_STYLE
  2
AeccDbSampleLineStyle
  3
AeccLand10|Product Desc: Autodesk Civil 3D |Company: Autodesk,Inc. |WEB Address: www.autodesk.com
 90
     1023
280
     0
281
     0
  0
CLASS
  1
AECC_PROFILE_STYLE
  2
AeccDbVAlignmentStyle
  3
AeccLand10|Product Desc: Autodesk Civil 3D |Company: Autodesk,Inc. |WEB Address: www.autodesk.com
 90
     1023
280
     0
281
     0
  0
CLASS
  1
AECC_STATION_FORMAT_STYLE
  2
AeccDbStationFormatStyle
  3
AeccLand10|Product Desc: Autodesk Civil 3D |Company: Autodesk,Inc. |WEB Address: www.autodesk.com
 90
     1023
280
     0
281
     0
  0
CLASS
  1
AECC_TABLE_STYLE
  2
AeccDbScheduleTableStyle
  3
AeccLand10|Product Desc: Autodesk Civil 3D |Company: Autodesk,Inc. |WEB Address: www.autodesk.com
 90
     1023
280
     0
281
     0
  0
CLASS
  1
AECC_GRADING_CRITERIA_SET
  2
AeccDbGradingCriteriaSet
  3
AeccLand10|Product Desc: Autodesk Civil 3D |Company: Autodesk,Inc. |WEB Address: www.autodesk.com
 90
     1023
280
     0
281
     0
  0
CLASS
  1
AECC_FORMAT_MANAGER_OBJECT
  2
AeccDbFormatManagerObject
  3
AeccLand10|Product Desc: Autodesk Civil 3D |Company: Autodesk,Inc. |WEB Address: www.autodesk.com
 90
     1023
280
     0
281
     0
  0
CLASS
  1
AECC_POINT_DESCRIPTION_KEY_SET_NODE
  2
AeccDbPointDescKeySetsNode
  3
AeccvBase10|Product Desc: Autodesk Civil 3D |Company: Autodesk,Inc. |WEB Address: www.autodesk.com
 90
     1023
280
     0
281
     0
  0
ENDSEC
  0
SECTION
  2
TABLES
  0
TABLE
  2
VPORT
  5
8
330
0
100
AcDbSymbolTable
 70
     2
  0
VPORT
  5
D6F
330
8
100
AcDbSymbolTableRecord
100
AcDbViewportTableRecord
  2
*Active
 70
     0
 10
0.0
 20
0.0
 11
1.0
 21
1.0
 12
10027.02652644696
 22
6622.534618058172
 13
0.0
 23
0.0
 14
10.0
 24
10.0
 15
10.0
 25
10.0
 16
0.0
 26
0.0
 36
1.0
 17
0.0
 27
0.0
 37
0.0
 40
32340.43392642391
 41
0.6282940360610265
 42
50.0
 43
0.0
 44
0.0
 50
0.0
 51
0.0
 71
     0
 72
  1000
 73
     1
 74
     1
 75
     0
 76
     0
 77
     0
 78
     0
281
     0
 65
     1
110
0.0
120
0.0
130
0.0
111
1.0
121
0.0
131
0.0
112
0.0
122
1.0
132
0.0
 79
     0
146
0.0
  0
ENDTAB
  0
TABLE
  2
LTYPE
  5
5
330
0
100
AcDbSymbolTable
 70
     3
  0
LTYPE
  5
14
330
5
100
AcDbSymbolTableRecord
100
AcDbLinetypeTableRecord
  2
ByBlock
 70
     0
  3

 72
    65
 73
     0
 40
0.0
  0
LTYPE
  5
15
330
5
100
AcDbSymbolTableRecord
100
AcDbLinetypeTableRecord
  2
ByLayer
 70
     0
  3

 72
    65
 73
     0
 40
0.0
  0
LTYPE
  5
16
330
5
100
AcDbSymbolTableRecord
100
AcDbLinetypeTableRecord
  2
Continuous
 70
     0
  3
Solid line
 72
    65
 73
     0
 40
0.0
  0
LTYPE
  5
1FE
330
5
100
AcDbSymbolTableRecord
100
AcDbLinetypeTableRecord
  2
DASHED
 70
     0
  3
__ __ __ __ __ __ __ __ __ __ __ __ __ __ __
 72
    65
 73
     2
 40
3.0
 49
2.0
 74
     0
 49
-1.0
 74
     0
  0
LTYPE
  5
1FF
330
5
100
AcDbSymbolTableRecord
100
AcDbLinetypeTableRecord
  2
DASHDOT
 70
     0
  3
__ . __ . __ . __ . __ . __ . __ . __ . __ . __
 72
    65
 73
     4
 40
8.5
 49
6.0
 74
     0
 49
-1.0
 74
     0
 49
0.5
 74
     0
 49
-1.0
 74
     0
  0
ENDTAB
  0
TABLE
  2
LAYER
  5
2
330
0
100
AcDbSymbolTable
 70
    17
  0
LAYER
  5
10
330
2
100
AcDbSymbolTableRecord
100
AcDbLayerTableRecord
  2
0
 70
     0
 62
     7
  6
Continuous
370
    -3
390
F
  0
LAYER
  5
200
330
2
100
AcDbSymbolTableRecord
100
AcDbLayerTableRecord
  2
DEFPOINTS
 70
     0
 62
     4
  6
Continuous
290
     0
370
    -3
390
F
  0
LAYER
  5
201
330
2
100
AcDbSymbolTableRecord
100
AcDbLayerTableRecord
  2
寸法
 70
     0
 62
     6
  6
Continuous
370
    -3
390
F
  0
LAYER
  5
202
330
2
100
AcDbSymbolTableRecord
100
AcDbLayerTableRecord
  2
画層1-1
 70
     0
 62
    82
  6
Continuous
370
    -3
390
F
  0
LAYER
  5
203
330
2
100
AcDbSymbolTableRecord
100
AcDbLayerTableRecord
  2
図面枠
 70
     0
 62
     7
  6
Continuous
370
    -3
390
F
  0
LAYER
  5
204
330
2
100
AcDbSymbolTableRecord
100
AcDbLayerTableRecord
  2
ﾊｯﾁﾝｸﾞ
 70
     0
 62
     1
  6
Continuous
370
    -3
390
F
  0
LAYER
  5
205
330
2
100
AcDbSymbolTableRecord
100
AcDbLayerTableRecord
  2
画層2
 70
     0
 62
    40
  6
Continuous
370
    -3
390
F
  0
LAYER
  5
206
330
2
100
AcDbSymbolTableRecord
100
AcDbLayerTableRecord
  2
通り芯
 70
     0
 62
     4
  6
Continuous
370
    13
390
F
  0
LAYER
  5
207
330
2
100
AcDbSymbolTableRecord
100
AcDbLayerTableRecord
  2
画層1
 70
     0
 62
     7
  6
Continuous
370
    -3
390
F
  0
LAYER
  5
208
330
2
100
AcDbSymbolTableRecord
100
AcDbLayerTableRecord
  2
画層3-1
 70
     0
 62
     3
  6
Continuous
370
    -3
390
F
  0
LAYER
  5
209
330
2
100
AcDbSymbolTableRecord
100
AcDbLayerTableRecord
  2
画層3-2
 70
     0
 62
    60
  6
Continuous
370
    -3
390
F
  0
LAYER
  5
20A
330
2
100
AcDbSymbolTableRecord
100
AcDbLayerTableRecord
  2
画層3-3
 70
     0
 62
     1
  6
Continuous
370
    -3
390
F
  0
LAYER
  5
20B
330
2
100
AcDbSymbolTableRecord
100
AcDbLayerTableRecord
  2
画層3-通り芯
 70
     0
 62
     4
  6
Continuous
370
    -3
390
F
  0
LAYER
  5
20C
330
2
100
AcDbSymbolTableRecord
100
AcDbLayerTableRecord
  2
ﾈｯﾄ
 70
     0
 62
   230
  6
Continuous
370
    13
390
F
  0
LAYER
  5
20D
330
2
100
AcDbSymbolTableRecord
100
AcDbLayerTableRecord
  2
画層2-1
 70
     0
 62
     7
  6
Continuous
370
    -3
390
F
  0
LAYER
  5
20E
330
2
100
AcDbSymbolTableRecord
100
AcDbLayerTableRecord
  2
寸法文字
 70
     0
 62
     6
  6
Continuous
370
    -3
390
F
  0
LAYER
  5
20F
330
2
100
AcDbSymbolTableRecord
100
AcDbLayerTableRecord
  2
寸法引出
 70
     0
 62
     3
  6
Continuous
370
    -3
390
F
  0
ENDTAB
  0
TABLE
  2
STYLE
  5
3
330
0
100
AcDbSymbolTable
 70
     3
  0
STYLE
  5
11
330
3
100
AcDbSymbolTableRecord
100
AcDbTextStyleTableRecord
  2
Standard
 70
     0
 40
0.0
 41
1.0
 50
0.0
 71
     0
 42
2.5
  3
txt
  4

  0
STYLE
  5
210
330
3
100
AcDbSymbolTableRecord
100
AcDbTextStyleTableRecord
  2
1_100
 70
     0
 40
0.0
 41
0.75
 50
0.0
 71
     0
 42
2.5
  3
romans.shx
  4
extfont2.shx
  0
STYLE
  5
211
330
3
100
AcDbSymbolTableRecord
100
AcDbTextStyleTableRecord
  2
STYLE1
 70
     0
 40
0.0
 41
0.75
 50
0.0
 71
     0
 42
0.2
  3
HGRSKP.TTF
  4

1001
ACAD
1000
HGSeikaishotaiPRO
1071
    32833
  0
ENDTAB
  0
TABLE
  2
VIEW
  5
6
330
0
100
AcDbSymbolTable
 70
     0
  0
ENDTAB
  0
TABLE
  2
UCS
  5
7
330
0
100
AcDbSymbolTable
 70
     0
  0
ENDTAB
  0
TABLE
  2
APPID
  5
9
330
0
100
AcDbSymbolTable
 70
     4
  0
APPID
  5
12
330
9
100
AcDbSymbolTableRecord
100
AcDbRegAppTableRecord
  2
ACAD
 70
     0
  0
APPID
  5
215
330
9
100
AcDbSymbolTableRecord
100
AcDbRegAppTableRecord
  2
AcDbBlockRepETag
 70
     0
  0
APPID
  5
D5A
330
9
100
AcDbSymbolTableRecord
100
AcDbRegAppTableRecord
  2
ADE
 70
     0
  0
APPID
  5
D5B
330
9
100
AcDbSymbolTableRecord
100
AcDbRegAppTableRecord
  2
DCO15
 70
     0
  0
ENDTAB
  0
TABLE
  2
DIMSTYLE
  5
A
330
0
100
AcDbSymbolTable
 70
     4
100
AcDbDimStyleTable
 71
     0
  0
DIMSTYLE
105
27
330
A
100
AcDbSymbolTableRecord
100
AcDbDimStyleTableRecord
  2
ISO-25
 70
     0
 41
2.5
 42
0.625
 43
3.75
 44
1.25
 73
     0
 74
     0
 77
     1
 78
     8
140
2.5
141
2.5
143
0.03937007874016
147
0.625
171
     3
172
     1
271
     2
272
     2
274
     3
278
    44
283
     0
284
     8
340
11
  0
DIMSTYLE
105
212
330
A
100
AcDbSymbolTableRecord
100
AcDbDimStyleTableRecord
  2
STANDARD
 70
     0
340
11
  0
DIMSTYLE
105
213
330
A
100
AcDbSymbolTableRecord
100
AcDbDimStyleTableRecord
  2
1_100
 70
     0
 40
100.0
 41
0.6
 42
3.0
 43
10.0
 44
0.0
 73
     0
 74
     0
 77
     1
 78
     8
140
3.0
141
0.0
147
1.0
172
     1
173
     1
176
   256
177
   256
178
   256
271
     1
272
     1
277
     6
279
     2
284
     8
340
210
341
87
343
87
344
87
  0
DIMSTYLE
105
214
102
{ACAD_REACTORS
330
439
330
43A
330
43B
330
440
330
45B
330
45C
330
470
330
477
330
478
330
4E0
330
4E1
330
4E3
330
4E4
330
4E5
330
4E6
330
4E7
330
4F5
330
508
330
509
330
50E
330
510
330
511
330
5BA
330
5BF
330
5D2
330
5EB
330
5FD
330
60C
330
61F
102
}
330
A
100
AcDbSymbolTableRecord
100
AcDbDimStyleTableRecord
  2
1_50
 70
     0
 40
50.0
 41
0.6
 42
3.0
 43
10.0
 44
0.0
 73
     0
 74
     0
 77
     1
 78
    12
140
3.0
141
0.0
147
1.0
172
     1
173
     1
176
   256
177
   256
178
   256
271
     1
272
     1
277
     6
279
     2
340
210
341
87
343
87
344
87
  0
ENDTAB
  0
TABLE
  2
BLOCK_RECORD
  5
1
330
0
100
AcDbSymbolTable
 70
    32
  0
BLOCK_RECORD
  5
1F
330
1
100
AcDbSymbolTableRecord
100
AcDbBlockTableRecord
  2
*Model_Space
340
22
  0
BLOCK_RECORD
  5
50
330
1
100
AcDbSymbolTableRecord
100
AcDbBlockTableRecord
  2
*Paper_Space
340
51
  0
BLOCK_RECORD
  5
55
330
1
100
AcDbSymbolTableRecord
100
AcDbBlockTableRecord
  2
*Paper_Space0
340
56
  0
BLOCK_RECORD
  5
87
330
1
100
AcDbSymbolTableRecord
100
AcDbBlockTableRecord
  2
_ORIGIN
340
0
102
{BLKREFS
331
79F
331
7A0
331
7A8
331
7A9
331
7B1
331
7B2
331
7BA
331
7BB
331
7D7
331
7D8
331
7E9
331
7EA
331
808
331
809
331
826
331
827
331
837
331
838
331
85E
331
85F
331
891
331
892
331
89C
331
89D
331
8A7
331
8A8
331
8B2
331
8B3
331
8E1
331
8E2
331
8EC
331
8ED
331
8FE
331
8FF
331
90A
331
90B
331
913
331
914
331
91C
331
91D
331
92E
331
92F
331
937
331
938
331
943
331
944
331
94D
331
94E
331
958
331
959
331
961
331
962
331
96A
331
96B
331
973
331
974
331
97D
331
97E
102
}
  0
BLOCK_RECORD
  5
62A
330
1
100
AcDbSymbolTableRecord
100
AcDbBlockTableRecord
  2
*D2
340
0
  0
BLOCK_RECORD
  5
636
330
1
100
AcDbSymbolTableRecord
100
AcDbBlockTableRecord
  2
*D3
340
0
  0
BLOCK_RECORD
  5
642
330
1
100
AcDbSymbolTableRecord
100
AcDbBlockTableRecord
  2
*D4
340
0
  0
BLOCK_RECORD
  5
64E
330
1
100
AcDbSymbolTableRecord
100
AcDbBlockTableRecord
  2
*D5
340
0
  0
BLOCK_RECORD
  5
65A
330
1
100
AcDbSymbolTableRecord
100
AcDbBlockTableRecord
  2
*D6
340
0
  0
BLOCK_RECORD
  5
666
330
1
100
AcDbSymbolTableRecord
100
AcDbBlockTableRecord
  2
*D7
340
0
  0
BLOCK_RECORD
  5
672
330
1
100
AcDbSymbolTableRecord
100
AcDbBlockTableRecord
  2
*D8
340
0
  0
BLOCK_RECORD
  5
680
330
1
100
AcDbSymbolTableRecord
100
AcDbBlockTableRecord
  2
*D9
340
0
  0
BLOCK_RECORD
  5
68C
330
1
100
AcDbSymbolTableRecord
100
AcDbBlockTableRecord
  2
*D10
340
0
  0
BLOCK_RECORD
  5
698
330
1
100
AcDbSymbolTableRecord
100
AcDbBlockTableRecord
  2
*D11
340
0
  0
BLOCK_RECORD
  5
6A6
330
1
100
AcDbSymbolTableRecord
100
AcDbBlockTableRecord
  2
*D12
340
0
  0
BLOCK_RECORD
  5
6B4
330
1
100
AcDbSymbolTableRecord
100
AcDbBlockTableRecord
  2
*D13
340
0
  0
BLOCK_RECORD
  5
6C0
330
1
100
AcDbSymbolTableRecord
100
AcDbBlockTableRecord
  2
*D14
340
0
  0
BLOCK_RECORD
  5
6CE
330
1
100
AcDbSymbolTableRecord
100
AcDbBlockTableRecord
  2
*D15
340
0
  0
BLOCK_RECORD
  5
6DA
330
1
100
AcDbSymbolTableRecord
100
AcDbBlockTableRecord
  2
*D16
340
0
  0
BLOCK_RECORD
  5
6E6
330
1
100
AcDbSymbolTableRecord
100
AcDbBlockTableRecord
  2
*D17
340
0
  0
BLOCK_RECORD
  5
6F2
330
1
100
AcDbSymbolTableRecord
100
AcDbBlockTableRecord
  2
*D18
340
0
  0
BLOCK_RECORD
  5
6FE
330
1
100
AcDbSymbolTableRecord
100
AcDbBlockTableRecord
  2
*D19
340
0
  0
BLOCK_RECORD
  5
70C
330
1
100
AcDbSymbolTableRecord
100
AcDbBlockTableRecord
  2
*D20
340
0
  0
BLOCK_RECORD
  5
718
330
1
100
AcDbSymbolTableRecord
100
AcDbBlockTableRecord
  2
*D21
340
0
  0
BLOCK_RECORD
  5
724
330
1
100
AcDbSymbolTableRecord
100
AcDbBlockTableRecord
  2
*D22
340
0
  0
BLOCK_RECORD
  5
730
330
1
100
AcDbSymbolTableRecord
100
AcDbBlockTableRecord
  2
*D23
340
0
  0
BLOCK_RECORD
  5
73C
330
1
100
AcDbSymbolTableRecord
100
AcDbBlockTableRecord
  2
*D24
340
0
  0
BLOCK_RECORD
  5
74A
330
1
100
AcDbSymbolTableRecord
100
AcDbBlockTableRecord
  2
*D25
340
0
  0
BLOCK_RECORD
  5
758
330
1
100
AcDbSymbolTableRecord
100
AcDbBlockTableRecord
  2
*D26
340
0
  0
BLOCK_RECORD
  5
764
330
1
100
AcDbSymbolTableRecord
100
AcDbBlockTableRecord
  2
*D27
340
0
  0
BLOCK_RECORD
  5
772
330
1
100
AcDbSymbolTableRecord
100
AcDbBlockTableRecord
  2
*D28
340
0
  0
BLOCK_RECORD
  5
780
330
1
100
AcDbSymbolTableRecord
100
AcDbBlockTableRecord
  2
*D29
340
0
  0
BLOCK_RECORD
  5
78E
330
1
100
AcDbSymbolTableRecord
100
AcDbBlockTableRecord
  2
*D30
340
0
  0
ENDTAB
  0
ENDSEC
  0
SECTION
  2
BLOCKS
  0
BLOCK
  5
20
330
1F
100
AcDbEntity
  8
0
100
AcDbBlockBegin
  2
*Model_Space
 70
     0
 10
0.0
 20
0.0
 30
0.0
  3
*Model_Space
  1

  0
ENDBLK
  5
21
330
1F
100
AcDbEntity
  8
0
100
AcDbBlockEnd
  0
BLOCK
  5
52
330
50
100
AcDbEntity
 67
     1
  8
0
100
AcDbBlockBegin
  2
*Paper_Space
 70
     0
 10
0.0
 20
0.0
 30
0.0
  3
*Paper_Space
  1

  0
ENDBLK
  5
53
330
50
100
AcDbEntity
 67
     1
  8
0
100
AcDbBlockEnd
  0
BLOCK
  5
57
330
55
100
AcDbEntity
  8
0
100
AcDbBlockBegin
  2
*Paper_Space0
 70
     0
 10
0.0
 20
0.0
 30
0.0
  3
*Paper_Space0
  1

  0
ENDBLK
  5
58
330
55
100
AcDbEntity
  8
0
100
AcDbBlockEnd
  0
BLOCK
  5
88
330
87
100
AcDbEntity
  8
0
100
AcDbBlockBegin
  2
_ORIGIN
 70
     0
 10
0.0
 20
0.0
 30
0.0
  3
_ORIGIN
  1

  0
CIRCLE
  5
89
330
87
100
AcDbEntity
  8
0
  6
ByBlock
 62
     0
100
AcDbCircle
 10
0.0
 20
0.0
 30
0.0
 40
0.5
  0
LINE
  5
8A
330
87
100
AcDbEntity
  8
0
  6
ByBlock
 62
     0
100
AcDbLine
 10
0.0
 20
0.0
 30
0.0
 11
-1.0
 21
0.0
 31
0.0
  0
ENDBLK
  5
8B
330
87
100
AcDbEntity
  8
0
100
AcDbBlockEnd
  0
BLOCK
  5
634
330
62A
100
AcDbEntity
  8
0
100
AcDbBlockBegin
  2
*D2
 70
     1
 10
0.0
 20
0.0
 30
0.0
  3
*D2
  1

  0
LINE
  5
79C
330
62A
100
AcDbEntity
  8
寸法
  6
Continuous
370
    -2
100
AcDbLine
 10
16736.48972903102
 20
10926.33168467673
 30
0.0
 11
17486.7743413295
 21
10926.33168467673
 31
0.0
  0
LINE
  5
79D
330
62A
100
AcDbEntity
  8
寸法
  6
Continuous
370
    -2
100
AcDbLine
 10
16736.48972903102
 20
6926.331684676735
 30
0.0
 11
17486.77434132949
 21
6926.331684676735
 31
0.0
  0
LINE
  5
79E
330
62A
100
AcDbEntity
  8
寸法
  6
Continuous
370
    -2
100
AcDbLine
 10
17486.7743413295
 20
10896.33168467673
 30
0.0
 11
17486.77434132949
 21
6956.331684676735
 31
0.0
  0
INSERT
  5
79F
330
62A
100
AcDbEntity
  8
寸法
  6
Continuous
370
    -2
100
AcDbBlockReference
  2
_ORIGIN
 10
17486.7743413295
 20
10926.33168467673
 30
0.0
 41
30.0
 42
30.0
 43
30.0
 50
90.0
  0
INSERT
  5
7A0
330
62A
100
AcDbEntity
  8
寸法
  6
Continuous
370
    -2
100
AcDbBlockReference
  2
_ORIGIN
 10
17486.77434132949
 20
6926.331684676735
 30
0.0
 41
30.0
 42
30.0
 43
30.0
 50
270.0
  0
MTEXT
  5
7A1
330
62A
100
AcDbEntity
  8
寸法
  6
Continuous
100
AcDbMText
 10
17347.48862704378
 20
8926.331684676734
 30
0.0
 40
150.0
 41
0.0
 71
     5
 72
     1
  1
\A1;4,000
  7
1_100
 11
0.0000000000000001
 21
1.0
 31
0.0
 73
     1
 44
1.0
1001
ACAD
1000
MTEXTBEGIN
1070
    73
1070
     1
1070
    44
1040
1.0
1070
    74
1070
     0
1000
MTEXTEND
  0
POINT
  5
7A2
330
62A
100
AcDbEntity
  8
DEFPOINTS
  6
Continuous
 62
     0
100
AcDbPoint
 10
16586.48972903102
 20
10926.33168467673
 30
0.0
  0
POINT
  5
7A3
330
62A
100
AcDbEntity
  8
DEFPOINTS
  6
Continuous
 62
     0
100
AcDbPoint
 10
16586.48972903102
 20
6926.331684676735
 30
0.0
  0
POINT
  5
7A4
330
62A
100
AcDbEntity
  8
DEFPOINTS
  6
Continuous
 62
     0
100
AcDbPoint
 10
17486.77434132949
 20
6926.331684676735
 30
0.0
  0
ENDBLK
  5
635
330
62A
100
AcDbEntity
  8
0
100
AcDbBlockEnd
  0
BLOCK
  5
640
330
636
100
AcDbEntity
  8
0
100
AcDbBlockBegin
  2
*D3
 70
     1
 10
0.0
 20
0.0
 30
0.0
  3
*D3
  1

  0
LINE
  5
7A5
330
636
100
AcDbEntity
  8
寸法
  6
Continuous
370
    -2
100
AcDbLine
 10
16736.48972903102
 20
8926.331684676734
 30
0.0
 11
17086.77434132949
 21
8926.331684676734
 31
0.0
  0
LINE
  5
7A6
330
636
100
AcDbEntity
  8
寸法
  6
Continuous
370
    -2
100
AcDbLine
 10
16736.48972903102
 20
10886.33168467673
 30
0.0
 11
17086.77434132949
 21
10886.33168467673
 31
0.0
  0
LINE
  5
7A7
330
636
100
AcDbEntity
  8
寸法
  6
Continuous
370
    -2
100
AcDbLine
 10
17086.77434132949
 20
8956.331684676733
 30
0.0
 11
17086.77434132949
 21
10856.33168467673
 31
0.0
  0
INSERT
  5
7A8
330
636
100
AcDbEntity
  8
寸法
  6
Continuous
370
    -2
100
AcDbBlockReference
  2
_ORIGIN
 10
17086.77434132949
 20
8926.331684676734
 30
0.0
 41
30.0
 42
30.0
 43
30.0
 50
270.0
  0
INSERT
  5
7A9
330
636
100
AcDbEntity
  8
寸法
  6
Continuous
370
    -2
100
AcDbBlockReference
  2
_ORIGIN
 10
17086.77434132949
 20
10886.33168467673
 30
0.0
 41
30.0
 42
30.0
 43
30.0
 50
90.0
  0
MTEXT
  5
7AA
330
636
100
AcDbEntity
  8
寸法
  6
Continuous
100
AcDbMText
 10
16947.48862704378
 20
9906.331684676736
 30
0.0
 40
150.0
 41
0.0
 71
     5
 72
     1
  1
\A1;1,960
  7
1_100
 11
0.0000000000000001
 21
1.0
 31
0.0
 73
     1
 44
1.0
1001
ACAD
1000
MTEXTBEGIN
1070
    73
1070
     1
1070
    44
1040
1.0
1070
    74
1070
     0
1000
MTEXTEND
  0
POINT
  5
7AB
330
636
100
AcDbEntity
  8
DEFPOINTS
  6
Continuous
 62
     0
100
AcDbPoint
 10
16586.48972903102
 20
8926.331684676734
 30
0.0
  0
POINT
  5
7AC
330
636
100
AcDbEntity
  8
DEFPOINTS
  6
Continuous
 62
     0
100
AcDbPoint
 10
16586.48972903102
 20
10886.33168467673
 30
0.0
  0
POINT
  5
7AD
330
636
100
AcDbEntity
  8
DEFPOINTS
  6
Continuous
 62
     0
100
AcDbPoint
 10
17086.77434132949
 20
10886.33168467673
 30
0.0
  0
ENDBLK
  5
641
330
636
100
AcDbEntity
  8
0
100
AcDbBlockEnd
  0
BLOCK
  5
64C
330
642
100
AcDbEntity
  8
0
100
AcDbBlockBegin
  2
*D4
 70
     1
 10
0.0
 20
0.0
 30
0.0
  3
*D4
  1

  0
LINE
  5
7AE
330
642
100
AcDbEntity
  8
寸法
  6
Continuous
370
    -2
100
AcDbLine
 10
13870.10767466298
 20
10926.33168467673
 30
0.0
 11
14820.10767466251
 21
10926.33168467673
 31
0.0
  0
LINE
  5
7AF
330
642
100
AcDbEntity
  8
寸法
  6
Continuous
370
    -2
100
AcDbLine
 10
13870.10767466298
 20
6926.331684676735
 30
0.0
 11
14820.10767466251
 21
6926.331684676732
 31
0.0
  0
LINE
  5
7B0
330
642
100
AcDbEntity
  8
寸法
  6
Continuous
370
    -2
100
AcDbLine
 10
14820.10767466251
 20
10896.33168467673
 30
0.0
 11
14820.10767466251
 21
6956.331684676733
 31
0.0
  0
INSERT
  5
7B1
330
642
100
AcDbEntity
  8
寸法
  6
Continuous
370
    -2
100
AcDbBlockReference
  2
_ORIGIN
 10
14820.10767466251
 20
10926.33168467673
 30
0.0
 41
30.0
 42
30.0
 43
30.0
 50
90.0
  0
INSERT
  5
7B2
330
642
100
AcDbEntity
  8
寸法
  6
Continuous
370
    -2
100
AcDbBlockReference
  2
_ORIGIN
 10
14820.10767466251
 20
6926.331684676732
 30
0.0
 41
30.0
 42
30.0
 43
30.0
 50
270.0
  0
MTEXT
  5
7B3
330
642
100
AcDbEntity
  8
寸法
  6
Continuous
100
AcDbMText
 10
14680.8219603768
 20
8926.331684676737
 30
0.0
 40
150.0
 41
0.0
 71
     5
 72
     1
  1
\A1;4,000
  7
1_100
 11
0.0000000000000001
 21
1.0
 31
0.0
 73
     1
 44
1.0
1001
ACAD
1000
MTEXTBEGIN
1070
    73
1070
     1
1070
    44
1040
1.0
1070
    74
1070
     0
1000
MTEXTEND
  0
POINT
  5
7B4
330
642
100
AcDbEntity
  8
DEFPOINTS
  6
Continuous
 62
     0
100
AcDbPoint
 10
13720.10767466298
 20
10926.33168467673
 30
0.0
  0
POINT
  5
7B5
330
642
100
AcDbEntity
  8
DEFPOINTS
  6
Continuous
 62
     0
100
AcDbPoint
 10
13720.10767466298
 20
6926.331684676735
 30
0.0
  0
POINT
  5
7B6
330
642
100
AcDbEntity
  8
DEFPOINTS
  6
Continuous
 62
     0
100
AcDbPoint
 10
14820.10767466251
 20
6926.331684676732
 30
0.0
  0
ENDBLK
  5
64D
330
642
100
AcDbEntity
  8
0
100
AcDbBlockEnd
  0
BLOCK
  5
658
330
64E
100
AcDbEntity
  8
0
100
AcDbBlockBegin
  2
*D5
 70
     1
 10
0.0
 20
0.0
 30
0.0
  3
*D5
  1

  0
LINE
  5
7B7
330
64E
100
AcDbEntity
  8
寸法
  6
Continuous
370
    -2
100
AcDbLine
 10
13870.10767466298
 20
8926.331684676734
 30
0.0
 11
14420.10767466298
 21
8926.331684676734
 31
0.0
  0
LINE
  5
7B8
330
64E
100
AcDbEntity
  8
寸法
  6
Continuous
370
    -2
100
AcDbLine
 10
13870.10767466298
 20
10886.33168467673
 30
0.0
 11
14420.10767466298
 21
10886.33168467673
 31
0.0
  0
LINE
  5
7B9
330
64E
100
AcDbEntity
  8
寸法
  6
Continuous
370
    -2
100
AcDbLine
 10
14420.10767466298
 20
8956.331684676733
 30
0.0
 11
14420.10767466298
 21
10856.33168467673
 31
0.0
  0
INSERT
  5
7BA
330
64E
100
AcDbEntity
  8
寸法
  6
Continuous
370
    -2
100
AcDbBlockReference
  2
_ORIGIN
 10
14420.10767466298
 20
8926.331684676734
 30
0.0
 41
30.0
 42
30.0
 43
30.0
 50
270.0
  0
INSERT
  5
7BB
330
64E
100
AcDbEntity
  8
寸法
  6
Continuous
370
    -2
100
AcDbBlockReference
  2
_ORIGIN
 10
14420.10767466298
 20
10886.33168467673
 30
0.0
 41
30.0
 42
30.0
 43
30.0
 50
90.0
  0
MTEXT
  5
7BC
330
64E
100
AcDbEntity
  8
寸法
  6
Continuous
100
AcDbMText
 10
14280.82196037727
 20
9906.331684676738
 30
0.0
 40
150.0
 41
0.0
 71
     5
 72
     1
  1
\A1;1,960
  7
1_100
 11
0.0000000000000001
 21
1.0
 31
0.0
 73
     1
 44
1.0
1001
ACAD
1000
MTEXTBEGIN
1070
    73
1070
     1
1070
    44
1040
1.0
1070
    74
1070
     0
1000
MTEXTEND
  0
POINT
  5
7BD
330
64E
100
AcDbEntity
  8
DEFPOINTS
  6
Continuous
 62
     0
100
AcDbPoint
 10
13720.10767466298
 20
8926.331684676734
 30
0.0
  0
POINT
  5
7BE
330
64E
100
AcDbEntity
  8
DEFPOINTS
  6
Continuous
 62
     0
100
AcDbPoint
 10
13720.10767466298
 20
10886.33168467673
 30
0.0
  0
POINT
  5
7BF
330
64E
100
AcDbEntity
  8
DEFPOINTS
  6
Continuous
 62
     0
100
AcDbPoint
 10
14420.10767466298
 20
10886.33168467673
 30
0.0
  0
ENDBLK
  5
659
330
64E
100
AcDbEntity
  8
0
100
AcDbBlockEnd
  0
BLOCK
  5
664
330
65A
100
AcDbEntity
  8
0
100
AcDbBlockBegin
  2
*D6
 70
     1
 10
0.0
 20
0.0
 30
0.0
  3
*D6
  1

  0
LINE
  5
970
330
65A
100
AcDbEntity
  8
寸法
  6
Continuous
370
    -2
100
AcDbLine
 10
6320.107674662982
 20
5533.86421288344
 30
0.0
 11
6320.107674662982
 21
4676.331684676735
 31
0.0
  0
LINE
  5
971
330
65A
100
AcDbEntity
  8
寸法
  6
Continuous
370
    -2
100
AcDbLine
 10
8320.107674662983
 20
5233.864212883441
 30
0.0
 11
8320.107674662983
 21
4676.331684676735
 31
0.0
  0
LINE
  5
972
330
65A
100
AcDbEntity
  8
寸法
  6
Continuous
370
    -2
100
AcDbLine
 10
6350.107674662982
 20
4676.331684676735
 30
0.0
 11
8290.107674662982
 21
4676.331684676735
 31
0.0
  0
INSERT
  5
973
330
65A
100
AcDbEntity
  8
寸法
  6
Continuous
370
    -2
100
AcDbBlockReference
  2
_ORIGIN
 10
6320.107674662982
 20
4676.331684676735
 30
0.0
 41
30.0
 42
30.0
 43
30.0
 50
180.0
  0
INSERT
  5
974
330
65A
100
AcDbEntity
  8
寸法
  6
Continuous
370
    -2
100
AcDbBlockReference
  2
_ORIGIN
 10
8320.107674662983
 20
4676.331684676735
 30
0.0
 41
30.0
 42
30.0
 43
30.0
  0
MTEXT
  5
975
330
65A
100
AcDbEntity
  8
寸法
  6
Continuous
100
AcDbMText
 10
7320.107674662982
 20
4815.617398962451
 30
0.0
 40
150.0
 41
0.0
 71
     5
 72
     1
  1
\A1;2,000
  7
1_100
 73
     1
 44
1.0
1001
ACAD
1000
MTEXTBEGIN
1070
    73
1070
     1
1070
    44
1040
1.0
1070
    74
1070
     0
1000
MTEXTEND
  0
POINT
  5
976
330
65A
100
AcDbEntity
  8
DEFPOINTS
  6
Continuous
 62
     0
100
AcDbPoint
 10
6320.107674662982
 20
5683.864212883441
 30
0.0
  0
POINT
  5
977
330
65A
100
AcDbEntity
  8
DEFPOINTS
  6
Continuous
 62
     0
100
AcDbPoint
 10
8320.107674662983
 20
5383.864212883441
 30
0.0
  0
POINT
  5
978
330
65A
100
AcDbEntity
  8
DEFPOINTS
  6
Continuous
 62
     0
100
AcDbPoint
 10
8320.107674662983
 20
4676.331684676735
 30
0.0
  0
ENDBLK
  5
665
330
65A
100
AcDbEntity
  8
0
100
AcDbBlockEnd
  0
BLOCK
  5
670
330
666
100
AcDbEntity
  8
0
100
AcDbBlockBegin
  2
*D7
 70
     1
 10
0.0
 20
0.0
 30
0.0
  3
*D7
  1

  0
LINE
  5
967
330
666
100
AcDbEntity
  8
寸法
  6
Continuous
370
    -2
100
AcDbLine
 10
4320.107674662982
 20
4952.895131448554
 30
0.0
 11
4320.107674662982
 21
4326.331684676733
 31
0.0
  0
LINE
  5
968
330
666
100
AcDbEntity
  8
寸法
  6
Continuous
370
    -2
100
AcDbLine
 10
10320.10767466298
 20
5533.86421288344
 30
0.0
 11
10320.10767466298
 21
4326.331684676733
 31
0.0
  0
LINE
  5
969
330
666
100
AcDbEntity
  8
寸法
  6
Continuous
370
    -2
100
AcDbLine
 10
4350.107674662982
 20
4326.331684676733
 30
0.0
 11
10290.10767466298
 21
4326.331684676733
 31
0.0
  0
INSERT
  5
96A
330
666
100
AcDbEntity
  8
寸法
  6
Continuous
370
    -2
100
AcDbBlockReference
  2
_ORIGIN
 10
4320.107674662982
 20
4326.331684676733
 30
0.0
 41
30.0
 42
30.0
 43
30.0
 50
180.0
  0
INSERT
  5
96B
330
666
100
AcDbEntity
  8
寸法
  6
Continuous
370
    -2
100
AcDbBlockReference
  2
_ORIGIN
 10
10320.10767466298
 20
4326.331684676733
 30
0.0
 41
30.0
 42
30.0
 43
30.0
  0
MTEXT
  5
96C
330
666
100
AcDbEntity
  8
寸法
  6
Continuous
100
AcDbMText
 10
7320.107674662982
 20
4465.617398962448
 30
0.0
 40
150.0
 41
0.0
 71
     5
 72
     1
  1
\A1;6,000
  7
1_100
 73
     1
 44
1.0
1001
ACAD
1000
MTEXTBEGIN
1070
    73
1070
     1
1070
    44
1040
1.0
1070
    74
1070
     0
1000
MTEXTEND
  0
POINT
  5
96D
330
666
100
AcDbEntity
  8
DEFPOINTS
  6
Continuous
 62
     0
100
AcDbPoint
 10
4320.107674662982
 20
5102.895131448554
 30
0.0
  0
POINT
  5
96E
330
666
100
AcDbEntity
  8
DEFPOINTS
  6
Continuous
 62
     0
100
AcDbPoint
 10
10320.10767466298
 20
5683.864212883441
 30
0.0
  0
POINT
  5
96F
330
666
100
AcDbEntity
  8
DEFPOINTS
  6
Continuous
 62
     0
100
AcDbPoint
 10
10320.10767466298
 20
4326.331684676733
 30
0.0
  0
ENDBLK
  5
671
330
666
100
AcDbEntity
  8
0
100
AcDbBlockEnd
  0
BLOCK
  5
67E
330
672
100
AcDbEntity
  8
0
100
AcDbBlockBegin
  2
*D8
 70
     1
 10
0.0
 20
0.0
 30
0.0
  3
*D8
  1

  0
LINE
  5
7D2
330
672
100
AcDbEntity
  8
寸法
  6
Continuous
370
    -2
100
AcDbLine
 10
6195.107674662982
 20
6326.331684676733
 30
0.0
 11
6195.107674662982
 21
6256.331684676735
 31
0.0
  0
LINE
  5
7D3
330
672
100
AcDbEntity
  8
寸法
  6
Continuous
370
    -2
100
AcDbLine
 10
6445.107674662982
 20
6326.331684676733
 30
0.0
 11
6445.107674662982
 21
6256.331684676735
 31
0.0
  0
LINE
  5
7D4
330
672
100
AcDbEntity
  8
寸法
  6
Continuous
370
    -2
100
AcDbLine
 10
6165.107674662984
 20
6256.331684676735
 30
0.0
 11
6135.107674662982
 21
6256.331684676735
 31
0.0
  0
LINE
  5
7D5
330
672
100
AcDbEntity
  8
寸法
  6
Continuous
370
    -2
100
AcDbLine
 10
6475.107674662982
 20
6256.331684676735
 30
0.0
 11
6505.107674662983
 21
6256.331684676735
 31
0.0
  0
LINE
  5
7D6
330
672
100
AcDbEntity
  8
寸法
  6
Continuous
370
    -2
100
AcDbLine
 10
6195.107674662982
 20
6256.331684676735
 30
0.0
 11
6445.107674662982
 21
6256.331684676735
 31
0.0
  0
INSERT
  5
7D7
330
672
100
AcDbEntity
  8
寸法
  6
Continuous
370
    -2
100
AcDbBlockReference
  2
_ORIGIN
 10
6195.107674662982
 20
6256.331684676735
 30
0.0
 41
30.0
 42
30.0
 43
30.0
  0
INSERT
  5
7D8
330
672
100
AcDbEntity
  8
寸法
  6
Continuous
370
    -2
100
AcDbBlockReference
  2
_ORIGIN
 10
6445.107674662982
 20
6256.331684676735
 30
0.0
 41
30.0
 42
30.0
 43
30.0
 50
180.0
  0
MTEXT
  5
7D9
330
672
100
AcDbEntity
  8
寸法
  6
Continuous
100
AcDbMText
 10
6320.107674662982
 20
6131.331684676735
 30
0.0
 40
150.0
 41
0.0
 71
     5
 72
     1
  1
\A1;□250
  7
1_100
 73
     1
 44
1.0
1001
ACAD
1000
MTEXTBEGIN
1070
    73
1070
     1
1070
    44
1040
1.0
1070
    74
1070
     0
1000
MTEXTEND
  0
POINT
  5
7DA
330
672
100
AcDbEntity
  8
DEFPOINTS
  6
Continuous
 62
     0
100
AcDbPoint
 10
6195.107674662982
 20
6476.331684676735
 30
0.0
  0
POINT
  5
7DB
330
672
100
AcDbEntity
  8
DEFPOINTS
  6
Continuous
 62
     0
100
AcDbPoint
 10
6445.107674662982
 20
6476.331684676735
 30
0.0
  0
POINT
  5
7DC
330
672
100
AcDbEntity
  8
DEFPOINTS
  6
Continuous
 62
     0
100
AcDbPoint
 10
6445.107674662982
 20
6256.331684676735
 30
0.0
  0
ENDBLK
  5
67F
330
672
100
AcDbEntity
  8
0
100
AcDbBlockEnd
  0
BLOCK
  5
68A
330
680
100
AcDbEntity
  8
0
100
AcDbBlockBegin
  2
*D9
 70
     1
 10
0.0
 20
0.0
 30
0.0
  3
*D9
  1

  0
LINE
  5
95E
330
680
100
AcDbEntity
  8
寸法
  6
Continuous
370
    -2
100
AcDbLine
 10
4320.107674662982
 20
4952.895131448554
 30
0.0
 11
4320.107674662982
 21
4676.331684676735
 31
0.0
  0
LINE
  5
95F
330
680
100
AcDbEntity
  8
寸法
  6
Continuous
370
    -2
100
AcDbLine
 10
6320.107674662982
 20
5533.86421288344
 30
0.0
 11
6320.107674662982
 21
4676.331684676735
 31
0.0
  0
LINE
  5
960
330
680
100
AcDbEntity
  8
寸法
  6
Continuous
370
    -2
100
AcDbLine
 10
4350.107674662982
 20
4676.331684676735
 30
0.0
 11
6290.107674662984
 21
4676.331684676735
 31
0.0
  0
INSERT
  5
961
330
680
100
AcDbEntity
  8
寸法
  6
Continuous
370
    -2
100
AcDbBlockReference
  2
_ORIGIN
 10
4320.107674662982
 20
4676.331684676735
 30
0.0
 41
30.0
 42
30.0
 43
30.0
 50
180.0
  0
INSERT
  5
962
330
680
100
AcDbEntity
  8
寸法
  6
Continuous
370
    -2
100
AcDbBlockReference
  2
_ORIGIN
 10
6320.107674662982
 20
4676.331684676735
 30
0.0
 41
30.0
 42
30.0
 43
30.0
  0
MTEXT
  5
963
330
680
100
AcDbEntity
  8
寸法
  6
Continuous
100
AcDbMText
 10
5320.107674662982
 20
4815.617398962451
 30
0.0
 40
150.0
 41
0.0
 71
     5
 72
     1
  1
\A1;2,000
  7
1_100
 73
     1
 44
1.0
1001
ACAD
1000
MTEXTBEGIN
1070
    73
1070
     1
1070
    44
1040
1.0
1070
    74
1070
     0
1000
MTEXTEND
  0
POINT
  5
964
330
680
100
AcDbEntity
  8
DEFPOINTS
  6
Continuous
 62
     0
100
AcDbPoint
 10
4320.107674662982
 20
5102.895131448554
 30
0.0
  0
POINT
  5
965
330
680
100
AcDbEntity
  8
DEFPOINTS
  6
Continuous
 62
     0
100
AcDbPoint
 10
6320.107674662982
 20
5683.864212883441
 30
0.0
  0
POINT
  5
966
330
680
100
AcDbEntity
  8
DEFPOINTS
  6
Continuous
 62
     0
100
AcDbPoint
 10
6320.107674662982
 20
4676.331684676735
 30
0.0
  0
ENDBLK
  5
68B
330
680
100
AcDbEntity
  8
0
100
AcDbBlockEnd
  0
BLOCK
  5
696
330
68C
100
AcDbEntity
  8
0
100
AcDbBlockBegin
  2
*D10
 70
     1
 10
0.0
 20
0.0
 30
0.0
  3
*D10
  1

  0
LINE
  5
7E6
330
68C
100
AcDbEntity
  8
寸法
  6
Continuous
370
    -2
100
AcDbLine
 10
6045.107674662983
 20
6926.331684676735
 30
0.0
 11
5975.107674662982
 21
6926.331684676735
 31
0.0
  0
LINE
  5
7E7
330
68C
100
AcDbEntity
  8
寸法
  6
Continuous
370
    -2
100
AcDbLine
 10
6045.107674662983
 20
6476.331684676735
 30
0.0
 11
5975.107674662982
 21
6476.331684676735
 31
0.0
  0
LINE
  5
7E8
330
68C
100
AcDbEntity
  8
寸法
  6
Continuous
370
    -2
100
AcDbLine
 10
5975.107674662982
 20
6896.331684676735
 30
0.0
 11
5975.107674662982
 21
6506.331684676736
 31
0.0
  0
INSERT
  5
7E9
330
68C
100
AcDbEntity
  8
寸法
  6
Continuous
370
    -2
100
AcDbBlockReference
  2
_ORIGIN
 10
5975.107674662982
 20
6926.331684676735
 30
0.0
 41
30.0
 42
30.0
 43
30.0
 50
90.0
  0
INSERT
  5
7EA
330
68C
100
AcDbEntity
  8
寸法
  6
Continuous
370
    -2
100
AcDbBlockReference
  2
_ORIGIN
 10
5975.107674662982
 20
6476.331684676735
 30
0.0
 41
30.0
 42
30.0
 43
30.0
 50
270.0
  0
MTEXT
  5
7EB
330
68C
100
AcDbEntity
  8
寸法
  6
Continuous
100
AcDbMText
 10
5850.10767466298
 20
6701.331684676738
 30
0.0
 40
150.0
 41
0.0
 71
     5
 72
     1
  1
\A1;450
  7
1_100
 11
0.0000000000000001
 21
1.0
 31
0.0
 73
     1
 44
1.0
1001
ACAD
1000
MTEXTBEGIN
1070
    73
1070
     1
1070
    44
1040
1.0
1070
    74
1070
     0
1000
MTEXTEND
  0
POINT
  5
7EC
330
68C
100
AcDbEntity
  8
DEFPOINTS
  6
Continuous
 62
     0
100
AcDbPoint
 10
6195.107674662982
 20
6926.331684676735
 30
0.0
  0
POINT
  5
7ED
330
68C
100
AcDbEntity
  8
DEFPOINTS
  6
Continuous
 62
     0
100
AcDbPoint
 10
6195.107674662982
 20
6476.331684676735
 30
0.0
  0
POINT
  5
7EE
330
68C
100
AcDbEntity
  8
DEFPOINTS
  6
Continuous
 62
     0
100
AcDbPoint
 10
5975.107674662982
 20
6476.331684676735
 30
0.0
  0
ENDBLK
  5
697
330
68C
100
AcDbEntity
  8
0
100
AcDbBlockEnd
  0
BLOCK
  5
6A4
330
698
100
AcDbEntity
  8
0
100
AcDbBlockBegin
  2
*D11
 70
     1
 10
0.0
 20
0.0
 30
0.0
  3
*D11
  1

  0
LINE
  5
953
330
698
100
AcDbEntity
  8
寸法
  6
Continuous
370
    -2
100
AcDbLine
 10
4070.107674662983
 20
5676.331684676735
 30
0.0
 11
4070.107674662983
 21
5276.331684676733
 31
0.0
  0
LINE
  5
954
330
698
100
AcDbEntity
  8
寸法
  6
Continuous
370
    -2
100
AcDbLine
 10
4570.107674662982
 20
5676.331684676735
 30
0.0
 11
4570.107674662982
 21
5276.331684676733
 31
0.0
  0
LINE
  5
955
330
698
100
AcDbEntity
  8
寸法
  6
Continuous
370
    -2
100
AcDbLine
 10
4040.107674662983
 20
5276.331684676733
 30
0.0
 11
4010.107674662982
 21
5276.331684676733
 31
0.0
  0
LINE
  5
956
330
698
100
AcDbEntity
  8
寸法
  6
Continuous
370
    -2
100
AcDbLine
 10
4600.107674662982
 20
5276.331684676733
 30
0.0
 11
4630.107674662983
 21
5276.331684676733
 31
0.0
  0
LINE
  5
957
330
698
100
AcDbEntity
  8
寸法
  6
Continuous
370
    -2
100
AcDbLine
 10
4070.107674662983
 20
5276.331684676733
 30
0.0
 11
4570.107674662982
 21
5276.331684676733
 31
0.0
  0
INSERT
  5
958
330
698
100
AcDbEntity
  8
寸法
  6
Continuous
370
    -2
100
AcDbBlockReference
  2
_ORIGIN
 10
4070.107674662983
 20
5276.331684676733
 30
0.0
 41
30.0
 42
30.0
 43
30.0
  0
INSERT
  5
959
330
698
100
AcDbEntity
  8
寸法
  6
Continuous
370
    -2
100
AcDbBlockReference
  2
_ORIGIN
 10
4570.107674662982
 20
5276.331684676733
 30
0.0
 41
30.0
 42
30.0
 43
30.0
 50
180.0
  0
MTEXT
  5
95A
330
698
100
AcDbEntity
  8
寸法
  6
Continuous
100
AcDbMText
 10
4320.107674662982
 20
5151.331684676733
 30
0.0
 40
150.0
 41
0.0
 71
     5
 72
     1
  1
\A1;□500
  7
1_100
 73
     1
 44
1.0
1001
ACAD
1000
MTEXTBEGIN
1070
    73
1070
     1
1070
    44
1040
1.0
1070
    74
1070
     0
1000
MTEXTEND
  0
POINT
  5
95B
330
698
100
AcDbEntity
  8
DEFPOINTS
  6
Continuous
 62
     0
100
AcDbPoint
 10
4070.107674662983
 20
5826.331684676733
 30
0.0
  0
POINT
  5
95C
330
698
100
AcDbEntity
  8
DEFPOINTS
  6
Continuous
 62
     0
100
AcDbPoint
 10
4570.107674662982
 20
5826.331684676733
 30
0.0
  0
POINT
  5
95D
330
698
100
AcDbEntity
  8
DEFPOINTS
  6
Continuous
 62
     0
100
AcDbPoint
 10
4570.107674662982
 20
5276.331684676733
 30
0.0
  0
ENDBLK
  5
6A5
330
698
100
AcDbEntity
  8
0
100
AcDbBlockEnd
  0
BLOCK
  5
6B2
330
6A6
100
AcDbEntity
  8
0
100
AcDbBlockBegin
  2
*D12
 70
     1
 10
0.0
 20
0.0
 30
0.0
  3
*D12
  1

  0
LINE
  5
948
330
6A6
100
AcDbEntity
  8
寸法
  6
Continuous
370
    -2
100
AcDbLine
 10
4095.107674662982
 20
5676.331684676735
 30
0.0
 11
4095.107674662982
 21
5576.331684676733
 31
0.0
  0
LINE
  5
949
330
6A6
100
AcDbEntity
  8
寸法
  6
Continuous
370
    -2
100
AcDbLine
 10
4545.107674662982
 20
5676.331684676735
 30
0.0
 11
4545.107674662982
 21
5576.331684676733
 31
0.0
  0
LINE
  5
94A
330
6A6
100
AcDbEntity
  8
寸法
  6
Continuous
370
    -2
100
AcDbLine
 10
4065.107674662982
 20
5576.331684676733
 30
0.0
 11
4035.107674662983
 21
5576.331684676733
 31
0.0
  0
LINE
  5
94B
330
6A6
100
AcDbEntity
  8
寸法
  6
Continuous
370
    -2
100
AcDbLine
 10
4575.107674662983
 20
5576.331684676733
 30
0.0
 11
4605.107674662982
 21
5576.331684676733
 31
0.0
  0
LINE
  5
94C
330
6A6
100
AcDbEntity
  8
寸法
  6
Continuous
370
    -2
100
AcDbLine
 10
4095.107674662982
 20
5576.331684676733
 30
0.0
 11
4545.107674662982
 21
5576.331684676733
 31
0.0
  0
INSERT
  5
94D
330
6A6
100
AcDbEntity
  8
寸法
  6
Continuous
370
    -2
100
AcDbBlockReference
  2
_ORIGIN
 10
4095.107674662982
 20
5576.331684676733
 30
0.0
 41
30.0
 42
30.0
 43
30.0
  0
INSERT
  5
94E
330
6A6
100
AcDbEntity
  8
寸法
  6
Continuous
370
    -2
100
AcDbBlockReference
  2
_ORIGIN
 10
4545.107674662982
 20
5576.331684676733
 30
0.0
 41
30.0
 42
30.0
 43
30.0
 50
180.0
  0
MTEXT
  5
94F
330
6A6
100
AcDbEntity
  8
寸法
  6
Continuous
100
AcDbMText
 10
4320.107674662982
 20
5451.331684676734
 30
0.0
 40
150.0
 41
0.0
 71
     5
 72
     1
  1
\A1;φ450
  7
1_100
 73
     1
 44
1.0
1001
ACAD
1000
MTEXTBEGIN
1070
    73
1070
     1
1070
    44
1040
1.0
1070
    74
1070
     0
1000
MTEXTEND
  0
POINT
  5
950
330
6A6
100
AcDbEntity
  8
DEFPOINTS
  6
Continuous
 62
     0
100
AcDbPoint
 10
4095.107674662982
 20
5826.331684676733
 30
0.0
  0
POINT
  5
951
330
6A6
100
AcDbEntity
  8
DEFPOINTS
  6
Continuous
 62
     0
100
AcDbPoint
 10
4545.107674662982
 20
5826.331684676733
 30
0.0
  0
POINT
  5
952
330
6A6
100
AcDbEntity
  8
DEFPOINTS
  6
Continuous
 62
     0
100
AcDbPoint
 10
4545.107674662982
 20
5576.331684676733
 30
0.0
  0
ENDBLK
  5
6B3
330
6A6
100
AcDbEntity
  8
0
100
AcDbBlockEnd
  0
BLOCK
  5
6BE
330
6B4
100
AcDbEntity
  8
0
100
AcDbBlockBegin
  2
*D13
 70
     1
 10
0.0
 20
0.0
 30
0.0
  3
*D13
  1

  0
LINE
  5
805
330
6B4
100
AcDbEntity
  8
寸法
  6
Continuous
370
    -2
100
AcDbLine
 10
16736.48972903102
 20
6926.331684676735
 30
0.0
 11
17086.77434132949
 21
6926.331684676735
 31
0.0
  0
LINE
  5
806
330
6B4
100
AcDbEntity
  8
寸法
  6
Continuous
370
    -2
100
AcDbLine
 10
16736.48972903102
 20
8926.331684676734
 30
0.0
 11
17086.77434132949
 21
8926.331684676734
 31
0.0
  0
LINE
  5
807
330
6B4
100
AcDbEntity
  8
寸法
  6
Continuous
370
    -2
100
AcDbLine
 10
17086.77434132949
 20
6956.331684676735
 30
0.0
 11
17086.77434132949
 21
8896.331684676734
 31
0.0
  0
INSERT
  5
808
330
6B4
100
AcDbEntity
  8
寸法
  6
Continuous
370
    -2
100
AcDbBlockReference
  2
_ORIGIN
 10
17086.77434132949
 20
6926.331684676735
 30
0.0
 41
30.0
 42
30.0
 43
30.0
 50
270.0
  0
INSERT
  5
809
330
6B4
100
AcDbEntity
  8
寸法
  6
Continuous
370
    -2
100
AcDbBlockReference
  2
_ORIGIN
 10
17086.77434132949
 20
8926.331684676734
 30
0.0
 41
30.0
 42
30.0
 43
30.0
 50
90.0
  0
MTEXT
  5
80A
330
6B4
100
AcDbEntity
  8
寸法
  6
Continuous
100
AcDbMText
 10
16947.48862704378
 20
7926.331684676735
 30
0.0
 40
150.0
 41
0.0
 71
     5
 72
     1
  1
\A1;2,000
  7
1_100
 11
0.0000000000000001
 21
1.0
 31
0.0
 73
     1
 44
1.0
1001
ACAD
1000
MTEXTBEGIN
1070
    73
1070
     1
1070
    44
1040
1.0
1070
    74
1070
     0
1000
MTEXTEND
  0
POINT
  5
80B
330
6B4
100
AcDbEntity
  8
DEFPOINTS
  6
Continuous
 62
     0
100
AcDbPoint
 10
16586.48972903102
 20
6926.331684676735
 30
0.0
  0
POINT
  5
80C
330
6B4
100
AcDbEntity
  8
DEFPOINTS
  6
Continuous
 62
     0
100
AcDbPoint
 10
16586.48972903102
 20
8926.331684676734
 30
0.0
  0
POINT
  5
80D
330
6B4
100
AcDbEntity
  8
DEFPOINTS
  6
Continuous
 62
     0
100
AcDbPoint
 10
17086.77434132949
 20
8926.331684676734
 30
0.0
  0
ENDBLK
  5
6BF
330
6B4
100
AcDbEntity
  8
0
100
AcDbBlockEnd
  0
BLOCK
  5
6CC
330
6C0
100
AcDbEntity
  8
0
100
AcDbBlockBegin
  2
*D14
 70
     1
 10
0.0
 20
0.0
 30
0.0
  3
*D14
  1

  0
LINE
  5
904
330
6C0
100
AcDbEntity
  8
寸法
  6
Continuous
370
    -2
100
AcDbLine
 10
16736.48972903102
 20
5826.331684676733
 30
0.0
 11
17086.77434132949
 21
5826.331684676733
 31
0.0
  0
LINE
  5
905
330
6C0
100
AcDbEntity
  8
寸法
  6
Continuous
370
    -2
100
AcDbLine
 10
16736.48972903102
 20
5926.331684676735
 30
0.0
 11
17086.77434132949
 21
5926.331684676735
 31
0.0
  0
LINE
  5
906
330
6C0
100
AcDbEntity
  8
寸法
  6
Continuous
370
    -2
100
AcDbLine
 10
17086.77434132949
 20
5796.331684676735
 30
0.0
 11
17086.77434132949
 21
5766.331684676735
 31
0.0
  0
LINE
  5
907
330
6C0
100
AcDbEntity
  8
寸法
  6
Continuous
370
    -2
100
AcDbLine
 10
17086.77434132949
 20
5956.331684676735
 30
0.0
 11
17086.77434132949
 21
5986.331684676733
 31
0.0
  0
MTEXT
  5
908
330
6C0
100
AcDbEntity
  8
寸法
  6
Continuous
100
AcDbMText
 10
16959.47431710877
 20
5634.82278823996
 30
0.0
 40
150.0
 41
0.0
 71
     5
 72
     1
  1
\A1;100
  7
1_100
 11
0.0000000000000001
 21
1.0
 31
0.0
 73
     1
 44
1.0
1001
ACAD
1000
MTEXTBEGIN
1070
    73
1070
     1
1070
    44
1040
1.0
1070
    74
1070
     0
1000
MTEXTEND
  0
LINE
  5
909
330
6C0
100
AcDbEntity
  8
寸法
  6
Continuous
370
    -2
100
AcDbLine
 10
17086.77434132949
 20
5826.331684676733
 30
0.0
 11
17086.77434132949
 21
5926.331684676735
 31
0.0
  0
INSERT
  5
90A
330
6C0
100
AcDbEntity
  8
寸法
  6
Continuous
370
    -2
100
AcDbBlockReference
  2
_ORIGIN
 10
17086.77434132949
 20
5826.331684676733
 30
0.0
 41
30.0
 42
30.0
 43
30.0
 50
90.0
  0
INSERT
  5
90B
330
6C0
100
AcDbEntity
  8
寸法
  6
Continuous
370
    -2
100
AcDbBlockReference
  2
_ORIGIN
 10
17086.77434132949
 20
5926.331684676735
 30
0.0
 41
30.0
 42
30.0
 43
30.0
 50
270.0
  0
POINT
  5
90C
330
6C0
100
AcDbEntity
  8
DEFPOINTS
  6
Continuous
 62
     0
100
AcDbPoint
 10
16586.48972903102
 20
5826.331684676733
 30
0.0
  0
POINT
  5
90D
330
6C0
100
AcDbEntity
  8
DEFPOINTS
  6
Continuous
 62
     0
100
AcDbPoint
 10
16586.48972903102
 20
5926.331684676735
 30
0.0
  0
POINT
  5
90E
330
6C0
100
AcDbEntity
  8
DEFPOINTS
  6
Continuous
 62
     0
100
AcDbPoint
 10
17086.77434132949
 20
5926.331684676735
 30
0.0
  0
ENDBLK
  5
6CD
330
6C0
100
AcDbEntity
  8
0
100
AcDbBlockEnd
  0
BLOCK
  5
6D8
330
6CE
100
AcDbEntity
  8
0
100
AcDbBlockBegin
  2
*D15
 70
     1
 10
0.0
 20
0.0
 30
0.0
  3
*D15
  1

  0
LINE
  5
8FB
330
6CE
100
AcDbEntity
  8
寸法
  6
Continuous
370
    -2
100
AcDbLine
 10
16736.48972903102
 20
5926.331684676735
 30
0.0
 11
17086.77434132949
 21
5926.331684676735
 31
0.0
  0
LINE
  5
8FC
330
6CE
100
AcDbEntity
  8
寸法
  6
Continuous
370
    -2
100
AcDbLine
 10
16736.48972903102
 20
6626.331684676735
 30
0.0
 11
17086.77434132949
 21
6626.331684676735
 31
0.0
  0
LINE
  5
8FD
330
6CE
100
AcDbEntity
  8
寸法
  6
Continuous
370
    -2
100
AcDbLine
 10
17086.77434132949
 20
5956.331684676735
 30
0.0
 11
17086.77434132949
 21
6596.331684676735
 31
0.0
  0
INSERT
  5
8FE
330
6CE
100
AcDbEntity
  8
寸法
  6
Continuous
370
    -2
100
AcDbBlockReference
  2
_ORIGIN
 10
17086.77434132949
 20
5926.331684676735
 30
0.0
 41
30.0
 42
30.0
 43
30.0
 50
270.0
  0
INSERT
  5
8FF
330
6CE
100
AcDbEntity
  8
寸法
  6
Continuous
370
    -2
100
AcDbBlockReference
  2
_ORIGIN
 10
17086.77434132949
 20
6626.331684676735
 30
0.0
 41
30.0
 42
30.0
 43
30.0
 50
90.0
  0
MTEXT
  5
900
330
6CE
100
AcDbEntity
  8
寸法
  6
Continuous
100
AcDbMText
 10
16961.77434132949
 20
6276.331684676737
 30
0.0
 40
150.0
 41
0.0
 71
     5
 72
     1
  1
\A1;700
  7
1_100
 11
0.0000000000000001
 21
1.0
 31
0.0
 73
     1
 44
1.0
1001
ACAD
1000
MTEXTBEGIN
1070
    73
1070
     1
1070
    44
1040
1.0
1070
    74
1070
     0
1000
MTEXTEND
  0
POINT
  5
901
330
6CE
100
AcDbEntity
  8
DEFPOINTS
  6
Continuous
 62
     0
100
AcDbPoint
 10
16586.48972903102
 20
5926.331684676735
 30
0.0
  0
POINT
  5
902
330
6CE
100
AcDbEntity
  8
DEFPOINTS
  6
Continuous
 62
     0
100
AcDbPoint
 10
16586.48972903102
 20
6626.331684676735
 30
0.0
  0
POINT
  5
903
330
6CE
100
AcDbEntity
  8
DEFPOINTS
  6
Continuous
 62
     0
100
AcDbPoint
 10
17086.77434132949
 20
6626.331684676735
 30
0.0
  0
ENDBLK
  5
6D9
330
6CE
100
AcDbEntity
  8
0
100
AcDbBlockEnd
  0
BLOCK
  5
6E4
330
6DA
100
AcDbEntity
  8
0
100
AcDbBlockBegin
  2
*D16
 70
     1
 10
0.0
 20
0.0
 30
0.0
  3
*D16
  1

  0
LINE
  5
822
330
6DA
100
AcDbEntity
  8
寸法
  6
Continuous
370
    -2
100
AcDbLine
 10
16736.48972903102
 20
6926.331684676735
 30
0.0
 11
17086.77434132949
 21
6926.331684676735
 31
0.0
  0
LINE
  5
823
330
6DA
100
AcDbEntity
  8
寸法
  6
Continuous
370
    -2
100
AcDbLine
 10
16736.48972903102
 20
6626.331684676735
 30
0.0
 11
17086.77434132949
 21
6626.331684676735
 31
0.0
  0
LINE
  5
824
330
6DA
100
AcDbEntity
  8
寸法
  6
Continuous
370
    -2
100
AcDbLine
 10
17086.77434132949
 20
6896.331684676735
 30
0.0
 11
17086.77434132949
 21
6656.331684676735
 31
0.0
  0
MTEXT
  5
825
330
6DA
100
AcDbEntity
  8
寸法
  6
Continuous
100
AcDbMText
 10
17206.6887712614
 20
6741.47309680962
 30
0.0
 40
150.0
 41
0.0
 71
     5
 72
     1
  1
\A1;300
  7
1_100
 11
0.0000000000000001
 21
1.0
 31
0.0
 73
     1
 44
1.0
1001
ACAD
1000
MTEXTBEGIN
1070
    73
1070
     1
1070
    44
1040
1.0
1070
    74
1070
     0
1000
MTEXTEND
  0
INSERT
  5
826
330
6DA
100
AcDbEntity
  8
寸法
  6
Continuous
370
    -2
100
AcDbBlockReference
  2
_ORIGIN
 10
17086.77434132949
 20
6926.331684676735
 30
0.0
 41
30.0
 42
30.0
 43
30.0
 50
90.0
  0
INSERT
  5
827
330
6DA
100
AcDbEntity
  8
寸法
  6
Continuous
370
    -2
100
AcDbBlockReference
  2
_ORIGIN
 10
17086.77434132949
 20
6626.331684676735
 30
0.0
 41
30.0
 42
30.0
 43
30.0
 50
270.0
  0
POINT
  5
828
330
6DA
100
AcDbEntity
  8
DEFPOINTS
  6
Continuous
 62
     0
100
AcDbPoint
 10
16586.48972903102
 20
6926.331684676735
 30
0.0
  0
POINT
  5
829
330
6DA
100
AcDbEntity
  8
DEFPOINTS
  6
Continuous
 62
     0
100
AcDbPoint
 10
16586.48972903102
 20
6626.331684676735
 30
0.0
  0
POINT
  5
82A
330
6DA
100
AcDbEntity
  8
DEFPOINTS
  6
Continuous
 62
     0
100
AcDbPoint
 10
17086.77434132949
 20
6626.331684676735
 30
0.0
  0
ENDBLK
  5
6E5
330
6DA
100
AcDbEntity
  8
0
100
AcDbBlockEnd
  0
BLOCK
  5
6F0
330
6E6
100
AcDbEntity
  8
0
100
AcDbBlockBegin
  2
*D17
 70
     1
 10
0.0
 20
0.0
 30
0.0
  3
*D17
  1

  0
LINE
  5
90F
330
6E6
100
AcDbEntity
  8
寸法
  6
Continuous
370
    -2
100
AcDbLine
 10
16736.48972903102
 20
6926.331684676735
 30
0.0
 11
17486.77434132949
 21
6926.331684676735
 31
0.0
  0
LINE
  5
910
330
6E6
100
AcDbEntity
  8
寸法
  6
Continuous
370
    -2
100
AcDbLine
 10
16736.48972903102
 20
5926.331684676735
 30
0.0
 11
17486.77434132949
 21
5926.331684676735
 31
0.0
  0
LINE
  5
911
330
6E6
100
AcDbEntity
  8
寸法
  6
Continuous
370
    -2
100
AcDbLine
 10
17486.77434132949
 20
6896.331684676735
 30
0.0
 11
17486.77434132949
 21
5956.331684676735
 31
0.0
  0
MTEXT
  5
912
330
6E6
100
AcDbEntity
  8
寸法
  6
Continuous
100
AcDbMText
 10
17347.48862704378
 20
6326.331684676739
 30
0.0
 40
150.0
 41
0.0
 71
     5
 72
     1
  1
\A1;1,000
  7
1_100
 11
0.0000000000000001
 21
1.0
 31
0.0
 73
     1
 44
1.0
1001
ACAD
1000
MTEXTBEGIN
1070
    73
1070
     1
1070
    44
1040
1.0
1070
    74
1070
     0
1000
MTEXTEND
  0
INSERT
  5
913
330
6E6
100
AcDbEntity
  8
寸法
  6
Continuous
370
    -2
100
AcDbBlockReference
  2
_ORIGIN
 10
17486.77434132949
 20
6926.331684676735
 30
0.0
 41
30.0
 42
30.0
 43
30.0
 50
90.0
  0
INSERT
  5
914
330
6E6
100
AcDbEntity
  8
寸法
  6
Continuous
370
    -2
100
AcDbBlockReference
  2
_ORIGIN
 10
17486.77434132949
 20
5926.331684676735
 30
0.0
 41
30.0
 42
30.0
 43
30.0
 50
270.0
  0
POINT
  5
915
330
6E6
100
AcDbEntity
  8
DEFPOINTS
  6
Continuous
 62
     0
100
AcDbPoint
 10
16586.48972903102
 20
6926.331684676735
 30
0.0
  0
POINT
  5
916
330
6E6
100
AcDbEntity
  8
DEFPOINTS
  6
Continuous
 62
     0
100
AcDbPoint
 10
16586.48972903102
 20
5926.331684676735
 30
0.0
  0
POINT
  5
917
330
6E6
100
AcDbEntity
  8
DEFPOINTS
  6
Continuous
 62
     0
100
AcDbPoint
 10
17486.77434132949
 20
5926.331684676735
 30
0.0
  0
ENDBLK
  5
6F1
330
6E6
100
AcDbEntity
  8
0
100
AcDbBlockEnd
  0
BLOCK
  5
6FC
330
6F2
100
AcDbEntity
  8
0
100
AcDbBlockBegin
  2
*D18
 70
     1
 10
0.0
 20
0.0
 30
0.0
  3
*D18
  1

  0
LINE
  5
834
330
6F2
100
AcDbEntity
  8
寸法
  6
Continuous
370
    -2
100
AcDbLine
 10
13870.10767466298
 20
6926.331684676735
 30
0.0
 11
14420.10767466298
 21
6926.331684676732
 31
0.0
  0
LINE
  5
835
330
6F2
100
AcDbEntity
  8
寸法
  6
Continuous
370
    -2
100
AcDbLine
 10
13870.10767466298
 20
8926.331684676734
 30
0.0
 11
14420.10767466298
 21
8926.331684676734
 31
0.0
  0
LINE
  5
836
330
6F2
100
AcDbEntity
  8
寸法
  6
Continuous
370
    -2
100
AcDbLine
 10
14420.10767466298
 20
6956.331684676733
 30
0.0
 11
14420.10767466298
 21
8896.331684676734
 31
0.0
  0
INSERT
  5
837
330
6F2
100
AcDbEntity
  8
寸法
  6
Continuous
370
    -2
100
AcDbBlockReference
  2
_ORIGIN
 10
14420.10767466298
 20
6926.331684676732
 30
0.0
 41
30.0
 42
30.0
 43
30.0
 50
270.0
  0
INSERT
  5
838
330
6F2
100
AcDbEntity
  8
寸法
  6
Continuous
370
    -2
100
AcDbBlockReference
  2
_ORIGIN
 10
14420.10767466298
 20
8926.331684676734
 30
0.0
 41
30.0
 42
30.0
 43
30.0
 50
90.0
  0
MTEXT
  5
839
330
6F2
100
AcDbEntity
  8
寸法
  6
Continuous
100
AcDbMText
 10
14280.82196037727
 20
7926.331684676735
 30
0.0
 40
150.0
 41
0.0
 71
     5
 72
     1
  1
\A1;2,000
  7
1_100
 11
0.0000000000000001
 21
1.0
 31
0.0
 73
     1
 44
1.0
1001
ACAD
1000
MTEXTBEGIN
1070
    73
1070
     1
1070
    44
1040
1.0
1070
    74
1070
     0
1000
MTEXTEND
  0
POINT
  5
83A
330
6F2
100
AcDbEntity
  8
DEFPOINTS
  6
Continuous
 62
     0
100
AcDbPoint
 10
13720.10767466298
 20
6926.331684676735
 30
0.0
  0
POINT
  5
83B
330
6F2
100
AcDbEntity
  8
DEFPOINTS
  6
Continuous
 62
     0
100
AcDbPoint
 10
13720.10767466298
 20
8926.331684676734
 30
0.0
  0
POINT
  5
83C
330
6F2
100
AcDbEntity
  8
DEFPOINTS
  6
Continuous
 62
     0
100
AcDbPoint
 10
14420.10767466298
 20
8926.331684676734
 30
0.0
  0
ENDBLK
  5
6FD
330
6F2
100
AcDbEntity
  8
0
100
AcDbBlockEnd
  0
BLOCK
  5
70A
330
6FE
100
AcDbEntity
  8
0
100
AcDbBlockBegin
  2
*D19
 70
     1
 10
0.0
 20
0.0
 30
0.0
  3
*D19
  1

  0
LINE
  5
93D
330
6FE
100
AcDbEntity
  8
寸法
  6
Continuous
370
    -2
100
AcDbLine
 10
13870.10767466298
 20
5826.331684676733
 30
0.0
 11
14420.10767466298
 21
5826.331684676733
 31
0.0
  0
LINE
  5
93E
330
6FE
100
AcDbEntity
  8
寸法
  6
Continuous
370
    -2
100
AcDbLine
 10
13870.10767466298
 20
5926.331684676735
 30
0.0
 11
14420.10767466298
 21
5926.331684676733
 31
0.0
  0
LINE
  5
93F
330
6FE
100
AcDbEntity
  8
寸法
  6
Continuous
370
    -2
100
AcDbLine
 10
14420.10767466298
 20
5796.331684676733
 30
0.0
 11
14420.10767466298
 21
5766.331684676733
 31
0.0
  0
LINE
  5
940
330
6FE
100
AcDbEntity
  8
寸法
  6
Continuous
370
    -2
100
AcDbLine
 10
14420.10767466298
 20
5956.331684676733
 30
0.0
 11
14420.10767466298
 21
5986.331684676733
 31
0.0
  0
MTEXT
  5
941
330
6FE
100
AcDbEntity
  8
寸法
  6
Continuous
100
AcDbMText
 10
14285.82990714538
 20
5647.775615060274
 30
0.0
 40
150.0
 41
0.0
 71
     5
 72
     1
  1
\A1;100
  7
1_100
 11
0.0000000000000001
 21
1.0
 31
0.0
 73
     1
 44
1.0
1001
ACAD
1000
MTEXTBEGIN
1070
    73
1070
     1
1070
    44
1040
1.0
1070
    74
1070
     0
1000
MTEXTEND
  0
LINE
  5
942
330
6FE
100
AcDbEntity
  8
寸法
  6
Continuous
370
    -2
100
AcDbLine
 10
14420.10767466298
 20
5826.331684676733
 30
0.0
 11
14420.10767466298
 21
5926.331684676733
 31
0.0
  0
INSERT
  5
943
330
6FE
100
AcDbEntity
  8
寸法
  6
Continuous
370
    -2
100
AcDbBlockReference
  2
_ORIGIN
 10
14420.10767466298
 20
5826.331684676733
 30
0.0
 41
30.0
 42
30.0
 43
30.0
 50
90.0
  0
INSERT
  5
944
330
6FE
100
AcDbEntity
  8
寸法
  6
Continuous
370
    -2
100
AcDbBlockReference
  2
_ORIGIN
 10
14420.10767466298
 20
5926.331684676733
 30
0.0
 41
30.0
 42
30.0
 43
30.0
 50
270.0
  0
POINT
  5
945
330
6FE
100
AcDbEntity
  8
DEFPOINTS
  6
Continuous
 62
     0
100
AcDbPoint
 10
13720.10767466298
 20
5826.331684676733
 30
0.0
  0
POINT
  5
946
330
6FE
100
AcDbEntity
  8
DEFPOINTS
  6
Continuous
 62
     0
100
AcDbPoint
 10
13720.10767466298
 20
5926.331684676735
 30
0.0
  0
POINT
  5
947
330
6FE
100
AcDbEntity
  8
DEFPOINTS
  6
Continuous
 62
     0
100
AcDbPoint
 10
14420.10767466298
 20
5926.331684676733
 30
0.0
  0
ENDBLK
  5
70B
330
6FE
100
AcDbEntity
  8
0
100
AcDbBlockEnd
  0
BLOCK
  5
716
330
70C
100
AcDbEntity
  8
0
100
AcDbBlockBegin
  2
*D20
 70
     1
 10
0.0
 20
0.0
 30
0.0
  3
*D20
  1

  0
LINE
  5
934
330
70C
100
AcDbEntity
  8
寸法
  6
Continuous
370
    -2
100
AcDbLine
 10
13870.10767466298
 20
5926.331684676735
 30
0.0
 11
14420.10767466298
 21
5926.331684676733
 31
0.0
  0
LINE
  5
935
330
70C
100
AcDbEntity
  8
寸法
  6
Continuous
370
    -2
100
AcDbLine
 10
13870.10767466298
 20
6626.331684676735
 30
0.0
 11
14420.10767466298
 21
6626.331684676732
 31
0.0
  0
LINE
  5
936
330
70C
100
AcDbEntity
  8
寸法
  6
Continuous
370
    -2
100
AcDbLine
 10
14420.10767466298
 20
5956.331684676733
 30
0.0
 11
14420.10767466298
 21
6596.331684676733
 31
0.0
  0
INSERT
  5
937
330
70C
100
AcDbEntity
  8
寸法
  6
Continuous
370
    -2
100
AcDbBlockReference
  2
_ORIGIN
 10
14420.10767466298
 20
5926.331684676733
 30
0.0
 41
30.0
 42
30.0
 43
30.0
 50
270.0
  0
INSERT
  5
938
330
70C
100
AcDbEntity
  8
寸法
  6
Continuous
370
    -2
100
AcDbBlockReference
  2
_ORIGIN
 10
14420.10767466298
 20
6626.331684676732
 30
0.0
 41
30.0
 42
30.0
 43
30.0
 50
90.0
  0
MTEXT
  5
939
330
70C
100
AcDbEntity
  8
寸法
  6
Continuous
100
AcDbMText
 10
14295.10767466298
 20
6276.331684676737
 30
0.0
 40
150.0
 41
0.0
 71
     5
 72
     1
  1
\A1;700
  7
1_100
 11
0.0000000000000001
 21
1.0
 31
0.0
 73
     1
 44
1.0
1001
ACAD
1000
MTEXTBEGIN
1070
    73
1070
     1
1070
    44
1040
1.0
1070
    74
1070
     0
1000
MTEXTEND
  0
POINT
  5
93A
330
70C
100
AcDbEntity
  8
DEFPOINTS
  6
Continuous
 62
     0
100
AcDbPoint
 10
13720.10767466298
 20
5926.331684676735
 30
0.0
  0
POINT
  5
93B
330
70C
100
AcDbEntity
  8
DEFPOINTS
  6
Continuous
 62
     0
100
AcDbPoint
 10
13720.10767466298
 20
6626.331684676735
 30
0.0
  0
POINT
  5
93C
330
70C
100
AcDbEntity
  8
DEFPOINTS
  6
Continuous
 62
     0
100
AcDbPoint
 10
14420.10767466298
 20
6626.331684676732
 30
0.0
  0
ENDBLK
  5
717
330
70C
100
AcDbEntity
  8
0
100
AcDbBlockEnd
  0
BLOCK
  5
722
330
718
100
AcDbEntity
  8
0
100
AcDbBlockBegin
  2
*D21
 70
     1
 10
0.0
 20
0.0
 30
0.0
  3
*D21
  1

  0
LINE
  5
92B
330
718
100
AcDbEntity
  8
寸法
  6
Continuous
370
    -2
100
AcDbLine
 10
10320.10767466298
 20
5533.86421288344
 30
0.0
 11
10320.10767466298
 21
4676.331684676735
 31
0.0
  0
LINE
  5
92C
330
718
100
AcDbEntity
  8
寸法
  6
Continuous
370
    -2
100
AcDbLine
 10
12320.10767466298
 20
5533.86421288344
 30
0.0
 11
12320.10767466298
 21
4676.331684676735
 31
0.0
  0
LINE
  5
92D
330
718
100
AcDbEntity
  8
寸法
  6
Continuous
370
    -2
100
AcDbLine
 10
10350.10767466298
 20
4676.331684676735
 30
0.0
 11
12290.10767466298
 21
4676.331684676735
 31
0.0
  0
INSERT
  5
92E
330
718
100
AcDbEntity
  8
寸法
  6
Continuous
370
    -2
100
AcDbBlockReference
  2
_ORIGIN
 10
10320.10767466298
 20
4676.331684676735
 30
0.0
 41
30.0
 42
30.0
 43
30.0
 50
180.0
  0
INSERT
  5
92F
330
718
100
AcDbEntity
  8
寸法
  6
Continuous
370
    -2
100
AcDbBlockReference
  2
_ORIGIN
 10
12320.10767466298
 20
4676.331684676735
 30
0.0
 41
30.0
 42
30.0
 43
30.0
  0
MTEXT
  5
930
330
718
100
AcDbEntity
  8
寸法
  6
Continuous
100
AcDbMText
 10
11320.10767466298
 20
4815.617398962451
 30
0.0
 40
150.0
 41
0.0
 71
     5
 72
     1
  1
\A1;2,000
  7
1_100
 73
     1
 44
1.0
1001
ACAD
1000
MTEXTBEGIN
1070
    73
1070
     1
1070
    44
1040
1.0
1070
    74
1070
     0
1000
MTEXTEND
  0
POINT
  5
931
330
718
100
AcDbEntity
  8
DEFPOINTS
  6
Continuous
 62
     0
100
AcDbPoint
 10
10320.10767466298
 20
5683.864212883441
 30
0.0
  0
POINT
  5
932
330
718
100
AcDbEntity
  8
DEFPOINTS
  6
Continuous
 62
     0
100
AcDbPoint
 10
12320.10767466298
 20
5683.864212883441
 30
0.0
  0
POINT
  5
933
330
718
100
AcDbEntity
  8
DEFPOINTS
  6
Continuous
 62
     0
100
AcDbPoint
 10
12320.10767466298
 20
4676.331684676735
 30
0.0
  0
ENDBLK
  5
723
330
718
100
AcDbEntity
  8
0
100
AcDbBlockEnd
  0
BLOCK
  5
72E
330
724
100
AcDbEntity
  8
0
100
AcDbBlockBegin
  2
*D22
 70
     1
 10
0.0
 20
0.0
 30
0.0
  3
*D22
  1

  0
LINE
  5
85A
330
724
100
AcDbEntity
  8
寸法
  6
Continuous
370
    -2
100
AcDbLine
 10
13870.10767466298
 20
6926.331684676735
 30
0.0
 11
14420.10767466298
 21
6926.331684676732
 31
0.0
  0
LINE
  5
85B
330
724
100
AcDbEntity
  8
寸法
  6
Continuous
370
    -2
100
AcDbLine
 10
13870.10767466298
 20
6626.331684676735
 30
0.0
 11
14420.10767466298
 21
6626.331684676732
 31
0.0
  0
LINE
  5
85C
330
724
100
AcDbEntity
  8
寸法
  6
Continuous
370
    -2
100
AcDbLine
 10
14420.10767466298
 20
6896.331684676733
 30
0.0
 11
14420.10767466298
 21
6656.331684676733
 31
0.0
  0
MTEXT
  5
85D
330
724
100
AcDbEntity
  8
寸法
  6
Continuous
100
AcDbMText
 10
14546.35710834109
 20
6731.132044500943
 30
0.0
 40
150.0
 41
0.0
 71
     5
 72
     1
  1
\A1;300
  7
1_100
 11
0.0000000000000001
 21
1.0
 31
0.0
 73
     1
 44
1.0
1001
ACAD
1000
MTEXTBEGIN
1070
    73
1070
     1
1070
    44
1040
1.0
1070
    74
1070
     0
1000
MTEXTEND
  0
INSERT
  5
85E
330
724
100
AcDbEntity
  8
寸法
  6
Continuous
370
    -2
100
AcDbBlockReference
  2
_ORIGIN
 10
14420.10767466298
 20
6926.331684676732
 30
0.0
 41
30.0
 42
30.0
 43
30.0
 50
90.0
  0
INSERT
  5
85F
330
724
100
AcDbEntity
  8
寸法
  6
Continuous
370
    -2
100
AcDbBlockReference
  2
_ORIGIN
 10
14420.10767466298
 20
6626.331684676732
 30
0.0
 41
30.0
 42
30.0
 43
30.0
 50
270.0
  0
POINT
  5
860
330
724
100
AcDbEntity
  8
DEFPOINTS
  6
Continuous
 62
     0
100
AcDbPoint
 10
13720.10767466298
 20
6926.331684676735
 30
0.0
  0
POINT
  5
861
330
724
100
AcDbEntity
  8
DEFPOINTS
  6
Continuous
 62
     0
100
AcDbPoint
 10
13720.10767466298
 20
6626.331684676735
 30
0.0
  0
POINT
  5
862
330
724
100
AcDbEntity
  8
DEFPOINTS
  6
Continuous
 62
     0
100
AcDbPoint
 10
14420.10767466298
 20
6626.331684676732
 30
0.0
  0
ENDBLK
  5
72F
330
724
100
AcDbEntity
  8
0
100
AcDbBlockEnd
  0
BLOCK
  5
73A
330
730
100
AcDbEntity
  8
0
100
AcDbBlockBegin
  2
*D23
 70
     1
 10
0.0
 20
0.0
 30
0.0
  3
*D23
  1

  0
LINE
  5
979
330
730
100
AcDbEntity
  8
寸法
  6
Continuous
370
    -2
100
AcDbLine
 10
13870.10767466298
 20
6926.331684676735
 30
0.0
 11
14820.10767466251
 21
6926.331684676732
 31
0.0
  0
LINE
  5
97A
330
730
100
AcDbEntity
  8
寸法
  6
Continuous
370
    -2
100
AcDbLine
 10
13870.10767466298
 20
5926.331684676735
 30
0.0
 11
14820.10767466251
 21
5926.331684676733
 31
0.0
  0
LINE
  5
97B
330
730
100
AcDbEntity
  8
寸法
  6
Continuous
370
    -2
100
AcDbLine
 10
14820.10767466251
 20
6896.331684676733
 30
0.0
 11
14820.10767466251
 21
5956.331684676733
 31
0.0
  0
MTEXT
  5
97C
330
730
100
AcDbEntity
  8
寸法
  6
Continuous
100
AcDbMText
 10
14680.8219603768
 20
6326.331684676738
 30
0.0
 40
150.0
 41
0.0
 71
     5
 72
     1
  1
\A1;1,000
  7
1_100
 11
0.0000000000000001
 21
1.0
 31
0.0
 73
     1
 44
1.0
1001
ACAD
1000
MTEXTBEGIN
1070
    73
1070
     1
1070
    44
1040
1.0
1070
    74
1070
     0
1000
MTEXTEND
  0
INSERT
  5
97D
330
730
100
AcDbEntity
  8
寸法
  6
Continuous
370
    -2
100
AcDbBlockReference
  2
_ORIGIN
 10
14820.10767466251
 20
6926.331684676732
 30
0.0
 41
30.0
 42
30.0
 43
30.0
 50
90.0
  0
INSERT
  5
97E
330
730
100
AcDbEntity
  8
寸法
  6
Continuous
370
    -2
100
AcDbBlockReference
  2
_ORIGIN
 10
14820.10767466251
 20
5926.331684676733
 30
0.0
 41
30.0
 42
30.0
 43
30.0
 50
270.0
  0
POINT
  5
97F
330
730
100
AcDbEntity
  8
DEFPOINTS
  6
Continuous
 62
     0
100
AcDbPoint
 10
13720.10767466298
 20
6926.331684676735
 30
0.0
  0
POINT
  5
980
330
730
100
AcDbEntity
  8
DEFPOINTS
  6
Continuous
 62
     0
100
AcDbPoint
 10
13720.10767466298
 20
5926.331684676735
 30
0.0
  0
POINT
  5
981
330
730
100
AcDbEntity
  8
DEFPOINTS
  6
Continuous
 62
     0
100
AcDbPoint
 10
14820.10767466251
 20
5926.331684676733
 30
0.0
  0
ENDBLK
  5
73B
330
730
100
AcDbEntity
  8
0
100
AcDbBlockEnd
  0
BLOCK
  5
748
330
73C
100
AcDbEntity
  8
0
100
AcDbBlockBegin
  2
*D24
 70
     1
 10
0.0
 20
0.0
 30
0.0
  3
*D24
  1

  0
LINE
  5
8E7
330
73C
100
AcDbEntity
  8
寸法
  6
Continuous
370
    -2
100
AcDbLine
 10
15861.77434132949
 20
5676.331684676735
 30
0.0
 11
15861.77434132949
 21
5576.331684676733
 31
0.0
  0
LINE
  5
8E8
330
73C
100
AcDbEntity
  8
寸法
  6
Continuous
370
    -2
100
AcDbLine
 10
16311.77434132949
 20
5676.331684676735
 30
0.0
 11
16311.77434132949
 21
5576.331684676733
 31
0.0
  0
LINE
  5
8E9
330
73C
100
AcDbEntity
  8
寸法
  6
Continuous
370
    -2
100
AcDbLine
 10
15831.77434132949
 20
5576.331684676733
 30
0.0
 11
15801.77434132949
 21
5576.331684676733
 31
0.0
  0
LINE
  5
8EA
330
73C
100
AcDbEntity
  8
寸法
  6
Continuous
370
    -2
100
AcDbLine
 10
16341.77434132949
 20
5576.331684676733
 30
0.0
 11
16371.77434132949
 21
5576.331684676733
 31
0.0
  0
LINE
  5
8EB
330
73C
100
AcDbEntity
  8
寸法
  6
Continuous
370
    -2
100
AcDbLine
 10
15861.77434132949
 20
5576.331684676733
 30
0.0
 11
16311.77434132949
 21
5576.331684676733
 31
0.0
  0
INSERT
  5
8EC
330
73C
100
AcDbEntity
  8
寸法
  6
Continuous
370
    -2
100
AcDbBlockReference
  2
_ORIGIN
 10
15861.77434132949
 20
5576.331684676733
 30
0.0
 41
30.0
 42
30.0
 43
30.0
  0
INSERT
  5
8ED
330
73C
100
AcDbEntity
  8
寸法
  6
Continuous
370
    -2
100
AcDbBlockReference
  2
_ORIGIN
 10
16311.77434132949
 20
5576.331684676733
 30
0.0
 41
30.0
 42
30.0
 43
30.0
 50
180.0
  0
MTEXT
  5
8EE
330
73C
100
AcDbEntity
  8
寸法
  6
Continuous
100
AcDbMText
 10
16086.77434132949
 20
5451.331684676734
 30
0.0
 40
150.0
 41
0.0
 71
     5
 72
     1
  1
\A1;φ450
  7
1_100
 73
     1
 44
1.0
1001
ACAD
1000
MTEXTBEGIN
1070
    73
1070
     1
1070
    44
1040
1.0
1070
    74
1070
     0
1000
MTEXTEND
  0
POINT
  5
8EF
330
73C
100
AcDbEntity
  8
DEFPOINTS
  6
Continuous
 62
     0
100
AcDbPoint
 10
15861.77434132949
 20
5826.331684676733
 30
0.0
  0
POINT
  5
8F0
330
73C
100
AcDbEntity
  8
DEFPOINTS
  6
Continuous
 62
     0
100
AcDbPoint
 10
16311.77434132949
 20
5826.331684676733
 30
0.0
  0
POINT
  5
8F1
330
73C
100
AcDbEntity
  8
DEFPOINTS
  6
Continuous
 62
     0
100
AcDbPoint
 10
16311.77434132949
 20
5576.331684676733
 30
0.0
  0
ENDBLK
  5
749
330
73C
100
AcDbEntity
  8
0
100
AcDbBlockEnd
  0
BLOCK
  5
756
330
74A
100
AcDbEntity
  8
0
100
AcDbBlockBegin
  2
*D25
 70
     1
 10
0.0
 20
0.0
 30
0.0
  3
*D25
  1

  0
LINE
  5
8DC
330
74A
100
AcDbEntity
  8
寸法
  6
Continuous
370
    -2
100
AcDbLine
 10
15836.77434132949
 20
5676.331684676735
 30
0.0
 11
15836.77434132949
 21
5276.331684676733
 31
0.0
  0
LINE
  5
8DD
330
74A
100
AcDbEntity
  8
寸法
  6
Continuous
370
    -2
100
AcDbLine
 10
16336.77434132949
 20
5676.331684676735
 30
0.0
 11
16336.77434132949
 21
5276.331684676733
 31
0.0
  0
LINE
  5
8DE
330
74A
100
AcDbEntity
  8
寸法
  6
Continuous
370
    -2
100
AcDbLine
 10
15806.77434132949
 20
5276.331684676733
 30
0.0
 11
15776.77434132949
 21
5276.331684676733
 31
0.0
  0
LINE
  5
8DF
330
74A
100
AcDbEntity
  8
寸法
  6
Continuous
370
    -2
100
AcDbLine
 10
16366.77434132949
 20
5276.331684676733
 30
0.0
 11
16396.77434132949
 21
5276.331684676733
 31
0.0
  0
LINE
  5
8E0
330
74A
100
AcDbEntity
  8
寸法
  6
Continuous
370
    -2
100
AcDbLine
 10
15836.77434132949
 20
5276.331684676733
 30
0.0
 11
16336.77434132949
 21
5276.331684676733
 31
0.0
  0
INSERT
  5
8E1
330
74A
100
AcDbEntity
  8
寸法
  6
Continuous
370
    -2
100
AcDbBlockReference
  2
_ORIGIN
 10
15836.77434132949
 20
5276.331684676733
 30
0.0
 41
30.0
 42
30.0
 43
30.0
  0
INSERT
  5
8E2
330
74A
100
AcDbEntity
  8
寸法
  6
Continuous
370
    -2
100
AcDbBlockReference
  2
_ORIGIN
 10
16336.77434132949
 20
5276.331684676733
 30
0.0
 41
30.0
 42
30.0
 43
30.0
 50
180.0
  0
MTEXT
  5
8E3
330
74A
100
AcDbEntity
  8
寸法
  6
Continuous
100
AcDbMText
 10
16086.77434132949
 20
5151.331684676733
 30
0.0
 40
150.0
 41
0.0
 71
     5
 72
     1
  1
\A1;□500
  7
1_100
 73
     1
 44
1.0
1001
ACAD
1000
MTEXTBEGIN
1070
    73
1070
     1
1070
    44
1040
1.0
1070
    74
1070
     0
1000
MTEXTEND
  0
POINT
  5
8E4
330
74A
100
AcDbEntity
  8
DEFPOINTS
  6
Continuous
 62
     0
100
AcDbPoint
 10
15836.77434132949
 20
5826.331684676733
 30
0.0
  0
POINT
  5
8E5
330
74A
100
AcDbEntity
  8
DEFPOINTS
  6
Continuous
 62
     0
100
AcDbPoint
 10
16336.77434132949
 20
5826.331684676733
 30
0.0
  0
POINT
  5
8E6
330
74A
100
AcDbEntity
  8
DEFPOINTS
  6
Continuous
 62
     0
100
AcDbPoint
 10
16336.77434132949
 20
5276.331684676733
 30
0.0
  0
ENDBLK
  5
757
330
74A
100
AcDbEntity
  8
0
100
AcDbBlockEnd
  0
BLOCK
  5
762
330
758
100
AcDbEntity
  8
0
100
AcDbBlockBegin
  2
*D26
 70
     1
 10
0.0
 20
0.0
 30
0.0
  3
*D26
  1

  0
LINE
  5
919
330
758
100
AcDbEntity
  8
寸法
  6
Continuous
370
    -2
100
AcDbLine
 10
8320.107674662983
 20
5233.864212883441
 30
0.0
 11
8320.107674662983
 21
4676.331684676735
 31
0.0
  0
LINE
  5
91A
330
758
100
AcDbEntity
  8
寸法
  6
Continuous
370
    -2
100
AcDbLine
 10
10320.10767466298
 20
5533.86421288344
 30
0.0
 11
10320.10767466298
 21
4676.331684676735
 31
0.0
  0
LINE
  5
91B
330
758
100
AcDbEntity
  8
寸法
  6
Continuous
370
    -2
100
AcDbLine
 10
8350.107674662982
 20
4676.331684676735
 30
0.0
 11
10290.10767466298
 21
4676.331684676735
 31
0.0
  0
INSERT
  5
91C
330
758
100
AcDbEntity
  8
寸法
  6
Continuous
370
    -2
100
AcDbBlockReference
  2
_ORIGIN
 10
8320.107674662983
 20
4676.331684676735
 30
0.0
 41
30.0
 42
30.0
 43
30.0
 50
180.0
  0
INSERT
  5
91D
330
758
100
AcDbEntity
  8
寸法
  6
Continuous
370
    -2
100
AcDbBlockReference
  2
_ORIGIN
 10
10320.10767466298
 20
4676.331684676735
 30
0.0
 41
30.0
 42
30.0
 43
30.0
  0
MTEXT
  5
91E
330
758
100
AcDbEntity
  8
寸法
  6
Continuous
100
AcDbMText
 10
9320.107674662983
 20
4815.617398962451
 30
0.0
 40
150.0
 41
0.0
 71
     5
 72
     1
  1
\A1;2,000
  7
1_100
 73
     1
 44
1.0
1001
ACAD
1000
MTEXTBEGIN
1070
    73
1070
     1
1070
    44
1040
1.0
1070
    74
1070
     0
1000
MTEXTEND
  0
POINT
  5
91F
330
758
100
AcDbEntity
  8
DEFPOINTS
  6
Continuous
 62
     0
100
AcDbPoint
 10
8320.107674662983
 20
5383.864212883441
 30
0.0
  0
POINT
  5
920
330
758
100
AcDbEntity
  8
DEFPOINTS
  6
Continuous
 62
     0
100
AcDbPoint
 10
10320.10767466298
 20
5683.864212883441
 30
0.0
  0
POINT
  5
921
330
758
100
AcDbEntity
  8
DEFPOINTS
  6
Continuous
 62
     0
100
AcDbPoint
 10
10320.10767466298
 20
4676.331684676735
 30
0.0
  0
ENDBLK
  5
763
330
758
100
AcDbEntity
  8
0
100
AcDbBlockEnd
  0
BLOCK
  5
770
330
764
100
AcDbEntity
  8
0
100
AcDbBlockBegin
  2
*D27
 70
     1
 10
0.0
 20
0.0
 30
0.0
  3
*D27
  1

  0
LINE
  5
88B
330
764
100
AcDbEntity
  8
寸法
  6
Continuous
370
    -2
100
AcDbLine
 10
4262.957674663074
 20
11061.33168467673
 30
0.0
 11
4262.957674663074
 21
11226.32318379361
 31
0.0
  0
LINE
  5
88C
330
764
100
AcDbEntity
  8
寸法
  6
Continuous
370
    -2
100
AcDbLine
 10
4377.257674662888
 20
11061.33168467673
 30
0.0
 11
4377.257674662888
 21
11226.32318379361
 31
0.0
  0
LINE
  5
88D
330
764
100
AcDbEntity
  8
寸法
  6
Continuous
370
    -2
100
AcDbLine
 10
4232.957674663075
 20
11226.32318379361
 30
0.0
 11
4202.957674663077
 21
11226.32318379361
 31
0.0
  0
LINE
  5
88E
330
764
100
AcDbEntity
  8
寸法
  6
Continuous
370
    -2
100
AcDbLine
 10
4407.257674662888
 20
11226.32318379361
 30
0.0
 11
4437.257674662888
 21
11226.32318379361
 31
0.0
  0
MTEXT
  5
88F
330
764
100
AcDbEntity
  8
寸法
  6
Continuous
100
AcDbMText
 10
4320.107674662982
 20
11376.32318379361
 30
0.0
 40
150.0
 41
0.0
 71
     5
 72
     1
  1
\A1;φ114.3
  7
1_100
 73
     1
 44
1.0
1001
ACAD
1000
MTEXTBEGIN
1070
    73
1070
     1
1070
    44
1040
1.0
1070
    74
1070
     0
1000
MTEXTEND
  0
LINE
  5
890
330
764
100
AcDbEntity
  8
寸法
  6
Continuous
370
    -2
100
AcDbLine
 10
4262.957674663074
 20
11226.32318379361
 30
0.0
 11
4377.257674662888
 21
11226.32318379361
 31
0.0
  0
INSERT
  5
891
330
764
100
AcDbEntity
  8
寸法
  6
Continuous
370
    -2
100
AcDbBlockReference
  2
_ORIGIN
 10
4262.957674663074
 20
11226.32318379361
 30
0.0
 41
30.0
 42
30.0
 43
30.0
  0
INSERT
  5
892
330
764
100
AcDbEntity
  8
寸法
  6
Continuous
370
    -2
100
AcDbBlockReference
  2
_ORIGIN
 10
4377.257674662888
 20
11226.32318379361
 30
0.0
 41
30.0
 42
30.0
 43
30.0
 50
180.0
  0
POINT
  5
893
330
764
100
AcDbEntity
  8
DEFPOINTS
  6
Continuous
 62
     0
100
AcDbPoint
 10
4262.957674663074
 20
10911.33168467673
 30
0.0
  0
POINT
  5
894
330
764
100
AcDbEntity
  8
DEFPOINTS
  6
Continuous
 62
     0
100
AcDbPoint
 10
4377.257674662888
 20
10911.33168467673
 30
0.0
  0
POINT
  5
895
330
764
100
AcDbEntity
  8
DEFPOINTS
  6
Continuous
 62
     0
100
AcDbPoint
 10
4377.257674662888
 20
11226.32318379361
 30
0.0
  0
ENDBLK
  5
771
330
764
100
AcDbEntity
  8
0
100
AcDbBlockEnd
  0
BLOCK
  5
77E
330
772
100
AcDbEntity
  8
0
100
AcDbBlockBegin
  2
*D28
 70
     1
 10
0.0
 20
0.0
 30
0.0
  3
*D28
  1

  0
LINE
  5
896
330
772
100
AcDbEntity
  8
寸法
  6
Continuous
370
    -2
100
AcDbLine
 10
16736.48972903102
 20
10886.33168467673
 30
0.0
 11
17086.77434132949
 21
10886.33168467673
 31
0.0
  0
LINE
  5
897
330
772
100
AcDbEntity
  8
寸法
  6
Continuous
370
    -2
100
AcDbLine
 10
16736.48972903102
 20
10926.33168467673
 30
0.0
 11
17086.77434132949
 21
10926.33168467673
 31
0.0
  0
LINE
  5
898
330
772
100
AcDbEntity
  8
寸法
  6
Continuous
370
    -2
100
AcDbLine
 10
17086.77434132949
 20
10856.33168467673
 30
0.0
 11
17086.77434132949
 21
10826.33168467673
 31
0.0
  0
LINE
  5
899
330
772
100
AcDbEntity
  8
寸法
  6
Continuous
370
    -2
100
AcDbLine
 10
17086.77434132949
 20
10956.33168467673
 30
0.0
 11
17086.77434132949
 21
10986.33168467673
 31
0.0
  0
MTEXT
  5
89A
330
772
100
AcDbEntity
  8
寸法
  6
Continuous
100
AcDbMText
 10
16967.90621362257
 20
11078.16239503286
 30
0.0
 40
150.0
 41
0.0
 71
     5
 72
     1
  1
\A1;40
  7
1_100
 11
0.0000000000000001
 21
1.0
 31
0.0
 73
     1
 44
1.0
1001
ACAD
1000
MTEXTBEGIN
1070
    73
1070
     1
1070
    44
1040
1.0
1070
    74
1070
     0
1000
MTEXTEND
  0
LINE
  5
89B
330
772
100
AcDbEntity
  8
寸法
  6
Continuous
370
    -2
100
AcDbLine
 10
17086.77434132949
 20
10886.33168467673
 30
0.0
 11
17086.77434132949
 21
10926.33168467673
 31
0.0
  0
INSERT
  5
89C
330
772
100
AcDbEntity
  8
寸法
  6
Continuous
370
    -2
100
AcDbBlockReference
  2
_ORIGIN
 10
17086.77434132949
 20
10886.33168467673
 30
0.0
 41
30.0
 42
30.0
 43
30.0
 50
90.0
  0
INSERT
  5
89D
330
772
100
AcDbEntity
  8
寸法
  6
Continuous
370
    -2
100
AcDbBlockReference
  2
_ORIGIN
 10
17086.77434132949
 20
10926.33168467673
 30
0.0
 41
30.0
 42
30.0
 43
30.0
 50
270.0
  0
POINT
  5
89E
330
772
100
AcDbEntity
  8
DEFPOINTS
  6
Continuous
 62
     0
100
AcDbPoint
 10
16586.48972903102
 20
10886.33168467673
 30
0.0
  0
POINT
  5
89F
330
772
100
AcDbEntity
  8
DEFPOINTS
  6
Continuous
 62
     0
100
AcDbPoint
 10
16586.48972903102
 20
10926.33168467673
 30
0.0
  0
POINT
  5
8A0
330
772
100
AcDbEntity
  8
DEFPOINTS
  6
Continuous
 62
     0
100
AcDbPoint
 10
17086.77434132949
 20
10926.33168467673
 30
0.0
  0
ENDBLK
  5
77F
330
772
100
AcDbEntity
  8
0
100
AcDbBlockEnd
  0
BLOCK
  5
78C
330
780
100
AcDbEntity
  8
0
100
AcDbBlockBegin
  2
*D29
 70
     1
 10
0.0
 20
0.0
 30
0.0
  3
*D29
  1

  0
LINE
  5
8A1
330
780
100
AcDbEntity
  8
寸法
  6
Continuous
370
    -2
100
AcDbLine
 10
13870.10767466298
 20
10886.33168467673
 30
0.0
 11
14420.10767466298
 21
10886.33168467673
 31
0.0
  0
LINE
  5
8A2
330
780
100
AcDbEntity
  8
寸法
  6
Continuous
370
    -2
100
AcDbLine
 10
13870.10767466298
 20
10926.33168467673
 30
0.0
 11
14420.10767466298
 21
10926.33168467673
 31
0.0
  0
LINE
  5
8A3
330
780
100
AcDbEntity
  8
寸法
  6
Continuous
370
    -2
100
AcDbLine
 10
14420.10767466298
 20
10856.33168467673
 30
0.0
 11
14420.10767466298
 21
10826.33168467673
 31
0.0
  0
LINE
  5
8A4
330
780
100
AcDbEntity
  8
寸法
  6
Continuous
370
    -2
100
AcDbLine
 10
14420.10767466298
 20
10956.33168467673
 30
0.0
 11
14420.10767466298
 21
10986.33168467673
 31
0.0
  0
MTEXT
  5
8A5
330
780
100
AcDbEntity
  8
寸法
  6
Continuous
100
AcDbMText
 10
14306.83619246634
 20
11068.16753949019
 30
0.0
 40
150.0
 41
0.0
 71
     5
 72
     1
  1
\A1;40
  7
1_100
 11
0.0000000000000001
 21
1.0
 31
0.0
 73
     1
 44
1.0
1001
ACAD
1000
MTEXTBEGIN
1070
    73
1070
     1
1070
    44
1040
1.0
1070
    74
1070
     0
1000
MTEXTEND
  0
LINE
  5
8A6
330
780
100
AcDbEntity
  8
寸法
  6
Continuous
370
    -2
100
AcDbLine
 10
14420.10767466298
 20
10886.33168467673
 30
0.0
 11
14420.10767466298
 21
10926.33168467673
 31
0.0
  0
INSERT
  5
8A7
330
780
100
AcDbEntity
  8
寸法
  6
Continuous
370
    -2
100
AcDbBlockReference
  2
_ORIGIN
 10
14420.10767466298
 20
10886.33168467673
 30
0.0
 41
30.0
 42
30.0
 43
30.0
 50
90.0
  0
INSERT
  5
8A8
330
780
100
AcDbEntity
  8
寸法
  6
Continuous
370
    -2
100
AcDbBlockReference
  2
_ORIGIN
 10
14420.10767466298
 20
10926.33168467673
 30
0.0
 41
30.0
 42
30.0
 43
30.0
 50
270.0
  0
POINT
  5
8A9
330
780
100
AcDbEntity
  8
DEFPOINTS
  6
Continuous
 62
     0
100
AcDbPoint
 10
13720.10767466298
 20
10886.33168467673
 30
0.0
  0
POINT
  5
8AA
330
780
100
AcDbEntity
  8
DEFPOINTS
  6
Continuous
 62
     0
100
AcDbPoint
 10
13720.10767466298
 20
10926.33168467673
 30
0.0
  0
POINT
  5
8AB
330
780
100
AcDbEntity
  8
DEFPOINTS
  6
Continuous
 62
     0
100
AcDbPoint
 10
14420.10767466298
 20
10926.33168467673
 30
0.0
  0
ENDBLK
  5
78D
330
780
100
AcDbEntity
  8
0
100
AcDbBlockEnd
  0
BLOCK
  5
79A
330
78E
100
AcDbEntity
  8
0
100
AcDbBlockBegin
  2
*D30
 70
     1
 10
0.0
 20
0.0
 30
0.0
  3
*D30
  1

  0
LINE
  5
8AC
330
78E
100
AcDbEntity
  8
寸法
  6
Continuous
370
    -2
100
AcDbLine
 10
16029.62434132912
 20
11076.33168467673
 30
0.0
 11
16029.62434132912
 21
11226.32871680384
 31
0.0
  0
LINE
  5
8AD
330
78E
100
AcDbEntity
  8
寸法
  6
Continuous
370
    -2
100
AcDbLine
 10
16143.9243413294
 20
11076.33168467673
 30
0.0
 11
16143.9243413294
 21
11226.32871680384
 31
0.0
  0
LINE
  5
8AE
330
78E
100
AcDbEntity
  8
寸法
  6
Continuous
370
    -2
100
AcDbLine
 10
15999.62434132912
 20
11226.32871680384
 30
0.0
 11
15969.62434132912
 21
11226.32871680384
 31
0.0
  0
LINE
  5
8AF
330
78E
100
AcDbEntity
  8
寸法
  6
Continuous
370
    -2
100
AcDbLine
 10
16173.9243413294
 20
11226.32871680384
 30
0.0
 11
16203.9243413294
 21
11226.32871680384
 31
0.0
  0
MTEXT
  5
8B0
330
78E
100
AcDbEntity
  8
寸法
  6
Continuous
100
AcDbMText
 10
16086.77434132926
 20
11376.32871680384
 30
0.0
 40
150.0
 41
0.0
 71
     5
 72
     1
  1
\A1;φ114.3
  7
1_100
 73
     1
 44
1.0
1001
ACAD
1000
MTEXTBEGIN
1070
    73
1070
     1
1070
    44
1040
1.0
1070
    74
1070
     0
1000
MTEXTEND
  0
LINE
  5
8B1
330
78E
100
AcDbEntity
  8
寸法
  6
Continuous
370
    -2
100
AcDbLine
 10
16029.62434132912
 20
11226.32871680384
 30
0.0
 11
16143.9243413294
 21
11226.32871680384
 31
0.0
  0
INSERT
  5
8B2
330
78E
100
AcDbEntity
  8
寸法
  6
Continuous
370
    -2
100
AcDbBlockReference
  2
_ORIGIN
 10
16029.62434132912
 20
11226.32871680384
 30
0.0
 41
30.0
 42
30.0
 43
30.0
  0
INSERT
  5
8B3
330
78E
100
AcDbEntity
  8
寸法
  6
Continuous
370
    -2
100
AcDbBlockReference
  2
_ORIGIN
 10
16143.9243413294
 20
11226.32871680384
 30
0.0
 41
30.0
 42
30.0
 43
30.0
 50
180.0
  0
POINT
  5
8B4
330
78E
100
AcDbEntity
  8
DEFPOINTS
  6
Continuous
 62
     0
100
AcDbPoint
 10
16029.62434132912
 20
10926.33168467673
 30
0.0
  0
POINT
  5
8B5
330
78E
100
AcDbEntity
  8
DEFPOINTS
  6
Continuous
 62
     0
100
AcDbPoint
 10
16143.9243413294
 20
10926.33168467673
 30
0.0
  0
POINT
  5
8B6
330
78E
100
AcDbEntity
  8
DEFPOINTS
  6
Continuous
 62
     0
100
AcDbPoint
 10
16143.9243413294
 20
11226.32871680384
 30
0.0
  0
ENDBLK
  5
79B
330
78E
100
AcDbEntity
  8
0
100
AcDbBlockEnd
  0
ENDSEC
  0
SECTION
  2
ENTITIES
  0
LWPOLYLINE
  5
425
330
1F
100
AcDbEntity
  8
図面枠
100
AcDbPolyline
 90
        4
 70
     1
 43
0.0
 10
553.4410237495308
 20
494.6650101790516
 10
20053.44102374953
 20
494.6650101790516
 10
20053.44102374953
 20
13244.66501017905
 10
553.4410237495308
 20
13244.66501017905
  0
LWPOLYLINE
  5
426
330
1F
100
AcDbEntity
  8
図面枠
100
AcDbPolyline
 90
        4
 70
     1
 43
0.0
 10
553.441023749065
 20
494.6650101790516
 10
20053.44102374907
 20
494.6650101790516
 10
20053.44102374907
 20
13244.66501017905
 10
553.441023749065
 20
13244.66501017905
  0
LINE
  5
427
330
1F
100
AcDbEntity
  8
寸法
  6
Continuous
 62
     3
100
AcDbLine
 10
8140.061090448638
 20
12430.07850241132
 30
0.0
 11
12466.82095705042
 21
12430.07850241132
 31
0.0
  0
LINE
  5
428
330
1F
100
AcDbEntity
  8
寸法
  6
Continuous
 62
     3
100
AcDbLine
 10
8140.061090448638
 20
12460.07850241015
 30
0.0
 11
12466.82095705042
 21
12460.07850241015
 31
0.0
  0
MTEXT
  5
429
330
1F
100
AcDbEntity
  8
寸法
  6
Continuous
 62
     3
100
AcDbMText
 10
10303.44102374895
 20
12508.85331584572
 30
0.0
 40
250.0
 41
0.0
 71
     8
 72
     1
  1
{\fMS PMincho|b0|i0|c128|p18;防球ネット　ＫＳ－Ⅱ型　Ｈ＝４,０００}
  7
1_100
 73
     1
 44
1.0
1001
ACAD
1000
ACAD_MTEXT_DEFINED_HEIGHT_BEGIN
1070
    46
1040
0.0
1000
ACAD_MTEXT_DEFINED_HEIGHT_END
1000
MTEXTBEGIN
1070
    73
1070
     1
1070
    44
1040
1.0
1070
    74
1070
     0
1000
MTEXTEND
  0
LINE
  5
42A
330
1F
100
AcDbEntity
  8
寸法
  6
Continuous
 62
     3
100
AcDbLine
 10
8140.061090448638
 20
12460.07850241018
 30
0.0
 11
12466.82095705042
 21
12460.07850241018
 31
0.0
  0
LINE
  5
42B
330
1F
100
AcDbEntity
  8
寸法
  6
Continuous
 62
     3
100
AcDbLine
 10
8140.061090448638
 20
12430.07850241135
 30
0.0
 11
12466.82095705042
 21
12430.07850241135
 31
0.0
  0
MTEXT
  5
42C
330
1F
100
AcDbEntity
  8
画層1-1
100
AcDbMText
 10
1961.740210968214
 20
2747.049228303105
 30
0.0
 40
150.0
 41
0.0
 71
     1
 72
     5
  1
{\F|c128;・※印表記のネットを使用する場合標準柱スパンは変更になる場合があります}
  7
1_100
 73
     1
 44
1.0
1001
AcDbBlockRepETag
1070
     1
1071
        0
1005
42C
1001
ACAD
1000
MTEXTBEGIN
1070
    73
1070
     1
1070
    44
1040
1.0
1070
    74
1070
     0
1000
MTEXTEND
  0
MTEXT
  5
42D
330
1F
100
AcDbEntity
  8
画層1-1
100
AcDbMText
 10
1961.740210968214
 20
1085.406980731568
 30
0.0
 40
150.0
 41
0.0
 71
     1
 72
     5
  1
・速度圧　q=0.6EVo （N/㎡）　・地表面粗度区分　　　・基礎　普通土質 [B] を選定
  7
1_100
 73
     1
 44
1.0
1001
AcDbBlockRepETag
1070
     1
1071
        1
1005
42D
1001
ACAD
1000
MTEXTBEGIN
1070
    73
1070
     1
1070
    44
1040
1.0
1070
    74
1070
     0
1000
MTEXTEND
  0
MTEXT
  5
42E
330
1F
100
AcDbEntity
  8
画層1-1
100
AcDbMText
 10
1961.740210968214
 20
3647.049228303104
 30
0.0
 40
150.0
 41
0.0
 71
     1
 72
     5
  1
・主柱．端末ポール．バンド金具．ボルトは溶融亜鉛メッキ仕上げとする
  7
1_100
 73
     1
 44
1.0
1001
AcDbBlockRepETag
1070
     1
1071
        2
1005
42E
1001
ACAD
1000
MTEXTBEGIN
1070
    73
1070
     1
1070
    44
1040
1.0
1070
    74
1070
     0
1000
MTEXTEND
  0
MTEXT
  5
42F
330
1F
100
AcDbEntity
  8
画層1-1
100
AcDbMText
 10
1961.740210968214
 20
3347.049228303105
 30
0.0
 40
150.0
 41
0.0
 71
     1
 72
     5
  1
・主柱ポール基礎部（ＧＬ）はＦＲＰ被覆補強とする
  7
1_100
 73
     1
 44
1.0
1001
AcDbBlockRepETag
1070
     1
1071
        3
1005
42F
1001
ACAD
1000
MTEXTBEGIN
1070
    73
1070
     1
1070
    44
1040
1.0
1070
    74
1070
     0
1000
MTEXTEND
  0
MTEXT
  5
430
330
1F
100
AcDbEntity
  8
画層1-1
100
AcDbMText
 10
1961.740210968214
 20
2016.870267295416
 30
0.0
 40
150.0
 41
0.0
 71
     1
 72
     5
  1
・構造計算書．材料承認願いを提出後施工のこと
  7
1_100
 73
     1
 44
1.0
1001
AcDbBlockRepETag
1070
     1
1071
        4
1005
430
1001
ACAD
1000
MTEXTBEGIN
1070
    73
1070
     1
1070
    44
1040
1.0
1070
    74
1070
     0
1000
MTEXTEND
  0
MTEXT
  5
431
330
1F
100
AcDbEntity
  8
画層1-1
100
AcDbMText
 10
1961.740210968214
 20
3047.049228303105
 30
0.0
 40
150.0
 41
0.0
 71
     1
 72
     5
  1
・上部（補強ポール・ネット）下り防止金具付きとする
  7
1_100
 73
     1
 44
1.0
1001
AcDbBlockRepETag
1070
     1
1071
        5
1005
431
1001
ACAD
1000
MTEXTBEGIN
1070
    73
1070
     1
1070
    44
1040
1.0
1070
    74
1070
     0
1000
MTEXTEND
  0
POINT
  5
432
330
1F
100
AcDbEntity
  8
画層1-1
100
AcDbPoint
 10
553.4410097301283
 20
755.9109213786894
 30
0.0
1001
AcDbBlockRepETag
1070
     1
1071
        6
1005
432
  0
MTEXT
  5
433
330
1F
100
AcDbEntity
  8
画層1-1
100
AcDbMText
 10
1711.740210968214
 20
1648.20900961236
 30
0.0
 40
200.0
 41
0.0
 71
     1
 72
     5
  1
設計条件
  7
1_100
 73
     1
 44
1.0
1001
AcDbBlockRepETag
1070
     1
1071
        7
1005
433
1001
ACAD
1000
MTEXTBEGIN
1070
    73
1070
     1
1070
    44
1040
1.0
1070
    74
1070
     0
1000
MTEXTEND
  0
MTEXT
  5
434
330
1F
100
AcDbEntity
  8
画層1-1
100
AcDbMText
 10
1711.740210968214
 20
2342.38181796994
 30
0.0
 40
200.0
 41
0.0
 71
     1
 72
     5
  1
特記
  7
1_100
 73
     1
 44
1.0
1001
AcDbBlockRepETag
1070
     1
1071
        8
1005
434
1001
ACAD
1000
MTEXTBEGIN
1070
    73
1070
     1
1070
    44
1040
1.0
1070
    74
1070
     0
1000
MTEXTEND
  0
MTEXT
  5
435
330
1F
100
AcDbEntity
  8
画層1-1
100
AcDbMText
 10
1711.740210968214
 20
3982.763712272491
 30
0.0
 40
200.0
 41
0.0
 71
     1
 72
     5
  1
仕様について
  7
1_100
 73
     1
 44
1.0
1001
AcDbBlockRepETag
1070
     1
1071
        9
1005
435
1001
ACAD
1000
MTEXTBEGIN
1070
    73
1070
     1
1070
    44
1040
1.0
1070
    74
1070
     0
1000
MTEXTEND
  0
MTEXT
  5
436
330
1F
100
AcDbEntity
  8
画層1-1
100
AcDbMText
 10
5410.103466319726
 20
1054.31873996765
 30
0.0
 40
150.0
 41
0.0
 71
     1
 72
     5
  1
Ⅲ
  7
STYLE1
 73
     1
 44
1.0
1001
AcDbBlockRepETag
1070
     1
1071
       10
1005
436
1001
ACAD
1000
MTEXTBEGIN
1070
    73
1070
     1
1070
    44
1040
1.0
1070
    74
1070
     0
1000
MTEXTEND
  0
MTEXT
  5
437
330
1F
100
AcDbEntity
  8
画層1-1
100
AcDbMText
 10
3453.479195974227
 20
1067.650193405996
 30
0.0
 40
60.0
 41
0.0
 71
     1
 72
     5
  1
2
  7
1_100
 73
     1
 44
1.0
1001
AcDbBlockRepETag
1070
     1
1071
       11
1005
437
1001
ACAD
1000
MTEXTBEGIN
1070
    73
1070
     1
1070
    44
1040
1.0
1070
    74
1070
     0
1000
MTEXTEND
  0
MTEXT
  5
438
330
1F
100
AcDbEntity
  8
画層1-1
100
AcDbMText
 10
1961.740210968214
 20
1370.240939234835
 30
0.0
 40
150.0
 41
0.0
 71
     1
 72
     5
  1
・設計荷重。建築基準法・同施工令（平成12年6月）に基づく風圧力に依る、基準風速。
  7
1_100
 73
     1
 44
1.0
1001
AcDbBlockRepETag
1070
     1
1071
       12
1005
438
1001
ACAD
1000
ACAD_MTEXT_DEFINED_HEIGHT_BEGIN
1070
    46
1040
0.0
1000
ACAD_MTEXT_DEFINED_HEIGHT_END
1000
MTEXTBEGIN
1070
    73
1070
     1
1070
    44
1040
1.0
1070
    74
1070
     0
1000
MTEXTEND
  0
DIMENSION
  5
439
330
1F
100
AcDbEntity
  8
寸法
  6
Continuous
100
AcDbDimension
  2
*D2
 10
17486.77434132949
 20
6926.331684676735
 30
0.0
 11
17347.48862704378
 21
8926.331684676734
 31
0.0
 70
    32
 71
     5
 42
4000.0
  3
1_50
100
AcDbAlignedDimension
 13
16586.48972903102
 23
10926.33168467673
 33
0.0
 14
16586.48972903102
 24
6926.331684676735
 34
0.0
 50
90.0
100
AcDbRotatedDimension
  0
DIMENSION
  5
43A
330
1F
100
AcDbEntity
  8
寸法
  6
Continuous
100
AcDbDimension
  2
*D3
 10
17086.77434132949
 20
10886.33168467673
 30
0.0
 11
16947.48862704378
 21
9906.331684676736
 31
0.0
 70
    32
 71
     5
 42
1960.0
  3
1_50
100
AcDbAlignedDimension
 13
16586.48972903102
 23
8926.331684676734
 33
0.0
 14
16586.48972903102
 24
10886.33168467673
 34
0.0
 50
90.0
100
AcDbRotatedDimension
  0
DIMENSION
  5
43B
330
1F
100
AcDbEntity
  8
寸法
  6
Continuous
100
AcDbDimension
  2
*D4
 10
14820.10767466251
 20
6926.331684676732
 30
0.0
 11
14680.8219603768
 21
8926.331684676737
 31
0.0
 70
    32
 71
     5
 42
4000.0
  3
1_50
100
AcDbAlignedDimension
 13
13720.10767466298
 23
10926.33168467673
 33
0.0
 14
13720.10767466298
 24
6926.331684676735
 34
0.0
 50
90.0
100
AcDbRotatedDimension
  0
LINE
  5
43C
102
{ACAD_REACTORS
330
442
102
}
330
1F
100
AcDbEntity
  8
DEFPOINTS
100
AcDbLine
 10
13470.79003306155
 20
6926.331684676735
 30
0.0
 11
13470.79003306155
 21
10886.33168467673
 31
0.0
  0
LINE
  5
43D
102
{ACAD_REACTORS
330
9D9
102
}
330
1F
100
AcDbEntity
  8
通り芯
  6
DASHDOT
 48
50.0
100
AcDbLine
 10
10320.10767466298
 20
5683.864212883441
 30
0.0
 11
10320.10767466298
 21
11006.79434437937
 31
0.0
  0
LINE
  5
43E
330
1F
100
AcDbEntity
  8
画層1
  6
Continuous
100
AcDbLine
 10
10377.25767466289
 20
5926.331684676735
 30
0.0
 11
10377.25767466289
 21
10926.33168467673
 31
0.0
  0
LINE
  5
43F
330
1F
100
AcDbEntity
  8
画層1
  6
Continuous
100
AcDbLine
 10
10262.95767466307
 20
10926.33168467673
 30
0.0
 11
10262.95767466307
 21
5926.331684676735
 31
0.0
  0
DIMENSION
  5
440
330
1F
100
AcDbEntity
  8
寸法
  6
Continuous
100
AcDbDimension
  2
*D5
 10
14420.10767466298
 20
10886.33168467673
 30
0.0
 11
14280.82196037727
 21
9906.331684676738
 31
0.0
 70
    32
 71
     5
 42
1960.0
  3
1_50
100
AcDbAlignedDimension
 13
13720.10767466298
 23
8926.331684676734
 33
0.0
 14
13720.10767466298
 24
10886.33168467673
 34
0.0
 50
90.0
100
AcDbRotatedDimension
  0
LINE
  5
441
102
{ACAD_REACTORS
330
442
102
}
330
1F
100
AcDbEntity
  8
DEFPOINTS
100
AcDbLine
 10
11312.60220276101
 20
10886.33168467673
 30
0.0
 11
11820.64565093166
 21
8901.331684676733
 31
0.0
  0
HATCH
  5
442
330
1F
100
AcDbEntity
  8
ﾈｯﾄ
 62
   230
370
    13
100
AcDbHatch
 10
0.0
 20
0.0
 30
0.0
210
0.0
220
0.0
230
1.0
  2
NET
 70
     0
 71
     1
 91
        1
 92
        7
 72
     0
 73
     1
 93
        4
 10
13470.79003306155
 20
10886.33168467673
 10
11312.60220276101
 20
10886.33168467673
 10
11814.24711883878
 20
8926.331684676927
 10
13470.79003306155
 20
8926.331684676966
 97
        4
330
5DB
330
441
330
45E
330
43C
 75
     0
 76
     1
 52
0.0
 41
500.0
 77
     0
 78
     2
 53
0.0
 43
553.440662465086
 44
484.66466816565
 45
0.0
 46
62.5
 79
     0
 53
90.0
 43
553.440662465086
 44
484.66466816565
 45
-62.5
 46
0.0000000000000038
 79
     0
 47
18.00250051073297
 98
        1
 10
12875.04317522843
 20
9533.455642520953
  0
LEADER
  5
443
330
1F
100
AcDbEntity
  8
寸法引出
  6
Continuous
100
AcDbLeader
  3
1_50
 71
     0
 73
     0
 75
     1
 40
150.0
 41
659.9999999999994
 76
     3
 10
10231.70524117074
 20
8951.331684676734
 30
0.0
 10
10045.51290032244
 20
9193.872971619246
 30
0.0
 10
10015.51290032244
 20
9193.872971619246
 30
0.0
340
444
213
-0.8483761584211606
223
-9.232755690152773
233
0.0
1001
ACAD
1000
DSTYLE
1002
{
1002
}
  0
MTEXT
  5
444
102
{ACAD_REACTORS
330
443
102
}
330
1F
100
AcDbEntity
  8
寸法文字
  6
Continuous
100
AcDbMText
 10
9966.361276480862
 20
9253.105727309398
 30
0.0
 40
150.0
 41
0.0
 71
     9
 72
     1
  1
バンド金具
  7
1_100
 73
     1
 44
1.0
1001
ACAD
1000
MTEXTBEGIN
1070
    73
1070
     1
1070
    44
1040
1.0
1070
    74
1070
     0
1000
MTEXTEND
  0
LINE
  5
445
330
1F
100
AcDbEntity
  8
通り芯
  6
DASHDOT
 48
50.0
100
AcDbLine
 10
16086.77434132949
 20
5683.864212883441
 30
0.0
 11
16086.77434132949
 21
11006.79434437937
 31
0.0
  0
LINE
  5
446
330
1F
100
AcDbEntity
  8
画層1
  6
Continuous
100
AcDbLine
 10
16029.62434132912
 20
10926.33168467673
 30
0.0
 11
16029.62434132912
 21
5926.331684676735
 31
0.0
  0
LINE
  5
447
330
1F
100
AcDbEntity
  8
画層1
  6
Continuous
100
AcDbLine
 10
16143.9243413294
 20
5926.331684676735
 30
0.0
 11
16143.9243413294
 21
10926.33168467673
 31
0.0
  0
LINE
  5
448
330
1F
100
AcDbEntity
  8
画層1-1
  6
DASHED
 48
50.0
100
AcDbLine
 10
16004.62434132912
 20
10886.33168467673
 30
0.0
 11
16004.62434132912
 21
8926.331684676501
 31
0.0
  0
LINE
  5
449
330
1F
100
AcDbEntity
  8
画層1
  6
Continuous
 62
     7
100
AcDbLine
 10
16086.77434132949
 20
10926.33168467673
 30
0.0
 11
16086.77434132949
 21
8926.331684676501
 31
0.0
  0
LINE
  5
44A
102
{ACAD_REACTORS
330
9C4
102
}
330
1F
100
AcDbEntity
  8
通り芯
  6
DASHDOT
 48
50.0
100
AcDbLine
 10
4320.107674662982
 20
5683.864212883441
 30
0.0
 11
4320.107674662982
 21
11006.79434437937
 31
0.0
  0
LINE
  5
44B
330
1F
100
AcDbEntity
  8
画層1
  6
Continuous
100
AcDbLine
 10
4377.257674662888
 20
5926.331684676735
 30
0.0
 11
4377.257674662888
 21
10926.33168467673
 31
0.0
  0
LINE
  5
44C
330
1F
100
AcDbEntity
  8
画層1
  6
Continuous
100
AcDbLine
 10
4262.957674663074
 20
10926.33168467673
 30
0.0
 11
4262.957674663074
 21
5926.331684676735
 31
0.0
  0
LEADER
  5
44D
330
1F
100
AcDbEntity
  8
寸法引出
  6
Continuous
100
AcDbLeader
  3
1_50
 71
     0
 73
     0
 74
     0
 75
     1
 40
150.0
 41
1194.642857142856
 76
     3
 10
4569.318950129233
 20
8946.332678990939
 30
0.0
 10
4641.157879951903
 20
9114.013567789958
 30
0.0
 10
4671.157879951903
 20
9114.013567789958
 30
0.0
340
44E
1001
ACAD
1000
DSTYLE
1002
{
1002
}
  0
MTEXT
  5
44E
102
{ACAD_REACTORS
330
44D
102
}
330
1F
100
AcDbEntity
  8
寸法文字
  6
Continuous
100
AcDbMText
 10
4721.157879951903
 20
9164.013567789959
 30
0.0
 40
150.0
 41
0.0
 71
     7
 72
     1
  1
タンバックル9mm
  7
1_100
 73
     1
 44
1.0
1001
ACAD
1000
MTEXTBEGIN
1070
    73
1070
     1
1070
    44
1040
1.0
1070
    74
1070
     0
1000
MTEXTEND
  0
LINE
  5
44F
330
1F
100
AcDbEntity
  8
画層1
  6
Continuous
 62
     7
100
AcDbLine
 10
4320.107674662982
 20
10911.33168467673
 30
0.0
 11
4320.107674662982
 21
8926.331684676734
 31
0.0
  0
LINE
  5
450
330
1F
100
AcDbEntity
  8
DEFPOINTS
100
AcDbLine
 10
6686.807296689162
 20
10924.48168467687
 30
0.0
 11
7204.614904833519
 21
8901.331684676733
 31
0.0
  0
HATCH
  5
451
330
1F
100
AcDbEntity
  8
ﾈｯﾄ
 62
   230
370
    13
100
AcDbHatch
 10
0.0
 20
0.0
 30
0.0
210
0.0
220
0.0
230
1.0
  2
NET
 70
     0
 71
     0
 91
        3
 92
        7
 72
     0
 73
     1
 93
       14
 10
6719.132680822191
 20
10798.18168467683
 10
4467.257674662888
 20
10798.18168467683
 10
4467.257674662888
 20
10836.33168467673
 10
4427.257674662889
 20
10836.33168467673
 10
4427.257674662889
 20
10811.33168467673
 10
4377.257674662888
 20
10811.33168467673
 10
4377.257674662888
 20
8951.331684676967
 10
4427.257674662889
 20
8951.331684676734
 10
4427.257674662889
 20
8926.331684676734
 10
4477.257674662888
 20
8926.331684676734
 10
4477.257674662888
 20
8946.332678990939
 10
4657.257674662888
 20
8946.332678990939
 10
4657.257674662888
 20
8926.331684676966
 10
7198.216372740948
 20
8926.331684676966
 97
        0
 92
        7
 72
     0
 73
     1
 93
        8
 10
6719.132680822191
 20
10798.18168467683
 10
6699.604360875236
 20
10874.48168467687
 10
4672.25767466289
 20
10874.48168467687
 10
4672.25767466289
 20
10866.1079640156
 10
4492.257674662888
 20
10866.1079640156
 10
4492.257674662888
 20
10874.48168467687
 10
4467.257674662888
 20
10874.48168467687
 10
4467.257674662888
 20
10798.18168467683
 97
        0
 92
       24
 93
        4
 72
     1
 10
4683.657879951903
 20
9390.799282075873
 11
6071.157879951903
 21
9390.799282075873
 72
     1
 10
6071.157879951903
 20
9390.799282075873
 11
6071.157879951903
 21
9087.227853504511
 72
     1
 10
6071.157879951903
 20
9087.22785350428
 11
4683.657879951903
 21
9087.22785350428
 72
     1
 10
4683.657879951903
 20
9087.22785350428
 11
4683.657879951903
 21
9390.79928207564
 97
        0
 75
     0
 76
     1
 52
0.0
 41
500.0
 77
     0
 78
     2
 53
0.0
 43
553.440662465086
 44
484.66466816565
 45
0.0
 46
62.5
 79
     0
 53
90.0
 43
553.440662465086
 44
484.66466816565
 45
-62.5
 46
0.0000000000000038
 79
     0
 47
18.73569988434889
 98
        2
 10
6439.530401953989
 20
9605.708094064649
 10
5126.863569479463
 20
10823.52858017412
  0
LEADER
  5
452
330
1F
100
AcDbEntity
  8
寸法引出
  6
Continuous
100
AcDbLeader
  3
1_50
 71
     0
 73
     0
 74
     0
 75
     1
 40
150.0
 41
1549.285714285714
 76
     3
 10
6487.672919361414
 20
6984.431684676827
 30
0.0
 10
6584.604945222548
 20
7174.798349040132
 30
0.0
 10
6614.604945222549
 20
7174.798349040132
 30
0.0
340
453
213
69.95590756242018
223
0.0
233
0.0
1001
ACAD
1000
DSTYLE
1002
{
1002
}
  0
MTEXT
  5
453
102
{ACAD_REACTORS
330
452
102
}
330
1F
100
AcDbEntity
  8
寸法文字
  6
Continuous
100
AcDbMText
 10
6594.649037660127
 20
7224.798349040132
 30
0.0
 40
150.0
 41
0.0
 71
     7
 72
     1
  1
φ38.1×1.6ｔ（上下）
  7
1_100
 73
     1
 44
1.0
1001
ACAD
1000
MTEXTBEGIN
1070
    73
1070
     1
1070
    44
1040
1.0
1070
    74
1070
     0
1000
MTEXTEND
  0
LINE
  5
454
330
1F
100
AcDbEntity
  8
画層3-1
  6
Continuous
100
AcDbLine
 10
6345.50767466289
 20
6946.331684676735
 30
0.0
 11
8294.707674663076
 21
6946.331684676735
 31
0.0
  0
LINE
  5
455
330
1F
100
AcDbEntity
  8
画層3-1
  6
Continuous
100
AcDbLine
 10
6345.50767466289
 20
6984.431684676827
 30
0.0
 11
8294.707674663076
 21
6984.431684676827
 31
0.0
  0
LEADER
  5
456
330
1F
100
AcDbEntity
  8
寸法引出
  6
Continuous
100
AcDbLeader
  3
1_50
 71
     0
 73
     0
 75
     1
 40
150.0
 41
922.4999999999999
 76
     3
 10
8254.757674662888
 20
8503.379594199861
 30
0.0
 10
8057.938147242673
 20
8334.062151067227
 30
0.0
 10
8027.938147242673
 20
8334.062151067227
 30
0.0
340
457
1001
ACAD
1000
DSTYLE
1002
{
1002
}
  0
MTEXT
  5
457
102
{ACAD_REACTORS
330
456
102
}
330
1F
100
AcDbEntity
  8
寸法文字
  6
Continuous
100
AcDbMText
 10
7977.938147242674
 20
8384.062151067228
 30
0.0
 40
150.0
 41
0.0
 71
     9
 72
     1
  1
FB-4.5×19
  7
1_100
 73
     1
 44
1.0
1001
ACAD
1000
MTEXTBEGIN
1070
    73
1070
     1
1070
    44
1040
1.0
1070
    74
1070
     0
1000
MTEXTEND
  0
LINE
  5
458
330
1F
100
AcDbEntity
  8
画層3-1
  6
Continuous
100
AcDbLine
 10
6360.50767466289
 20
8863.231684676641
 30
0.0
 11
8279.707674663075
 21
8863.231684676641
 31
0.0
  0
LINE
  5
459
330
1F
100
AcDbEntity
  8
画層3-2
  6
Continuous
100
AcDbLine
 10
6400.457674663076
 20
8266.331684676734
 30
0.0
 11
8239.757674662889
 21
8266.331684676734
 31
0.0
  0
LINE
  5
45A
330
1F
100
AcDbEntity
  8
画層3-2
  6
Continuous
100
AcDbLine
 10
8239.757674662889
 20
7606.331684676735
 30
0.0
 11
6400.457674663076
 21
7606.331684676735
 31
0.0
  0
DIMENSION
  5
45B
330
1F
100
AcDbEntity
  8
寸法
  6
Continuous
100
AcDbDimension
  2
*D6
 10
8320.107674662983
 20
4676.331684676735
 30
0.0
 11
7320.107674662982
 21
4815.617398962451
 31
0.0
 70
    32
 71
     5
 42
2000.0
  3
1_50
100
AcDbAlignedDimension
 13
6320.107674662982
 23
5683.864212883441
 33
0.0
 14
8320.107674662983
 24
5383.864212883441
 34
0.0
100
AcDbRotatedDimension
  0
DIMENSION
  5
45C
330
1F
100
AcDbEntity
  8
寸法
  6
Continuous
100
AcDbDimension
  2
*D7
 10
10320.10767466298
 20
4326.331684676733
 30
0.0
 11
7320.107674662982
 21
4465.617398962448
 31
0.0
 70
    32
 71
     5
 42
6000.0
  3
1_50
100
AcDbAlignedDimension
 13
4320.107674662982
 23
5102.895131448554
 33
0.0
 14
10320.10767466298
 24
5683.864212883441
 34
0.0
100
AcDbRotatedDimension
  0
LINE
  5
45D
102
{ACAD_REACTORS
330
9C4
330
9D9
102
}
330
1F
100
AcDbEntity
  8
画層2
  6
Continuous
100
AcDbLine
 10
13470.79003306155
 20
6926.331684676735
 30
0.0
 11
2240.96149186234
 21
6926.331684676735
 31
0.0
  0
LINE
  5
45E
102
{ACAD_REACTORS
330
442
102
}
330
1F
100
AcDbEntity
  8
画層1
  6
Continuous
100
AcDbLine
 10
4320.107674662982
 20
8926.331684676734
 30
0.0
 11
13470.79003306155
 21
8926.331684676966
 31
0.0
  0
LINE
  5
45F
330
1F
100
AcDbEntity
  8
画層3-1
  6
Continuous
100
AcDbLine
 10
4320.107674662982
 20
8901.331684676733
 30
0.0
 11
13470.79003306155
 21
8901.331684676733
 31
0.0
  0
LINE
  5
460
330
1F
100
AcDbEntity
  8
画層3-2
  6
Continuous
100
AcDbLine
 10
6385.457674663076
 20
7591.331684676735
 30
0.0
 11
6385.457674663076
 21
6926.331684676735
 31
0.0
  0
LINE
  5
461
330
1F
100
AcDbEntity
  8
画層3-2
  6
Continuous
100
AcDbLine
 10
6254.757674662889
 20
6926.331684676735
 30
0.0
 11
6254.757674662889
 21
7591.331684676735
 31
0.0
  0
LINE
  5
462
330
1F
100
AcDbEntity
  8
画層3-1
  6
Continuous
100
AcDbLine
 10
6294.707674663076
 20
7591.331684676735
 30
0.0
 11
6294.707674663076
 21
6984.431684676827
 31
0.0
  0
LINE
  5
463
330
1F
100
AcDbEntity
  8
画層3-1
  6
Continuous
100
AcDbLine
 10
6345.50767466289
 20
7591.331684676735
 30
0.0
 11
6345.50767466289
 21
6984.431684676827
 31
0.0
  0
LINE
  5
464
330
1F
100
AcDbEntity
  8
画層3-2
  6
Continuous
100
AcDbLine
 10
4385.457674663075
 20
7591.331684676735
 30
0.0
 11
4385.457674663075
 21
6926.331684676735
 31
0.0
  0
LINE
  5
465
330
1F
100
AcDbEntity
  8
画層3-1
  6
Continuous
100
AcDbLine
 10
4345.507674662888
 20
7591.331684676735
 30
0.0
 11
4345.507674662888
 21
6984.431684676827
 31
0.0
  0
HATCH
  5
466
330
1F
100
AcDbEntity
  8
画層3-3
 62
   230
370
    13
100
AcDbHatch
 10
0.0
 20
0.0
 30
0.0
210
0.0
220
0.0
230
1.0
  2
NET
 70
     0
 71
     0
 91
       15
 92
        7
 72
     0
 73
     1
 93
        6
 10
6254.757674662889
 20
8863.231684676641
 10
4453.807674663169
 20
8863.231684676874
 10
4453.807674663169
 20
8266.331684676734
 10
6239.757674662889
 20
8266.331684676734
 10
6239.757674662889
 20
8281.331684676734
 10
6254.757674662889
 20
8281.331684676734
 97
        0
 92
        7
 72
     0
 73
     1
 93
        8
 10
6254.757674662889
 20
8251.331684676733
 10
6239.757674662889
 20
8251.331684676733
 10
6239.757674662889
 20
8266.331684676734
 10
4453.807674663169
 20
8266.331684676734
 10
4453.807674663169
 20
7606.331684676735
 10
6239.757674662889
 20
7606.331684676735
 10
6239.757674662889
 20
7621.331684676736
 10
6254.757674662889
 20
7621.331684676736
 97
        0
 92
        7
 72
     0
 73
     1
 93
        6
 10
6254.757674662889
 20
7591.331684676735
 10
6239.757674662889
 20
7591.331684676735
 10
6239.757674662889
 20
7606.331684676735
 10
4453.807674663169
 20
7606.331684676735
 10
4453.807674663169
 20
6984.431684676827
 10
6254.757674662889
 20
6984.431684676827
 97
        0
 92
        7
 72
     0
 73
     1
 93
        4
 10
6294.707674663076
 20
7591.331684676735
 10
6254.757674662889
 20
7591.331684676735
 10
6254.757674662889
 20
7004.431684676827
 10
6294.707674663076
 20
7004.431684676827
 97
        0
 92
        7
 72
     0
 73
     1
 93
        4
 10
6294.707674663076
 20
8251.331684676733
 10
6254.757674662889
 20
8251.331684676733
 10
6254.757674662889
 20
7621.331684676736
 10
6294.707674663076
 20
7621.331684676736
 97
        0
 92
        7
 72
     0
 73
     1
 93
        6
 10
6294.707674663076
 20
8848.231684676873
 10
6284.307674663168
 20
8848.231684676873
 10
6269.307674663169
 20
8863.231684676874
 10
6254.757674662889
 20
8863.231684676874
 10
6254.757674662889
 20
8281.331684676734
 10
6294.707674663076
 20
8281.331684676734
 97
        0
 92
        7
 72
     0
 73
     1
 93
        6
 10
4453.807674663169
 20
8863.231684676874
 10
4385.457674663075
 20
8863.231684676874
 10
4385.457674663075
 20
8281.331684676734
 10
4400.457674663075
 20
8281.331684676734
 10
4400.457674663075
 20
8266.331684676734
 10
4453.807674663169
 20
8266.331684676734
 97
        0
 92
        7
 72
     0
 73
     1
 93
        8
 10
4453.807674663169
 20
8266.331684676734
 10
4400.457674663075
 20
8266.331684676734
 10
4400.457674663075
 20
8251.331684676733
 10
4385.457674663075
 20
8251.331684676733
 10
4385.457674663075
 20
7621.331684676736
 10
4400.457674663075
 20
7621.331684676736
 10
4400.457674663075
 20
7606.331684676735
 10
4453.807674663169
 20
7606.331684676735
 97
        0
 92
        7
 72
     0
 73
     1
 93
        4
 10
4385.457674663075
 20
8251.331684676733
 10
4345.507674662888
 20
8251.331684676733
 10
4345.507674662888
 20
7621.331684676736
 10
4385.457674663075
 20
7621.331684676736
 97
        0
 92
        7
 72
     0
 73
     1
 93
        6
 10
4385.457674663075
 20
8863.231684676874
 10
4370.907674663262
 20
8863.231684676874
 10
4355.907674663262
 20
8848.231684676873
 10
4345.507674662888
 20
8848.231684676873
 10
4345.507674662888
 20
8281.331684676734
 10
4385.457674663075
 20
8281.331684676734
 97
        0
 92
        7
 72
     0
 73
     1
 93
        6
 10
4453.807674663169
 20
7606.331684676735
 10
4400.457674663075
 20
7606.331684676735
 10
4400.457674663075
 20
7591.331684676735
 10
4385.457674663075
 20
7591.331684676735
 10
4385.457674663075
 20
7026.331684676735
 10
4453.807674663169
 20
7026.331684676735
 97
        0
 92
        7
 72
     0
 73
     1
 93
        4
 10
4385.457674663075
 20
7591.331684676735
 10
4345.507674662888
 20
7591.331684676735
 10
4345.507674662888
 20
7026.331684676735
 10
4385.457674663075
 20
7026.331684676735
 97
        0
 92
        7
 72
     0
 73
     1
 93
        4
 10
4453.807674663169
 20
7026.331684676735
 10
4385.457674663075
 20
7026.331684676735
 10
4385.457674663075
 20
6984.431684676827
 10
4453.807674663169
 20
6984.431684676827
 97
        0
 92
        7
 72
     0
 73
     1
 93
        4
 10
4385.457674663075
 20
7026.331684676735
 10
4345.507674662888
 20
7026.331684676735
 10
4345.507674662888
 20
7004.431684676827
 10
4385.457674663075
 20
7004.431684676827
 97
        0
 92
        7
 72
     0
 73
     1
 93
        4
 10
4385.457674663075
 20
7004.431684676827
 10
4345.507674662888
 20
7004.431684676827
 10
4345.507674662888
 20
6984.431684676827
 10
4385.457674663075
 20
6984.431684676827
 97
        0
 75
     0
 76
     1
 52
45.0
 41
600.0
 77
     0
 78
     2
 53
45.0
 43
553.440662465086
 44
484.66466816565
 45
-53.03300858899106
 46
53.03300858899106
 79
     0
 53
135.0
 43
553.440662465086
 44
484.66466816565
 45
-53.03300858899106
 46
-53.03300858899106
 79
     0
 47
1.203050486932353
 98
       15
 10
4834.980656062746
 20
8554.792407788374
 10
4800.708951771753
 20
8075.356482160781
 10
4894.957020500236
 20
7210.65991057855
 10
6265.811081309364
 20
7375.112605676791
 10
6280.033044855603
 20
8053.672482961593
 10
6276.477113005268
 20
8476.439812079574
 10
4416.839405883131
 20
8607.858609644265
 10
4432.080877667785
 20
8096.135274744396
 10
4365.017343501587
 20
8099.181643162195
 10
4371.114990528234
 20
8361.134511464079
 10
4423.109910708414
 20
7243.063030651341
 10
4367.751318882713
 20
7262.586412250101
 10
4424.813794720014
 20
7004.228770676106
 10
4372.120387926725
 20
7016.911903188601
 10
4361.285026142867
 20
6994.053388165581
  0
TEXT
  5
467
330
1F
100
AcDbEntity
  8
寸法
  6
Continuous
100
AcDbText
 10
2457.293046341904
 20
6956.45955899641
 30
0.0
 40
150.0
  1
▽GL
 41
0.75
  7
1_100
 72
     1
 11
2627.650189199047
 21
6956.45955899641
 31
0.0
100
AcDbText
 73
     1
  0
LEADER
  5
468
330
1F
100
AcDbEntity
  8
寸法引出
  6
Continuous
100
AcDbLeader
  3
1_50
 71
     0
 73
     0
 75
     1
 40
150.0
 41
547.5000000000001
 76
     3
 10
4282.570761304842
 20
7004.988864768335
 30
0.0
 10
3768.646183151314
 20
7332.241312220265
 30
0.0
 10
3738.646183151315
 20
7332.241312220265
 30
0.0
340
469
1001
ACAD
1000
DSTYLE
1002
{
1002
}
  0
MTEXT
  5
469
102
{ACAD_REACTORS
330
468
102
}
330
1F
100
AcDbEntity
  8
寸法文字
  6
Continuous
100
AcDbMText
 10
3688.646183151315
 20
7382.241312220265
 30
0.0
 40
150.0
 41
0.0
 71
     9
 72
     1
  1
FRP被覆
  7
1_100
 73
     1
 44
1.0
1001
ACAD
1000
MTEXTBEGIN
1070
    73
1070
     1
1070
    44
1040
1.0
1070
    74
1070
     0
1000
MTEXTEND
  0
LINE
  5
46A
330
1F
100
AcDbEntity
  8
画層3-通り芯
  6
DASHDOT
 48
50.0
100
AcDbLine
 10
6320.107674662982
 20
6379.962129544971
 30
0.0
 11
6320.107674662982
 21
8926.331684676966
 31
0.0
  0
LINE
  5
46B
102
{ACAD_REACTORS
330
9C4
102
}
330
1F
100
AcDbEntity
  8
画層3-1
  6
Continuous
100
AcDbLine
 10
4294.707674663075
 20
8863.231684676874
 30
0.0
 11
4294.707674663075
 21
6726.331684676735
 31
0.0
  0
LINE
  5
46C
330
1F
100
AcDbEntity
  8
画層3-1
  6
Continuous
100
AcDbLine
 10
6254.757674662889
 20
7004.431684676827
 30
0.0
 11
6385.457674663076
 21
7004.431684676827
 31
0.0
  0
LINE
  5
46D
330
1F
100
AcDbEntity
  8
画層3-1
  6
Continuous
100
AcDbLine
 10
4294.707674663075
 20
6984.431684676827
 30
0.0
 11
6294.707674663076
 21
6984.431684676827
 31
0.0
  0
LINE
  5
46E
330
1F
100
AcDbEntity
  8
画層3-1
  6
Continuous
100
AcDbLine
 10
4294.707674663075
 20
6946.331684676735
 30
0.0
 11
6294.707674663076
 21
6946.331684676735
 31
0.0
  0
LINE
  5
46F
330
1F
100
AcDbEntity
  8
画層3-1
  6
Continuous
100
AcDbLine
 10
6294.707674663076
 20
6726.331684676735
 30
0.0
 11
6345.50767466289
 21
6726.331684676735
 31
0.0
  0
DIMENSION
  5
470
330
1F
100
AcDbEntity
  8
寸法
  6
Continuous
100
AcDbDimension
  2
*D8
 10
6445.107674662982
 20
6256.331684676735
 30
0.0
 11
6320.107674662982
 21
6131.331684676735
 31
0.0
 70
    32
  1
□<>
 71
     5
 42
250.0
  3
1_50
100
AcDbAlignedDimension
 13
6195.107674662982
 23
6476.331684676735
 33
0.0
 14
6445.107674662982
 24
6476.331684676735
 34
0.0
100
AcDbRotatedDimension
1001
ACAD
1000
DSTYLE
1002
{
1070
    77
1070
     2
1070
   174
1070
     1
1002
}
  0
LINE
  5
471
330
1F
100
AcDbEntity
  8
画層2-1
  6
Continuous
100
AcDbLine
 10
4262.957674663074
 20
6776.331684676735
 30
0.0
 11
4377.257674662888
 21
6776.331684676735
 31
0.0
  0
LINE
  5
472
102
{ACAD_REACTORS
330
9C4
102
}
330
1F
100
AcDbEntity
  8
画層3-1
  6
Continuous
100
AcDbLine
 10
4294.707674663075
 20
6726.331684676735
 30
0.0
 11
4345.507674662888
 21
6726.331684676735
 31
0.0
  0
LEADER
  5
473
330
1F
100
AcDbEntity
  8
寸法引出
  6
Continuous
100
AcDbLeader
  3
1_50
 71
     0
 73
     0
 74
     0
 75
     1
 40
150.0
 41
773.5714285714282
 76
     3
 10
4545.107674662982
 20
6254.365487904092
 30
0.0
 10
4745.143944055334
 20
6402.163560302034
 30
0.0
 10
4775.143944055335
 20
6402.163560302034
 30
0.0
340
474
1001
ACAD
1000
DSTYLE
1002
{
1002
}
  0
MTEXT
  5
474
102
{ACAD_REACTORS
330
473
102
}
330
1F
100
AcDbEntity
  8
寸法文字
  6
Continuous
100
AcDbMText
 10
4825.143944055334
 20
6452.163560302034
 30
0.0
 40
150.0
 41
0.0
 71
     7
 72
     1
  1
コンクリート
  7
1_100
 73
     1
 44
1.0
1001
ACAD
1000
MTEXTBEGIN
1070
    73
1070
     1
1070
    44
1040
1.0
1070
    74
1070
     0
1000
MTEXTEND
  0
LEADER
  5
475
330
1F
100
AcDbEntity
  8
寸法引出
  6
Continuous
100
AcDbLeader
  3
1_50
 71
     0
 73
     0
 74
     0
 75
     1
 40
150.0
 41
247.5
 76
     3
 10
4545.107674662982
 20
5875.637031787579
 30
0.0
 10
4784.84609761604
 20
6043.364562556185
 30
0.0
 10
4814.84609761604
 20
6043.364562556185
 30
0.0
340
476
1001
ACAD
1000
DSTYLE
1002
{
1002
}
  0
MTEXT
  5
476
102
{ACAD_REACTORS
330
475
102
}
330
1F
100
AcDbEntity
  8
寸法文字
  6
Continuous
100
AcDbMText
 10
4864.846097616041
 20
6093.364562556185
 30
0.0
 40
150.0
 41
0.0
 71
     7
 72
     1
  1
砕石
  7
1_100
 73
     1
 44
1.0
1001
ACAD
1000
MTEXTBEGIN
1070
    73
1070
     1
1070
    44
1040
1.0
1070
    74
1070
     0
1000
MTEXTEND
  0
DIMENSION
  5
477
330
1F
100
AcDbEntity
  8
寸法
  6
Continuous
100
AcDbDimension
  2
*D9
 10
6320.107674662982
 20
4676.331684676735
 30
0.0
 11
5320.107674662982
 21
4815.617398962451
 31
0.0
 70
    32
 71
     5
 42
2000.0
  3
1_50
100
AcDbAlignedDimension
 13
4320.107674662982
 23
5102.895131448554
 33
0.0
 14
6320.107674662982
 24
5683.864212883441
 34
0.0
100
AcDbRotatedDimension
  0
DIMENSION
  5
478
330
1F
100
AcDbEntity
  8
寸法
  6
Continuous
100
AcDbDimension
  2
*D10
 10
5975.107674662982
 20
6476.331684676735
 30
0.0
 11
5850.10767466298
 21
6701.331684676738
 31
0.0
 70
    32
 71
     5
 42
450.0
  3
1_50
100
AcDbAlignedDimension
 13
6195.107674662982
 23
6926.331684676735
 33
0.0
 14
6195.107674662982
 24
6476.331684676735
 34
0.0
 50
90.0
100
AcDbRotatedDimension
  0
LWPOLYLINE
  5
479
330
1F
100
AcDbEntity
  8
画層3-2
100
AcDbPolyline
 90
        4
 70
     0
 43
0.0
 10
6445.107674662982
 20
6926.331684676735
 10
6445.107674662982
 20
6476.331684676735
 10
6195.107674662982
 20
6476.331684676735
 10
6195.107674662982
 20
6926.331684676735
  0
LINE
  5
47A
102
{ACAD_REACTORS
330
9C4
102
}
330
1F
100
AcDbEntity
  8
画層3-1
  6
Continuous
100
AcDbLine
 10
4345.507674662888
 20
6946.331684676735
 30
0.0
 11
4345.507674662888
 21
6726.331684676735
 31
0.0
  0
LINE
  5
47B
330
1F
100
AcDbEntity
  8
画層3-1
  6
Continuous
100
AcDbLine
 10
6294.707674663076
 20
6946.331684676967
 30
0.0
 11
6294.707674663076
 21
6726.331684676735
 31
0.0
  0
LINE
  5
47C
330
1F
100
AcDbEntity
  8
画層3-1
  6
Continuous
100
AcDbLine
 10
6345.50767466289
 20
6946.331684676735
 30
0.0
 11
6345.50767466289
 21
6726.331684676735
 31
0.0
  0
HATCH
  5
47D
330
1F
100
AcDbEntity
  8
画層3-3
100
AcDbHatch
 10
0.0
 20
0.0
 30
0.0
210
0.0
220
0.0
230
1.0
  2
PLAST
 70
     0
 71
     0
 91
        1
 92
        7
 72
     0
 73
     1
 93
        4
 10
6445.107674662982
 20
6926.331684676735
 10
6195.107674662982
 20
6926.331684676735
 10
6195.107674662982
 20
6476.331684676735
 10
6445.107674662982
 20
6476.331684676735
 97
        0
 75
     0
 76
     1
 52
45.0
 41
1800.0
 77
     0
 78
     3
 53
45.0
 43
177.7650188971588
 44
484.66466816565
 45
-318.1980515339463
 46
318.1980515339464
 79
     0
 53
45.0
 43
137.9902624553347
 44
524.4394246074741
 45
-318.1980515339463
 46
318.1980515339464
 79
     0
 53
45.0
 43
98.21550601351058
 44
564.2141810490653
 45
-318.1980515339463
 46
318.1980515339464
 79
     0
 47
2.4753793195157
 98
        1
 10
6434.000872426692
 20
6685.539132684507
  0
LEADER
  5
47E
330
1F
100
AcDbEntity
  8
寸法引出
  6
Continuous
100
AcDbLeader
  3
1_50
 71
     0
 73
     0
 75
     1
 40
150.0
 41
547.5000000000001
 76
     3
 10
8009.933918949711
 20
7606.331684676735
 30
0.0
 10
7778.784283985877
 20
7844.851783941305
 30
0.0
 10
7748.784283985877
 20
7844.851783941305
 30
0.0
340
47F
1001
ACAD
1000
DSTYLE
1002
{
1002
}
  0
MTEXT
  5
47F
102
{ACAD_REACTORS
330
47E
102
}
330
1F
100
AcDbEntity
  8
寸法文字
  6
Continuous
100
AcDbMText
 10
7698.784283985877
 20
7894.851783941304
 30
0.0
 40
150.0
 41
0.0
 71
     9
 72
     1
  1
4mm線
  7
1_100
 73
     1
 44
1.0
1001
ACAD
1000
MTEXTBEGIN
1070
    73
1070
     1
1070
    44
1040
1.0
1070
    74
1070
     0
1000
MTEXTEND
  0
LINE
  5
480
330
1F
100
AcDbEntity
  8
寸法引出
  6
Continuous
100
AcDbLine
 10
7778.784283985877
 20
7844.851783941305
 30
0.0
 11
8002.904956438142
 21
8266.331684676734
 31
0.0
  0
LINE
  5
481
330
1F
100
AcDbEntity
  8
画層3-1
  6
Continuous
100
AcDbLine
 10
6269.307674663169
 20
8901.331684676733
 30
0.0
 11
6269.307674663169
 21
8863.231684676874
 31
0.0
  0
LINE
  5
482
330
1F
100
AcDbEntity
  8
画層3-1
  6
Continuous
100
AcDbLine
 10
6370.907674663262
 20
8863.231684676874
 30
0.0
 11
6370.907674663262
 21
8901.331684676733
 31
0.0
  0
LINE
  5
483
330
1F
100
AcDbEntity
  8
画層1
  6
Continuous
100
AcDbLine
 10
4427.257674662889
 20
8901.331684676733
 30
0.0
 11
4427.257674662889
 21
8951.331684676734
 31
0.0
  0
CIRCLE
  5
484
330
1F
100
AcDbEntity
  8
画層1
  6
Continuous
100
AcDbCircle
 10
4402.257674662888
 20
8926.331684676734
 30
0.0
 40
10.9509940156
  0
LINE
  5
485
330
1F
100
AcDbEntity
  8
画層1
  6
Continuous
100
AcDbLine
 10
4212.957674663075
 20
8951.331684676734
 30
0.0
 11
4212.957674663075
 21
8901.331684676733
 31
0.0
  0
CIRCLE
  5
486
330
1F
100
AcDbEntity
  8
画層1
  6
Continuous
100
AcDbCircle
 10
4237.957674663074
 20
8926.331684676734
 30
0.0
 40
10.9509940156
  0
LINE
  5
487
330
1F
100
AcDbEntity
  8
画層1
  6
Continuous
100
AcDbLine
 10
4295.107674662982
 20
8951.331684676734
 30
0.0
 11
4295.107674662982
 21
8901.331684676733
 31
0.0
  0
LINE
  5
488
330
1F
100
AcDbEntity
  8
画層1
  6
Continuous
100
AcDbLine
 10
4345.107674662982
 20
8901.331684676733
 30
0.0
 11
4345.107674662982
 21
8951.331684676734
 31
0.0
  0
ARC
  5
489
330
1F
100
AcDbEntity
  8
画層3-1
  6
Continuous
100
AcDbCircle
 10
4332.314715692801
 20
8865.676990656917
 30
0.0
 40
37.68645720078001
100
AcDbArc
 50
108.8995839705499
 51
183.7202809701205
  0
LINE
  5
48A
330
1F
100
AcDbEntity
  8
画層3-1
  6
Continuous
100
AcDbLine
 10
4370.907674663262
 20
8863.231684676874
 30
0.0
 11
4370.907674663262
 21
8901.331684676733
 31
0.0
  0
LINE
  5
48B
330
1F
100
AcDbEntity
  8
画層1
  6
Continuous
100
AcDbLine
 10
4427.257674662889
 20
8951.331684676734
 30
0.0
 11
4212.957674663075
 21
8951.331684676734
 31
0.0
  0
LINE
  5
48C
330
1F
100
AcDbEntity
  8
画層1
  6
Continuous
100
AcDbLine
 10
4212.957674663075
 20
8901.331684676733
 30
0.0
 11
4427.257674662889
 21
8901.331684676733
 31
0.0
  0
LWPOLYLINE
  5
48D
330
1F
100
AcDbEntity
  8
画層1
100
AcDbPolyline
 90
        4
 70
     1
 43
0.0
 10
4477.257674662888
 20
8946.332678990939
 10
4657.257674662888
 20
8946.332678990939
 10
4657.257674662888
 20
8906.33267899094
 10
4477.257674662888
 20
8906.33267899094
  0
LINE
  5
48E
330
1F
100
AcDbEntity
  8
画層3-1
  6
Continuous
100
AcDbLine
 10
4360.50767466289
 20
8863.231684676874
 30
0.0
 11
6279.707674663075
 21
8863.231684676641
 31
0.0
  0
LINE
  5
48F
330
1F
100
AcDbEntity
  8
画層3-1
  6
Continuous
100
AcDbLine
 10
6355.907674663262
 20
8848.231684676873
 30
0.0
 11
6284.307674663168
 21
8848.231684676873
 31
0.0
  0
LINE
  5
490
330
1F
100
AcDbEntity
  8
画層3-1
  6
Continuous
100
AcDbLine
 10
6400.457674663076
 20
8251.331684676733
 30
0.0
 11
6400.457674663076
 21
8281.331684676734
 31
0.0
  0
LINE
  5
491
330
1F
100
AcDbEntity
  8
画層3-1
  6
Continuous
100
AcDbLine
 10
6239.757674662889
 20
8281.331684676734
 30
0.0
 11
6239.757674662889
 21
8251.331684676733
 31
0.0
  0
LINE
  5
492
330
1F
100
AcDbEntity
  8
画層3-1
  6
Continuous
100
AcDbLine
 10
6400.457674663076
 20
8281.331684676734
 30
0.0
 11
6239.757674662889
 21
8281.331684676734
 31
0.0
  0
LINE
  5
493
330
1F
100
AcDbEntity
  8
画層3-1
  6
Continuous
100
AcDbLine
 10
6239.757674662889
 20
8251.331684676733
 30
0.0
 11
6400.457674663076
 21
8251.331684676733
 31
0.0
  0
LINE
  5
494
330
1F
100
AcDbEntity
  8
画層3-1
  6
Continuous
100
AcDbLine
 10
6294.707674663076
 20
8848.231684676873
 30
0.0
 11
6294.707674663076
 21
8281.331684676734
 31
0.0
  0
LINE
  5
495
330
1F
100
AcDbEntity
  8
画層3-1
  6
Continuous
100
AcDbLine
 10
6345.50767466289
 20
8848.231684676873
 30
0.0
 11
6345.50767466289
 21
8281.331684676734
 31
0.0
  0
LINE
  5
496
330
1F
100
AcDbEntity
  8
画層3-1
  6
Continuous
100
AcDbLine
 10
6400.457674663076
 20
7621.331684676736
 30
0.0
 11
6239.757674662889
 21
7621.331684676736
 31
0.0
  0
LINE
  5
497
330
1F
100
AcDbEntity
  8
画層3-1
  6
Continuous
100
AcDbLine
 10
6239.757674662889
 20
7591.331684676735
 30
0.0
 11
6400.457674663076
 21
7591.331684676735
 31
0.0
  0
LINE
  5
498
330
1F
100
AcDbEntity
  8
画層3-1
  6
Continuous
100
AcDbLine
 10
6239.757674662889
 20
7621.331684676736
 30
0.0
 11
6239.757674662889
 21
7591.331684676735
 31
0.0
  0
LINE
  5
499
330
1F
100
AcDbEntity
  8
画層3-1
  6
Continuous
100
AcDbLine
 10
6400.457674663076
 20
7591.331684676735
 30
0.0
 11
6400.457674663076
 21
7621.331684676736
 31
0.0
  0
LINE
  5
49A
330
1F
100
AcDbEntity
  8
画層3-2
  6
Continuous
100
AcDbLine
 10
6385.457674663076
 20
8251.331684676733
 30
0.0
 11
6385.457674663076
 21
7621.331684676736
 31
0.0
  0
LINE
  5
49B
330
1F
100
AcDbEntity
  8
画層3-2
  6
Continuous
100
AcDbLine
 10
6254.757674662889
 20
7621.331684676736
 30
0.0
 11
6254.757674662889
 21
8251.331684676733
 31
0.0
  0
LINE
  5
49C
330
1F
100
AcDbEntity
  8
画層3-1
  6
Continuous
100
AcDbLine
 10
6294.707674663076
 20
8251.331684676733
 30
0.0
 11
6294.707674663076
 21
7621.331684676736
 31
0.0
  0
LINE
  5
49D
330
1F
100
AcDbEntity
  8
画層3-1
  6
Continuous
100
AcDbLine
 10
6345.50767466289
 20
8251.331684676733
 30
0.0
 11
6345.50767466289
 21
7621.331684676736
 31
0.0
  0
LINE
  5
49E
330
1F
100
AcDbEntity
  8
画層3-1
  6
Continuous
100
AcDbLine
 10
4355.907674663262
 20
8848.231684676873
 30
0.0
 11
4294.707674663075
 21
8848.231684676873
 31
0.0
  0
LINE
  5
49F
330
1F
100
AcDbEntity
  8
画層3-1
  6
Continuous
100
AcDbLine
 10
4400.457674663075
 20
8251.331684676733
 30
0.0
 11
4400.457674663075
 21
8281.331684676734
 31
0.0
  0
LINE
  5
4A0
330
1F
100
AcDbEntity
  8
画層3-1
  6
Continuous
100
AcDbLine
 10
4400.457674663075
 20
8281.331684676734
 30
0.0
 11
4294.707674663075
 21
8281.331684676734
 31
0.0
  0
LINE
  5
4A1
330
1F
100
AcDbEntity
  8
画層3-1
  6
Continuous
100
AcDbLine
 10
4294.707674663075
 20
8251.331684676733
 30
0.0
 11
4400.457674663075
 21
8251.331684676733
 31
0.0
  0
LINE
  5
4A2
330
1F
100
AcDbEntity
  8
画層3-1
  6
Continuous
100
AcDbLine
 10
4345.507674662888
 20
8848.231684676873
 30
0.0
 11
4345.507674662888
 21
8281.331684676734
 31
0.0
  0
LINE
  5
4A3
330
1F
100
AcDbEntity
  8
画層3-1
  6
Continuous
100
AcDbLine
 10
4400.457674663075
 20
7621.331684676736
 30
0.0
 11
4294.707674663075
 21
7621.331684676736
 31
0.0
  0
LINE
  5
4A4
330
1F
100
AcDbEntity
  8
画層3-1
  6
Continuous
100
AcDbLine
 10
4294.707674663075
 20
7591.331684676735
 30
0.0
 11
4400.457674663075
 21
7591.331684676735
 31
0.0
  0
LINE
  5
4A5
330
1F
100
AcDbEntity
  8
画層3-1
  6
Continuous
100
AcDbLine
 10
4400.457674663075
 20
7591.331684676735
 30
0.0
 11
4400.457674663075
 21
7621.331684676736
 31
0.0
  0
LINE
  5
4A6
330
1F
100
AcDbEntity
  8
画層2-1
  6
Continuous
100
AcDbLine
 10
4262.957674663074
 20
7026.331684676735
 30
0.0
 11
4377.257674662888
 21
7026.331684676735
 31
0.0
  0
LINE
  5
4A7
330
1F
100
AcDbEntity
  8
画層3-2
  6
Continuous
100
AcDbLine
 10
4385.457674663075
 20
8251.331684676733
 30
0.0
 11
4385.457674663075
 21
7621.331684676736
 31
0.0
  0
LINE
  5
4A8
330
1F
100
AcDbEntity
  8
画層3-1
  6
Continuous
100
AcDbLine
 10
4345.507674662888
 20
8251.331684676733
 30
0.0
 11
4345.507674662888
 21
7621.331684676736
 31
0.0
  0
LINE
  5
4A9
330
1F
100
AcDbEntity
  8
画層3-2
  6
Continuous
100
AcDbLine
 10
4400.457674663075
 20
8266.331684676734
 30
0.0
 11
6239.757674662889
 21
8266.331684676734
 31
0.0
  0
LINE
  5
4AA
330
1F
100
AcDbEntity
  8
画層3-2
  6
Continuous
100
AcDbLine
 10
6239.757674662889
 20
7606.331684676735
 30
0.0
 11
4400.457674663075
 21
7606.331684676735
 31
0.0
  0
LINE
  5
4AB
330
1F
100
AcDbEntity
  8
画層3-1
  6
Continuous
100
AcDbLine
 10
6269.307674663169
 20
8863.231684676874
 30
0.0
 11
6284.307674663168
 21
8848.231684676873
 31
0.0
  0
LINE
  5
4AC
330
1F
100
AcDbEntity
  8
画層3-1
  6
Continuous
100
AcDbLine
 10
4355.907674663262
 20
8848.231684676873
 30
0.0
 11
4370.907674663262
 21
8863.231684676874
 31
0.0
  0
ARC
  5
4AD
330
1F
100
AcDbEntity
  8
画層3-1
  6
Continuous
100
AcDbCircle
 10
4360.50767466289
 20
8848.231684676873
 30
0.0
 40
15.0
100
AcDbArc
 50
90.0
 51
180.0
  0
ARC
  5
4AE
330
1F
100
AcDbEntity
  8
画層3-1
  6
Continuous
100
AcDbCircle
 10
6279.707674663075
 20
8848.231684676873
 30
0.0
 40
15.0
100
AcDbArc
 50
0.0
 51
90.0
  0
LINE
  5
4AF
330
1F
100
AcDbEntity
  8
画層3-1
  6
Continuous
100
AcDbLine
 10
6355.907674663262
 20
8848.231684676873
 30
0.0
 11
6370.907674663262
 21
8863.231684676874
 31
0.0
  0
ARC
  5
4B0
330
1F
100
AcDbEntity
  8
画層3-1
  6
Continuous
100
AcDbCircle
 10
6360.50767466289
 20
8848.231684676873
 30
0.0
 40
15.0
100
AcDbArc
 50
90.0
 51
180.0
  0
LINE
  5
4B1
330
1F
100
AcDbEntity
  8
画層3-2
  6
Continuous
100
AcDbLine
 10
4385.457674663075
 20
8863.231684676874
 30
0.0
 11
4385.457674663075
 21
8281.331684676734
 31
0.0
  0
LINE
  5
4B2
330
1F
100
AcDbEntity
  8
画層3-2
  6
Continuous
100
AcDbLine
 10
6254.757674662889
 20
8281.331684676734
 30
0.0
 11
6254.757674662889
 21
8863.231684676874
 31
0.0
  0
LINE
  5
4B3
330
1F
100
AcDbEntity
  8
画層3-2
  6
Continuous
100
AcDbLine
 10
6385.457674663076
 20
8863.231684676874
 30
0.0
 11
6385.457674663076
 21
8281.331684676734
 31
0.0
  0
LEADER
  5
4B4
330
1F
100
AcDbEntity
  8
寸法引出
  6
Continuous
100
AcDbLeader
  3
1_50
 71
     0
 73
     0
 74
     0
 75
     1
 40
150.0
 41
1317.857142857143
 76
     3
 10
6345.50767466289
 20
8404.706953151421
 30
0.0
 10
6563.265026401757
 20
8594.400712974406
 30
0.0
 10
6593.265026401756
 20
8594.400712974406
 30
0.0
340
4B5
1001
ACAD
1000
DSTYLE
1002
{
1002
}
  0
MTEXT
  5
4B5
102
{ACAD_REACTORS
330
4B4
102
}
330
1F
100
AcDbEntity
  8
寸法文字
  6
Continuous
100
AcDbMText
 10
6643.265026401755
 20
8644.400712974407
 30
0.0
 40
150.0
 41
0.0
 71
     7
 72
     1
  1
主柱φ50.8×2.3ｔ
  7
1_100
 73
     1
 44
1.0
1001
ACAD
1000
MTEXTBEGIN
1070
    73
1070
     1
1070
    44
1040
1.0
1070
    74
1070
     0
1000
MTEXTEND
  0
MTEXT
  5
4B6
330
1F
100
AcDbEntity
  8
寸法文字
  6
Continuous
100
AcDbMText
 10
3627.060549438493
 20
7311.938664604247
 30
0.0
 40
150.0
 41
0.0
 71
     3
 72
     1
  1
（250）
  7
1_100
 73
     1
 44
1.0
1001
ACAD
1000
MTEXTBEGIN
1070
    73
1070
     1
1070
    44
1040
1.0
1070
    74
1070
     0
1000
MTEXTEND
  0
LINE
  5
4B7
330
1F
100
AcDbEntity
  8
ﾊｯﾁﾝｸﾞ
  6
Continuous
100
AcDbLine
 10
4413.464257554644
 20
5926.331684676735
 30
0.0
 11
4429.571390861672
 21
5904.488609048343
 31
0.0
  0
LINE
  5
4B8
102
{ACAD_REACTORS
330
9C4
102
}
330
1F
100
AcDbEntity
  8
ﾊｯﾁﾝｸﾞ
  6
Continuous
100
AcDbLine
 10
4321.861717176186
 20
5926.331684676735
 30
0.0
 11
4337.968850483213
 21
5904.488609048343
 31
0.0
  0
LINE
  5
4B9
330
1F
100
AcDbEntity
  8
ﾊｯﾁﾝｸﾞ
  6
Continuous
100
AcDbLine
 10
4305.683213017907
 20
5848.5682446035
 30
0.0
 11
4318.521496877568
 21
5826.331684676733
 31
0.0
  0
LINE
  5
4BA
330
1F
100
AcDbEntity
  8
ﾊｯﾁﾝｸﾞ
  6
Continuous
100
AcDbLine
 10
4397.285753396366
 20
5848.5682446035
 30
0.0
 11
4410.12403725556
 21
5826.331684676733
 31
0.0
  0
LINE
  5
4BB
330
1F
100
AcDbEntity
  8
ﾊｯﾁﾝｸﾞ
  6
Continuous
100
AcDbLine
 10
4292.844929158249
 20
5826.331684676733
 30
0.0
 11
4350.579956077067
 21
5926.331684676735
 31
0.0
  0
LINE
  5
4BC
330
1F
100
AcDbEntity
  8
ﾊｯﾁﾝｸﾞ
  6
Continuous
100
AcDbLine
 10
4384.447469536708
 20
5826.331684676733
 30
0.0
 11
4442.182496455525
 21
5926.331684676735
 31
0.0
  0
LINE
  5
4BD
330
1F
100
AcDbEntity
  8
ﾊｯﾁﾝｸﾞ
  6
Continuous
100
AcDbLine
 10
4230.259176797726
 20
5926.331684676735
 30
0.0
 11
4246.366310104755
 21
5904.488609048343
 31
0.0
  0
LINE
  5
4BE
330
1F
100
AcDbEntity
  8
ﾊｯﾁﾝｸﾞ
  6
Continuous
100
AcDbLine
 10
4214.080672639449
 20
5848.5682446035
 30
0.0
 11
4226.918956498642
 21
5826.331684676733
 31
0.0
  0
LINE
  5
4BF
330
1F
100
AcDbEntity
  8
ﾊｯﾁﾝｸﾞ
  6
Continuous
100
AcDbLine
 10
4201.242388779792
 20
5826.331684676733
 30
0.0
 11
4258.977415698608
 21
5926.331684676735
 31
0.0
  0
LINE
  5
4C0
102
{ACAD_REACTORS
330
9C4
102
}
330
1F
100
AcDbEntity
  8
画層2
  6
Continuous
100
AcDbLine
 10
4545.107674662982
 20
5926.331684676735
 30
0.0
 11
4095.107674662982
 21
5926.331684676735
 31
0.0
  0
LINE
  5
4C1
330
1F
100
AcDbEntity
  8
ﾊｯﾁﾝｸﾞ
  6
Continuous
100
AcDbLine
 10
4109.639848401331
 20
5826.331684676733
 30
0.0
 11
4167.374875320148
 21
5926.331684676735
 31
0.0
  0
LINE
  5
4C2
330
1F
100
AcDbEntity
  8
ﾊｯﾁﾝｸﾞ
  6
Continuous
100
AcDbLine
 10
4122.478132260989
 20
5848.5682446035
 30
0.0
 11
4135.316416120184
 21
5826.331684676733
 31
0.0
  0
LINE
  5
4C3
330
1F
100
AcDbEntity
  8
ﾊｯﾁﾝｸﾞ
  6
Continuous
100
AcDbLine
 10
4138.656636419266
 20
5926.331684676735
 30
0.0
 11
4154.763769726296
 21
5904.488609048343
 31
0.0
  0
LINE
  5
4C4
330
1F
100
AcDbEntity
  8
ﾊｯﾁﾝｸﾞ
  6
Continuous
100
AcDbLine
 10
4476.050009915167
 20
5826.331684676733
 30
0.0
 11
4533.785036833984
 21
5926.331684676735
 31
0.0
  0
LINE
  5
4C5
330
1F
100
AcDbEntity
  8
ﾊｯﾁﾝｸﾞ
  6
Continuous
100
AcDbLine
 10
4488.888293774826
 20
5848.5682446035
 30
0.0
 11
4501.726577634019
 21
5826.331684676733
 31
0.0
  0
LINE
  5
4C6
330
1F
100
AcDbEntity
  8
ﾊｯﾁﾝｸﾞ
  6
Continuous
100
AcDbLine
 10
4505.066797933102
 20
5926.331684676735
 30
0.0
 11
4521.173931240131
 21
5904.488609048343
 31
0.0
  0
LWPOLYLINE
  5
4C7
102
{ACAD_REACTORS
330
9C4
102
}
330
1F
100
AcDbEntity
  8
画層2
100
AcDbPolyline
 90
        8
 70
     0
 43
0.0
 10
4070.107674662983
 20
6926.331684676735
 10
4070.107674662983
 20
6626.331684676735
 10
4095.107674662982
 20
6626.331684676735
 10
4095.107674662982
 20
5826.331684676733
 10
4545.107674662982
 20
5826.331684676733
 10
4545.107674662982
 20
6626.331684676735
 10
4570.107674662982
 20
6626.331684676735
 10
4570.107674662982
 20
6926.331684676735
  0
LINE
  5
4C8
330
1F
100
AcDbEntity
  8
ﾊｯﾁﾝｸﾞ
  6
Continuous
100
AcDbLine
 10
4625.963374878772
 20
6926.331684676735
 30
0.0
 11
4570.107674662982
 21
6870.475984461177
 31
0.0
  0
LINE
  5
4C9
330
1F
100
AcDbEntity
  8
ﾊｯﾁﾝｸﾞ
  6
Continuous
100
AcDbLine
 10
4705.159334371825
 20
6926.331684676735
 30
0.0
 11
4585.159334371359
 21
6806.331684676734
 31
0.0
  0
LINE
  5
4CA
330
1F
100
AcDbEntity
  8
ﾊｯﾁﾝｸﾞ
  6
Continuous
100
AcDbLine
 10
4784.355293864876
 20
6926.331684676735
 30
0.0
 11
4664.35529386441
 21
6806.331684676734
 31
0.0
  0
LINE
  5
4CB
330
1F
100
AcDbEntity
  8
ﾊｯﾁﾝｸﾞ
  6
Continuous
100
AcDbLine
 10
4692.685032337931
 20
6834.661423149789
 30
0.0
 11
4721.014770810518
 21
6806.331684676734
 31
0.0
  0
LINE
  5
4CC
330
1F
100
AcDbEntity
  8
ﾊｯﾁﾝｸﾞ
  6
Continuous
100
AcDbLine
 10
4732.283012084224
 20
6874.259402896315
 30
0.0
 11
4800.210730303572
 21
6806.331684676734
 31
0.0
  0
LINE
  5
4CD
330
1F
100
AcDbEntity
  8
ﾊｯﾁﾝｸﾞ
  6
Continuous
100
AcDbLine
 10
4771.880991830983
 20
6913.857382642607
 30
0.0
 11
4879.406689796624
 21
6806.331684676734
 31
0.0
  0
LINE
  5
4CE
330
1F
100
AcDbEntity
  8
ﾊｯﾁﾝｸﾞ
  6
Continuous
100
AcDbLine
 10
4930.272910817087
 20
6834.661423149789
 30
0.0
 11
4958.602649289677
 21
6806.331684676734
 31
0.0
  0
LINE
  5
4CF
330
1F
100
AcDbEntity
  8
ﾊｯﾁﾝｸﾞ
  6
Continuous
100
AcDbLine
 10
4969.870890563381
 20
6874.259402896315
 30
0.0
 11
5037.798608783194
 21
6806.331684676734
 31
0.0
  0
LINE
  5
4D0
330
1F
100
AcDbEntity
  8
ﾊｯﾁﾝｸﾞ
  6
Continuous
100
AcDbLine
 10
4863.551253357929
 20
6926.331684676968
 30
0.0
 11
4811.478971577276
 21
6874.259402896315
 31
0.0
  0
LINE
  5
4D1
330
1F
100
AcDbEntity
  8
ﾊｯﾁﾝｸﾞ
  6
Continuous
100
AcDbLine
 10
4942.747212851447
 20
6926.331684676735
 30
0.0
 11
4851.07695132357
 21
6834.661423149789
 31
0.0
  0
LINE
  5
4D2
330
1F
100
AcDbEntity
  8
ﾊｯﾁﾝｸﾞ
  6
Continuous
100
AcDbLine
 10
5021.943172344498
 20
6926.331684676735
 30
0.0
 11
4901.943172343568
 21
6806.331684676734
 31
0.0
  0
LINE
  5
4D3
330
1F
100
AcDbEntity
  8
ﾊｯﾁﾝｸﾞ
  6
Continuous
100
AcDbLine
 10
5009.46887031014
 20
6913.857382642607
 30
0.0
 11
5063.231719293192
 21
6860.094533659554
 31
0.0
  0
LINE
  5
4D4
330
1F
100
AcDbEntity
  8
ﾊｯﾁﾝｸﾞ
  6
Continuous
100
AcDbLine
 10
3630.746479015825
 20
6913.857382642607
 30
0.0
 11
3576.983630032772
 21
6860.094533659554
 31
0.0
  0
LINE
  5
4D5
330
1F
100
AcDbEntity
  8
ﾊｯﾁﾝｸﾞ
  6
Continuous
100
AcDbLine
 10
3618.272176981466
 20
6926.331684676735
 30
0.0
 11
3738.272176982397
 21
6806.331684676734
 31
0.0
  0
LINE
  5
4D6
330
1F
100
AcDbEntity
  8
ﾊｯﾁﾝｸﾞ
  6
Continuous
100
AcDbLine
 10
3697.468136474518
 20
6926.331684676735
 30
0.0
 11
3789.13839800193
 21
6834.661423149556
 31
0.0
  0
LINE
  5
4D7
330
1F
100
AcDbEntity
  8
ﾊｯﾁﾝｸﾞ
  6
Continuous
100
AcDbLine
 10
3776.664095967571
 20
6926.331684676968
 30
0.0
 11
3828.736377748689
 21
6874.259402896315
 31
0.0
  0
LINE
  5
4D8
330
1F
100
AcDbEntity
  8
ﾊｯﾁﾝｸﾞ
  6
Continuous
100
AcDbLine
 10
3670.344458762119
 20
6874.259402896315
 30
0.0
 11
3602.416740542771
 21
6806.331684676734
 31
0.0
  0
LINE
  5
4D9
330
1F
100
AcDbEntity
  8
ﾊｯﾁﾝｸﾞ
  6
Continuous
100
AcDbLine
 10
3709.942438508877
 20
6834.661423149789
 30
0.0
 11
3681.612700035824
 21
6806.331684676734
 31
0.0
  0
LINE
  5
4DA
330
1F
100
AcDbEntity
  8
ﾊｯﾁﾝｸﾞ
  6
Continuous
100
AcDbLine
 10
3868.334357494982
 20
6913.857382642607
 30
0.0
 11
3760.808659529342
 21
6806.331684676734
 31
0.0
  0
LINE
  5
4DB
330
1F
100
AcDbEntity
  8
ﾊｯﾁﾝｸﾞ
  6
Continuous
100
AcDbLine
 10
3907.932337241275
 20
6874.259402896315
 30
0.0
 11
3840.004619021929
 21
6806.331684676734
 31
0.0
  0
LINE
  5
4DC
330
1F
100
AcDbEntity
  8
ﾊｯﾁﾝｸﾞ
  6
Continuous
100
AcDbLine
 10
3947.530316988034
 20
6834.661423149789
 30
0.0
 11
3919.200578515447
 21
6806.331684676734
 31
0.0
  0
LINE
  5
4DD
330
1F
100
AcDbEntity
  8
ﾊｯﾁﾝｸﾞ
  6
Continuous
100
AcDbLine
 10
3855.860055460622
 20
6926.331684676735
 30
0.0
 11
3975.860055461554
 21
6806.331684676734
 31
0.0
  0
LINE
  5
4DE
330
1F
100
AcDbEntity
  8
ﾊｯﾁﾝｸﾞ
  6
Continuous
100
AcDbLine
 10
3935.056014953675
 20
6926.331684676735
 30
0.0
 11
4055.056014954605
 21
6806.331684676734
 31
0.0
  0
LINE
  5
4DF
330
1F
100
AcDbEntity
  8
ﾊｯﾁﾝｸﾞ
  6
Continuous
100
AcDbLine
 10
4014.251974447192
 20
6926.331684676735
 30
0.0
 11
4070.107674662983
 21
6870.475984461177
 31
0.0
  0
DIMENSION
  5
4E0
330
1F
100
AcDbEntity
  8
寸法
  6
Continuous
100
AcDbDimension
  2
*D11
 10
4570.107674662982
 20
5276.331684676733
 30
0.0
 11
4320.107674662982
 21
5151.331684676733
 31
0.0
 70
    32
  1
□<>
 71
     5
 42
499.9999999999994
  3
1_50
100
AcDbAlignedDimension
 13
4070.107674662983
 23
5826.331684676733
 33
0.0
 14
4570.107674662982
 24
5826.331684676733
 34
0.0
100
AcDbRotatedDimension
1001
ACAD
1000
DSTYLE
1002
{
1070
    77
1070
     2
1070
   174
1070
     1
1002
}
  0
DIMENSION
  5
4E1
330
1F
100
AcDbEntity
  8
寸法
  6
Continuous
100
AcDbDimension
  2
*D12
 10
4545.107674662982
 20
5576.331684676733
 30
0.0
 11
4320.107674662982
 21
5451.331684676734
 31
0.0
 70
    32
  1
φ<>
 71
     5
 42
449.9999999999994
  3
1_50
100
AcDbAlignedDimension
 13
4095.107674662982
 23
5826.331684676733
 33
0.0
 14
4545.107674662982
 24
5826.331684676733
 34
0.0
100
AcDbRotatedDimension
1001
ACAD
1000
DSTYLE
1002
{
1070
    77
1070
     2
1070
   174
1070
     1
1002
}
  0
DIMENSION
  5
4E3
330
1F
100
AcDbEntity
  8
寸法
  6
Continuous
100
AcDbDimension
  2
*D13
 10
17086.77434132949
 20
8926.331684676734
 30
0.0
 11
16947.48862704378
 21
7926.331684676735
 31
0.0
 70
    32
 71
     5
 42
1999.999999999999
  3
1_50
100
AcDbAlignedDimension
 13
16586.48972903102
 23
6926.331684676735
 33
0.0
 14
16586.48972903102
 24
8926.331684676734
 34
0.0
 50
90.0
100
AcDbRotatedDimension
  0
DIMENSION
  5
4E4
330
1F
100
AcDbEntity
  8
寸法
  6
Continuous
100
AcDbDimension
  2
*D14
 10
17086.77434132949
 20
5926.331684676735
 30
0.0
 11
16959.47431710877
 21
5634.82278823996
 31
0.0
 70
   160
 71
     5
 42
100.0
  3
1_50
100
AcDbAlignedDimension
 13
16586.48972903102
 23
5826.331684676733
 33
0.0
 14
16586.48972903102
 24
5926.331684676735
 34
0.0
 50
90.0
100
AcDbRotatedDimension
  0
DIMENSION
  5
4E5
330
1F
100
AcDbEntity
  8
寸法
  6
Continuous
100
AcDbDimension
  2
*D15
 10
17086.77434132949
 20
6626.331684676735
 30
0.0
 11
16961.77434132949
 21
6276.331684676737
 31
0.0
 70
    32
 71
     5
 42
700.0
  3
1_50
100
AcDbAlignedDimension
 13
16586.48972903102
 23
5926.331684676735
 33
0.0
 14
16586.48972903102
 24
6626.331684676735
 34
0.0
 50
90.0
100
AcDbRotatedDimension
  0
DIMENSION
  5
4E6
330
1F
100
AcDbEntity
  8
寸法
  6
Continuous
100
AcDbDimension
  2
*D16
 10
17086.77434132949
 20
6626.331684676735
 30
0.0
 11
17206.6887712614
 21
6741.47309680962
 31
0.0
 70
   160
 71
     5
 42
300.0
  3
1_50
100
AcDbAlignedDimension
 13
16586.48972903102
 23
6926.331684676735
 33
0.0
 14
16586.48972903102
 24
6626.331684676735
 34
0.0
 50
90.0
100
AcDbRotatedDimension
  0
DIMENSION
  5
4E7
330
1F
100
AcDbEntity
  8
寸法
  6
Continuous
100
AcDbDimension
  2
*D17
 10
17486.77434132949
 20
5926.331684676735
 30
0.0
 11
17347.48862704378
 21
6326.331684676739
 31
0.0
 70
   160
 71
     5
 42
1000.0
  3
1_50
100
AcDbAlignedDimension
 13
16586.48972903102
 23
6926.331684676735
 33
0.0
 14
16586.48972903102
 24
5926.331684676735
 34
0.0
 50
90.0
100
AcDbRotatedDimension
  0
LINE
  5
4E8
330
1F
100
AcDbEntity
  8
ﾊｯﾁﾝｸﾞ
  6
Continuous
100
AcDbLine
 10
16392.63004154528
 20
6926.331684676735
 30
0.0
 11
16336.77434132949
 21
6870.475984461177
 31
0.0
  0
LINE
  5
4E9
330
1F
100
AcDbEntity
  8
ﾊｯﾁﾝｸﾞ
  6
Continuous
100
AcDbLine
 10
16471.82600103834
 20
6926.331684676735
 30
0.0
 11
16351.8260010374
 21
6806.331684676734
 31
0.0
  0
LINE
  5
4EA
330
1F
100
AcDbEntity
  8
ﾊｯﾁﾝｸﾞ
  6
Continuous
100
AcDbLine
 10
16551.02196053139
 20
6926.331684676735
 30
0.0
 11
16431.02196053092
 21
6806.331684676734
 31
0.0
  0
LINE
  5
4EB
330
1F
100
AcDbEntity
  8
ﾊｯﾁﾝｸﾞ
  6
Continuous
100
AcDbLine
 10
16459.35169900444
 20
6834.661423149789
 30
0.0
 11
16487.68143747703
 21
6806.331684676734
 31
0.0
  0
LINE
  5
4EC
330
1F
100
AcDbEntity
  8
ﾊｯﾁﾝｸﾞ
  6
Continuous
100
AcDbLine
 10
16498.94967875074
 20
6874.259402896315
 30
0.0
 11
16566.87739697008
 21
6806.331684676734
 31
0.0
  0
LINE
  5
4ED
330
1F
100
AcDbEntity
  8
ﾊｯﾁﾝｸﾞ
  6
Continuous
100
AcDbLine
 10
16538.54765849703
 20
6913.857382642607
 30
0.0
 11
16646.07335646314
 21
6806.331684676734
 31
0.0
  0
LINE
  5
4EE
330
1F
100
AcDbEntity
  8
ﾊｯﾁﾝｸﾞ
  6
Continuous
100
AcDbLine
 10
16696.9395774836
 20
6834.661423149789
 30
0.0
 11
16725.26931595619
 21
6806.331684676734
 31
0.0
  0
LINE
  5
4EF
330
1F
100
AcDbEntity
  8
ﾊｯﾁﾝｸﾞ
  6
Continuous
100
AcDbLine
 10
16736.53755722989
 20
6874.259402896315
 30
0.0
 11
16804.46527544924
 21
6806.331684676734
 31
0.0
  0
LINE
  5
4F0
330
1F
100
AcDbEntity
  8
ﾊｯﾁﾝｸﾞ
  6
Continuous
100
AcDbLine
 10
16630.21792002444
 20
6926.331684676968
 30
0.0
 11
16578.14563824379
 21
6874.259402896315
 31
0.0
  0
LINE
  5
4F1
330
1F
100
AcDbEntity
  8
ﾊｯﾁﾝｸﾞ
  6
Continuous
100
AcDbLine
 10
16709.41387951796
 20
6926.331684676735
 30
0.0
 11
16617.74361799008
 21
6834.661423149789
 31
0.0
  0
LINE
  5
4F2
330
1F
100
AcDbEntity
  8
ﾊｯﾁﾝｸﾞ
  6
Continuous
100
AcDbLine
 10
16788.60983901055
 20
6926.331684676735
 30
0.0
 11
16668.60983900961
 21
6806.331684676734
 31
0.0
  0
LINE
  5
4F3
330
1F
100
AcDbEntity
  8
ﾊｯﾁﾝｸﾞ
  6
Continuous
100
AcDbLine
 10
16776.13553697665
 20
6913.857382642607
 30
0.0
 11
16829.89838595924
 21
6860.094533659554
 31
0.0
  0
TEXT
  5
4F4
330
1F
100
AcDbEntity
  8
寸法
  6
Continuous
100
AcDbText
 10
15384.03378184109
 20
6956.324053633064
 30
0.0
 40
150.0
  1
▽GL
 41
0.75
  7
1_100
 72
     1
 11
15554.39092469823
 21
6956.324053633064
 31
0.0
100
AcDbText
 73
     1
  0
DIMENSION
  5
4F5
330
1F
100
AcDbEntity
  8
寸法
  6
Continuous
100
AcDbDimension
  2
*D18
 10
14420.10767466298
 20
8926.331684676734
 30
0.0
 11
14280.82196037727
 21
7926.331684676735
 31
0.0
 70
    32
 71
     5
 42
2000.0
  3
1_50
100
AcDbAlignedDimension
 13
13720.10767466298
 23
6926.331684676735
 33
0.0
 14
13720.10767466298
 24
8926.331684676734
 34
0.0
 50
90.0
100
AcDbRotatedDimension
  0
LINE
  5
4F6
330
1F
100
AcDbEntity
  8
画層3-1
  6
Continuous
100
AcDbLine
 10
12294.70767466307
 20
7591.331684676735
 30
0.0
 11
12294.70767466307
 21
6984.431684676827
 31
0.0
  0
LINE
  5
4F7
330
1F
100
AcDbEntity
  8
画層3-1
  6
Continuous
100
AcDbLine
 10
12345.50767466289
 20
7591.331684676735
 30
0.0
 11
12345.50767466289
 21
6984.431684676827
 31
0.0
  0
LINE
  5
4F8
330
1F
100
AcDbEntity
  8
画層3-2
  6
Continuous
100
AcDbLine
 10
12385.45767466307
 20
7591.331684676735
 30
0.0
 11
12385.45767466307
 21
6926.331684676735
 31
0.0
  0
LINE
  5
4F9
330
1F
100
AcDbEntity
  8
画層3-2
  6
Continuous
100
AcDbLine
 10
12254.75767466289
 20
6926.331684676735
 30
0.0
 11
12254.75767466289
 21
7591.331684676735
 31
0.0
  0
LINE
  5
4FA
330
1F
100
AcDbEntity
  8
画層3-1
  6
Continuous
100
AcDbLine
 10
10345.50767466289
 20
7591.331684676735
 30
0.0
 11
10345.50767466289
 21
6984.431684676827
 31
0.0
  0
LINE
  5
4FB
330
1F
100
AcDbEntity
  8
画層3-2
  6
Continuous
100
AcDbLine
 10
10254.75767466289
 20
6926.331684676735
 30
0.0
 11
10254.75767466289
 21
7591.331684676735
 31
0.0
  0
LINE
  5
4FC
330
1F
100
AcDbEntity
  8
画層3-2
  6
Continuous
100
AcDbLine
 10
10385.45767466307
 20
7591.331684676735
 30
0.0
 11
10385.45767466307
 21
6926.331684676735
 31
0.0
  0
LINE
  5
4FD
330
1F
100
AcDbEntity
  8
画層3-1
  6
Continuous
100
AcDbLine
 10
10294.70767466307
 20
7591.331684676735
 30
0.0
 11
10294.70767466307
 21
6984.431684676827
 31
0.0
  0
HATCH
  5
4FE
330
1F
100
AcDbEntity
  8
画層3-3
 62
   230
370
    13
100
AcDbHatch
 10
0.0
 20
0.0
 30
0.0
210
0.0
220
0.0
230
1.0
  2
NET
 70
     0
 71
     0
 91
        8
 92
        7
 72
     0
 73
     1
 93
       12
 10
12294.70767466307
 20
8848.231684676873
 10
12284.30767466317
 20
8848.231684676873
 10
12269.30767466317
 20
8863.231684676874
 10
10370.90767466326
 20
8863.231684676874
 10
10355.90767466326
 20
8848.231684676873
 10
10345.50767466289
 20
8848.231684676873
 10
10345.50767466289
 20
8281.331684676734
 10
10400.45767466307
 20
8281.331684676734
 10
10400.45767466307
 20
8266.331684676734
 10
12239.75767466335
 20
8266.331684676734
 10
12239.75767466289
 20
8281.331684676734
 10
12294.70767466307
 20
8281.331684676734
 97
        0
 92
        7
 72
     0
 73
     1
 93
       12
 10
12294.70767466307
 20
8251.331684676733
 10
12239.75767466335
 20
8251.331684676733
 10
12239.75767466335
 20
8266.331684676734
 10
10400.45767466307
 20
8266.331684676734
 10
10400.45767466307
 20
8251.331684676733
 10
10345.50767466289
 20
8251.331684676733
 10
10345.50767466289
 20
7621.331684676736
 10
10400.45767466307
 20
7621.331684676736
 10
10400.45767466307
 20
7606.331684676735
 10
12239.75767466335
 20
7606.331684676968
 10
12239.75767466335
 20
7621.331684676736
 10
12294.70767466307
 20
7621.331684676736
 97
        0
 92
        7
 72
     0
 73
     1
 93
        8
 10
12294.70767466307
 20
7591.331684676735
 10
12239.75767466335
 20
7591.331684676735
 10
12239.75767466289
 20
7606.331684676735
 10
10400.45767466307
 20
7606.331684676735
 10
10400.45767466307
 20
7591.331684676735
 10
10345.50767466289
 20
7591.331684676735
 10
10345.50767466289
 20
6984.431684676827
 10
12294.70767466307
 20
6984.431684676827
 97
        0
 92
        7
 72
     0
 73
     1
 93
        7
 10
13470.79003306155
 20
7589.411627934352
 10
13466.54702377042
 20
7606.331684676735
 10
12400.45767466307
 20
7606.331684676735
 10
12400.45767466307
 20
7591.331684676735
 10
12345.50767466289
 20
7591.331684676735
 10
12345.50767466289
 20
6984.431684676595
 10
13470.79003306155
 20
6984.431684676595
 97
        0
 92
        7
 72
     0
 73
     1
 93
        8
 10
13301.04012418634
 20
8266.331684676734
 10
12400.45767466307
 20
8266.331684676734
 10
12400.45767466307
 20
8251.331684676733
 10
12345.50767466289
 20
8251.331684676733
 10
12345.50767466289
 20
7621.331684676736
 10
12400.45767466307
 20
7621.331684676736
 10
12400.45767466307
 20
7606.331684676968
 10
13466.54702376996
 20
7606.331684676735
 97
        0
 92
        7
 72
     0
 73
     1
 93
        8
 10
13151.35668727432
 20
8863.231684676874
 10
12370.90767466326
 20
8863.231684676874
 10
12355.90767466326
 20
8848.231684676873
 10
12345.50767466289
 20
8848.231684676873
 10
12345.50767466289
 20
8281.331684676734
 10
12400.45767466307
 20
8281.331684676734
 10
12400.45767466307
 20
8266.331684676734
 10
13301.04012418634
 20
8266.331684676734
 97
        0
 92
        7
 72
     0
 73
     1
 93
        4
 10
13470.79003306155
 20
8863.231684676874
 10
13151.35668727479
 20
8863.231684676874
 10
13301.04012418634
 20
8266.331684676734
 10
13470.79003306155
 20
8266.331684676734
 97
        0
 92
        7
 72
     0
 73
     1
 93
        4
 10
13470.79003306155
 20
8266.331684676734
 10
13301.04012418634
 20
8266.331684676734
 10
13466.54702376996
 20
7606.331684676735
 10
13470.79003306155
 20
7606.331684676735
 97
        0
 75
     0
 76
     1
 52
45.0
 41
600.0
 77
     0
 78
     2
 53
45.0
 43
-588611.4941542484
 44
-184981.496419387
 45
-53.03300858899106
 46
53.03300858899106
 79
     0
 53
135.0
 43
-588611.4941542484
 44
-184981.496419387
 45
-53.03300858899106
 46
-53.03300858899106
 79
     0
 47
13.43578113340746
 98
        8
 10
11583.12613126545
 20
8518.018238805504
 10
11542.78688506878
 20
7846.228523202277
 10
11489.00186356532
 20
7470.026460832255
 10
12779.84237964454
 20
7362.540953582423
 10
12793.29007522764
 20
7859.664072258668
 10
12739.50505372419
 20
8652.375958966361
 10
13277.35526875688
 20
8732.990368103413
 10
13384.9253117638
 20
8114.943963524224
  0
LINE
  5
4FF
330
1F
100
AcDbEntity
  8
画層3-通り芯
  6
DASHDOT
 48
50.0
100
AcDbLine
 10
12320.10767466298
 20
6379.962129544971
 30
0.0
 11
12320.10767466298
 21
8926.331684676966
 31
0.0
  0
LINE
  5
500
330
1F
100
AcDbEntity
  8
画層3-2
  6
Continuous
100
AcDbLine
 10
8385.457674663076
 20
7591.331684676735
 30
0.0
 11
8385.457674663076
 21
6926.331684676735
 31
0.0
  0
LINE
  5
501
330
1F
100
AcDbEntity
  8
画層3-1
  6
Continuous
100
AcDbLine
 10
8345.507674662888
 20
7591.331684676735
 30
0.0
 11
8345.507674662888
 21
6984.431684676827
 31
0.0
  0
LINE
  5
502
330
1F
100
AcDbEntity
  8
画層3-1
  6
Continuous
100
AcDbLine
 10
12254.75767466289
 20
7004.431684676827
 30
0.0
 11
12385.45767466307
 21
7004.431684676827
 31
0.0
  0
LINE
  5
503
330
1F
100
AcDbEntity
  8
画層3-1
  6
Continuous
100
AcDbLine
 10
10254.75767466289
 20
7004.431684676827
 30
0.0
 11
10385.45767466307
 21
7004.431684676827
 31
0.0
  0
LINE
  5
504
330
1F
100
AcDbEntity
  8
画層3-1
  6
Continuous
100
AcDbLine
 10
10345.50767466289
 20
6984.431684676827
 30
0.0
 11
12294.70767466307
 21
6984.431684676827
 31
0.0
  0
LINE
  5
505
330
1F
100
AcDbEntity
  8
画層3-1
  6
Continuous
100
AcDbLine
 10
10345.50767466289
 20
6946.331684676735
 30
0.0
 11
12294.70767466307
 21
6946.331684676735
 31
0.0
  0
LINE
  5
506
330
1F
100
AcDbEntity
  8
画層3-1
  6
Continuous
100
AcDbLine
 10
12345.50767466289
 20
6984.431684676595
 30
0.0
 11
13470.79003306155
 21
6984.431684676595
 31
0.0
  0
LINE
  5
507
330
1F
100
AcDbEntity
  8
画層3-1
  6
Continuous
100
AcDbLine
 10
12345.50767466289
 20
6946.331684676735
 30
0.0
 11
13470.79003306155
 21
6946.331684676735
 31
0.0
  0
DIMENSION
  5
508
330
1F
100
AcDbEntity
  8
寸法
  6
Continuous
100
AcDbDimension
  2
*D19
 10
14420.10767466298
 20
5926.331684676733
 30
0.0
 11
14285.82990714538
 21
5647.775615060274
 31
0.0
 70
   160
 71
     5
 42
100.0
  3
1_50
100
AcDbAlignedDimension
 13
13720.10767466298
 23
5826.331684676733
 33
0.0
 14
13720.10767466298
 24
5926.331684676735
 34
0.0
 50
90.0
100
AcDbRotatedDimension
  0
DIMENSION
  5
509
330
1F
100
AcDbEntity
  8
寸法
  6
Continuous
100
AcDbDimension
  2
*D20
 10
14420.10767466298
 20
6626.331684676732
 30
0.0
 11
14295.10767466298
 21
6276.331684676737
 31
0.0
 70
    32
 71
     5
 42
700.0
  3
1_50
100
AcDbAlignedDimension
 13
13720.10767466298
 23
5926.331684676735
 33
0.0
 14
13720.10767466298
 24
6626.331684676735
 34
0.0
 50
90.0
100
AcDbRotatedDimension
  0
LINE
  5
50A
330
1F
100
AcDbEntity
  8
画層3-1
  6
Continuous
100
AcDbLine
 10
12294.70767466307
 20
6726.331684676735
 30
0.0
 11
12345.50767466289
 21
6726.331684676735
 31
0.0
  0
LINE
  5
50B
330
1F
100
AcDbEntity
  8
画層2-1
  6
Continuous
100
AcDbLine
 10
10262.95767466307
 20
6776.331684676735
 30
0.0
 11
10377.25767466289
 21
6776.331684676735
 31
0.0
  0
LINE
  5
50C
102
{ACAD_REACTORS
330
9D9
102
}
330
1F
100
AcDbEntity
  8
画層3-1
  6
Continuous
100
AcDbLine
 10
10294.70767466307
 20
6726.331684676735
 30
0.0
 11
10345.50767466289
 21
6726.331684676735
 31
0.0
  0
TEXT
  5
50D
330
1F
100
AcDbEntity
  8
寸法
  6
Continuous
100
AcDbText
 10
12047.27229776608
 20
4383.219339657148
 30
0.0
 40
150.0
  1
6,000
 41
0.75
  7
1_100
 11
12047.27229776608
 21
4383.219339657148
 31
0.0
100
AcDbText
 73
     1
  0
DIMENSION
  5
50E
330
1F
100
AcDbEntity
  8
寸法
  6
Continuous
100
AcDbDimension
  2
*D21
 10
12320.10767466298
 20
4676.331684676735
 30
0.0
 11
11320.10767466298
 21
4815.617398962451
 31
0.0
 70
    32
 71
     5
 42
2000.0
  3
1_50
100
AcDbAlignedDimension
 13
10320.10767466298
 23
5683.864212883441
 33
0.0
 14
12320.10767466298
 24
5683.864212883441
 34
0.0
100
AcDbRotatedDimension
  0
TEXT
  5
50F
330
1F
100
AcDbEntity
  8
寸法
  6
Continuous
100
AcDbText
 10
12676.15513550539
 20
4748.726572279623
 30
0.0
 40
150.0
  1
2,000
 41
0.75
  7
1_100
 11
12676.15513550539
 21
4748.726572279623
 31
0.0
100
AcDbText
 73
     1
  0
DIMENSION
  5
510
330
1F
100
AcDbEntity
  8
寸法
  6
Continuous
100
AcDbDimension
  2
*D22
 10
14420.10767466298
 20
6626.331684676732
 30
0.0
 11
14546.35710834109
 21
6731.132044500943
 31
0.0
 70
   160
 71
     5
 42
300.0
  3
1_50
100
AcDbAlignedDimension
 13
13720.10767466298
 23
6926.331684676735
 33
0.0
 14
13720.10767466298
 24
6626.331684676735
 34
0.0
 50
90.0
100
AcDbRotatedDimension
  0
DIMENSION
  5
511
330
1F
100
AcDbEntity
  8
寸法
  6
Continuous
100
AcDbDimension
  2
*D23
 10
14820.10767466251
 20
5926.331684676733
 30
0.0
 11
14680.8219603768
 21
6326.331684676738
 31
0.0
 70
   160
 71
     5
 42
1000.0
  3
1_50
100
AcDbAlignedDimension
 13
13720.10767466298
 23
6926.331684676735
 33
0.0
 14
13720.10767466298
 24
5926.331684676735
 34
0.0
 50
90.0
100
AcDbRotatedDimension
  0
LINE
  5
512
330
1F
100
AcDbEntity
  8
画層3-1
  6
Continuous
100
AcDbLine
 10
12345.50767466289
 20
6946.331684676735
 30
0.0
 11
12345.50767466289
 21
6726.331684676735
 31
0.0
  0
LINE
  5
513
330
1F
100
AcDbEntity
  8
画層3-1
  6
Continuous
100
AcDbLine
 10
12294.70767466307
 20
6946.331684676967
 30
0.0
 11
12294.70767466307
 21
6726.331684676735
 31
0.0
  0
LINE
  5
514
102
{ACAD_REACTORS
330
9D9
102
}
330
1F
100
AcDbEntity
  8
画層3-1
  6
Continuous
100
AcDbLine
 10
10345.50767466289
 20
6946.331684676735
 30
0.0
 11
10345.50767466289
 21
6726.331684676735
 31
0.0
  0
LINE
  5
515
102
{ACAD_REACTORS
330
9D9
102
}
330
1F
100
AcDbEntity
  8
画層3-1
  6
Continuous
100
AcDbLine
 10
10294.70767466307
 20
6946.331684676967
 30
0.0
 11
10294.70767466307
 21
6726.331684676735
 31
0.0
  0
HATCH
  5
516
330
1F
100
AcDbEntity
  8
画層3-3
100
AcDbHatch
 10
0.0
 20
0.0
 30
0.0
210
0.0
220
0.0
230
1.0
  2
PLAST
 70
     0
 71
     0
 91
        1
 92
        7
 72
     0
 73
     1
 93
        4
 10
12445.10767466298
 20
6926.331684676735
 10
12195.10767466298
 20
6926.331684676735
 10
12195.10767466298
 20
6476.331684676735
 10
12445.10767466298
 20
6476.331684676735
 97
        0
 75
     0
 76
     1
 52
45.0
 41
1800.0
 77
     0
 78
     3
 53
45.0
 43
6177.765018897158
 44
484.66466816565
 45
-318.1980515339463
 46
318.1980515339464
 79
     0
 53
45.0
 43
6137.990262455335
 44
524.4394246074741
 45
-318.1980515339463
 46
318.1980515339464
 79
     0
 53
45.0
 43
6098.215506013509
 44
564.2141810490653
 45
-318.1980515339463
 46
318.1980515339464
 79
     0
 47
2.4753793195157
 98
        1
 10
12434.00087242669
 20
6685.539132684507
  0
LWPOLYLINE
  5
517
330
1F
100
AcDbEntity
  8
画層3-2
100
AcDbPolyline
 90
        4
 70
     0
 43
0.0
 10
12445.10767466298
 20
6926.331684676735
 10
12445.10767466298
 20
6476.331684676735
 10
12195.10767466298
 20
6476.331684676735
 10
12195.10767466298
 20
6926.331684676735
  0
LINE
  5
518
330
1F
100
AcDbEntity
  8
画層3-1
  6
Continuous
100
AcDbLine
 10
8345.507674662888
 20
6946.331684676735
 30
0.0
 11
8345.507674662888
 21
6726.331684676735
 31
0.0
  0
LINE
  5
519
330
1F
100
AcDbEntity
  8
画層3-1
  6
Continuous
100
AcDbLine
 10
8345.507674662888
 20
6984.431684676827
 30
0.0
 11
10294.70767466307
 21
6984.431684676827
 31
0.0
  0
LINE
  5
51A
330
1F
100
AcDbEntity
  8
画層3-1
  6
Continuous
100
AcDbLine
 10
8345.507674662888
 20
6946.331684676735
 30
0.0
 11
10294.70767466307
 21
6946.331684676735
 31
0.0
  0
LINE
  5
51B
330
1F
100
AcDbEntity
  8
画層3-1
  6
Continuous
100
AcDbLine
 10
12269.30767466317
 20
8901.331684676733
 30
0.0
 11
12269.30767466317
 21
8863.231684676874
 31
0.0
  0
LINE
  5
51C
330
1F
100
AcDbEntity
  8
画層3-1
  6
Continuous
100
AcDbLine
 10
12370.90767466326
 20
8863.231684676874
 30
0.0
 11
12370.90767466326
 21
8901.331684676733
 31
0.0
  0
LINE
  5
51D
330
1F
100
AcDbEntity
  8
画層1
  6
Continuous
100
AcDbLine
 10
10427.25767466289
 20
8901.331684676733
 30
0.0
 11
10427.25767466289
 21
8951.331684676734
 31
0.0
  0
LINE
  5
51E
330
1F
100
AcDbEntity
  8
画層1
  6
Continuous
100
AcDbLine
 10
10295.10767466298
 20
8951.331684676734
 30
0.0
 11
10295.10767466298
 21
8901.331684676733
 31
0.0
  0
CIRCLE
  5
51F
330
1F
100
AcDbEntity
  8
画層1
  6
Continuous
100
AcDbCircle
 10
10237.95767466307
 20
8926.331684676734
 30
0.0
 40
10.9509940156
  0
LINE
  5
520
330
1F
100
AcDbEntity
  8
画層1
  6
Continuous
100
AcDbLine
 10
10212.95767466307
 20
8951.331684676734
 30
0.0
 11
10212.95767466307
 21
8901.331684676733
 31
0.0
  0
LINE
  5
521
330
1F
100
AcDbEntity
  8
画層1
  6
Continuous
100
AcDbLine
 10
10345.10767466298
 20
8901.331684676733
 30
0.0
 11
10345.10767466298
 21
8951.331684676734
 31
0.0
  0
LINE
  5
522
330
1F
100
AcDbEntity
  8
画層3-1
  6
Continuous
100
AcDbLine
 10
10370.90767466326
 20
8863.231684676874
 30
0.0
 11
10370.90767466326
 21
8901.331684676733
 31
0.0
  0
LINE
  5
523
330
1F
100
AcDbEntity
  8
画層3-1
  6
Continuous
100
AcDbLine
 10
10269.30767466317
 20
8901.331684676733
 30
0.0
 11
10269.30767466317
 21
8863.231684676874
 31
0.0
  0
LINE
  5
524
330
1F
100
AcDbEntity
  8
画層1
  6
Continuous
100
AcDbLine
 10
10427.25767466289
 20
8951.331684676734
 30
0.0
 11
10212.95767466307
 21
8951.331684676734
 31
0.0
  0
LINE
  5
525
330
1F
100
AcDbEntity
  8
画層1
  6
Continuous
100
AcDbLine
 10
10212.95767466307
 20
8901.331684676733
 30
0.0
 11
10427.25767466289
 21
8901.331684676733
 31
0.0
  0
CIRCLE
  5
526
330
1F
100
AcDbEntity
  8
画層1
  6
Continuous
100
AcDbCircle
 10
10402.25767466289
 20
8926.331684676734
 30
0.0
 40
10.9509940156
  0
LINE
  5
527
330
1F
100
AcDbEntity
  8
画層3-1
  6
Continuous
100
AcDbLine
 10
10360.50767466289
 20
8863.231684676874
 30
0.0
 11
12279.70767466307
 21
8863.231684676874
 31
0.0
  0
LINE
  5
528
330
1F
100
AcDbEntity
  8
画層3-1
  6
Continuous
100
AcDbLine
 10
12355.90767466326
 20
8848.231684676873
 30
0.0
 11
12284.30767466317
 21
8848.231684676873
 31
0.0
  0
LINE
  5
529
330
1F
100
AcDbEntity
  8
画層3-1
  6
Continuous
100
AcDbLine
 10
12400.45767466307
 20
8251.331684676733
 30
0.0
 11
12400.45767466307
 21
8281.331684676734
 31
0.0
  0
LINE
  5
52A
330
1F
100
AcDbEntity
  8
画層3-1
  6
Continuous
100
AcDbLine
 10
12239.75767466289
 20
8281.331684676734
 30
0.0
 11
12239.75767466289
 21
8251.331684676733
 31
0.0
  0
LINE
  5
52B
330
1F
100
AcDbEntity
  8
画層3-1
  6
Continuous
100
AcDbLine
 10
12400.45767466307
 20
8281.331684676734
 30
0.0
 11
12239.75767466289
 21
8281.331684676734
 31
0.0
  0
LINE
  5
52C
330
1F
100
AcDbEntity
  8
画層3-1
  6
Continuous
100
AcDbLine
 10
12239.75767466289
 20
8251.331684676733
 30
0.0
 11
12400.45767466307
 21
8251.331684676733
 31
0.0
  0
LINE
  5
52D
330
1F
100
AcDbEntity
  8
画層3-1
  6
Continuous
100
AcDbLine
 10
12294.70767466307
 20
8848.231684676873
 30
0.0
 11
12294.70767466307
 21
8281.331684676734
 31
0.0
  0
LINE
  5
52E
330
1F
100
AcDbEntity
  8
画層3-1
  6
Continuous
100
AcDbLine
 10
12345.50767466289
 20
8848.231684676873
 30
0.0
 11
12345.50767466289
 21
8281.331684676734
 31
0.0
  0
LINE
  5
52F
330
1F
100
AcDbEntity
  8
画層3-1
  6
Continuous
100
AcDbLine
 10
12400.45767466307
 20
7621.331684676736
 30
0.0
 11
12239.75767466289
 21
7621.331684676736
 31
0.0
  0
LINE
  5
530
330
1F
100
AcDbEntity
  8
画層3-1
  6
Continuous
100
AcDbLine
 10
12239.75767466289
 20
7591.331684676735
 30
0.0
 11
12400.45767466307
 21
7591.331684676735
 31
0.0
  0
LINE
  5
531
330
1F
100
AcDbEntity
  8
画層3-1
  6
Continuous
100
AcDbLine
 10
12239.75767466289
 20
7621.331684676736
 30
0.0
 11
12239.75767466289
 21
7591.331684676735
 31
0.0
  0
LINE
  5
532
330
1F
100
AcDbEntity
  8
画層3-1
  6
Continuous
100
AcDbLine
 10
12400.45767466307
 20
7591.331684676735
 30
0.0
 11
12400.45767466307
 21
7621.331684676736
 31
0.0
  0
LINE
  5
533
330
1F
100
AcDbEntity
  8
画層3-1
  6
Continuous
100
AcDbLine
 10
12294.70767466307
 20
8251.331684676733
 30
0.0
 11
12294.70767466307
 21
7621.331684676736
 31
0.0
  0
LINE
  5
534
330
1F
100
AcDbEntity
  8
画層3-1
  6
Continuous
100
AcDbLine
 10
12345.50767466289
 20
8251.331684676733
 30
0.0
 11
12345.50767466289
 21
7621.331684676736
 31
0.0
  0
LINE
  5
535
330
1F
100
AcDbEntity
  8
画層3-2
  6
Continuous
100
AcDbLine
 10
12385.45767466307
 20
8251.331684676733
 30
0.0
 11
12385.45767466307
 21
7621.331684676736
 31
0.0
  0
LINE
  5
536
330
1F
100
AcDbEntity
  8
画層3-2
  6
Continuous
100
AcDbLine
 10
12254.75767466289
 20
7621.331684676736
 30
0.0
 11
12254.75767466289
 21
8251.331684676733
 31
0.0
  0
LINE
  5
537
330
1F
100
AcDbEntity
  8
画層3-1
  6
Continuous
100
AcDbLine
 10
10355.90767466326
 20
8848.231684676873
 30
0.0
 11
10284.30767466317
 21
8848.231684676873
 31
0.0
  0
LINE
  5
538
330
1F
100
AcDbEntity
  8
画層3-1
  6
Continuous
100
AcDbLine
 10
10400.45767466307
 20
8251.331684676733
 30
0.0
 11
10400.45767466307
 21
8281.331684676734
 31
0.0
  0
LINE
  5
539
330
1F
100
AcDbEntity
  8
画層3-1
  6
Continuous
100
AcDbLine
 10
10239.75767466289
 20
8281.331684676734
 30
0.0
 11
10239.75767466289
 21
8251.331684676733
 31
0.0
  0
LINE
  5
53A
330
1F
100
AcDbEntity
  8
画層3-1
  6
Continuous
100
AcDbLine
 10
10400.45767466307
 20
8281.331684676734
 30
0.0
 11
10239.75767466289
 21
8281.331684676734
 31
0.0
  0
LINE
  5
53B
330
1F
100
AcDbEntity
  8
画層3-1
  6
Continuous
100
AcDbLine
 10
10239.75767466289
 20
8251.331684676733
 30
0.0
 11
10400.45767466307
 21
8251.331684676733
 31
0.0
  0
LINE
  5
53C
330
1F
100
AcDbEntity
  8
画層3-1
  6
Continuous
100
AcDbLine
 10
10345.50767466289
 20
8848.231684676873
 30
0.0
 11
10345.50767466289
 21
8281.331684676734
 31
0.0
  0
LINE
  5
53D
330
1F
100
AcDbEntity
  8
画層3-1
  6
Continuous
100
AcDbLine
 10
10294.70767466307
 20
8848.231684676873
 30
0.0
 11
10294.70767466307
 21
8281.331684676734
 31
0.0
  0
LINE
  5
53E
330
1F
100
AcDbEntity
  8
画層3-1
  6
Continuous
100
AcDbLine
 10
10400.45767466307
 20
7621.331684676736
 30
0.0
 11
10239.75767466289
 21
7621.331684676736
 31
0.0
  0
LINE
  5
53F
330
1F
100
AcDbEntity
  8
画層3-1
  6
Continuous
100
AcDbLine
 10
10239.75767466289
 20
7591.331684676735
 30
0.0
 11
10400.45767466307
 21
7591.331684676735
 31
0.0
  0
LINE
  5
540
330
1F
100
AcDbEntity
  8
画層3-1
  6
Continuous
100
AcDbLine
 10
10400.45767466307
 20
7591.331684676735
 30
0.0
 11
10400.45767466307
 21
7621.331684676736
 31
0.0
  0
LINE
  5
541
330
1F
100
AcDbEntity
  8
画層3-1
  6
Continuous
100
AcDbLine
 10
10239.75767466289
 20
7621.331684676736
 30
0.0
 11
10239.75767466289
 21
7591.331684676735
 31
0.0
  0
LINE
  5
542
330
1F
100
AcDbEntity
  8
画層2-1
  6
Continuous
100
AcDbLine
 10
10262.95767466307
 20
7026.331684676735
 30
0.0
 11
10377.25767466289
 21
7026.331684676735
 31
0.0
  0
LINE
  5
543
330
1F
100
AcDbEntity
  8
画層3-1
  6
Continuous
100
AcDbLine
 10
10345.50767466289
 20
8251.331684676733
 30
0.0
 11
10345.50767466289
 21
7621.331684676736
 31
0.0
  0
LINE
  5
544
330
1F
100
AcDbEntity
  8
画層3-2
  6
Continuous
100
AcDbLine
 10
10254.75767466289
 20
7621.331684676736
 30
0.0
 11
10254.75767466289
 21
8251.331684676733
 31
0.0
  0
LINE
  5
545
330
1F
100
AcDbEntity
  8
画層3-2
  6
Continuous
100
AcDbLine
 10
10385.45767466307
 20
8251.331684676733
 30
0.0
 11
10385.45767466307
 21
7621.331684676736
 31
0.0
  0
LINE
  5
546
330
1F
100
AcDbEntity
  8
画層3-1
  6
Continuous
100
AcDbLine
 10
10294.70767466307
 20
8251.331684676733
 30
0.0
 11
10294.70767466307
 21
7621.331684676736
 31
0.0
  0
LINE
  5
547
330
1F
100
AcDbEntity
  8
画層3-2
  6
Continuous
100
AcDbLine
 10
10400.45767466307
 20
8266.331684676734
 30
0.0
 11
12239.75767466335
 21
8266.331684676734
 31
0.0
  0
LINE
  5
548
330
1F
100
AcDbEntity
  8
画層3-2
  6
Continuous
100
AcDbLine
 10
12239.75767466335
 20
7606.331684676735
 30
0.0
 11
10400.45767466307
 21
7606.331684676735
 31
0.0
  0
LINE
  5
549
330
1F
100
AcDbEntity
  8
画層3-1
  6
Continuous
100
AcDbLine
 10
12269.30767466317
 20
8863.231684676874
 30
0.0
 11
12284.30767466317
 21
8848.231684676873
 31
0.0
  0
LINE
  5
54A
330
1F
100
AcDbEntity
  8
画層3-1
  6
Continuous
100
AcDbLine
 10
10355.90767466326
 20
8848.231684676873
 30
0.0
 11
10370.90767466326
 21
8863.231684676874
 31
0.0
  0
LINE
  5
54B
330
1F
100
AcDbEntity
  8
画層3-1
  6
Continuous
100
AcDbLine
 10
12355.90767466326
 20
8848.231684676873
 30
0.0
 11
12370.90767466326
 21
8863.231684676874
 31
0.0
  0
LINE
  5
54C
330
1F
100
AcDbEntity
  8
画層3-2
  6
Continuous
100
AcDbLine
 10
12254.75767466289
 20
8281.331684676734
 30
0.0
 11
12254.75767466289
 21
8863.231684676874
 31
0.0
  0
LINE
  5
54D
330
1F
100
AcDbEntity
  8
画層3-2
  6
Continuous
100
AcDbLine
 10
12385.45767466307
 20
8863.231684676874
 30
0.0
 11
12385.45767466307
 21
8281.331684676734
 31
0.0
  0
ARC
  5
54E
330
1F
100
AcDbEntity
  8
画層3-1
  6
Continuous
100
AcDbCircle
 10
12279.70767466307
 20
8848.231684676873
 30
0.0
 40
15.0
100
AcDbArc
 50
0.0
 51
90.0
  0
ARC
  5
54F
330
1F
100
AcDbEntity
  8
画層3-1
  6
Continuous
100
AcDbCircle
 10
12360.50767466289
 20
8848.231684676873
 30
0.0
 40
15.0
100
AcDbArc
 50
90.0
 51
180.0
  0
ARC
  5
550
330
1F
100
AcDbEntity
  8
画層3-1
  6
Continuous
100
AcDbCircle
 10
10360.50767466289
 20
8848.231684676873
 30
0.0
 40
15.0
100
AcDbArc
 50
90.0
 51
180.0
  0
LINE
  5
551
330
1F
100
AcDbEntity
  8
画層3-1
  6
Continuous
100
AcDbLine
 10
10269.30767466317
 20
8863.231684676874
 30
0.0
 11
10284.30767466317
 21
8848.231684676873
 31
0.0
  0
ARC
  5
552
330
1F
100
AcDbEntity
  8
画層3-1
  6
Continuous
100
AcDbCircle
 10
10279.70767466307
 20
8848.231684676873
 30
0.0
 40
15.0
100
AcDbArc
 50
0.0
 51
90.0
  0
LINE
  5
553
330
1F
100
AcDbEntity
  8
画層3-2
  6
Continuous
100
AcDbLine
 10
10385.45767466307
 20
8863.231684676874
 30
0.0
 11
10385.45767466307
 21
8281.331684676734
 31
0.0
  0
LINE
  5
554
330
1F
100
AcDbEntity
  8
画層3-2
  6
Continuous
100
AcDbLine
 10
10254.75767466289
 20
8281.331684676734
 30
0.0
 11
10254.75767466289
 21
8863.231684676874
 31
0.0
  0
LINE
  5
555
330
1F
100
AcDbEntity
  8
画層3-2
  6
Continuous
100
AcDbLine
 10
13470.79003306155
 20
7606.331684676735
 30
0.0
 11
12400.45767466307
 21
7606.331684676735
 31
0.0
  0
LINE
  5
556
330
1F
100
AcDbEntity
  8
画層3-2
  6
Continuous
100
AcDbLine
 10
12400.45767466307
 20
8266.331684676734
 30
0.0
 11
13470.79003306155
 21
8266.331684676734
 31
0.0
  0
LINE
  5
557
330
1F
100
AcDbEntity
  8
画層3-1
  6
Continuous
100
AcDbLine
 10
12360.50767466289
 20
8863.231684676874
 30
0.0
 11
13470.79003306155
 21
8863.231684676874
 31
0.0
  0
LINE
  5
558
330
1F
100
AcDbEntity
  8
画層3-1
  6
Continuous
100
AcDbLine
 10
8370.907674663262
 20
8863.231684676874
 30
0.0
 11
8370.907674663262
 21
8901.331684676733
 31
0.0
  0
LINE
  5
559
330
1F
100
AcDbEntity
  8
画層3-1
  6
Continuous
100
AcDbLine
 10
8400.457674663076
 20
8251.331684676733
 30
0.0
 11
8400.457674663076
 21
8281.331684676734
 31
0.0
  0
LINE
  5
55A
330
1F
100
AcDbEntity
  8
画層3-1
  6
Continuous
100
AcDbLine
 10
8345.507674662888
 20
8848.231684676873
 30
0.0
 11
8345.507674662888
 21
8281.331684676734
 31
0.0
  0
LINE
  5
55B
330
1F
100
AcDbEntity
  8
画層3-1
  6
Continuous
100
AcDbLine
 10
8400.457674663076
 20
7591.331684676735
 30
0.0
 11
8400.457674663076
 21
7621.331684676736
 31
0.0
  0
LINE
  5
55C
330
1F
100
AcDbEntity
  8
画層3-2
  6
Continuous
100
AcDbLine
 10
8385.457674663076
 20
8251.331684676733
 30
0.0
 11
8385.457674663076
 21
7621.331684676736
 31
0.0
  0
LINE
  5
55D
330
1F
100
AcDbEntity
  8
画層3-1
  6
Continuous
100
AcDbLine
 10
8345.507674662888
 20
8251.331684676733
 30
0.0
 11
8345.507674662888
 21
7621.331684676736
 31
0.0
  0
ARC
  5
55E
330
1F
100
AcDbEntity
  8
画層3-1
  6
Continuous
100
AcDbCircle
 10
8360.507674662889
 20
8848.231684676873
 30
0.0
 40
15.0
100
AcDbArc
 50
90.0
 51
180.0
  0
LINE
  5
55F
330
1F
100
AcDbEntity
  8
画層3-1
  6
Continuous
100
AcDbLine
 10
8355.907674663262
 20
8848.231684676873
 30
0.0
 11
8370.907674663262
 21
8863.231684676874
 31
0.0
  0
LINE
  5
560
330
1F
100
AcDbEntity
  8
画層3-2
  6
Continuous
100
AcDbLine
 10
8385.457674663076
 20
8863.231684676874
 30
0.0
 11
8385.457674663076
 21
8281.331684676734
 31
0.0
  0
MTEXT
  5
561
330
1F
100
AcDbEntity
  8
寸法文字
  6
Continuous
100
AcDbMText
 10
9320.107674662983
 20
7969.719847688954
 30
0.0
 40
150.0
 41
0.0
 71
     8
 72
     1
  1
カラーハガネ線
  7
1_100
 73
     1
 44
1.0
1001
ACAD
1000
MTEXTBEGIN
1070
    73
1070
     1
1070
    44
1040
1.0
1070
    74
1070
     0
1000
MTEXTEND
  0
MTEXT
  5
562
330
1F
100
AcDbEntity
  8
寸法文字
  6
Continuous
100
AcDbMText
 10
9317.633704805308
 20
7707.614915991938
 30
0.0
 40
150.0
 41
0.0
 71
     8
 72
     1
  1
φ2.6×40mm目
  7
1_100
 73
     1
 44
1.0
1001
ACAD
1000
MTEXTBEGIN
1070
    73
1070
     1
1070
    44
1040
1.0
1070
    74
1070
     0
1000
MTEXTEND
  0
LINE
  5
563
330
1F
100
AcDbEntity
  8
画層3-1
  6
Continuous
100
AcDbLine
 10
8360.507674662889
 20
8863.231684676874
 30
0.0
 11
10279.70767466307
 21
8863.231684676874
 31
0.0
  0
LINE
  5
564
330
1F
100
AcDbEntity
  8
画層3-2
  6
Continuous
100
AcDbLine
 10
10239.75767466289
 20
7606.331684676735
 30
0.0
 11
8400.457674663076
 21
7606.331684676735
 31
0.0
  0
LINE
  5
565
330
1F
100
AcDbEntity
  8
画層3-2
  6
Continuous
100
AcDbLine
 10
8400.457674663076
 20
8266.331684676734
 30
0.0
 11
10239.75767466289
 21
8266.331684676734
 31
0.0
  0
LWPOLYLINE
  5
566
330
1F
100
AcDbEntity
  8
画層3-1
100
AcDbPolyline
 90
        4
 70
     0
 43
0.0
 10
15994.62434132959
 20
8926.331684676966
 10
15994.62434132959
 20
6726.331684676968
 10
15943.82434132931
 20
6726.331684676968
 10
15943.82434132931
 20
8926.331684676966
  0
LINE
  5
567
330
1F
100
AcDbEntity
  8
画層2-1
  6
Continuous
100
AcDbLine
 10
16029.62434132912
 20
6776.331684676735
 30
0.0
 11
16143.9243413294
 21
6776.331684676735
 31
0.0
  0
CIRCLE
  5
568
330
1F
100
AcDbEntity
  8
画層1
  6
Continuous
100
AcDbCircle
 10
16086.77434132949
 20
8926.331684676501
 30
0.0
 40
10.9509940156
  0
LINE
  5
569
330
1F
100
AcDbEntity
  8
画層1
  6
Continuous
100
AcDbLine
 10
16069.62434132912
 20
8951.331684676501
 30
0.0
 11
16069.62434132912
 21
8901.331684676501
 31
0.0
  0
LINE
  5
56A
330
1F
100
AcDbEntity
  8
画層1
  6
Continuous
100
AcDbLine
 10
16103.9243413294
 20
8951.331684676501
 30
0.0
 11
16143.9243413294
 21
8951.331684676501
 31
0.0
  0
LINE
  5
56B
330
1F
100
AcDbEntity
  8
画層1
  6
Continuous
100
AcDbLine
 10
16103.9243413294
 20
8901.331684676501
 30
0.0
 11
16143.9243413294
 21
8901.331684676501
 31
0.0
  0
LINE
  5
56C
330
1F
100
AcDbEntity
  8
画層1
  6
Continuous
100
AcDbLine
 10
16103.9243413294
 20
8951.331684676501
 30
0.0
 11
16103.9243413294
 21
8901.331684676501
 31
0.0
  0
LINE
  5
56D
330
1F
100
AcDbEntity
  8
画層1
  6
Continuous
100
AcDbLine
 10
16069.62434132912
 20
8951.331684676501
 30
0.0
 11
16029.62434132912
 21
8951.331684676501
 31
0.0
  0
LINE
  5
56E
330
1F
100
AcDbEntity
  8
画層1
  6
Continuous
100
AcDbLine
 10
16069.62434132912
 20
8901.331684676501
 30
0.0
 11
16029.62434132912
 21
8901.331684676501
 31
0.0
  0
CIRCLE
  5
56F
330
1F
100
AcDbEntity
  8
画層3-1
100
AcDbCircle
 10
15969.22434132921
 20
8926.331684676966
 30
0.0
 40
25.40000000002328
  0
LINE
  5
570
330
1F
100
AcDbEntity
  8
画層1
  6
Continuous
100
AcDbLine
 10
15979.62434132912
 20
8951.331684676501
 30
0.0
 11
15979.62434132912
 21
8901.331684676501
 31
0.0
  0
LINE
  5
571
330
1F
100
AcDbEntity
  8
画層1
  6
Continuous
100
AcDbLine
 10
15979.62434132912
 20
8926.331684676501
 30
0.0
 11
16029.62434132912
 21
8926.331684676501
 31
0.0
  0
LINE
  5
572
330
1F
100
AcDbEntity
  8
画層2-1
  6
Continuous
100
AcDbLine
 10
16029.62434132912
 20
7026.331684676735
 30
0.0
 11
16143.9243413294
 21
7026.331684676735
 31
0.0
  0
LINE
  5
573
330
1F
100
AcDbEntity
  8
画層3-1
100
AcDbLine
 10
15994.62434132959
 20
7030.006270580729
 30
0.0
 11
15943.82434132931
 21
7030.006270580729
 31
0.0
  0
LINE
  5
574
330
1F
100
AcDbEntity
  8
画層3-1
100
AcDbLine
 10
15994.62434132959
 20
7055.006270580729
 30
0.0
 11
15943.82434132931
 21
7055.006270580729
 31
0.0
  0
LINE
  5
575
330
1F
100
AcDbEntity
  8
画層3-1
100
AcDbLine
 10
15969.22434132921
 20
7055.006270580729
 30
0.0
 11
15969.22434132921
 21
8900.931684676827
 31
0.0
  0
LINE
  5
576
330
1F
100
AcDbEntity
  8
ﾊｯﾁﾝｸﾞ
  6
Continuous
100
AcDbLine
 10
10413.46425755464
 20
5926.331684676735
 30
0.0
 11
10429.57139086167
 21
5904.488609048343
 31
0.0
  0
LINE
  5
577
102
{ACAD_REACTORS
330
9D9
102
}
330
1F
100
AcDbEntity
  8
ﾊｯﾁﾝｸﾞ
  6
Continuous
100
AcDbLine
 10
10321.86171717618
 20
5926.331684676735
 30
0.0
 11
10337.96885048321
 21
5904.488609048343
 31
0.0
  0
LINE
  5
578
330
1F
100
AcDbEntity
  8
ﾊｯﾁﾝｸﾞ
  6
Continuous
100
AcDbLine
 10
10305.68321301791
 20
5848.5682446035
 30
0.0
 11
10318.52149687757
 21
5826.331684676733
 31
0.0
  0
LINE
  5
579
330
1F
100
AcDbEntity
  8
ﾊｯﾁﾝｸﾞ
  6
Continuous
100
AcDbLine
 10
10397.28575339637
 20
5848.5682446035
 30
0.0
 11
10410.12403725556
 21
5826.331684676733
 31
0.0
  0
LINE
  5
57A
330
1F
100
AcDbEntity
  8
ﾊｯﾁﾝｸﾞ
  6
Continuous
100
AcDbLine
 10
10292.84492915825
 20
5826.331684676733
 30
0.0
 11
10350.57995607706
 21
5926.331684676735
 31
0.0
  0
LINE
  5
57B
330
1F
100
AcDbEntity
  8
ﾊｯﾁﾝｸﾞ
  6
Continuous
100
AcDbLine
 10
10384.44746953671
 20
5826.331684676733
 30
0.0
 11
10442.18249645552
 21
5926.331684676735
 31
0.0
  0
LINE
  5
57C
330
1F
100
AcDbEntity
  8
ﾊｯﾁﾝｸﾞ
  6
Continuous
100
AcDbLine
 10
10230.25917679772
 20
5926.331684676735
 30
0.0
 11
10246.36631010475
 21
5904.488609048343
 31
0.0
  0
LINE
  5
57D
330
1F
100
AcDbEntity
  8
ﾊｯﾁﾝｸﾞ
  6
Continuous
100
AcDbLine
 10
10214.08067263945
 20
5848.5682446035
 30
0.0
 11
10226.91895649864
 21
5826.331684676733
 31
0.0
  0
LINE
  5
57E
330
1F
100
AcDbEntity
  8
ﾊｯﾁﾝｸﾞ
  6
Continuous
100
AcDbLine
 10
10201.24238877979
 20
5826.331684676733
 30
0.0
 11
10258.97741569861
 21
5926.331684676735
 31
0.0
  0
LINE
  5
57F
102
{ACAD_REACTORS
330
9D9
102
}
330
1F
100
AcDbEntity
  8
画層2
  6
Continuous
100
AcDbLine
 10
10545.10767466298
 20
5926.331684676735
 30
0.0
 11
10095.10767466298
 21
5926.331684676735
 31
0.0
  0
LINE
  5
580
330
1F
100
AcDbEntity
  8
ﾊｯﾁﾝｸﾞ
  6
Continuous
100
AcDbLine
 10
10109.63984840133
 20
5826.331684676733
 30
0.0
 11
10167.37487532015
 21
5926.331684676735
 31
0.0
  0
LINE
  5
581
330
1F
100
AcDbEntity
  8
ﾊｯﾁﾝｸﾞ
  6
Continuous
100
AcDbLine
 10
10122.47813226099
 20
5848.5682446035
 30
0.0
 11
10135.31641612018
 21
5826.331684676733
 31
0.0
  0
LINE
  5
582
330
1F
100
AcDbEntity
  8
ﾊｯﾁﾝｸﾞ
  6
Continuous
100
AcDbLine
 10
10138.65663641926
 20
5926.331684676735
 30
0.0
 11
10154.76376972629
 21
5904.488609048343
 31
0.0
  0
LINE
  5
583
330
1F
100
AcDbEntity
  8
ﾊｯﾁﾝｸﾞ
  6
Continuous
100
AcDbLine
 10
10476.05000991516
 20
5826.331684676733
 30
0.0
 11
10533.78503683398
 21
5926.331684676735
 31
0.0
  0
LINE
  5
584
330
1F
100
AcDbEntity
  8
ﾊｯﾁﾝｸﾞ
  6
Continuous
100
AcDbLine
 10
10488.88829377482
 20
5848.5682446035
 30
0.0
 11
10501.72657763402
 21
5826.331684676733
 31
0.0
  0
LINE
  5
585
330
1F
100
AcDbEntity
  8
ﾊｯﾁﾝｸﾞ
  6
Continuous
100
AcDbLine
 10
10505.0667979331
 20
5926.331684676735
 30
0.0
 11
10521.17393124013
 21
5904.488609048343
 31
0.0
  0
LWPOLYLINE
  5
586
102
{ACAD_REACTORS
330
9D9
102
}
330
1F
100
AcDbEntity
  8
画層2
100
AcDbPolyline
 90
        8
 70
     0
 43
0.0
 10
10070.10767466298
 20
6926.331684676735
 10
10070.10767466298
 20
6626.331684676735
 10
10095.10767466298
 20
6626.331684676735
 10
10095.10767466298
 20
5826.331684676733
 10
10545.10767466298
 20
5826.331684676733
 10
10545.10767466298
 20
6626.331684676735
 10
10570.10767466298
 20
6626.331684676735
 10
10570.10767466298
 20
6926.331684676735
  0
LINE
  5
587
330
1F
100
AcDbEntity
  8
ﾊｯﾁﾝｸﾞ
  6
Continuous
100
AcDbLine
 10
10625.96337487877
 20
6926.331684676501
 30
0.0
 11
10570.10767466298
 21
6870.475984461177
 31
0.0
  0
LINE
  5
588
330
1F
100
AcDbEntity
  8
ﾊｯﾁﾝｸﾞ
  6
Continuous
100
AcDbLine
 10
10705.15933437182
 20
6926.331684676735
 30
0.0
 11
10585.15933437136
 21
6806.3316846765
 31
0.0
  0
LINE
  5
589
330
1F
100
AcDbEntity
  8
ﾊｯﾁﾝｸﾞ
  6
Continuous
100
AcDbLine
 10
10784.35529386488
 20
6926.331684676735
 30
0.0
 11
10664.35529386441
 21
6806.3316846765
 31
0.0
  0
LINE
  5
58A
330
1F
100
AcDbEntity
  8
ﾊｯﾁﾝｸﾞ
  6
Continuous
100
AcDbLine
 10
10692.68503233793
 20
6834.661423149556
 30
0.0
 11
10721.01477081052
 21
6806.3316846765
 31
0.0
  0
LINE
  5
58B
330
1F
100
AcDbEntity
  8
ﾊｯﾁﾝｸﾞ
  6
Continuous
100
AcDbLine
 10
10732.28301208422
 20
6874.259402896083
 30
0.0
 11
10800.21073030357
 21
6806.331684676734
 31
0.0
  0
LINE
  5
58C
330
1F
100
AcDbEntity
  8
ﾊｯﾁﾝｸﾞ
  6
Continuous
100
AcDbLine
 10
10771.88099183098
 20
6913.857382642607
 30
0.0
 11
10879.40668979662
 21
6806.331684676734
 31
0.0
  0
LINE
  5
58D
330
1F
100
AcDbEntity
  8
ﾊｯﾁﾝｸﾞ
  6
Continuous
100
AcDbLine
 10
10930.27291081709
 20
6834.661423149556
 30
0.0
 11
10958.60264928967
 21
6806.3316846765
 31
0.0
  0
LINE
  5
58E
330
1F
100
AcDbEntity
  8
ﾊｯﾁﾝｸﾞ
  6
Continuous
100
AcDbLine
 10
10969.87089056338
 20
6874.259402896083
 30
0.0
 11
11037.79860878319
 21
6806.331684676734
 31
0.0
  0
LINE
  5
58F
330
1F
100
AcDbEntity
  8
ﾊｯﾁﾝｸﾞ
  6
Continuous
100
AcDbLine
 10
10863.55125335793
 20
6926.331684676735
 30
0.0
 11
10811.47897157727
 21
6874.259402896083
 31
0.0
  0
LINE
  5
590
330
1F
100
AcDbEntity
  8
ﾊｯﾁﾝｸﾞ
  6
Continuous
100
AcDbLine
 10
10942.74721285144
 20
6926.331684676735
 30
0.0
 11
10851.07695132357
 21
6834.661423149556
 31
0.0
  0
LINE
  5
591
330
1F
100
AcDbEntity
  8
ﾊｯﾁﾝｸﾞ
  6
Continuous
100
AcDbLine
 10
11021.9431723445
 20
6926.331684676735
 30
0.0
 11
10901.94317234357
 21
6806.331684676734
 31
0.0
  0
LINE
  5
592
330
1F
100
AcDbEntity
  8
ﾊｯﾁﾝｸﾞ
  6
Continuous
100
AcDbLine
 10
11009.46887031014
 20
6913.857382642607
 30
0.0
 11
11063.23171929319
 21
6860.094533659554
 31
0.0
  0
LINE
  5
593
330
1F
100
AcDbEntity
  8
ﾊｯﾁﾝｸﾞ
  6
Continuous
100
AcDbLine
 10
9630.746479015826
 20
6913.857382642607
 30
0.0
 11
9576.983630032771
 21
6860.094533659554
 31
0.0
  0
LINE
  5
594
330
1F
100
AcDbEntity
  8
ﾊｯﾁﾝｸﾞ
  6
Continuous
100
AcDbLine
 10
9618.272176981463
 20
6926.331684676735
 30
0.0
 11
9738.272176982398
 21
6806.331684676734
 31
0.0
  0
LINE
  5
595
330
1F
100
AcDbEntity
  8
ﾊｯﾁﾝｸﾞ
  6
Continuous
100
AcDbLine
 10
9697.468136474521
 20
6926.331684676735
 30
0.0
 11
9789.138398001933
 21
6834.661423149556
 31
0.0
  0
LINE
  5
596
330
1F
100
AcDbEntity
  8
ﾊｯﾁﾝｸﾞ
  6
Continuous
100
AcDbLine
 10
9776.664095967571
 20
6926.331684676735
 30
0.0
 11
9828.73637774869
 21
6874.259402896083
 31
0.0
  0
LINE
  5
597
330
1F
100
AcDbEntity
  8
ﾊｯﾁﾝｸﾞ
  6
Continuous
100
AcDbLine
 10
9670.344458762118
 20
6874.259402896083
 30
0.0
 11
9602.416740542773
 21
6806.331684676734
 31
0.0
  0
LINE
  5
598
330
1F
100
AcDbEntity
  8
ﾊｯﾁﾝｸﾞ
  6
Continuous
100
AcDbLine
 10
9709.942438508875
 20
6834.661423149556
 30
0.0
 11
9681.612700035826
 21
6806.3316846765
 31
0.0
  0
LINE
  5
599
330
1F
100
AcDbEntity
  8
ﾊｯﾁﾝｸﾞ
  6
Continuous
100
AcDbLine
 10
9868.334357494982
 20
6913.857382642607
 30
0.0
 11
9760.808659529343
 21
6806.331684676734
 31
0.0
  0
LINE
  5
59A
330
1F
100
AcDbEntity
  8
ﾊｯﾁﾝｸﾞ
  6
Continuous
100
AcDbLine
 10
9907.932337241277
 20
6874.259402896083
 30
0.0
 11
9840.004619021927
 21
6806.331684676734
 31
0.0
  0
LINE
  5
59B
330
1F
100
AcDbEntity
  8
ﾊｯﾁﾝｸﾞ
  6
Continuous
100
AcDbLine
 10
9947.530316988034
 20
6834.661423149556
 30
0.0
 11
9919.200578515445
 21
6806.3316846765
 31
0.0
  0
LINE
  5
59C
330
1F
100
AcDbEntity
  8
ﾊｯﾁﾝｸﾞ
  6
Continuous
100
AcDbLine
 10
9855.860055460622
 20
6926.331684676735
 30
0.0
 11
9975.860055461554
 21
6806.3316846765
 31
0.0
  0
LINE
  5
59D
330
1F
100
AcDbEntity
  8
ﾊｯﾁﾝｸﾞ
  6
Continuous
100
AcDbLine
 10
9935.056014953676
 20
6926.331684676735
 30
0.0
 11
10055.0560149546
 21
6806.3316846765
 31
0.0
  0
LINE
  5
59E
330
1F
100
AcDbEntity
  8
ﾊｯﾁﾝｸﾞ
  6
Continuous
100
AcDbLine
 10
10014.25197444719
 20
6926.331684676501
 30
0.0
 11
10070.10767466298
 21
6870.475984461177
 31
0.0
  0
LINE
  5
59F
330
1F
100
AcDbEntity
  8
ﾊｯﾁﾝｸﾞ
  6
Continuous
100
AcDbLine
 10
16180.13092422069
 20
5926.331684676735
 30
0.0
 11
16196.23805752818
 21
5904.488609048343
 31
0.0
  0
LINE
  5
5A0
330
1F
100
AcDbEntity
  8
ﾊｯﾁﾝｸﾞ
  6
Continuous
100
AcDbLine
 10
16088.52838384223
 20
5926.331684676735
 30
0.0
 11
16104.63551714972
 21
5904.488609048343
 31
0.0
  0
LINE
  5
5A1
330
1F
100
AcDbEntity
  8
ﾊｯﾁﾝｸﾞ
  6
Continuous
100
AcDbLine
 10
16072.34987968442
 20
5848.5682446035
 30
0.0
 11
16085.18816354361
 21
5826.331684676733
 31
0.0
  0
LINE
  5
5A2
330
1F
100
AcDbEntity
  8
ﾊｯﾁﾝｸﾞ
  6
Continuous
100
AcDbLine
 10
16163.95242006288
 20
5848.5682446035
 30
0.0
 11
16176.79070392207
 21
5826.331684676733
 31
0.0
  0
LINE
  5
5A3
330
1F
100
AcDbEntity
  8
ﾊｯﾁﾝｸﾞ
  6
Continuous
100
AcDbLine
 10
16059.51159582429
 20
5826.331684676733
 30
0.0
 11
16117.24662274358
 21
5926.331684676735
 31
0.0
  0
LINE
  5
5A4
330
1F
100
AcDbEntity
  8
ﾊｯﾁﾝｸﾞ
  6
Continuous
100
AcDbLine
 10
16151.11413620321
 20
5826.331684676733
 30
0.0
 11
16208.84916312203
 21
5926.331684676735
 31
0.0
  0
LINE
  5
5A5
330
1F
100
AcDbEntity
  8
ﾊｯﾁﾝｸﾞ
  6
Continuous
100
AcDbLine
 10
15996.92584346377
 20
5926.331684676735
 30
0.0
 11
16013.03297677126
 21
5904.488609048343
 31
0.0
  0
LINE
  5
5A6
330
1F
100
AcDbEntity
  8
ﾊｯﾁﾝｸﾞ
  6
Continuous
100
AcDbLine
 10
15980.74733930596
 20
5848.5682446035
 30
0.0
 11
15993.58562316515
 21
5826.331684676733
 31
0.0
  0
LINE
  5
5A7
330
1F
100
AcDbEntity
  8
ﾊｯﾁﾝｸﾞ
  6
Continuous
100
AcDbLine
 10
15967.9090554463
 20
5826.331684676733
 30
0.0
 11
16025.64408236512
 21
5926.331684676735
 31
0.0
  0
LINE
  5
5A8
330
1F
100
AcDbEntity
  8
ﾊｯﾁﾝｸﾞ
  6
Continuous
100
AcDbLine
 10
15876.30651506784
 20
5826.331684676733
 30
0.0
 11
15934.04154198666
 21
5926.331684676735
 31
0.0
  0
LINE
  5
5A9
330
1F
100
AcDbEntity
  8
ﾊｯﾁﾝｸﾞ
  6
Continuous
100
AcDbLine
 10
15889.1447989275
 20
5848.5682446035
 30
0.0
 11
15901.98308278669
 21
5826.331684676733
 31
0.0
  0
LINE
  5
5AA
330
1F
100
AcDbEntity
  8
ﾊｯﾁﾝｸﾞ
  6
Continuous
100
AcDbLine
 10
15905.32330308531
 20
5926.331684676735
 30
0.0
 11
15921.43043639281
 21
5904.488609048343
 31
0.0
  0
LINE
  5
5AB
330
1F
100
AcDbEntity
  8
ﾊｯﾁﾝｸﾞ
  6
Continuous
100
AcDbLine
 10
16255.55496044134
 20
5848.5682446035
 30
0.0
 11
16268.39324430053
 21
5826.331684676733
 31
0.0
  0
LINE
  5
5AC
330
1F
100
AcDbEntity
  8
ﾊｯﾁﾝｸﾞ
  6
Continuous
100
AcDbLine
 10
15397.41314568233
 20
6913.857382642607
 30
0.0
 11
15343.65029669928
 21
6860.094533659554
 31
0.0
  0
LINE
  5
5AD
330
1F
100
AcDbEntity
  8
ﾊｯﾁﾝｸﾞ
  6
Continuous
100
AcDbLine
 10
15384.93884364797
 20
6926.331684676735
 30
0.0
 11
15504.9388436489
 21
6806.331684676734
 31
0.0
  0
LINE
  5
5AE
330
1F
100
AcDbEntity
  8
ﾊｯﾁﾝｸﾞ
  6
Continuous
100
AcDbLine
 10
15464.13480314103
 20
6926.331684676735
 30
0.0
 11
15555.80506466844
 21
6834.661423149556
 31
0.0
  0
LINE
  5
5AF
330
1F
100
AcDbEntity
  8
ﾊｯﾁﾝｸﾞ
  6
Continuous
100
AcDbLine
 10
15543.33076263408
 20
6926.331684676968
 30
0.0
 11
15595.4030444152
 21
6874.259402896315
 31
0.0
  0
LINE
  5
5B0
330
1F
100
AcDbEntity
  8
ﾊｯﾁﾝｸﾞ
  6
Continuous
100
AcDbLine
 10
15437.01112542863
 20
6874.259402896315
 30
0.0
 11
15369.08340720928
 21
6806.331684676734
 31
0.0
  0
LINE
  5
5B1
330
1F
100
AcDbEntity
  8
ﾊｯﾁﾝｸﾞ
  6
Continuous
100
AcDbLine
 10
15476.60910517492
 20
6834.661423149789
 30
0.0
 11
15448.27936670233
 21
6806.331684676734
 31
0.0
  0
LINE
  5
5B2
330
1F
100
AcDbEntity
  8
ﾊｯﾁﾝｸﾞ
  6
Continuous
100
AcDbLine
 10
15635.00102416149
 20
6913.857382642607
 30
0.0
 11
15527.47532619585
 21
6806.331684676734
 31
0.0
  0
LINE
  5
5B3
330
1F
100
AcDbEntity
  8
ﾊｯﾁﾝｸﾞ
  6
Continuous
100
AcDbLine
 10
15674.59900390779
 20
6874.259402896315
 30
0.0
 11
15606.67128568844
 21
6806.331684676734
 31
0.0
  0
LINE
  5
5B4
330
1F
100
AcDbEntity
  8
ﾊｯﾁﾝｸﾞ
  6
Continuous
100
AcDbLine
 10
15714.19698365454
 20
6834.661423149789
 30
0.0
 11
15685.86724518195
 21
6806.331684676734
 31
0.0
  0
LINE
  5
5B5
330
1F
100
AcDbEntity
  8
ﾊｯﾁﾝｸﾞ
  6
Continuous
100
AcDbLine
 10
15622.52672212713
 20
6926.331684676735
 30
0.0
 11
15742.52672212806
 21
6806.331684676734
 31
0.0
  0
LINE
  5
5B6
330
1F
100
AcDbEntity
  8
ﾊｯﾁﾝｸﾞ
  6
Continuous
100
AcDbLine
 10
15701.72268162018
 20
6926.331684676735
 30
0.0
 11
15821.72268162111
 21
6806.331684676734
 31
0.0
  0
LINE
  5
5B7
330
1F
100
AcDbEntity
  8
ﾊｯﾁﾝｸﾞ
  6
Continuous
100
AcDbLine
 10
15780.91864111324
 20
6926.331684676735
 30
0.0
 11
15836.77434132949
 21
6870.475984461177
 31
0.0
  0
LINE
  5
5B9
330
1F
100
AcDbEntity
  8
画層2
  6
Continuous
100
AcDbLine
 10
15418.83473857774
 20
6926.331684676735
 30
0.0
 11
16736.77434132949
 21
6926.331684676735
 31
0.0
  0
DIMENSION
  5
5BA
330
1F
100
AcDbEntity
  8
寸法
  6
Continuous
100
AcDbDimension
  2
*D24
 10
16311.77434132949
 20
5576.331684676733
 30
0.0
 11
16086.77434132949
 21
5451.331684676734
 31
0.0
 70
    32
  1
φ<>
 71
     5
 42
450.0
  3
1_50
100
AcDbAlignedDimension
 13
15861.77434132949
 23
5826.331684676733
 33
0.0
 14
16311.77434132949
 24
5826.331684676733
 34
0.0
100
AcDbRotatedDimension
1001
ACAD
1000
DSTYLE
1002
{
1070
    77
1070
     2
1070
   174
1070
     1
1002
}
  0
LINE
  5
5BB
330
1F
100
AcDbEntity
  8
画層2
  6
Continuous
100
AcDbLine
 10
16311.77434132949
 20
5926.331684676735
 30
0.0
 11
15861.77434132949
 21
5926.331684676735
 31
0.0
  0
LINE
  5
5BC
330
1F
100
AcDbEntity
  8
ﾊｯﾁﾝｸﾞ
  6
Continuous
100
AcDbLine
 10
16242.71667658168
 20
5826.331684676733
 30
0.0
 11
16300.45170350049
 21
5926.331684676735
 31
0.0
  0
LINE
  5
5BD
330
1F
100
AcDbEntity
  8
ﾊｯﾁﾝｸﾞ
  6
Continuous
100
AcDbLine
 10
16271.73346459915
 20
5926.331684676735
 30
0.0
 11
16287.84059790664
 21
5904.488609048343
 31
0.0
  0
LWPOLYLINE
  5
5BE
330
1F
100
AcDbEntity
  8
画層2
100
AcDbPolyline
 90
        8
 70
     0
 43
0.0
 10
15836.77434132949
 20
6926.331684676735
 10
15836.77434132949
 20
6626.331684676735
 10
15861.77434132949
 20
6626.331684676735
 10
15861.77434132949
 20
5826.331684676733
 10
16311.77434132949
 20
5826.331684676733
 10
16311.77434132949
 20
6626.331684676735
 10
16336.77434132949
 20
6626.331684676735
 10
16336.77434132949
 20
6926.331684676735
  0
DIMENSION
  5
5BF
330
1F
100
AcDbEntity
  8
寸法
  6
Continuous
100
AcDbDimension
  2
*D25
 10
16336.77434132949
 20
5276.331684676733
 30
0.0
 11
16086.77434132949
 21
5151.331684676733
 31
0.0
 70
    32
  1
□<>
 71
     5
 42
500.0
  3
1_50
100
AcDbAlignedDimension
 13
15836.77434132949
 23
5826.331684676733
 33
0.0
 14
16336.77434132949
 24
5826.331684676733
 34
0.0
100
AcDbRotatedDimension
1001
ACAD
1000
DSTYLE
1002
{
1070
    77
1070
     2
1070
   174
1070
     1
1002
}
  0
LINE
  5
5C1
330
1F
100
AcDbEntity
  8
画層3-2
  6
Continuous
100
AcDbLine
 10
8254.757674662888
 20
6926.331684676735
 30
0.0
 11
8254.757674662888
 21
7591.331684676735
 31
0.0
  0
LINE
  5
5C2
330
1F
100
AcDbEntity
  8
画層3-1
  6
Continuous
100
AcDbLine
 10
8294.707674663076
 20
7591.331684676735
 30
0.0
 11
8294.707674663076
 21
6984.431684676827
 31
0.0
  0
LINE
  5
5C3
330
1F
100
AcDbEntity
  8
画層3-通り芯
  6
DASHDOT
 48
50.0
100
AcDbLine
 10
8320.107674662983
 20
6379.962129544971
 30
0.0
 11
8320.107674662983
 21
8926.331684676966
 31
0.0
  0
LINE
  5
5C4
330
1F
100
AcDbEntity
  8
画層3-1
  6
Continuous
100
AcDbLine
 10
8294.707674663076
 20
6946.331684676967
 30
0.0
 11
8294.707674663076
 21
6726.331684676735
 31
0.0
  0
LINE
  5
5C5
330
1F
100
AcDbEntity
  8
画層3-1
  6
Continuous
100
AcDbLine
 10
8269.307674663169
 20
8901.331684676733
 30
0.0
 11
8269.307674663169
 21
8863.231684676874
 31
0.0
  0
LINE
  5
5C6
330
1F
100
AcDbEntity
  8
画層3-1
  6
Continuous
100
AcDbLine
 10
8239.757674662889
 20
8281.331684676734
 30
0.0
 11
8239.757674662889
 21
8251.331684676733
 31
0.0
  0
LINE
  5
5C7
330
1F
100
AcDbEntity
  8
画層3-1
  6
Continuous
100
AcDbLine
 10
8294.707674663076
 20
8848.231684676873
 30
0.0
 11
8294.707674663076
 21
8281.331684676734
 31
0.0
  0
LINE
  5
5C8
330
1F
100
AcDbEntity
  8
画層3-1
  6
Continuous
100
AcDbLine
 10
8239.757674662889
 20
7621.331684676736
 30
0.0
 11
8239.757674662889
 21
7591.331684676735
 31
0.0
  0
LINE
  5
5C9
330
1F
100
AcDbEntity
  8
画層3-2
  6
Continuous
100
AcDbLine
 10
8254.757674662888
 20
7621.331684676736
 30
0.0
 11
8254.757674662888
 21
8251.331684676733
 31
0.0
  0
LINE
  5
5CA
330
1F
100
AcDbEntity
  8
画層3-1
  6
Continuous
100
AcDbLine
 10
8294.707674663076
 20
8251.331684676733
 30
0.0
 11
8294.707674663076
 21
7621.331684676736
 31
0.0
  0
LINE
  5
5CB
330
1F
100
AcDbEntity
  8
画層3-1
  6
Continuous
100
AcDbLine
 10
8269.307674663169
 20
8863.231684676874
 30
0.0
 11
8284.307674663169
 21
8848.231684676873
 31
0.0
  0
ARC
  5
5CC
330
1F
100
AcDbEntity
  8
画層3-1
  6
Continuous
100
AcDbCircle
 10
8279.707674663075
 20
8848.231684676873
 30
0.0
 40
15.0
100
AcDbArc
 50
0.0
 51
90.0
  0
LINE
  5
5CD
330
1F
100
AcDbEntity
  8
画層3-2
  6
Continuous
100
AcDbLine
 10
8254.757674662888
 20
8281.331684676734
 30
0.0
 11
8254.757674662888
 21
8863.231684676874
 31
0.0
  0
LINE
  5
5CE
330
1F
100
AcDbEntity
  8
画層3-1
  6
Continuous
100
AcDbLine
 10
8254.757674662888
 20
7004.431684676827
 30
0.0
 11
8385.457674663076
 21
7004.431684676827
 31
0.0
  0
LINE
  5
5CF
330
1F
100
AcDbEntity
  8
画層3-1
  6
Continuous
100
AcDbLine
 10
8294.707674663076
 20
6726.331684676735
 30
0.0
 11
8345.507674662888
 21
6726.331684676735
 31
0.0
  0
HATCH
  5
5D0
330
1F
100
AcDbEntity
  8
画層3-3
100
AcDbHatch
 10
0.0
 20
0.0
 30
0.0
210
0.0
220
0.0
230
1.0
  2
PLAST
 70
     0
 71
     0
 91
        1
 92
        7
 72
     0
 73
     1
 93
        4
 10
8445.107674662983
 20
6926.331684676735
 10
8195.107674662983
 20
6926.331684676735
 10
8195.107674662983
 20
6476.331684676735
 10
8445.107674662983
 20
6476.331684676735
 97
        0
 75
     0
 76
     1
 52
45.0
 41
1800.0
 77
     0
 78
     3
 53
45.0
 43
2177.765018897159
 44
484.66466816565
 45
-318.1980515339463
 46
318.1980515339464
 79
     0
 53
45.0
 43
2137.990262455335
 44
524.4394246074741
 45
-318.1980515339463
 46
318.1980515339464
 79
     0
 53
45.0
 43
2098.215506013511
 44
564.2141810490653
 45
-318.1980515339463
 46
318.1980515339464
 79
     0
 47
2.4753793195157
 98
        1
 10
8434.000872426693
 20
6685.539132684507
  0
LWPOLYLINE
  5
5D1
330
1F
100
AcDbEntity
  8
画層3-2
100
AcDbPolyline
 90
        4
 70
     0
 43
0.0
 10
8445.107674662983
 20
6926.331684676735
 10
8445.107674662983
 20
6476.331684676735
 10
8195.107674662983
 20
6476.331684676735
 10
8195.107674662983
 20
6926.331684676735
  0
DIMENSION
  5
5D2
330
1F
100
AcDbEntity
  8
寸法
  6
Continuous
100
AcDbDimension
  2
*D26
 10
10320.10767466298
 20
4676.331684676735
 30
0.0
 11
9320.107674662983
 21
4815.617398962451
 31
0.0
 70
    32
 71
     5
 42
2000.0
  3
1_50
100
AcDbAlignedDimension
 13
8320.107674662983
 23
5383.864212883441
 33
0.0
 14
10320.10767466298
 24
5683.864212883441
 34
0.0
100
AcDbRotatedDimension
  0
LINE
  5
5D3
330
1F
100
AcDbEntity
  8
画層3-1
  6
Continuous
100
AcDbLine
 10
8355.907674663262
 20
8848.231684676873
 30
0.0
 11
8284.307674663169
 21
8848.231684676873
 31
0.0
  0
LINE
  5
5D4
330
1F
100
AcDbEntity
  8
画層3-1
  6
Continuous
100
AcDbLine
 10
8239.757674662889
 20
8251.331684676733
 30
0.0
 11
8400.457674663076
 21
8251.331684676733
 31
0.0
  0
LINE
  5
5D5
330
1F
100
AcDbEntity
  8
画層3-1
  6
Continuous
100
AcDbLine
 10
8400.457674663076
 20
8281.331684676734
 30
0.0
 11
8239.757674662889
 21
8281.331684676734
 31
0.0
  0
LINE
  5
5D6
330
1F
100
AcDbEntity
  8
画層3-1
  6
Continuous
100
AcDbLine
 10
8400.457674663076
 20
7621.331684676736
 30
0.0
 11
8239.757674662889
 21
7621.331684676736
 31
0.0
  0
LINE
  5
5D7
330
1F
100
AcDbEntity
  8
画層3-1
  6
Continuous
100
AcDbLine
 10
8239.757674662889
 20
7591.331684676735
 30
0.0
 11
8400.457674663076
 21
7591.331684676735
 31
0.0
  0
MTEXT
  5
5D9
102
{ACAD_REACTORS
330
5D8
102
}
330
1F
100
AcDbEntity
  8
寸法文字
  6
Continuous
100
AcDbMText
 10
7203.010602269348
 20
10337.33490525772
 30
0.0
 40
150.0
 41
0.0
 71
     7
 72
     1
  1
サンネット500D/44本×40mm目
  7
1_100
 73
     1
 44
1.0
1001
ACAD
1000
MTEXTBEGIN
1070
    73
1070
     1
1070
    44
1040
1.0
1070
    74
1070
     0
1000
MTEXTEND
  0
LINE
  5
5DB
102
{ACAD_REACTORS
330
442
102
}
330
1F
100
AcDbEntity
  8
画層1
  6
Continuous
100
AcDbLine
 10
13470.79003306155
 20
10886.33168467673
 30
0.0
 11
4320.107674662982
 21
10886.33168467673
 31
0.0
  0
LEADER
  5
5DC
330
1F
100
AcDbEntity
  8
寸法引出
  6
Continuous
100
AcDbLeader
  3
1_50
 71
     0
 73
     0
 74
     0
 75
     1
 40
150.0
 41
2832.857142857145
 76
     3
 10
7110.970017843441
 20
10835.82221495177
 30
0.0
 10
7439.33096190498
 20
11428.76860021244
 30
0.0
 10
7469.330961904981
 20
11428.76860021244
 30
0.0
340
5DD
1001
ACAD
1000
DSTYLE
1002
{
1002
}
  0
MTEXT
  5
5DD
102
{ACAD_REACTORS
330
5DC
102
}
330
1F
100
AcDbEntity
  8
寸法文字
  6
Continuous
100
AcDbMText
 10
7519.330961904981
 20
11478.76860021245
 30
0.0
 40
150.0
 41
0.0
 71
     7
 72
     1
  1
端末・コーナー補強ポールφ76.3×2.8mm
  7
1_100
 73
     1
 44
1.0
1001
ACAD
1000
MTEXTBEGIN
1070
    73
1070
     1
1070
    44
1040
1.0
1070
    74
1070
     0
1000
MTEXTEND
  0
LWPOLYLINE
  5
5DE
330
1F
100
AcDbEntity
  8
画層1
100
AcDbPolyline
 90
        4
 70
     1
 43
0.0
 10
4467.257674662888
 20
10874.48168467687
 10
10172.95767466307
 20
10874.48168467687
 10
10172.95767466307
 20
10798.18168467683
 10
4467.257674662888
 20
10798.18168467683
  0
LINE
  5
5DF
330
1F
100
AcDbEntity
  8
画層1
  6
Continuous
100
AcDbLine
 10
4477.257674662888
 20
10886.33168467673
 30
0.0
 11
4427.257674662889
 21
10886.33168467673
 31
0.0
  0
LINE
  5
5E0
330
1F
100
AcDbEntity
  8
画層1
  6
Continuous
100
AcDbLine
 10
4427.257674662889
 20
10861.33168467673
 30
0.0
 11
4427.257674662889
 21
10911.33168467673
 31
0.0
  0
CIRCLE
  5
5E1
330
1F
100
AcDbEntity
  8
画層1
  6
Continuous
100
AcDbCircle
 10
4402.257674662888
 20
10886.33168467673
 30
0.0
 40
10.9509940156
  0
LINE
  5
5E2
330
1F
100
AcDbEntity
  8
画層1
  6
Continuous
100
AcDbLine
 10
4262.957674663074
 20
10926.33168467673
 30
0.0
 11
4377.257674662888
 21
10926.33168467673
 31
0.0
  0
LINE
  5
5E3
330
1F
100
AcDbEntity
  8
画層1
  6
Continuous
100
AcDbLine
 10
4212.957674663075
 20
10911.33168467673
 30
0.0
 11
4212.957674663075
 21
10861.33168467673
 31
0.0
  0
CIRCLE
  5
5E4
330
1F
100
AcDbEntity
  8
画層1
  6
Continuous
100
AcDbCircle
 10
4237.957674663074
 20
10886.33168467673
 30
0.0
 40
10.9509940156
  0
LINE
  5
5E5
330
1F
100
AcDbEntity
  8
画層1
  6
Continuous
100
AcDbLine
 10
4295.107674662982
 20
10911.33168467673
 30
0.0
 11
4295.107674662982
 21
10861.33168467673
 31
0.0
  0
LINE
  5
5E6
330
1F
100
AcDbEntity
  8
画層1
  6
Continuous
100
AcDbLine
 10
4345.107674662982
 20
10861.33168467673
 30
0.0
 11
4345.107674662982
 21
10911.33168467673
 31
0.0
  0
LINE
  5
5E7
330
1F
100
AcDbEntity
  8
画層1
  6
Continuous
100
AcDbLine
 10
4212.957674663075
 20
10861.33168467673
 30
0.0
 11
4427.257674662889
 21
10861.33168467673
 31
0.0
  0
LINE
  5
5E8
330
1F
100
AcDbEntity
  8
画層1
  6
Continuous
100
AcDbLine
 10
4427.257674662889
 20
10911.33168467673
 30
0.0
 11
4212.957674663075
 21
10911.33168467673
 31
0.0
  0
LINE
  5
5E9
330
1F
100
AcDbEntity
  8
画層1
  6
Continuous
100
AcDbLine
 10
4427.257674662889
 20
10861.33168467673
 30
0.0
 11
4212.957674663075
 21
10861.33168467673
 31
0.0
  0
LWPOLYLINE
  5
5EA
330
1F
100
AcDbEntity
  8
画層1
100
AcDbPolyline
 90
        4
 70
     1
 43
0.0
 10
4492.257674662888
 20
10906.1079640156
 10
4672.25767466289
 20
10906.1079640156
 10
4672.25767466289
 20
10866.1079640156
 10
4492.257674662888
 20
10866.1079640156
  0
DIMENSION
  5
5EB
330
1F
100
AcDbEntity
  8
寸法
  6
Continuous
100
AcDbDimension
  2
*D27
 10
4377.257674662888
 20
11226.32318379361
 30
0.0
 11
4320.107674662982
 21
11376.32318379361
 31
0.0
 70
    32
  1
φ<>
 71
     5
 42
114.2999999998137
  3
1_50
100
AcDbAlignedDimension
 13
4262.957674663074
 23
10911.33168467673
 33
0.0
 14
4377.257674662888
 24
10911.33168467673
 34
0.0
100
AcDbRotatedDimension
  0
LINE
  5
5EC
330
1F
100
AcDbEntity
  8
画層1-1
100
AcDbLine
 10
4467.257674662888
 20
10836.33168467673
 30
0.0
 11
4427.257674662889
 21
10836.33168467673
 31
0.0
  0
LINE
  5
5ED
330
1F
100
AcDbEntity
  8
画層1
  6
Continuous
100
AcDbLine
 10
4212.957674663075
 20
10811.33168467673
 30
0.0
 11
4427.257674662889
 21
10811.33168467673
 31
0.0
  0
LWPOLYLINE
  5
5EE
330
1F
100
AcDbEntity
  8
画層1
100
AcDbPolyline
 90
        4
 70
     1
 43
0.0
 10
4301.226536203667
 20
9281.331684676734
 10
4341.226536203667
 20
9281.331684676734
 10
4341.226536203667
 20
9101.331684676734
 10
4301.226536203667
 20
9101.331684676734
  0
LINE
  5
5EF
330
1F
100
AcDbEntity
  8
画層1
  6
Continuous
100
AcDbLine
 10
4345.107674662982
 20
10811.33168467673
 30
0.0
 11
4345.107674662982
 21
10861.33168467673
 31
0.0
  0
LINE
  5
5F0
330
1F
100
AcDbEntity
  8
画層1
  6
Continuous
100
AcDbLine
 10
4295.107674662982
 20
10861.33168467673
 30
0.0
 11
4295.107674662982
 21
10811.33168467673
 31
0.0
  0
CIRCLE
  5
5F1
330
1F
100
AcDbEntity
  8
画層1
  6
Continuous
100
AcDbCircle
 10
4237.957674663074
 20
10836.33168467673
 30
0.0
 40
10.9509940156
  0
LINE
  5
5F2
330
1F
100
AcDbEntity
  8
画層1
  6
Continuous
100
AcDbLine
 10
4212.957674663075
 20
10861.33168467673
 30
0.0
 11
4212.957674663075
 21
10811.33168467673
 31
0.0
  0
CIRCLE
  5
5F3
330
1F
100
AcDbEntity
  8
画層1
  6
Continuous
100
AcDbCircle
 10
4402.257674662888
 20
10836.33168467673
 30
0.0
 40
10.9509940156
  0
LINE
  5
5F4
330
1F
100
AcDbEntity
  8
画層1
  6
Continuous
100
AcDbLine
 10
4427.257674662889
 20
10811.33168467673
 30
0.0
 11
4427.257674662889
 21
10861.33168467673
 31
0.0
  0
MTEXT
  5
5F5
330
1F
100
AcDbEntity
  8
寸法文字
  6
Continuous
100
AcDbMText
 10
3161.346378196059
 20
10663.22098332437
 30
0.0
 40
150.0
 41
0.0
 71
     3
 72
     1
  1
（STK-540鋼管）
  7
1_100
 73
     1
 44
1.0
1001
ACAD
1000
ACAD_MTEXT_DEFINED_HEIGHT_BEGIN
1070
    46
1040
0.0
1000
ACAD_MTEXT_DEFINED_HEIGHT_END
1000
MTEXTBEGIN
1070
    73
1070
     1
1070
    44
1040
1.0
1070
    74
1070
     0
1000
MTEXTEND
  0
LEADER
  5
5F6
330
1F
100
AcDbEntity
  8
寸法引出
  6
Continuous
100
AcDbLeader
  3
1_50
 71
     0
 73
     0
 75
     1
 40
173.3333333333333
 41
1558.571428571429
 76
     3
 10
4320.107674662982
 20
9446.711930452885
 30
0.0
 10
3797.132265043939
 20
9802.570807906372
 30
0.0
 10
3767.132265043939
 20
9802.570807906372
 30
0.0
340
5F7
1001
ACAD
1000
DSTYLE
1002
{
1002
}
  0
MTEXT
  5
5F7
102
{ACAD_REACTORS
330
5F6
102
}
330
1F
100
AcDbEntity
  8
寸法文字
  6
Continuous
100
AcDbMText
 10
3717.13226504394
 20
9852.570807906372
 30
0.0
 40
150.0
 41
0.0
 71
     9
 72
     1
  1
メッセンワイヤー22m㎡
  7
1_100
 73
     1
 44
1.0
1001
ACAD
1000
MTEXTBEGIN
1070
    73
1070
     1
1070
    44
1040
1.0
1070
    74
1070
     0
1000
MTEXTEND
  0
LEADER
  5
5F8
330
1F
100
AcDbEntity
  8
寸法引出
  6
Continuous
100
AcDbLeader
  3
1_50
 71
     0
 73
     0
 75
     1
 40
150.0
 41
2349.642857142856
 76
     3
 10
4262.957674663074
 20
10359.41310274697
 30
0.0
 10
3708.749967283132
 20
10745.8068402035
 30
0.0
 10
3678.749967283132
 20
10745.8068402035
 30
0.0
340
5F9
1001
ACAD
1000
DSTYLE
1002
{
1002
}
  0
MTEXT
  5
5F9
102
{ACAD_REACTORS
330
5F8
102
}
330
1F
100
AcDbEntity
  8
寸法文字
  6
Continuous
100
AcDbMText
 10
3628.749967283132
 20
10795.8068402035
 30
0.0
 40
150.0
 41
0.0
 71
     9
 72
     1
  1
主柱KSポールφ114.3厚さ3.0mm
  7
1_100
 73
     1
 44
1.0
1001
ACAD
1000
ACAD_MTEXT_DEFINED_HEIGHT_BEGIN
1070
    46
1040
0.0
1000
ACAD_MTEXT_DEFINED_HEIGHT_END
1000
MTEXTBEGIN
1070
    73
1070
     1
1070
    44
1040
1.0
1070
    74
1070
     0
1000
MTEXTEND
  0
LEADER
  5
5FA
330
1F
100
AcDbEntity
  8
寸法引出
  6
Continuous
100
AcDbLeader
  3
1_50
 71
     0
 73
     0
 75
     1
 40
150.0
 41
1470.0
 76
     3
 10
4320.107674662982
 20
10926.33168467673
 30
0.0
 10
3696.471744203967
 20
11392.8027983853
 30
0.0
 10
3666.471744203967
 20
11392.8027983853
 30
0.0
340
5FB
1001
ACAD
1000
DSTYLE
1002
{
1002
}
  0
MTEXT
  5
5FB
102
{ACAD_REACTORS
330
5FA
102
}
330
1F
100
AcDbEntity
  8
寸法文字
  6
Continuous
100
AcDbMText
 10
3616.471744203968
 20
11442.8027983853
 30
0.0
 40
150.0
 41
0.0
 71
     9
 72
     1
  1
上部ネット下り防止付き
  7
1_100
 73
     1
 44
1.0
1001
ACAD
1000
MTEXTBEGIN
1070
    73
1070
     1
1070
    44
1040
1.0
1070
    74
1070
     0
1000
MTEXTEND
  0
MTEXT
  5
5FC
330
1F
100
AcDbEntity
  8
寸法文字
  6
Continuous
100
AcDbMText
 10
17090.14844591313
 20
11519.23137504471
 30
0.0
 40
150.0
 41
0.0
 71
     1
 72
     1
  1
（溶融亜鉛メッキ450g/㎡）
  7
1_100
 73
     1
 44
1.0
1001
ACAD
1000
MTEXTBEGIN
1070
    73
1070
     1
1070
    44
1040
1.0
1070
    74
1070
     0
1000
MTEXTEND
  0
DIMENSION
  5
5FD
330
1F
100
AcDbEntity
  8
寸法
  6
Continuous
100
AcDbDimension
  2
*D28
 10
17086.77434132949
 20
10926.33168467673
 30
0.0
 11
16967.90621362257
 21
11078.16239503286
 31
0.0
 70
   160
 71
     5
 42
40.0
  3
1_50
100
AcDbAlignedDimension
 13
16586.48972903102
 23
10886.33168467673
 33
0.0
 14
16586.48972903102
 24
10926.33168467673
 34
0.0
 50
90.0
100
AcDbRotatedDimension
  0
MTEXT
  5
5FE
102
{ACAD_REACTORS
330
5FF
102
}
330
1F
100
AcDbEntity
  8
寸法文字
  6
Continuous
100
AcDbMText
 10
11314.00015439282
 20
11465.45957925244
 30
0.0
 40
150.0
 41
0.0
 71
     7
 72
     1
  1
ネット上下6mm合繊ロープに4mm合繊\Pロープにて22m㎡ワイヤーに巻付
  7
1_100
 73
     1
 44
1.0
1001
ACAD
1000
MTEXTBEGIN
1070
    73
1070
     1
1070
    44
1040
1.0
1070
    74
1070
     0
1000
MTEXTEND
  0
LEADER
  5
5FF
330
1F
100
AcDbEntity
  8
寸法引出
  6
Continuous
100
AcDbLeader
  3
1_50
 71
     0
 73
     0
 74
     0
 75
     1
 40
423.3333333333332
 41
2581.071428571427
 76
     3
 10
10964.93901942813
 20
10886.33168467673
 30
0.0
 10
11234.00015439282
 20
11415.45957925244
 30
0.0
 10
11264.00015439282
 20
11415.45957925244
 30
0.0
340
5FE
  0
LINE
  5
600
330
1F
100
AcDbEntity
  8
画層1
  6
Continuous
100
AcDbLine
 10
10427.25767466289
 20
10861.33168467673
 30
0.0
 11
10427.25767466289
 21
10911.33168467673
 31
0.0
  0
LINE
  5
601
330
1F
100
AcDbEntity
  8
画層1
  6
Continuous
100
AcDbLine
 10
10262.95767466307
 20
10926.33168467673
 30
0.0
 11
10377.25767466289
 21
10926.33168467673
 31
0.0
  0
LINE
  5
602
330
1F
100
AcDbEntity
  8
画層1
  6
Continuous
100
AcDbLine
 10
10295.10767466298
 20
10911.33168467673
 30
0.0
 11
10295.10767466298
 21
10861.33168467673
 31
0.0
  0
LINE
  5
603
330
1F
100
AcDbEntity
  8
画層1
  6
Continuous
100
AcDbLine
 10
10212.95767466307
 20
10911.33168467673
 30
0.0
 11
10212.95767466307
 21
10861.33168467673
 31
0.0
  0
CIRCLE
  5
604
330
1F
100
AcDbEntity
  8
画層1
  6
Continuous
100
AcDbCircle
 10
10237.95767466307
 20
10886.33168467673
 30
0.0
 40
10.9509940156
  0
LINE
  5
605
330
1F
100
AcDbEntity
  8
画層1
  6
Continuous
100
AcDbLine
 10
10345.10767466298
 20
10861.33168467673
 30
0.0
 11
10345.10767466298
 21
10911.33168467673
 31
0.0
  0
LINE
  5
606
330
1F
100
AcDbEntity
  8
画層1
  6
Continuous
100
AcDbLine
 10
10212.95767466307
 20
10861.33168467673
 30
0.0
 11
10427.25767466289
 21
10861.33168467673
 31
0.0
  0
LINE
  5
607
330
1F
100
AcDbEntity
  8
画層1
  6
Continuous
100
AcDbLine
 10
10427.25767466289
 20
10911.33168467673
 30
0.0
 11
10212.95767466307
 21
10911.33168467673
 31
0.0
  0
CIRCLE
  5
608
330
1F
100
AcDbEntity
  8
画層1
  6
Continuous
100
AcDbCircle
 10
10402.25767466289
 20
10886.33168467673
 30
0.0
 40
10.9509940156
  0
LINE
  5
609
330
1F
100
AcDbEntity
  8
画層1
  6
Continuous
100
AcDbLine
 10
10427.25767466289
 20
10861.33168467673
 30
0.0
 11
10212.95767466307
 21
10861.33168467673
 31
0.0
  0
LINE
  5
60A
330
1F
100
AcDbEntity
  8
画層1
  6
Continuous
100
AcDbLine
 10
10212.95767466307
 20
10811.33168467673
 30
0.0
 11
10427.25767466289
 21
10811.33168467673
 31
0.0
  0
LINE
  5
60B
330
1F
100
AcDbEntity
  8
画層1-1
100
AcDbLine
 10
10212.95767466307
 20
10836.33168467673
 30
0.0
 11
10172.95767466307
 21
10836.33168467673
 31
0.0
  0
DIMENSION
  5
60C
330
1F
100
AcDbEntity
  8
寸法
  6
Continuous
100
AcDbDimension
  2
*D29
 10
14420.10767466298
 20
10926.33168467673
 30
0.0
 11
14306.83619246634
 21
11068.16753949019
 31
0.0
 70
   160
 71
     5
 42
40.0
  3
1_50
100
AcDbAlignedDimension
 13
13720.10767466298
 23
10886.33168467673
 33
0.0
 14
13720.10767466298
 24
10926.33168467673
 34
0.0
 50
90.0
100
AcDbRotatedDimension
  0
CIRCLE
  5
60D
330
1F
100
AcDbEntity
  8
画層1
  6
Continuous
100
AcDbCircle
 10
10402.25767466289
 20
10836.33168467673
 30
0.0
 40
10.9509940156
  0
LINE
  5
60E
330
1F
100
AcDbEntity
  8
画層1
  6
Continuous
100
AcDbLine
 10
10345.10767466298
 20
10811.33168467673
 30
0.0
 11
10345.10767466298
 21
10861.33168467673
 31
0.0
  0
CIRCLE
  5
60F
330
1F
100
AcDbEntity
  8
画層1
  6
Continuous
100
AcDbCircle
 10
10237.95767466307
 20
10836.33168467673
 30
0.0
 40
10.9509940156
  0
LINE
  5
610
330
1F
100
AcDbEntity
  8
画層1
  6
Continuous
100
AcDbLine
 10
10212.95767466307
 20
10861.33168467673
 30
0.0
 11
10212.95767466307
 21
10811.33168467673
 31
0.0
  0
LINE
  5
611
330
1F
100
AcDbEntity
  8
画層1
  6
Continuous
100
AcDbLine
 10
10295.10767466298
 20
10861.33168467673
 30
0.0
 11
10295.10767466298
 21
10811.33168467673
 31
0.0
  0
LINE
  5
612
330
1F
100
AcDbEntity
  8
画層1
  6
Continuous
100
AcDbLine
 10
10427.25767466289
 20
10811.33168467673
 30
0.0
 11
10427.25767466289
 21
10861.33168467673
 31
0.0
  0
MTEXT
  5
613
330
1F
100
AcDbEntity
  8
寸法文字
  6
Continuous
100
AcDbMText
 10
7935.375391999578
 20
11336.66072276378
 30
0.0
 40
150.0
 41
0.0
 71
     1
 72
     1
  1
（STK-400鋼管）
  7
1_100
 73
     1
 44
1.0
1001
ACAD
1000
MTEXTBEGIN
1070
    73
1070
     1
1070
    44
1040
1.0
1070
    74
1070
     0
1000
MTEXTEND
  0
CIRCLE
  5
614
330
1F
100
AcDbEntity
  8
画層1
  6
Continuous
100
AcDbCircle
 10
16086.77434132949
 20
10886.33168467673
 30
0.0
 40
10.9509940156
  0
LINE
  5
615
330
1F
100
AcDbEntity
  8
画層1
  6
Continuous
100
AcDbLine
 10
16069.62434132912
 20
10911.33168467673
 30
0.0
 11
16069.62434132912
 21
10861.33168467673
 31
0.0
  0
LINE
  5
616
330
1F
100
AcDbEntity
  8
画層1
  6
Continuous
100
AcDbLine
 10
16103.9243413294
 20
10911.33168467673
 30
0.0
 11
16103.9243413294
 21
10861.33168467673
 31
0.0
  0
LINE
  5
617
330
1F
100
AcDbEntity
  8
画層1
  6
Continuous
100
AcDbLine
 10
16103.9243413294
 20
10911.33168467673
 30
0.0
 11
16143.9243413294
 21
10911.33168467673
 31
0.0
  0
LINE
  5
618
330
1F
100
AcDbEntity
  8
画層1
  6
Continuous
100
AcDbLine
 10
16103.9243413294
 20
10861.33168467673
 30
0.0
 11
16143.9243413294
 21
10861.33168467673
 31
0.0
  0
LINE
  5
619
330
1F
100
AcDbEntity
  8
画層1
  6
Continuous
100
AcDbLine
 10
16029.62434132912
 20
10926.33168467673
 30
0.0
 11
16143.9243413294
 21
10926.33168467673
 31
0.0
  0
LINE
  5
61A
330
1F
100
AcDbEntity
  8
画層1
  6
Continuous
100
AcDbLine
 10
16069.62434132912
 20
10911.33168467673
 30
0.0
 11
16029.62434132912
 21
10911.33168467673
 31
0.0
  0
LINE
  5
61B
330
1F
100
AcDbEntity
  8
画層1
  6
Continuous
100
AcDbLine
 10
16069.62434132912
 20
10861.33168467673
 30
0.0
 11
16029.62434132912
 21
10861.33168467673
 31
0.0
  0
LINE
  5
61C
330
1F
100
AcDbEntity
  8
画層1
  6
Continuous
100
AcDbLine
 10
15979.62434132912
 20
10911.33168467673
 30
0.0
 11
15979.62434132912
 21
10861.33168467673
 31
0.0
  0
LINE
  5
61D
330
1F
100
AcDbEntity
  8
画層1
  6
Continuous
100
AcDbLine
 10
15979.62434132912
 20
10886.33168467673
 30
0.0
 11
16029.62434132912
 21
10886.33168467673
 31
0.0
  0
LWPOLYLINE
  5
61E
330
1F
100
AcDbEntity
  8
画層1
100
AcDbPolyline
 90
        4
 70
     1
 43
0.0
 10
16066.77434132949
 20
9281.556399651606
 10
16106.77434132949
 20
9281.556399651606
 10
16106.77434132949
 20
9101.556399651606
 10
16066.77434132949
 20
9101.556399651606
  0
DIMENSION
  5
61F
330
1F
100
AcDbEntity
  8
寸法
  6
Continuous
100
AcDbDimension
  2
*D30
 10
16143.9243413294
 20
11226.32871680384
 30
0.0
 11
16086.77434132926
 21
11376.32871680384
 31
0.0
 70
    32
  1
φ<>
 71
     5
 42
114.3000000002794
  3
1_50
100
AcDbAlignedDimension
 13
16029.62434132912
 23
10926.33168467673
 33
0.0
 14
16143.9243413294
 24
10926.33168467673
 34
0.0
100
AcDbRotatedDimension
  0
MTEXT
  5
620
102
{ACAD_REACTORS
330
621
102
}
330
1F
100
AcDbEntity
  8
寸法文字
  6
Continuous
100
AcDbMText
 10
16960.43466519893
 20
11632.90967286172
 30
0.0
 40
150.0
 41
0.0
 71
     7
 72
     1
  1
主柱KSポールφ114.3厚さ3.0mm
  7
1_100
 73
     1
 44
1.0
1001
ACAD
1000
ACAD_MTEXT_DEFINED_HEIGHT_BEGIN
1070
    46
1040
0.0
1000
ACAD_MTEXT_DEFINED_HEIGHT_END
1000
MTEXTBEGIN
1070
    73
1070
     1
1070
    44
1040
1.0
1070
    74
1070
     0
1000
MTEXTEND
  0
LEADER
  5
621
330
1F
100
AcDbEntity
  8
寸法引出
  6
Continuous
100
AcDbLeader
  3
1_50
 71
     0
 73
     0
 74
     0
 75
     1
 40
150.0
 41
2349.642857142856
 76
     3
 10
16143.9243413294
 20
10539.86983832185
 30
0.0
 10
16880.43466519893
 20
11582.90967286172
 30
0.0
 10
16910.43466519893
 20
11582.90967286172
 30
0.0
340
620
1001
ACAD
1000
DSTYLE
1002
{
1002
}
  0
TEXT
  5
622
330
1F
100
AcDbEntity
  8
図面枠
 62
     3
100
AcDbText
 10
1585.144489449527
 20
224.0523793651162
 30
0.0
 40
150.0
  1
KS2-H04
 41
0.75
  7
1_100
 11
1585.144489449527
 21
224.0523793651162
 31
0.0
100
AcDbText
 73
     1
  0
TEXT
  5
623
330
1F
100
AcDbEntity
  8
図面枠
 62
     3
100
AcDbText
 10
723.9582398997939
 20
223.9427556193921
 30
0.0
 40
150.0
  1
1/50
 41
0.75
  7
1_100
 11
723.9582398997939
 21
223.9427556193921
 31
0.0
100
AcDbText
 73
     1
  0
LINE
  5
624
330
1F
100
AcDbEntity
  8
寸法引出
 62
     3
100
AcDbLine
 10
13470.79003306155
 20
4326.331684676968
 30
0.0
 11
10320.10767466298
 21
4326.331684676733
 31
0.0
1001
ACAD
1000
DSTYLE
1002
{
1070
    41
1040
3.0
1070
   341
1005
0
1002
}
  0
LINE
  5
625
330
1F
100
AcDbEntity
  8
寸法引出
 62
     3
100
AcDbLine
 10
13470.79003306155
 20
4676.331684676967
 30
0.0
 11
12320.10767466298
 21
4676.331684676735
 31
0.0
1001
ACAD
1000
DSTYLE
1002
{
1070
    41
1040
3.0
1070
   341
1005
0
1002
}
  0
LINE
  5
626
330
1F
100
AcDbEntity
  8
寸法引出
  6
ByBlock
 62
     3
100
AcDbLine
 10
13320.79003306154
 20
4716.524063176936
 30
0.0
 11
13470.79003306155
 21
4676.331684676967
 31
0.0
  0
LINE
  5
627
330
1F
100
AcDbEntity
  8
寸法引出
  6
ByBlock
 62
     3
100
AcDbLine
 10
13470.79003306155
 20
4676.331684676967
 30
0.0
 11
13320.79003306156
 21
4636.139306176938
 31
0.0
  0
LINE
  5
628
330
1F
100
AcDbEntity
  8
寸法引出
  6
ByBlock
 62
     3
100
AcDbLine
 10
13320.79003306154
 20
4366.524063176956
 30
0.0
 11
13470.79003306155
 21
4326.331684676968
 31
0.0
  0
LINE
  5
629
330
1F
100
AcDbEntity
  8
寸法引出
  6
ByBlock
 62
     3
100
AcDbLine
 10
13470.79003306155
 20
4326.331684676968
 30
0.0
 11
13320.79003306155
 21
4286.139306176956
 31
0.0
  0
HATCH
  5
9AA
330
1F
100
AcDbEntity
  8
ﾊｯﾁﾝｸﾞ
100
AcDbHatch
 10
0.0
 20
0.0
 30
0.0
210
0.0
220
0.0
230
1.0
  2
PLAST
 70
     0
 71
     0
 91
        2
 92
        7
 72
     0
 73
     1
 93
        7
 10
16311.77434132949
 20
6626.331684676735
 10
16336.77434132949
 20
6626.331684676735
 10
16336.7743413295
 20
6926.331684676735
 10
16086.77434132949
 20
6926.331684676735
 10
16086.77434132949
 20
5928.710362653117
 10
16088.52838384223
 20
5926.331684676735
 10
16311.77434132949
 20
5926.331684676733
 97
        0
 92
        7
 72
     0
 73
     1
 93
       10
 10
16086.77434132949
 20
6926.331684676735
 10
15994.62434132959
 20
6926.331684676735
 10
15994.62434132959
 20
6726.331684676968
 10
15943.82434132931
 20
6726.331684676968
 10
15943.82434132931
 20
6926.331684676735
 10
15836.77434132949
 20
6926.331684676732
 10
15836.77434132949
 20
6626.331684676735
 10
15861.77434132949
 20
6626.331684676735
 10
15861.77434132949
 20
5926.331684676735
 10
16086.77434132949
 20
5926.331684676735
 97
        0
 75
     0
 76
     1
 52
45.0
 41
80.0
 77
     0
 78
     3
 53
45.0
 43
0.0
 44
0.0
 45
-359.2102448427661
 46
359.2102448427661
 79
     0
 53
45.0
 43
-44.90128060534575
 44
44.90128060534575
 45
-359.2102448427661
 46
359.2102448427661
 79
     0
 53
45.0
 43
-89.80256121069151
 44
89.80256121069151
 45
-359.2102448427661
 46
359.2102448427661
 79
     0
 47
14.30508561268003
 98
        2
 10
16193.69927898339
 20
6382.175978141487
 10
16050.74605071892
 20
6396.481068045803
  0
HATCH
  5
9C4
330
1F
100
AcDbEntity
  8
ﾊｯﾁﾝｸﾞ
100
AcDbHatch
 10
0.0
 20
0.0
 30
0.0
210
0.0
220
0.0
230
1.0
  2
PLAST
 70
     0
 71
     1
 91
        2
 92
        7
 72
     0
 73
     1
 93
        9
 10
4320.107674662982
 20
5928.710362653814
 10
4321.861717176186
 20
5926.331684676735
 10
4545.107674662982
 20
5926.331684676735
 10
4545.107674662982
 20
6626.331684676735
 10
4570.107674662982
 20
6626.331684676735
 10
4570.107674662982
 20
6926.331684676735
 10
4345.507674662888
 20
6926.331684676735
 10
4345.507674662888
 20
6726.331684676735
 10
4320.107674662982
 20
6726.331684676735
 97
        7
330
4C7
330
45D
330
47A
330
472
330
44A
330
4B8
330
4C0
 92
        7
 72
     0
 73
     1
 93
        8
 10
4320.107674662982
 20
6726.331684676733
 10
4294.707674663075
 20
6726.331684676733
 10
4294.707674663075
 20
6926.331684676735
 10
4070.107674662983
 20
6926.331684676735
 10
4070.107674662983
 20
6626.331684676735
 10
4095.107674662982
 20
6626.331684676735
 10
4095.107674662982
 20
5926.331684676735
 10
4320.107674662982
 20
5926.331684676735
 97
        6
330
472
330
46B
330
45D
330
4C7
330
4C0
330
44A
 75
     0
 76
     1
 52
45.0
 41
80.0
 77
     0
 78
     3
 53
45.0
 43
0.0
 44
0.0
 45
-359.2102448427661
 46
359.2102448427661
 79
     0
 53
45.0
 43
-44.90128060534575
 44
44.90128060534575
 45
-359.2102448427661
 46
359.2102448427661
 79
     0
 53
45.0
 43
-89.80256121069151
 44
89.80256121069151
 45
-359.2102448427661
 46
359.2102448427661
 79
     0
 47
8.708655069540506
 98
        2
 10
4408.718905507631
 20
6206.894425039661
 10
4217.25920786122
 20
6267.854985892496
  0
HATCH
  5
9D9
330
1F
100
AcDbEntity
  8
ﾊｯﾁﾝｸﾞ
100
AcDbHatch
 10
0.0
 20
0.0
 30
0.0
210
0.0
220
0.0
230
1.0
  2
PLAST
 70
     0
 71
     1
 91
        2
 92
        7
 72
     0
 73
     1
 93
        8
 10
10320.10767466298
 20
6726.331684676735
 10
10294.70767466307
 20
6726.331684676735
 10
10294.70767466307
 20
6926.331684676735
 10
10070.10767466298
 20
6926.331684676735
 10
10070.10767466298
 20
6626.331684676735
 10
10095.10767466298
 20
6626.331684676735
 10
10095.10767466298
 20
5926.331684676733
 10
10320.10767466298
 20
5926.331684676733
 97
        6
330
50C
330
515
330
45D
330
586
330
57F
330
43D
 92
        7
 72
     0
 73
     1
 93
        9
 10
10545.10767466298
 20
6626.331684676735
 10
10570.10767466298
 20
6626.331684676735
 10
10570.10767466298
 20
6926.331684676735
 10
10345.50767466289
 20
6926.331684676735
 10
10345.50767466289
 20
6726.331684676735
 10
10320.10767466298
 20
6726.331684676735
 10
10320.10767466298
 20
5928.710362653811
 10
10321.86171717618
 20
5926.331684676735
 10
10545.10767466298
 20
5926.331684676735
 97
        7
330
586
330
45D
330
514
330
50C
330
43D
330
577
330
57F
 75
     0
 76
     1
 52
45.0
 41
80.0
 77
     0
 78
     3
 53
45.0
 43
0.0
 44
0.0
 45
-359.2102448427661
 46
359.2102448427661
 79
     0
 53
45.0
 43
-44.90128060534575
 44
44.90128060534575
 45
-359.2102448427661
 46
359.2102448427661
 79
     0
 53
45.0
 43
-89.80256121069151
 44
89.80256121069151
 45
-359.2102448427661
 46
359.2102448427661
 79
     0
 47
9.672703044680563
 98
        2
 10
10239.66856192484
 20
6487.727737246517
 10
10452.32279953094
 20
6439.364183460755
  0
MTEXT
  5
D64
330
1F
100
AcDbEntity
  8
寸法文字
  6
Continuous
100
AcDbMText
 10
7203.851250085058
 20
10259.76921091224
 30
0.0
 40
100.0
 41
0.0
 71
     1
 72
     1
  1
※KRP-40　1100D18本40mm目（再生ポリエステル100%）\P※KSP-24　37.5mm目（ｽｰﾊﾟｰﾎﾟﾘｴﾁﾚﾝ）
  7
1_100
 73
     1
 44
1.0
1001
ACAD
1000
MTEXTBEGIN
1070
    73
1070
     1
1070
    44
1040
1.0
1070
    74
1070
     0
1000
MTEXTEND
  0
LEADER
  5
D66
330
1F
100
AcDbEntity
  8
寸法引出
100
AcDbLeader
  3
1_50
 71
     0
 76
     3
 10
6928.561125092932
 20
9979.914145996051
 30
0.0
 10
7091.566823933764
 20
10300.65566997959
 30
0.0
 10
10051.12061399095
 20
10300.65566997959
 30
0.0
1001
ACAD
1000
DSTYLE
1002
{
1070
    41
1040
1.0
1070
   341
1005
87
1070
   147
1040
0.625
1070
    77
1070
     0
1002
}
  0
ENDSEC
  0
SECTION
  2
OBJECTS
  0
DICTIONARY
  5
C
330
0
100
AcDbDictionary
281
     1
  3
ACAD_COLOR
350
6B
  3
ACAD_GROUP
350
D
  3
ACAD_LAYOUT
350
1A
  3
ACAD_MATERIAL
350
6A
  3
ACAD_MLINESTYLE
350
17
  3
ACAD_PLOTSETTINGS
350
19
  3
ACAD_PLOTSTYLENAME
350
E
  3
ACAD_TABLESTYLE
350
A72
  3
ACDBHEADERROUNDTRIPXREC
350
D71
  3
AcDbVariableDictionary
350
5E
  3
ADE_QUERY_LIBRARY
350
D6C
  3
AEC_CLASSIFICATION_SYSTEM_DEFS
350
D62
  3
AEC_VARS
350
A9E
  3
ASE_INDEX_DICTIONARY
350
D6A
  3
Autodesk_MAP
350
AA0
  3
DWGPROPS
350
D70
  3
Root
350
A79
1001
ADE
1000
ADE02C004
1000
[Query]
1000
CaseSensitiveMatch=0
1000
SaveCurrQueryInSession=1
1000
MkSelSetWithQryObj=0
1000
ShowBlockAsInsPt=0
1000
CreateAssociativeHatchObjects=0
1000
ReferenceBoundaryForAreaLocation=1
1000
ShowImageAsBoundary=1
1000
DefaultJoinOperator=2
1000
ColorForAdd=red
1000
ColorForRemove=red
1000
BlockLocnForQuery=1
1000
TextLocnForQuery=1
1000
IncludeAllObjectsInGroups=0
1000
AlwaysUseLibraryDefinitions=0
1000
PreviewDefinitionsFrom=2
1000
[Save Back]
1000
RedefineBlockDefinitions=1
1000
RedefineLayerDefinitions=1
1000
RedefineTextStyleDefinitions=1
1000
RemoveUnusedGroups=1
1000
EraseSavedBackObjects=1
1000
RemoveLockAfterSave=1
1000
CreateHistoryFileOfChanges=0
1000
CreateBackupFileOfSourceDwg=1
1000
DontAddObjectsToSaveSet=0
1000
MarkObjectsForEditingWithoutPrompting=0
1000
[Coordinate Transformation]
1000
RestoreLastActiveDwgsOnStartup=1
1000
ActivateDwgsOnAttach=1
1000
AdjustSizesAndScalesForChangesInUnits=1
1000
AdjustRotationsForMapDistortions=1
1000
AdjustSizesAndScalesForMapDistortions=1
1000
AdjustElevations=1
1000
AdjustZeroRotationObjects=1
1000
ReconnectDbOnWSOpen=1
1000
NoOfSQLConditionsInHistory=10
  0
DICTIONARY
  5
6B
102
{ACAD_REACTORS
330
C
102
}
330
C
100
AcDbDictionary
281
     1
  0
DICTIONARY
  5
D
102
{ACAD_REACTORS
330
C
102
}
330
C
100
AcDbDictionary
281
     1
  0
DICTIONARY
  5
1A
102
{ACAD_REACTORS
330
C
102
}
330
C
100
AcDbDictionary
281
     1
  3
Model
350
22
  3
レイアウト1
350
51
  3
レイアウト2
350
56
  0
DICTIONARY
  5
6A
102
{ACAD_REACTORS
330
C
102
}
330
C
100
AcDbDictionary
281
     1
  0
DICTIONARY
  5
17
102
{ACAD_REACTORS
330
C
102
}
330
C
100
AcDbDictionary
281
     1
  3
Standard
350
18
  0
DICTIONARY
  5
19
102
{ACAD_REACTORS
330
C
102
}
330
C
100
AcDbDictionary
281
     1
  0
ACDBDICTIONARYWDFLT
  5
E
102
{ACAD_REACTORS
330
C
102
}
330
C
100
AcDbDictionary
281
     1
  3
Normal
350
F
100
AcDbDictionaryWithDefault
340
F
  0
DICTIONARY
  5
A72
102
{ACAD_REACTORS
330
C
102
}
330
C
100
AcDbDictionary
281
     1
  3
Legend
350
AA4
  3
Standard
350
A73
  0
DICTIONARY
  5
D71
102
{ACAD_REACTORS
330
C
102
}
330
C
100
AcDbDictionary
281
     1
  0
DICTIONARY
  5
5E
102
{ACAD_REACTORS
330
C
102
}
330
C
100
AcDbDictionary
281
     1
  3
CTABLESTYLE
350
D6E
  3
DIMASSOC
350
5F
  3
HIDETEXT
350
63
  3
PROJECTNAME
350
9EE
  0
DICTIONARY
  5
D6C
102
{ACAD_REACTORS
330
C
102
}
330
C
100
AcDbDictionary
281
     1
  3
_CurrQry
350
D6D
  0
DICTIONARY
  5
D62
102
{ACAD_REACTORS
330
C
102
}
330
C
100
AcDbDictionary
281
     1
  0
DICTIONARY
  5
A9E
102
{ACAD_REACTORS
330
C
102
}
330
C
100
AcDbDictionary
281
     1
  3
AEC_VARS_DWG_SETUP
350
A9F
  0
DICTIONARY
  5
D6A
102
{ACAD_REACTORS
330
C
102
}
330
C
100
AcDbDictionary
281
     1
  3
ASEBlockHierarchyIndexRecord
350
D6B
1001
DCO15
1040
1621574724.593
  0
DICTIONARY
  5
AA0
102
{ACAD_REACTORS
330
C
102
}
330
C
100
AcDbDictionary
281
     1
  3
MAP_DISPLAY_MANAGEMENT_DICTIONARY
350
AA1
  3
MAP_DISPLAY_STYLELIBRARY_DICTIONARY
350
AA2
  0
XRECORD
  5
D70
102
{ACAD_REACTORS
330
C
102
}
330
C
100
AcDbXrecord
280
     1
  1
DWGPROPS COOKIE
  2

  3

  4

  6

  7

  8

  9

300
=
301
=
302
=
303
=
304
=
305
=
306
=
307
=
308
=
309
=
 40
0.0394792013888889
 41
2454361.396257766
 42
2454571.437830938
  1

 90
        0
  0
LAYOUT
  5
22
102
{ACAD_XDICTIONARY
360
D72
102
}
102
{ACAD_REACTORS
330
1A
102
}
330
1A
100
AcDbPlotSettings
  1

  2
EPSON PM-3000C
  4
A4
  6

 40
3.757083177566528
 41
14.7637300491333
 42
3.757080078125
 43
3.757080078125
 44
209.9733276367186
 45
296.9683227539062
 46
0.0
 47
0.0
 48
0.0
 49
0.0
140
0.0
141
0.0
142
1.0
143
71.81436154349303
 70
 11952
 72
     1
 73
     1
 74
     0
  7
2.ctb
 75
     0
147
0.0139247913440596
148
-469.1058515978202
149
560.4009228120403
100
AcDbLayout
  1
Model
 70
     1
 71
     0
 10
0.0
 20
0.0
 11
12.0
 21
9.0
 12
0.0
 22
0.0
 32
0.0
 14
0.0
 24
0.0
 34
0.0
 15
0.0
 25
0.0
 35
0.0
146
0.0
 13
0.0
 23
0.0
 33
0.0
 16
1.0
 26
0.0
 36
0.0
 17
0.0
 27
1.0
 37
0.0
 76
     0
330
1F
  0
LAYOUT
  5
51
102
{ACAD_XDICTIONARY
360
D74
102
}
102
{ACAD_REACTORS
330
1A
102
}
330
1A
100
AcDbPlotSettings
  1

  2
None
  4

  6

 40
0.0
 41
0.0
 42
0.0
 43
0.0
 44
0.0
 45
0.0
 46
0.0
 47
0.0
 48
0.0
 49
0.0
140
0.0
141
0.0
142
1.0
143
1.0
 70
   688
 72
     0
 73
     0
 74
     5
  7

 75
    16
147
1.0
148
0.0
149
0.0
100
AcDbLayout
  1
レイアウト1
 70
     1
 71
     1
 10
0.0
 20
0.0
 11
12.0
 21
9.0
 12
0.0
 22
0.0
 32
0.0
 14
0.0
 24
0.0
 34
0.0
 15
0.0
 25
0.0
 35
0.0
146
0.0
 13
0.0
 23
0.0
 33
0.0
 16
1.0
 26
0.0
 36
0.0
 17
0.0
 27
1.0
 37
0.0
 76
     0
330
50
  0
LAYOUT
  5
56
102
{ACAD_XDICTIONARY
360
D76
102
}
102
{ACAD_REACTORS
330
1A
102
}
330
1A
100
AcDbPlotSettings
  1

  2
None
  4

  6

 40
0.0
 41
0.0
 42
0.0
 43
0.0
 44
0.0
 45
0.0
 46
0.0
 47
0.0
 48
0.0
 49
0.0
140
0.0
141
0.0
142
1.0
143
1.0
 70
   688
 72
     0
 73
     0
 74
     5
  7

 75
    16
147
1.0
148
0.0
149
0.0
100
AcDbLayout
  1
レイアウト2
 70
     1
 71
     2
 10
0.0
 20
0.0
 11
12.0
 21
9.0
 12
0.0
 22
0.0
 32
0.0
 14
0.0
 24
0.0
 34
0.0
 15
0.0
 25
0.0
 35
0.0
146
0.0
 13
0.0
 23
0.0
 33
0.0
 16
1.0
 26
0.0
 36
0.0
 17
0.0
 27
1.0
 37
0.0
 76
     0
330
55
  0
MLINESTYLE
  5
18
102
{ACAD_REACTORS
330
17
102
}
330
17
100
AcDbMlineStyle
  2
STANDARD
 70
     0
  3

 62
   256
 51
90.0
 52
90.0
 71
     2
 49
0.5
 62
   256
  6
BYLAYER
 49
-0.5
 62
   256
  6
BYLAYER
  0
ACDBPLACEHOLDER
  5
F
102
{ACAD_REACTORS
330
E
102
}
330
E
  0
TABLESTYLE
  5
AA4
102
{ACAD_REACTORS
330
A72
102
}
330
A72
100
AcDbTableStyle
  3

 70
     0
 71
     1
 40
0.06
 41
0.06
280
     0
281
     0
  7
Standard
140
0.4
170
     4
 62
     0
 63
     7
283
     0
274
    -2
284
     0
 64
     0
275
    -2
285
     0
 65
     0
276
    -2
286
     1
 66
     0
277
    -2
287
     1
 67
     0
278
    -2
288
     0
 68
     0
279
    -2
289
     1
 69
     0
  7
Standard
140
0.5
170
     5
 62
     0
 63
     7
283
     0
274
    -2
284
     1
 64
     0
275
    -2
285
     0
 65
     0
276
    -2
286
     1
 66
     0
277
    -2
287
     1
 67
     0
278
    -2
288
     0
 68
     0
279
    -2
289
     1
 69
     0
  7
Standard
140
0.4
170
     4
 62
     0
 63
     7
283
     0
274
    -2
284
     1
 64
     0
275
    -2
285
     0
 65
     0
276
    -2
286
     1
 66
     0
277
    -2
287
     1
 67
     0
278
    -2
288
     0
 68
     0
279
    -2
289
     1
 69
     0
  0
TABLESTYLE
  5
A73
102
{ACAD_REACTORS
330
A72
102
}
330
A72
100
AcDbTableStyle
  3
Standard
 70
     0
 71
     0
 40
1.5
 41
1.5
280
     0
281
     0
  7
Standard
140
4.5
170
     2
 62
     0
 63
     7
283
     0
274
    -2
284
     1
 64
     0
275
    -2
285
     1
 65
     0
276
    -2
286
     1
 66
     0
277
    -2
287
     1
 67
     0
278
    -2
288
     1
 68
     0
279
    -2
289
     1
 69
     0
  7
Standard
140
6.0
170
     5
 62
     0
 63
     7
283
     0
274
    -2
284
     1
 64
     0
275
    -2
285
     1
 65
     0
276
    -2
286
     1
 66
     0
277
    -2
287
     1
 67
     0
278
    -2
288
     1
 68
     0
279
    -2
289
     1
 69
     0
  7
Standard
140
4.5
170
     5
 62
     0
 63
     7
283
     0
274
    -2
284
     1
 64
     0
275
    -2
285
     1
 65
     0
276
    -2
286
     1
 66
     0
277
    -2
287
     1
 67
     0
278
    -2
288
     1
 68
     0
279
    -2
289
     1
 69
     0
  0
DICTIONARYVAR
  5
D6E
102
{ACAD_REACTORS
330
5E
102
}
330
5E
100
DictionaryVariables
280
     0
  1
STANDARD
  0
DICTIONARYVAR
  5
5F
102
{ACAD_REACTORS
330
5E
102
}
330
5E
100
DictionaryVariables
280
     0
  1
2
  0
DICTIONARYVAR
  5
63
102
{ACAD_REACTORS
330
5E
102
}
330
5E
100
DictionaryVariables
280
     0
  1
1
  0
DICTIONARYVAR
  5
9EE
102
{ACAD_REACTORS
330
5E
102
}
330
5E
100
DictionaryVariables
280
     0
  1

  0
XRECORD
  5
D6D
102
{ACAD_REACTORS
330
D6C
102
}
330
D6C
100
AcDbXrecord
280
     1
1000
ADE02C001
1070
     1
1070
     0
1002
{
1002
}
1002
{
1002
}
1002
{
1002
}
1000

  0
XRECORD
  5
D6B
102
{ACAD_REACTORS
330
D6A
102
}
330
D6A
100
AcDbXrecord
280
     1
330
79F
330
7A0
330
7A8
330
7A9
330
7B1
330
7B2
330
7BA
330
7BB
330
973
330
974
330
96A
330
96B
330
7D7
330
7D8
330
961
330
962
330
7E9
330
7EA
330
958
330
959
330
94D
330
94E
330
808
330
809
330
90A
330
90B
330
8FE
330
8FF
330
826
330
827
330
913
330
914
330
837
330
838
330
943
330
944
330
937
330
938
330
92E
330
92F
330
85E
330
85F
330
97D
330
97E
330
8EC
330
8ED
330
8E1
330
8E2
330
91C
330
91D
330
891
330
892
330
89C
330
89D
330
8A7
330
8A8
330
8B2
330
8B3
  0
DMMAPMANAGER
  5
AA1
102
{ACAD_REACTORS
330
AA0
102
}
330
AA0
100
AcDbDictionary
281
     1
  3
DisplayMap1
350
AA3
100
AcDbDictionaryWithDefault
340
AA3
100
AcMapDMMapManager
 70
     1
340
AA3
  0
DMSTYLELIBRARY
  5
AA2
102
{ACAD_REACTORS
330
AA0
102
}
330
AA0
100
AcMapDMStyleLibrary
 70
     1
 70
     1
360
AA8
  0
DICTIONARY
  5
D72
330
22
100
AcDbDictionary
280
     1
281
     1
  3
ACAD_XREC_ROUNDTRIP
360
D73
  0
DICTIONARY
  5
D74
330
51
100
AcDbDictionary
280
     1
281
     1
  3
ACAD_XREC_ROUNDTRIP
360
D75
  0
DICTIONARY
  5
D76
330
56
100
AcDbDictionary
280
     1
281
     1
  3
ACAD_XREC_ROUNDTRIP
360
D77
  0
DMMAP
  5
AA3
102
{ACAD_REACTORS
330
AA1
330
AA5
102
}
330
AA1
100
AcMapDMMap
 70
     1
  1
既定値
 70
     1
330
0
100
AcMapDMMap
 70
     1
 90
        1
360
AA5
 90
        1
 40
1.797693134862314E+99
 70
     1
100
AcMapDMMap
 70
     2
 70
     0
 40
1.797693134862314E+99
290
     0
290
     1
 40
1.0
 40
3.0
  1
Legend
 90
        1
 40
1.797693134862314E+99
  1

 70
     0
 40
1.0
 70
     1
 90
        0
 90
        1
360
AA6
  0
DMSTYLECATEGORY
  5
AA8
102
{ACAD_REACTORS
330
AA2
102
}
330
AA2
100
AcMapDMStyleCategory
 70
     1
  1
スタイルを表示
 70
     0
  0
XRECORD
  5
D73
102
{ACAD_REACTORS
330
D72
102
}
330
D72
100
AcDbXrecord
280
     1
102
SHADEPLOT
 70
     0
102
SHADEPLOTRESLEVEL
 70
     2
102
SHADEPLOTCUSTOMDPI
 70
   300
  0
XRECORD
  5
D75
102
{ACAD_REACTORS
330
D74
102
}
330
D74
100
AcDbXrecord
280
     1
102
SHADEPLOT
 70
     0
102
SHADEPLOTRESLEVEL
 70
     2
102
SHADEPLOTCUSTOMDPI
 70
   300
  0
XRECORD
  5
D77
102
{ACAD_REACTORS
330
D76
102
}
330
D76
100
AcDbXrecord
280
     1
102
SHADEPLOT
 70
     0
102
SHADEPLOTRESLEVEL
 70
     2
102
SHADEPLOTCUSTOMDPI
 70
   300
  0
DMBASEELEMENT
  5
AA5
102
{ACAD_REACTORS
330
AA3
102
}
330
AA3
100
AcMapDMBaseElement
 70
     1
  1
マップ ベース
 70
     1
330
AA3
100
AcMapDMBaseElement
 70
     1
  1

 70
     2
  1

 70
     1
 40
1.797693134862314E+99
 70
     1
 70
     1
 70
     1
 70
     1
360
AA7
100
AcMapDMBaseElement
 70
     1
  0
DMDEFAULTSTYLE
  5
AA6
102
{ACAD_REACTORS
330
AA3
102
}
330
AA3
100
AcMapDMDefaultStyle
 70
     1
 90
        1
  1
既定値
100
AcMapDMDefaultStyle
 70
     1
280
   100
 90
     0
  0
DMSTYLEREFERENCE
  5
AA7
330
AA5
100
AcMapDMStyleReference
 70
     1
 70
     0
340
AA6
330
AA3
  0
ENDSEC
  0
EOF
