  0
SECTION
  2
HEADER
  9
$ACADVER
  1
AC1015
  9
$ACADMAINTVER
 70
    20
  9
$DWGCODEPAGE
  3
ANSI_932
  9
$INSBASE
 10
0.0
 20
0.0
 30
0.0
  9
$EXTMIN
 10
812.1328641750515
 20
447.5598690284169
 30
-0.0000000349181948
  9
$EXTMAX
 10
24215.45041823515
 20
16134.31037878437
 30
0.0000000814935747
  9
$LIMMIN
 10
0.0
 20
0.0
  9
$LIMMAX
 10
420.0
 20
297.0
  9
$ORTHOMODE
 70
     0
  9
$REGENMODE
 70
     1
  9
$FILLMODE
 70
     1
  9
$QTEXTMODE
 70
     0
  9
$MIRRTEXT
 70
     0
  9
$LTSCALE
 40
1.0
  9
$ATTMODE
 70
     1
  9
$TEXTSIZE
 40
2.5
  9
$TRACEWID
 40
1.0
  9
$TEXTSTYLE
  7
Standard
  9
$CLAYER
  8
0
  9
$CELTYPE
  6
ByLayer
  9
$CECOLOR
 62
   256
  9
$CELTSCALE
 40
1.0
  9
$DISPSILH
 70
     0
  9
$DIMSCALE
 40
500.0
  9
$DIMASZ
 40
2.5
  9
$DIMEXO
 40
0.625
  9
$DIMDLI
 40
3.75
  9
$DIMRND
 40
0.0
  9
$DIMDLE
 40
0.0
  9
$DIMEXE
 40
1.25
  9
$DIMTP
 40
0.0
  9
$DIMTM
 40
0.0
  9
$DIMTXT
 40
2.5
  9
$DIMCEN
 40
2.5
  9
$DIMTSZ
 40
0.0
  9
$DIMTOL
 70
     0
  9
$DIMLIM
 70
     0
  9
$DIMTIH
 70
     0
  9
$DIMTOH
 70
     0
  9
$DIMSE1
 70
     0
  9
$DIMSE2
 70
     0
  9
$DIMTAD
 70
     1
  9
$DIMZIN
 70
     8
  9
$DIMBLK
  1

  9
$DIMASO
 70
     1
  9
$DIMSHO
 70
     1
  9
$DIMPOST
  1

  9
$DIMAPOST
  1

  9
$DIMALT
 70
     0
  9
$DIMALTD
 70
     3
  9
$DIMALTF
 40
0.03937007874016
  9
$DIMLFAC
 40
1.0
  9
$DIMTOFL
 70
     1
  9
$DIMTVP
 40
0.0
  9
$DIMTIX
 70
     0
  9
$DIMSOXD
 70
     0
  9
$DIMSAH
 70
     0
  9
$DIMBLK1
  1

  9
$DIMBLK2
  1

  9
$DIMSTYLE
  2
ISO-25
  9
$DIMCLRD
 70
     0
  9
$DIMCLRE
 70
     0
  9
$DIMCLRT
 70
     0
  9
$DIMTFAC
 40
1.0
  9
$DIMGAP
 40
0.625
  9
$DIMJUST
 70
     0
  9
$DIMSD1
 70
     0
  9
$DIMSD2
 70
     0
  9
$DIMTOLJ
 70
     0
  9
$DIMTZIN
 70
     8
  9
$DIMALTZ
 70
     0
  9
$DIMALTTZ
 70
     0
  9
$DIMUPT
 70
     0
  9
$DIMDEC
 70
     2
  9
$DIMTDEC
 70
     2
  9
$DIMALTU
 70
     2
  9
$DIMALTTD
 70
     3
  9
$DIMTXSTY
  7
Standard
  9
$DIMAUNIT
 70
     0
  9
$DIMADEC
 70
     0
  9
$DIMALTRND
 40
0.0
  9
$DIMAZIN
 70
     0
  9
$DIMDSEP
 70
    44
  9
$DIMATFIT
 70
     3
  9
$DIMFRAC
 70
     0
  9
$DIMLDRBLK
  1

  9
$DIMLUNIT
 70
     2
  9
$DIMLWD
 70
    -2
  9
$DIMLWE
 70
    -2
  9
$DIMTMOVE
 70
     0
  9
$LUNITS
 70
     2
  9
$LUPREC
 70
     4
  9
$SKETCHINC
 40
1.0
  9
$FILLETRAD
 40
0.0
  9
$AUNITS
 70
     0
  9
$AUPREC
 70
     0
  9
$MENU
  1
.
  9
$ELEVATION
 40
0.0
  9
$PELEVATION
 40
0.0
  9
$THICKNESS
 40
0.0
  9
$LIMCHECK
 70
     0
  9
$CHAMFERA
 40
0.0
  9
$CHAMFERB
 40
0.0
  9
$CHAMFERC
 40
0.0
  9
$CHAMFERD
 40
0.0
  9
$SKPOLY
 70
     0
  9
$TDCREATE
 40
2454361.397632558
  9
$TDUCREATE
 40
2454361.022632558
  9
$TDUPDATE
 40
2454571.476905174
  9
$TDUUPDATE
 40
2454571.101905174
  9
$TDINDWG
 40
0.0641446065
  9
$TDUSRTIMER
 40
0.0641420602
  9
$USRTIMER
 70
     1
  9
$ANGBASE
 50
0.0
  9
$ANGDIR
 70
     0
  9
$PDMODE
 70
     0
  9
$PDSIZE
 40
0.0
  9
$PLINEWID
 40
0.0
  9
$SPLFRAME
 70
     0
  9
$SPLINETYPE
 70
     6
  9
$SPLINESEGS
 70
     8
  9
$HANDSEED
  5
12FF
  9
$SURFTAB1
 70
     6
  9
$SURFTAB2
 70
     6
  9
$SURFTYPE
 70
     6
  9
$SURFU
 70
     6
  9
$SURFV
 70
     6
  9
$UCSBASE
  2

  9
$UCSNAME
  2

  9
$UCSORG
 10
0.0
 20
0.0
 30
0.0
  9
$UCSXDIR
 10
1.0
 20
0.0
 30
0.0
  9
$UCSYDIR
 10
0.0
 20
1.0
 30
0.0
  9
$UCSORTHOREF
  2

  9
$UCSORTHOVIEW
 70
     0
  9
$UCSORGTOP
 10
0.0
 20
0.0
 30
0.0
  9
$UCSORGBOTTOM
 10
0.0
 20
0.0
 30
0.0
  9
$UCSORGLEFT
 10
0.0
 20
0.0
 30
0.0
  9
$UCSORGRIGHT
 10
0.0
 20
0.0
 30
0.0
  9
$UCSORGFRONT
 10
0.0
 20
0.0
 30
0.0
  9
$UCSORGBACK
 10
0.0
 20
0.0
 30
0.0
  9
$PUCSBASE
  2

  9
$PUCSNAME
  2

  9
$PUCSORG
 10
0.0
 20
0.0
 30
0.0
  9
$PUCSXDIR
 10
1.0
 20
0.0
 30
0.0
  9
$PUCSYDIR
 10
0.0
 20
1.0
 30
0.0
  9
$PUCSORTHOREF
  2

  9
$PUCSORTHOVIEW
 70
     0
  9
$PUCSORGTOP
 10
0.0
 20
0.0
 30
0.0
  9
$PUCSORGBOTTOM
 10
0.0
 20
0.0
 30
0.0
  9
$PUCSORGLEFT
 10
0.0
 20
0.0
 30
0.0
  9
$PUCSORGRIGHT
 10
0.0
 20
0.0
 30
0.0
  9
$PUCSORGFRONT
 10
0.0
 20
0.0
 30
0.0
  9
$PUCSORGBACK
 10
0.0
 20
0.0
 30
0.0
  9
$USERI1
 70
     0
  9
$USERI2
 70
     0
  9
$USERI3
 70
     0
  9
$USERI4
 70
     0
  9
$USERI5
 70
     0
  9
$USERR1
 40
0.0
  9
$USERR2
 40
0.0
  9
$USERR3
 40
0.0
  9
$USERR4
 40
0.0
  9
$USERR5
 40
0.0
  9
$WORLDVIEW
 70
     1
  9
$SHADEDGE
 70
     3
  9
$SHADEDIF
 70
    70
  9
$TILEMODE
 70
     1
  9
$MAXACTVP
 70
    64
  9
$PINSBASE
 10
0.0
 20
0.0
 30
0.0
  9
$PLIMCHECK
 70
     0
  9
$PEXTMIN
 10
0.0
 20
0.0
 30
0.0
  9
$PEXTMAX
 10
0.0
 20
0.0
 30
0.0
  9
$PLIMMIN
 10
0.0
 20
0.0
  9
$PLIMMAX
 10
12.0
 20
9.0
  9
$UNITMODE
 70
     0
  9
$VISRETAIN
 70
     1
  9
$PLINEGEN
 70
     0
  9
$PSLTSCALE
 70
     1
  9
$TREEDEPTH
 70
  3020
  9
$CMLSTYLE
  2
Standard
  9
$CMLJUST
 70
     0
  9
$CMLSCALE
 40
20.0
  9
$PROXYGRAPHICS
 70
     1
  9
$MEASUREMENT
 70
     1
  9
$CELWEIGHT
370
    -1
  9
$ENDCAPS
280
     0
  9
$JOINSTYLE
280
     0
  9
$LWDISPLAY
290
     0
  9
$INSUNITS
 70
     6
  9
$HYPERLINKBASE
  1

  9
$STYLESHEET
  1
2.CTB
  9
$XEDIT
290
     1
  9
$CEPSNTYPE
380
     0
  9
$PSTYLEMODE
290
     1
  9
$FINGERPRINTGUID
  2
{FDEAD578-A652-11D2-9A35-0060089B3A3F}
  9
$VERSIONGUID
  2
{04145E93-3A90-4B33-A483-D2444C6E587D}
  9
$EXTNAMES
290
     1
  9
$PSVPSCALE
 40
0.0
  9
$OLESTARTUP
290
     0
  0
ENDSEC
  0
SECTION
  2
CLASSES
  0
CLASS
  1
ACDBDICTIONARYWDFLT
  2
AcDbDictionaryWithDefault
  3
ObjectDBX Classes
 90
        0
280
     0
281
     0
  0
CLASS
  1
ACDBPLACEHOLDER
  2
AcDbPlaceHolder
  3
ObjectDBX Classes
 90
        0
280
     0
281
     0
  0
CLASS
  1
LAYOUT
  2
AcDbLayout
  3
ObjectDBX Classes
 90
        0
280
     0
281
     0
  0
CLASS
  1
DICTIONARYVAR
  2
AcDbDictionaryVar
  3
ObjectDBX Classes
 90
        0
280
     0
281
     0
  0
CLASS
  1
SORTENTSTABLE
  2
AcDbSortentsTable
  3
ObjectDBX Classes
 90
        0
280
     0
281
     0
  0
CLASS
  1
TABLESTYLE
  2
AcDbTableStyle
  3
ObjectDBX Classes
 90
     2047
280
     0
281
     0
  0
CLASS
  1
AECC_TREE_NODE
  2
AeccDbTreeNode
  3
AeccvBase10|Product Desc: Autodesk Civil 3D |Company: Autodesk,Inc. |WEB Address: www.autodesk.com
 90
     1023
280
     0
281
     0
  0
CLASS
  1
AECC_CLASS_NODE
  2
AeccDbClassNode
  3
AeccLand10|Product Desc: Autodesk Civil 3D |Company: Autodesk,Inc. |WEB Address: www.autodesk.com
 90
     1023
280
     0
281
     0
  0
CLASS
  1
AECC_ROOT_SETTINGS_NODE
  2
AeccDbRootSettingsNode
  3
AeccvBase10|Product Desc: Autodesk Civil 3D |Company: Autodesk,Inc. |WEB Address: www.autodesk.com
 90
     1023
280
     0
281
     0
  0
CLASS
  1
AEC_VARS_DWG_SETUP
  2
AecDbVarsDwgSetup
  3
AecBase40|Product Desc: Autodesk Architectural Desktop 2005 |Company: Autodesk,Inc. |WEB Address: www.autodesk.com
 90
      129
280
     0
281
     0
  0
CLASS
  1
DMMAPMANAGER
  2
AcMapDMMapManager
  3
AcMapDisplayManagement
 90
     1024
280
     0
281
     0
  0
CLASS
  1
DMSTYLELIBRARY
  2
AcMapDMStyleLibrary
  3
AcMapDisplayManagement
 90
     1024
280
     0
281
     0
  0
CLASS
  1
DMMAP
  2
AcMapDMMap
  3
AcMapDisplayManagement
 90
     1024
280
     0
281
     0
  0
CLASS
  1
DMBASEELEMENT
  2
AcMapDMBaseElement
  3
AcMapDisplayManagement
 90
     1024
280
     0
281
     0
  0
CLASS
  1
DMDEFAULTSTYLE
  2
AcMapDMDefaultStyle
  3
AcMapDisplayManagement
 90
     1024
280
     0
281
     0
  0
CLASS
  1
DMSTYLEREFERENCE
  2
AcMapDMStyleReference
  3
AcMapDisplayManagement
 90
     1024
280
     0
281
     0
  0
CLASS
  1
DMSTYLECATEGORY
  2
AcMapDMStyleCategory
  3
AcMapDisplayManagement
 90
     1024
280
     0
281
     0
  0
CLASS
  1
AECC_SETTINGS_NODE
  2
AeccDbSettingsNode
  3
AeccvBase10|Product Desc: Autodesk Civil 3D |Company: Autodesk,Inc. |WEB Address: www.autodesk.com
 90
     1023
280
     0
281
     0
  0
CLASS
  1
AECC_PROFILE_VIEW_STYLE
  2
AeccDbGraphStyleProfile
  3
AeccLand10|Product Desc: Autodesk Civil 3D |Company: Autodesk,Inc. |WEB Address: www.autodesk.com
 90
      129
280
     0
281
     0
  0
CLASS
  1
AECC_PROFILE_VIEW_BAND_STYLE_SET
  2
AeccDbGraphProfileBandStyleSet
  3
AeccLand10|Product Desc: Autodesk Civil 3D |Company: Autodesk,Inc. |WEB Address: www.autodesk.com
 90
      129
280
     0
281
     0
  0
CLASS
  1
AECC_PROFILE_VIEW_DATA_BAND_STYLE
  2
AeccDbGraphStyleProfileDataBands
  3
AeccLand10|Product Desc: Autodesk Civil 3D |Company: Autodesk,Inc. |WEB Address: www.autodesk.com
 90
      129
280
     0
281
     0
  0
CLASS
  1
AECC_LABEL_NODE
  2
AeccDbLabelNode
  3
AeccLand10|Product Desc: Autodesk Civil 3D |Company: Autodesk,Inc. |WEB Address: www.autodesk.com
 90
     1023
280
     0
281
     0
  0
CLASS
  1
AECC_LABEL_COLLECTOR_STYLE
  2
AeccDbLabelStyleCollector
  3
AeccLand10|Product Desc: Autodesk Civil 3D |Company: Autodesk,Inc. |WEB Address: www.autodesk.com
 90
     1023
280
     0
281
     0
  0
CLASS
  1
AECC_LABEL_TEXT_STYLE
  2
AeccDbLabelStyleText
  3
AeccLand10|Product Desc: Autodesk Civil 3D |Company: Autodesk,Inc. |WEB Address: www.autodesk.com
 90
     1023
280
     0
281
     0
  0
CLASS
  1
AECC_PROFILE_VIEW_HORIZONTAL_GEOMETRY_BAND_STYLE
  2
AeccDbGraphStyleHorGeometryBands
  3
AeccLand10|Product Desc: Autodesk Civil 3D |Company: Autodesk,Inc. |WEB Address: www.autodesk.com
 90
      129
280
     0
281
     0
  0
CLASS
  1
AECC_PROFILE_VIEW_VERTICAL_GEOMETRY_BAND_STYLE
  2
AeccDbGraphStyleVertGeometryBands
  3
AeccLand10|Product Desc: Autodesk Civil 3D |Company: Autodesk,Inc. |WEB Address: www.autodesk.com
 90
      129
280
     0
281
     0
  0
CLASS
  1
AECC_LABEL_RADIAL_LINE_STYLE
  2
AeccDbLabelStyleRadialLine
  3
AeccLand10|Product Desc: Autodesk Civil 3D |Company: Autodesk,Inc. |WEB Address: www.autodesk.com
 90
     1023
280
     0
281
     0
  0
CLASS
  1
AECC_POINT_STYLE
  2
AeccDbPointStyle
  3
AeccLand10|Product Desc: Autodesk Civil 3D |Company: Autodesk,Inc. |WEB Address: www.autodesk.com
 90
      895
280
     0
281
     0
  0
CLASS
  1
AECC_PROFILE_LABEL_SET
  2
AeccDbVAlignStnLabelsDlgTemplate
  3
AeccLand10|Product Desc: Autodesk Civil 3D |Company: Autodesk,Inc. |WEB Address: www.autodesk.com
 90
     1023
280
     0
281
     0
  0
CLASS
  1
AECC_SECTION_VIEW_STYLE
  2
AeccDbGraphStyleCrossSection
  3
AeccLand10|Product Desc: Autodesk Civil 3D |Company: Autodesk,Inc. |WEB Address: www.autodesk.com
 90
      129
280
     0
281
     0
  0
CLASS
  1
AECC_SECTION_VIEW_BAND_STYLE_SET
  2
AeccDbGraphSectionBandStyleSet
  3
AeccLand10|Product Desc: Autodesk Civil 3D |Company: Autodesk,Inc. |WEB Address: www.autodesk.com
 90
      129
280
     0
281
     0
  0
CLASS
  1
AECC_SECTION_VIEW_DATA_BAND_STYLE
  2
AeccDbGraphStyleSectionDataBands
  3
AeccLand10|Product Desc: Autodesk Civil 3D |Company: Autodesk,Inc. |WEB Address: www.autodesk.com
 90
      129
280
     0
281
     0
  0
CLASS
  1
AECC_SECTION_LABEL_SET
  2
AeccDbSectionLabelsDlgTemplate
  3
AeccLand10|Product Desc: Autodesk Civil 3D |Company: Autodesk,Inc. |WEB Address: www.autodesk.com
 90
     1023
280
     0
281
     0
  0
CLASS
  1
AECC_ALIGNMENT_STYLE
  2
AeccDbAlignmentStyle
  3
AeccLand10|Product Desc: Autodesk Civil 3D |Company: Autodesk,Inc. |WEB Address: www.autodesk.com
 90
     1023
280
     0
281
     0
  0
CLASS
  1
AECC_LABEL_VECTOR_ARROW_STYLE
  2
AeccDbLabelStyleVectorArrow
  3
AeccLand10|Product Desc: Autodesk Civil 3D |Company: Autodesk,Inc. |WEB Address: www.autodesk.com
 90
     1023
280
     0
281
     0
  0
CLASS
  1
AECC_ALIGNMENT_LABEL_SET
  2
AeccDbAlignStnLabelsDlgTemplate
  3
AeccLand10|Product Desc: Autodesk Civil 3D |Company: Autodesk,Inc. |WEB Address: www.autodesk.com
 90
     1023
280
     0
281
     0
  0
CLASS
  1
AECC_SURFACE_STYLE
  2
AeccDbSurfaceStyle
  3
AeccLand10|Product Desc: Autodesk Civil 3D |Company: Autodesk,Inc. |WEB Address: www.autodesk.com
 90
      129
280
     0
281
     0
  0
CLASS
  1
AECC_LEGEND_TABLE_STYLE
  2
AeccDbLegendScheduleTableStyle
  3
AeccLand10|Product Desc: Autodesk Civil 3D |Company: Autodesk,Inc. |WEB Address: www.autodesk.com
 90
     1023
280
     0
281
     0
  0
CLASS
  1
AECC_SECTION_STYLE
  2
AeccDbSectionStyle
  3
AeccLand10|Product Desc: Autodesk Civil 3D |Company: Autodesk,Inc. |WEB Address: www.autodesk.com
 90
     1023
280
     0
281
     0
  0
CLASS
  1
AECC_GRADING_STYLE
  2
AeccDbGradingStyle
  3
AeccLand10|Product Desc: Autodesk Civil 3D |Company: Autodesk,Inc. |WEB Address: www.autodesk.com
 90
     1023
280
     0
281
     0
  0
CLASS
  1
AECC_GRADING_CRITERIA
  2
AeccDbGradingCriteria
  3
AeccLand10|Product Desc: Autodesk Civil 3D |Company: Autodesk,Inc. |WEB Address: www.autodesk.com
 90
     1023
280
     0
281
     0
  0
CLASS
  1
AECC_PARCEL_STYLE
  2
AeccDbParcelStyle
  3
AeccLand10|Product Desc: Autodesk Civil 3D |Company: Autodesk,Inc. |WEB Address: www.autodesk.com
 90
      129
280
     0
281
     0
  0
CLASS
  1
AECC_SAMPLE_LINE_GROUP_STYLE
  2
AeccDbSampleLineGroupStyle
  3
AeccLand10|Product Desc: Autodesk Civil 3D |Company: Autodesk,Inc. |WEB Address: www.autodesk.com
 90
      129
280
     0
281
     0
  0
CLASS
  1
AECC_SHEET_STYLE
  2
AeccDbSheetStyle
  3
AeccLand10|Product Desc: Autodesk Civil 3D |Company: Autodesk,Inc. |WEB Address: www.autodesk.com
 90
      129
280
     0
281
     0
  0
CLASS
  1
AECC_SAMPLE_LINE_STYLE
  2
AeccDbSampleLineStyle
  3
AeccLand10|Product Desc: Autodesk Civil 3D |Company: Autodesk,Inc. |WEB Address: www.autodesk.com
 90
     1023
280
     0
281
     0
  0
CLASS
  1
AECC_PROFILE_STYLE
  2
AeccDbVAlignmentStyle
  3
AeccLand10|Product Desc: Autodesk Civil 3D |Company: Autodesk,Inc. |WEB Address: www.autodesk.com
 90
     1023
280
     0
281
     0
  0
CLASS
  1
AECC_STATION_FORMAT_STYLE
  2
AeccDbStationFormatStyle
  3
AeccLand10|Product Desc: Autodesk Civil 3D |Company: Autodesk,Inc. |WEB Address: www.autodesk.com
 90
     1023
280
     0
281
     0
  0
CLASS
  1
AECC_TABLE_STYLE
  2
AeccDbScheduleTableStyle
  3
AeccLand10|Product Desc: Autodesk Civil 3D |Company: Autodesk,Inc. |WEB Address: www.autodesk.com
 90
     1023
280
     0
281
     0
  0
CLASS
  1
AECC_GRADING_CRITERIA_SET
  2
AeccDbGradingCriteriaSet
  3
AeccLand10|Product Desc: Autodesk Civil 3D |Company: Autodesk,Inc. |WEB Address: www.autodesk.com
 90
     1023
280
     0
281
     0
  0
CLASS
  1
AECC_FORMAT_MANAGER_OBJECT
  2
AeccDbFormatManagerObject
  3
AeccLand10|Product Desc: Autodesk Civil 3D |Company: Autodesk,Inc. |WEB Address: www.autodesk.com
 90
     1023
280
     0
281
     0
  0
CLASS
  1
AECC_POINT_DESCRIPTION_KEY_SET_NODE
  2
AeccDbPointDescKeySetsNode
  3
AeccvBase10|Product Desc: Autodesk Civil 3D |Company: Autodesk,Inc. |WEB Address: www.autodesk.com
 90
     1023
280
     0
281
     0
  0
ENDSEC
  0
SECTION
  2
TABLES
  0
TABLE
  2
VPORT
  5
8
330
0
100
AcDbSymbolTable
 70
     2
  0
VPORT
  5
12F7
330
8
100
AcDbSymbolTableRecord
100
AcDbViewportTableRecord
  2
*Active
 70
     0
 10
0.0
 20
0.0
 11
1.0
 21
1.0
 12
12107.72520911758
 22
8067.155189392188
 13
0.0
 23
0.0
 14
10.0
 24
10.0
 15
10.0
 25
10.0
 16
0.0
 26
0.0
 36
1.0
 17
0.0
 27
0.0
 37
0.0
 40
19847.31149511327
 41
1.227931488801053
 42
50.0
 43
0.0
 44
0.0
 50
0.0
 51
0.0
 71
     0
 72
  1000
 73
     1
 74
     1
 75
     0
 76
     0
 77
     0
 78
     0
281
     0
 65
     1
110
0.0
120
0.0
130
0.0
111
1.0
121
0.0
131
0.0
112
0.0
122
1.0
132
0.0
 79
     0
146
0.0
  0
ENDTAB
  0
TABLE
  2
LTYPE
  5
5
330
0
100
AcDbSymbolTable
 70
     3
  0
LTYPE
  5
14
330
5
100
AcDbSymbolTableRecord
100
AcDbLinetypeTableRecord
  2
ByBlock
 70
     0
  3

 72
    65
 73
     0
 40
0.0
  0
LTYPE
  5
15
330
5
100
AcDbSymbolTableRecord
100
AcDbLinetypeTableRecord
  2
ByLayer
 70
     0
  3

 72
    65
 73
     0
 40
0.0
  0
LTYPE
  5
16
330
5
100
AcDbSymbolTableRecord
100
AcDbLinetypeTableRecord
  2
Continuous
 70
     0
  3
Solid line
 72
    65
 73
     0
 40
0.0
  0
LTYPE
  5
1FA
330
5
100
AcDbSymbolTableRecord
100
AcDbLinetypeTableRecord
  2
DASHED
 70
     0
  3
__ __ __ __ __ __ __ __ __ __ __ __ __ __ __
 72
    65
 73
     2
 40
3.0
 49
2.0
 74
     0
 49
-1.0
 74
     0
  0
LTYPE
  5
1FB
330
5
100
AcDbSymbolTableRecord
100
AcDbLinetypeTableRecord
  2
DASHDOT
 70
     0
  3
__ . __ . __ . __ . __ . __ . __ . __ . __ . __
 72
    65
 73
     4
 40
8.5
 49
6.0
 74
     0
 49
-1.0
 74
     0
 49
0.5
 74
     0
 49
-1.0
 74
     0
  0
ENDTAB
  0
TABLE
  2
LAYER
  5
2
330
0
100
AcDbSymbolTable
 70
    18
  0
LAYER
  5
10
330
2
100
AcDbSymbolTableRecord
100
AcDbLayerTableRecord
  2
0
 70
     0
 62
     7
  6
Continuous
370
    -3
390
F
  0
LAYER
  5
1FC
330
2
100
AcDbSymbolTableRecord
100
AcDbLayerTableRecord
  2
DEFPOINTS
 70
     0
 62
     4
  6
Continuous
290
     0
370
    -3
390
F
  0
LAYER
  5
1FD
330
2
100
AcDbSymbolTableRecord
100
AcDbLayerTableRecord
  2
寸法
 70
     0
 62
     6
  6
Continuous
370
    -3
390
F
  0
LAYER
  5
1FE
330
2
100
AcDbSymbolTableRecord
100
AcDbLayerTableRecord
  2
画層1-1
 70
     0
 62
    82
  6
Continuous
370
    -3
390
F
  0
LAYER
  5
1FF
330
2
100
AcDbSymbolTableRecord
100
AcDbLayerTableRecord
  2
図面枠
 70
     0
 62
     7
  6
Continuous
370
    -3
390
F
  0
LAYER
  5
200
330
2
100
AcDbSymbolTableRecord
100
AcDbLayerTableRecord
  2
ﾊｯﾁﾝｸﾞ
 70
     0
 62
     1
  6
Continuous
370
    -3
390
F
  0
LAYER
  5
201
330
2
100
AcDbSymbolTableRecord
100
AcDbLayerTableRecord
  2
画層2
 70
     0
 62
    40
  6
Continuous
370
    -3
390
F
  0
LAYER
  5
202
330
2
100
AcDbSymbolTableRecord
100
AcDbLayerTableRecord
  2
通り芯
 70
     0
 62
     4
  6
Continuous
370
    13
390
F
  0
LAYER
  5
203
330
2
100
AcDbSymbolTableRecord
100
AcDbLayerTableRecord
  2
画層1
 70
     0
 62
     7
  6
Continuous
370
    -3
390
F
  0
LAYER
  5
204
330
2
100
AcDbSymbolTableRecord
100
AcDbLayerTableRecord
  2
画層3-1
 70
     0
 62
     3
  6
Continuous
370
    -3
390
F
  0
LAYER
  5
205
330
2
100
AcDbSymbolTableRecord
100
AcDbLayerTableRecord
  2
画層3-2
 70
     0
 62
    60
  6
Continuous
370
    -3
390
F
  0
LAYER
  5
206
330
2
100
AcDbSymbolTableRecord
100
AcDbLayerTableRecord
  2
画層3-3
 70
     0
 62
     1
  6
Continuous
370
    -3
390
F
  0
LAYER
  5
207
330
2
100
AcDbSymbolTableRecord
100
AcDbLayerTableRecord
  2
画層3-通り芯
 70
     0
 62
     4
  6
Continuous
370
    -3
390
F
  0
LAYER
  5
208
330
2
100
AcDbSymbolTableRecord
100
AcDbLayerTableRecord
  2
画層3-寸法
 70
     0
 62
     6
  6
Continuous
370
    -3
390
F
  0
LAYER
  5
209
330
2
100
AcDbSymbolTableRecord
100
AcDbLayerTableRecord
  2
ﾈｯﾄ
 70
     0
 62
   230
  6
Continuous
370
    13
390
F
  0
LAYER
  5
20A
330
2
100
AcDbSymbolTableRecord
100
AcDbLayerTableRecord
  2
画層2-1
 70
     0
 62
     7
  6
Continuous
370
    -3
390
F
  0
LAYER
  5
20B
330
2
100
AcDbSymbolTableRecord
100
AcDbLayerTableRecord
  2
寸法文字
 70
     0
 62
     6
  6
Continuous
370
    -3
390
F
  0
LAYER
  5
20C
330
2
100
AcDbSymbolTableRecord
100
AcDbLayerTableRecord
  2
寸法引出
 70
     0
 62
     3
  6
Continuous
370
    -3
390
F
  0
ENDTAB
  0
TABLE
  2
STYLE
  5
3
330
0
100
AcDbSymbolTable
 70
     4
  0
STYLE
  5
11
330
3
100
AcDbSymbolTableRecord
100
AcDbTextStyleTableRecord
  2
Standard
 70
     0
 40
0.0
 41
1.0
 50
0.0
 71
     0
 42
2.5
  3
txt
  4

  0
STYLE
  5
20D
330
3
100
AcDbSymbolTableRecord
100
AcDbTextStyleTableRecord
  2
1_100
 70
     0
 40
0.0
 41
0.75
 50
0.0
 71
     0
 42
2.5
  3
romans.shx
  4
extfont2.shx
  0
STYLE
  5
20E
330
3
100
AcDbSymbolTableRecord
100
AcDbTextStyleTableRecord
  2
STYLE1
 70
     0
 40
0.0
 41
0.75
 50
0.0
 71
     0
 42
0.2
  3
HGRSKP.TTF
  4

1001
ACAD
1000
HGSeikaishotaiPRO
1071
    32833
  0
STYLE
  5
20F
330
3
100
AcDbSymbolTableRecord
100
AcDbTextStyleTableRecord
  2
MSP明朝
 70
     0
 40
0.0
 41
0.75
 50
0.0
 71
     0
 42
0.2
  3
MS PMincho.ttf
  4

1001
ACAD
1000
MS PMincho
1071
    32786
  0
ENDTAB
  0
TABLE
  2
VIEW
  5
6
330
0
100
AcDbSymbolTable
 70
     0
  0
ENDTAB
  0
TABLE
  2
UCS
  5
7
330
0
100
AcDbSymbolTable
 70
     0
  0
ENDTAB
  0
TABLE
  2
APPID
  5
9
330
0
100
AcDbSymbolTable
 70
     4
  0
APPID
  5
12
330
9
100
AcDbSymbolTableRecord
100
AcDbRegAppTableRecord
  2
ACAD
 70
     0
  0
APPID
  5
213
330
9
100
AcDbSymbolTableRecord
100
AcDbRegAppTableRecord
  2
AcDbBlockRepETag
 70
     0
  0
APPID
  5
FF6
330
9
100
AcDbSymbolTableRecord
100
AcDbRegAppTableRecord
  2
ADE
 70
     0
  0
APPID
  5
FF7
330
9
100
AcDbSymbolTableRecord
100
AcDbRegAppTableRecord
  2
DCO15
 70
     0
  0
ENDTAB
  0
TABLE
  2
DIMSTYLE
  5
A
330
0
100
AcDbSymbolTable
 70
     5
100
AcDbDimStyleTable
 71
     0
  0
DIMSTYLE
105
27
330
A
100
AcDbSymbolTableRecord
100
AcDbDimStyleTableRecord
  2
ISO-25
 70
     0
 41
2.5
 42
0.625
 43
3.75
 44
1.25
 73
     0
 74
     0
 77
     1
 78
     8
140
2.5
141
2.5
143
0.03937007874016
147
0.625
171
     3
172
     1
271
     2
272
     2
274
     3
278
    44
283
     0
284
     8
340
11
  0
DIMSTYLE
105
210
330
A
100
AcDbSymbolTableRecord
100
AcDbDimStyleTableRecord
  2
STANDARD
 70
     0
340
11
  0
DIMSTYLE
105
211
330
A
100
AcDbSymbolTableRecord
100
AcDbDimStyleTableRecord
  2
1_100
 70
     0
 40
100.0
 41
0.6
 42
3.0
 43
10.0
 44
0.0
 73
     0
 74
     0
 77
     1
 78
     8
140
3.0
141
0.0
147
1.0
172
     1
173
     1
176
   256
177
   256
178
   256
271
     1
272
     1
277
     6
279
     2
284
     8
340
20D
341
87
343
87
344
87
  0
DIMSTYLE
105
212
102
{ACAD_REACTORS
330
48B
330
4AE
330
4B8
330
4B9
330
4BA
330
4BB
330
4BE
330
4BF
330
5AF
330
5C6
330
5C9
330
5CB
330
5CC
330
5CD
330
5CE
330
5CF
330
5D1
330
5D2
330
5D3
330
5D4
330
5D6
330
5D7
330
612
330
614
330
619
330
61A
330
61B
330
61C
330
B29
330
B28
102
}
330
A
100
AcDbSymbolTableRecord
100
AcDbDimStyleTableRecord
  2
1_60
 70
     0
 40
60.0
 41
0.6
 42
3.0
 43
10.0
 44
0.0
 73
     0
 74
     0
 77
     1
 78
     8
140
3.0
141
0.0
147
1.0
172
     1
173
     1
176
   256
177
   256
178
   256
271
     1
272
     1
277
     6
279
     2
284
     8
340
20D
341
87
343
87
344
87
  0
DIMSTYLE
105
FF5
330
A
100
AcDbSymbolTableRecord
100
AcDbDimStyleTableRecord
  2
1_50
 70
     0
 40
50.0
 41
1.0
 42
3.0
 43
10.0
 44
0.0
 73
     0
 74
     0
 77
     1
 78
    12
140
3.0
141
0.0
147
1.0
172
     1
173
     1
176
   256
177
   256
178
   256
271
     1
272
     1
277
     6
279
     2
340
20D
341
87
343
87
344
87
  0
ENDTAB
  0
TABLE
  2
BLOCK_RECORD
  5
1
330
0
100
AcDbSymbolTable
 70
    32
  0
BLOCK_RECORD
  5
1F
102
{ACAD_XDICTIONARY
360
12F4
102
}
330
1
100
AcDbSymbolTableRecord
100
AcDbBlockTableRecord
  2
*Model_Space
340
22
  0
BLOCK_RECORD
  5
50
330
1
100
AcDbSymbolTableRecord
100
AcDbBlockTableRecord
  2
*Paper_Space
340
51
  0
BLOCK_RECORD
  5
55
330
1
100
AcDbSymbolTableRecord
100
AcDbBlockTableRecord
  2
*Paper_Space0
340
56
  0
BLOCK_RECORD
  5
87
330
1
100
AcDbSymbolTableRecord
100
AcDbBlockTableRecord
  2
_ORIGIN
340
0
102
{BLKREFS
331
7A0
331
7A1
331
7A9
331
7AA
331
7D9
331
7DA
331
92F
331
930
331
939
331
93A
331
943
331
944
331
94C
331
94D
331
AF0
331
AF1
331
AF9
331
AFA
331
B4E
331
B4F
331
B57
331
B58
331
B87
331
B88
331
B8F
331
B90
331
B98
331
B99
331
BA3
331
BA4
331
BAD
331
BAE
331
BB8
331
BB9
331
BC3
331
BC4
331
BCB
331
BCC
331
BD4
331
BD5
331
BDD
331
BDE
331
BE9
331
BEA
331
BF2
331
BF3
331
BFC
331
BFD
331
C04
331
C05
331
C10
331
C11
331
C18
331
C19
331
C21
331
C22
331
C2A
331
C2B
331
C36
331
C37
102
}
  0
BLOCK_RECORD
  5
62C
330
1
100
AcDbSymbolTableRecord
100
AcDbBlockTableRecord
  2
*D2
340
0
  0
BLOCK_RECORD
  5
63A
330
1
100
AcDbSymbolTableRecord
100
AcDbBlockTableRecord
  2
*D3
340
0
  0
BLOCK_RECORD
  5
646
330
1
100
AcDbSymbolTableRecord
100
AcDbBlockTableRecord
  2
*D4
340
0
  0
BLOCK_RECORD
  5
652
330
1
100
AcDbSymbolTableRecord
100
AcDbBlockTableRecord
  2
*D5
340
0
  0
BLOCK_RECORD
  5
660
330
1
100
AcDbSymbolTableRecord
100
AcDbBlockTableRecord
  2
*D6
340
0
  0
BLOCK_RECORD
  5
66C
330
1
100
AcDbSymbolTableRecord
100
AcDbBlockTableRecord
  2
*D7
340
0
  0
BLOCK_RECORD
  5
678
330
1
100
AcDbSymbolTableRecord
100
AcDbBlockTableRecord
  2
*D8
340
0
  0
BLOCK_RECORD
  5
686
330
1
100
AcDbSymbolTableRecord
100
AcDbBlockTableRecord
  2
*D9
340
0
  0
BLOCK_RECORD
  5
69E
330
1
100
AcDbSymbolTableRecord
100
AcDbBlockTableRecord
  2
*D10
340
0
  0
BLOCK_RECORD
  5
6AA
330
1
100
AcDbSymbolTableRecord
100
AcDbBlockTableRecord
  2
*D11
340
0
  0
BLOCK_RECORD
  5
6B8
330
1
100
AcDbSymbolTableRecord
100
AcDbBlockTableRecord
  2
*D12
340
0
  0
BLOCK_RECORD
  5
6C4
330
1
100
AcDbSymbolTableRecord
100
AcDbBlockTableRecord
  2
*D13
340
0
  0
BLOCK_RECORD
  5
6D0
330
1
100
AcDbSymbolTableRecord
100
AcDbBlockTableRecord
  2
*D14
340
0
  0
BLOCK_RECORD
  5
6DC
330
1
100
AcDbSymbolTableRecord
100
AcDbBlockTableRecord
  2
*D15
340
0
  0
BLOCK_RECORD
  5
6E8
330
1
100
AcDbSymbolTableRecord
100
AcDbBlockTableRecord
  2
*D16
340
0
  0
BLOCK_RECORD
  5
6F4
330
1
100
AcDbSymbolTableRecord
100
AcDbBlockTableRecord
  2
*D17
340
0
  0
BLOCK_RECORD
  5
702
330
1
100
AcDbSymbolTableRecord
100
AcDbBlockTableRecord
  2
*D18
340
0
  0
BLOCK_RECORD
  5
70E
330
1
100
AcDbSymbolTableRecord
100
AcDbBlockTableRecord
  2
*D19
340
0
  0
BLOCK_RECORD
  5
71A
330
1
100
AcDbSymbolTableRecord
100
AcDbBlockTableRecord
  2
*D20
340
0
  0
BLOCK_RECORD
  5
726
330
1
100
AcDbSymbolTableRecord
100
AcDbBlockTableRecord
  2
*D21
340
0
  0
BLOCK_RECORD
  5
734
330
1
100
AcDbSymbolTableRecord
100
AcDbBlockTableRecord
  2
*D22
340
0
  0
BLOCK_RECORD
  5
742
330
1
100
AcDbSymbolTableRecord
100
AcDbBlockTableRecord
  2
*D23
340
0
  0
BLOCK_RECORD
  5
74E
330
1
100
AcDbSymbolTableRecord
100
AcDbBlockTableRecord
  2
*D24
340
0
  0
BLOCK_RECORD
  5
75A
330
1
100
AcDbSymbolTableRecord
100
AcDbBlockTableRecord
  2
*D25
340
0
  0
BLOCK_RECORD
  5
766
330
1
100
AcDbSymbolTableRecord
100
AcDbBlockTableRecord
  2
*D26
340
0
  0
BLOCK_RECORD
  5
774
330
1
100
AcDbSymbolTableRecord
100
AcDbBlockTableRecord
  2
*D27
340
0
  0
BLOCK_RECORD
  5
780
330
1
100
AcDbSymbolTableRecord
100
AcDbBlockTableRecord
  2
*D28
340
0
  0
BLOCK_RECORD
  5
78E
330
1
100
AcDbSymbolTableRecord
100
AcDbBlockTableRecord
  2
*D29
340
0
  0
BLOCK_RECORD
  5
B2A
330
1
100
AcDbSymbolTableRecord
100
AcDbBlockTableRecord
  2
*D30
340
0
  0
BLOCK_RECORD
  5
B36
330
1
100
AcDbSymbolTableRecord
100
AcDbBlockTableRecord
  2
*D31
340
0
  0
ENDTAB
  0
ENDSEC
  0
SECTION
  2
BLOCKS
  0
BLOCK
  5
20
330
1F
100
AcDbEntity
  8
0
100
AcDbBlockBegin
  2
*Model_Space
 70
     0
 10
0.0
 20
0.0
 30
0.0
  3
*Model_Space
  1

  0
ENDBLK
  5
21
330
1F
100
AcDbEntity
  8
0
100
AcDbBlockEnd
  0
BLOCK
  5
52
330
50
100
AcDbEntity
 67
     1
  8
0
100
AcDbBlockBegin
  2
*Paper_Space
 70
     0
 10
0.0
 20
0.0
 30
0.0
  3
*Paper_Space
  1

  0
ENDBLK
  5
53
330
50
100
AcDbEntity
 67
     1
  8
0
100
AcDbBlockEnd
  0
BLOCK
  5
57
330
55
100
AcDbEntity
  8
0
100
AcDbBlockBegin
  2
*Paper_Space0
 70
     0
 10
0.0
 20
0.0
 30
0.0
  3
*Paper_Space0
  1

  0
ENDBLK
  5
58
330
55
100
AcDbEntity
  8
0
100
AcDbBlockEnd
  0
BLOCK
  5
88
330
87
100
AcDbEntity
  8
0
100
AcDbBlockBegin
  2
_ORIGIN
 70
     0
 10
0.0
 20
0.0
 30
0.0
  3
_ORIGIN
  1

  0
CIRCLE
  5
89
330
87
100
AcDbEntity
  8
0
  6
ByBlock
 62
     0
100
AcDbCircle
 10
0.0
 20
0.0
 30
0.0
 40
0.5
  0
LINE
  5
8A
330
87
100
AcDbEntity
  8
0
  6
ByBlock
 62
     0
100
AcDbLine
 10
0.0
 20
0.0
 30
0.0
 11
-1.0
 21
0.0
 31
0.0
  0
ENDBLK
  5
8B
330
87
100
AcDbEntity
  8
0
100
AcDbBlockEnd
  0
BLOCK
  5
638
330
62C
100
AcDbEntity
  8
0
100
AcDbBlockBegin
  2
*D2
 70
     1
 10
0.0
 20
0.0
 30
0.0
  3
*D2
  1

  0
LINE
  5
79A
330
62C
100
AcDbEntity
  8
寸法
  6
Continuous
370
    -2
100
AcDbLine
 10
5264.072416663388
 20
13568.32586342742
 30
0.0
 11
5264.072416663388
 21
13763.32586342765
 31
0.0
  0
LINE
  5
79B
330
62C
100
AcDbEntity
  8
寸法
  6
Continuous
370
    -2
100
AcDbLine
 10
5403.872416663202
 20
13568.32586342742
 30
0.0
 11
5403.872416663202
 21
13763.32586342765
 31
0.0
  0
LINE
  5
79C
330
62C
100
AcDbEntity
  8
寸法
  6
Continuous
370
    -2
100
AcDbLine
 10
5228.072416663388
 20
13763.32586342765
 30
0.0
 11
5192.072416663388
 21
13763.32586342765
 31
0.0
  0
LINE
  5
79D
330
62C
100
AcDbEntity
  8
寸法
  6
Continuous
370
    -2
100
AcDbLine
 10
5439.872416663202
 20
13763.32586342765
 30
0.0
 11
5475.872416663202
 21
13763.32586342765
 31
0.0
  0
MTEXT
  5
79E
330
62C
100
AcDbEntity
  8
寸法
  6
Continuous
100
AcDbMText
 10
5333.972416663295
 20
13943.32586342765
 30
0.0
 40
180.0
 41
0.0
 71
     5
 72
     1
  1
\A1;φ139.8
  7
1_100
 73
     1
 44
1.0
1001
ACAD
1000
MTEXTBEGIN
1070
    73
1070
     1
1070
    44
1040
1.0
1070
    74
1070
     0
1000
MTEXTEND
  0
LINE
  5
79F
330
62C
100
AcDbEntity
  8
寸法
  6
Continuous
370
    -2
100
AcDbLine
 10
5264.072416663388
 20
13763.32586342765
 30
0.0
 11
5403.872416663202
 21
13763.32586342765
 31
0.0
  0
INSERT
  5
7A0
330
62C
100
AcDbEntity
  8
寸法
  6
Continuous
370
    -2
100
AcDbBlockReference
  2
_ORIGIN
 10
5264.072416663388
 20
13763.32586342765
 30
0.0
 41
36.0
 42
36.0
 43
36.0
  0
INSERT
  5
7A1
330
62C
100
AcDbEntity
  8
寸法
  6
Continuous
370
    -2
100
AcDbBlockReference
  2
_ORIGIN
 10
5403.872416663202
 20
13763.32586342765
 30
0.0
 41
36.0
 42
36.0
 43
36.0
 50
180.0
  0
POINT
  5
7A2
330
62C
100
AcDbEntity
  8
DEFPOINTS
  6
Continuous
 62
     0
100
AcDbPoint
 10
5264.072416663388
 20
13388.32586342742
 30
0.0
  0
POINT
  5
7A3
330
62C
100
AcDbEntity
  8
DEFPOINTS
  6
Continuous
 62
     0
100
AcDbPoint
 10
5403.872416663202
 20
13388.32586342742
 30
0.0
  0
POINT
  5
7A4
330
62C
100
AcDbEntity
  8
DEFPOINTS
  6
Continuous
 62
     0
100
AcDbPoint
 10
5403.872416663202
 20
13763.32586342765
 30
0.0
  0
ENDBLK
  5
639
330
62C
100
AcDbEntity
  8
0
100
AcDbBlockEnd
  0
BLOCK
  5
644
330
63A
100
AcDbEntity
  8
0
100
AcDbBlockBegin
  2
*D3
 70
     1
 10
0.0
 20
0.0
 30
0.0
  3
*D3
  1

  0
LINE
  5
7A5
330
63A
100
AcDbEntity
  8
画層3-寸法
  6
Continuous
370
    -2
100
AcDbLine
 10
7028.972416663295
 20
8403.32586342742
 30
0.0
 11
6892.783883554148
 21
8403.32586342742
 31
0.0
  0
LINE
  5
7A6
330
63A
100
AcDbEntity
  8
画層3-寸法
  6
Continuous
370
    -2
100
AcDbLine
 10
7028.972416663295
 20
7953.325863427422
 30
0.0
 11
6892.783883554148
 21
7953.325863427422
 31
0.0
  0
LINE
  5
7A7
330
63A
100
AcDbEntity
  8
画層3-寸法
  6
Continuous
370
    -2
100
AcDbLine
 10
6892.783883554148
 20
8367.325863427421
 30
0.0
 11
6892.783883554148
 21
7989.325863427422
 31
0.0
  0
MTEXT
  5
7A8
330
63A
100
AcDbEntity
  8
画層3-寸法
  6
Continuous
100
AcDbMText
 10
6712.783883554147
 20
8178.325863427422
 30
0.0
 40
180.0
 41
0.0
 71
     5
 72
     1
  1
\A1;450
  7
1_100
 11
0.0000000000000001
 21
1.0
 31
0.0
 73
     1
 44
1.0
1001
ACAD
1000
MTEXTBEGIN
1070
    73
1070
     1
1070
    44
1040
1.0
1070
    74
1070
     0
1000
MTEXTEND
  0
INSERT
  5
7A9
330
63A
100
AcDbEntity
  8
画層3-寸法
  6
Continuous
370
    -2
100
AcDbBlockReference
  2
_ORIGIN
 10
6892.783883554148
 20
8403.32586342742
 30
0.0
 41
36.0
 42
36.0
 43
36.0
 50
90.0
  0
INSERT
  5
7AA
330
63A
100
AcDbEntity
  8
画層3-寸法
  6
Continuous
370
    -2
100
AcDbBlockReference
  2
_ORIGIN
 10
6892.783883554148
 20
7953.325863427422
 30
0.0
 41
36.0
 42
36.0
 43
36.0
 50
270.0
  0
POINT
  5
7AB
330
63A
100
AcDbEntity
  8
DEFPOINTS
  6
Continuous
 62
     0
100
AcDbPoint
 10
7208.972416663295
 20
8403.32586342742
 30
0.0
  0
POINT
  5
7AC
330
63A
100
AcDbEntity
  8
DEFPOINTS
  6
Continuous
 62
     0
100
AcDbPoint
 10
7208.972416663295
 20
7953.325863427422
 30
0.0
  0
POINT
  5
7AD
330
63A
100
AcDbEntity
  8
DEFPOINTS
  6
Continuous
 62
     0
100
AcDbPoint
 10
6892.783883554148
 20
7953.325863427422
 30
0.0
  0
ENDBLK
  5
645
330
63A
100
AcDbEntity
  8
0
100
AcDbBlockEnd
  0
BLOCK
  5
650
330
646
100
AcDbEntity
  8
0
100
AcDbBlockBegin
  2
*D4
 70
     1
 10
0.0
 20
0.0
 30
0.0
  3
*D4
  1

  0
LINE
  5
949
330
646
100
AcDbEntity
  8
画層3-寸法
  6
Continuous
370
    -2
100
AcDbLine
 10
5333.972416663295
 20
6123.325863427421
 30
0.0
 11
5333.972416663295
 21
5853.325863427421
 31
0.0
  0
LINE
  5
94A
330
646
100
AcDbEntity
  8
画層3-寸法
  6
Continuous
370
    -2
100
AcDbLine
 10
7333.972416663295
 20
6823.325863427422
 30
0.0
 11
7333.972416663295
 21
5853.325863427421
 31
0.0
  0
LINE
  5
94B
330
646
100
AcDbEntity
  8
画層3-寸法
  6
Continuous
370
    -2
100
AcDbLine
 10
5369.972416663295
 20
5853.325863427421
 30
0.0
 11
7297.972416663295
 21
5853.325863427421
 31
0.0
  0
INSERT
  5
94C
330
646
100
AcDbEntity
  8
画層3-寸法
  6
Continuous
370
    -2
100
AcDbBlockReference
  2
_ORIGIN
 10
5333.972416663295
 20
5853.325863427421
 30
0.0
 41
36.0
 42
36.0
 43
36.0
 50
180.0
  0
INSERT
  5
94D
330
646
100
AcDbEntity
  8
画層3-寸法
  6
Continuous
370
    -2
100
AcDbBlockReference
  2
_ORIGIN
 10
7333.972416663295
 20
5853.325863427421
 30
0.0
 41
36.0
 42
36.0
 43
36.0
  0
MTEXT
  5
94E
330
646
100
AcDbEntity
  8
画層3-寸法
  6
Continuous
100
AcDbMText
 10
6333.972416663296
 20
6020.468720570278
 30
0.0
 40
180.0
 41
0.0
 71
     5
 72
     1
  1
\A1;2,000
  7
1_100
 73
     1
 44
1.0
1001
ACAD
1000
MTEXTBEGIN
1070
    73
1070
     1
1070
    44
1040
1.0
1070
    74
1070
     0
1000
MTEXTEND
  0
POINT
  5
94F
330
646
100
AcDbEntity
  8
DEFPOINTS
  6
Continuous
 62
     0
100
AcDbPoint
 10
5333.972416663295
 20
6303.325863427422
 30
0.0
  0
POINT
  5
950
330
646
100
AcDbEntity
  8
DEFPOINTS
  6
Continuous
 62
     0
100
AcDbPoint
 10
7333.972416663295
 20
7003.325863427422
 30
0.0
  0
POINT
  5
951
330
646
100
AcDbEntity
  8
DEFPOINTS
  6
Continuous
 62
     0
100
AcDbPoint
 10
7333.972416663295
 20
5853.325863427421
 30
0.0
  0
ENDBLK
  5
651
330
646
100
AcDbEntity
  8
0
100
AcDbBlockEnd
  0
BLOCK
  5
65E
330
652
100
AcDbEntity
  8
0
100
AcDbBlockBegin
  2
*D5
 70
     1
 10
0.0
 20
0.0
 30
0.0
  3
*D5
  1

  0
LINE
  5
93E
330
652
100
AcDbEntity
  8
寸法
  6
Continuous
370
    -2
100
AcDbLine
 10
5083.972416663295
 20
6873.325863427422
 30
0.0
 11
5083.972416663295
 21
6453.325863427422
 31
0.0
  0
LINE
  5
93F
330
652
100
AcDbEntity
  8
寸法
  6
Continuous
370
    -2
100
AcDbLine
 10
5583.972416663295
 20
6873.325863427189
 30
0.0
 11
5583.972416663295
 21
6453.325863427422
 31
0.0
  0
LINE
  5
940
330
652
100
AcDbEntity
  8
寸法
  6
Continuous
370
    -2
100
AcDbLine
 10
5047.972416663295
 20
6453.325863427422
 30
0.0
 11
5011.972416663295
 21
6453.325863427422
 31
0.0
  0
LINE
  5
941
330
652
100
AcDbEntity
  8
寸法
  6
Continuous
370
    -2
100
AcDbLine
 10
5619.972416663295
 20
6453.325863427422
 30
0.0
 11
5655.972416663296
 21
6453.325863427422
 31
0.0
  0
LINE
  5
942
330
652
100
AcDbEntity
  8
寸法
  6
Continuous
370
    -2
100
AcDbLine
 10
5083.972416663295
 20
6453.325863427422
 30
0.0
 11
5583.972416663295
 21
6453.325863427422
 31
0.0
  0
INSERT
  5
943
330
652
100
AcDbEntity
  8
寸法
  6
Continuous
370
    -2
100
AcDbBlockReference
  2
_ORIGIN
 10
5083.972416663295
 20
6453.325863427422
 30
0.0
 41
36.0
 42
36.0
 43
36.0
  0
INSERT
  5
944
330
652
100
AcDbEntity
  8
寸法
  6
Continuous
370
    -2
100
AcDbBlockReference
  2
_ORIGIN
 10
5583.972416663295
 20
6453.325863427422
 30
0.0
 41
36.0
 42
36.0
 43
36.0
 50
180.0
  0
MTEXT
  5
945
330
652
100
AcDbEntity
  8
寸法
  6
Continuous
100
AcDbMText
 10
5333.972416663295
 20
6303.325863427422
 30
0.0
 40
180.0
 41
0.0
 71
     5
 72
     1
  1
\A1;□500
  7
1_100
 73
     1
 44
1.0
1001
ACAD
1000
MTEXTBEGIN
1070
    73
1070
     1
1070
    44
1040
1.0
1070
    74
1070
     0
1000
MTEXTEND
  0
POINT
  5
946
330
652
100
AcDbEntity
  8
DEFPOINTS
  6
Continuous
 62
     0
100
AcDbPoint
 10
5083.972416663295
 20
7053.325863427422
 30
0.0
  0
POINT
  5
947
330
652
100
AcDbEntity
  8
DEFPOINTS
  6
Continuous
 62
     0
100
AcDbPoint
 10
5583.972416663295
 20
7053.325863427189
 30
0.0
  0
POINT
  5
948
330
652
100
AcDbEntity
  8
DEFPOINTS
  6
Continuous
 62
     0
100
AcDbPoint
 10
5583.972416663295
 20
6453.325863427422
 30
0.0
  0
ENDBLK
  5
65F
330
652
100
AcDbEntity
  8
0
100
AcDbBlockEnd
  0
BLOCK
  5
66A
330
660
100
AcDbEntity
  8
0
100
AcDbBlockBegin
  2
*D6
 70
     1
 10
0.0
 20
0.0
 30
0.0
  3
*D6
  1

  0
LINE
  5
935
330
660
100
AcDbEntity
  8
寸法
  6
Continuous
370
    -2
100
AcDbLine
 10
5108.972416663295
 20
6873.325863427422
 30
0.0
 11
5108.972416663295
 21
6693.394414438571
 31
0.0
  0
LINE
  5
936
330
660
100
AcDbEntity
  8
寸法
  6
Continuous
370
    -2
100
AcDbLine
 10
5558.972416663293
 20
6873.325863427422
 30
0.0
 11
5558.972416663293
 21
6693.394414438571
 31
0.0
  0
LINE
  5
937
330
660
100
AcDbEntity
  8
寸法
  6
Continuous
370
    -2
100
AcDbLine
 10
5144.972416663295
 20
6693.394414438571
 30
0.0
 11
5522.972416663295
 21
6693.394414438571
 31
0.0
  0
MTEXT
  5
938
330
660
100
AcDbEntity
  8
寸法
  6
Continuous
100
AcDbMText
 10
4753.464890710296
 20
6752.160909773486
 30
0.0
 40
180.0
 41
0.0
 71
     5
 72
     1
  1
\A1;φ450
  7
1_100
 73
     1
 44
1.0
1001
ACAD
1000
MTEXTBEGIN
1070
    73
1070
     1
1070
    44
1040
1.0
1070
    74
1070
     0
1000
MTEXTEND
  0
INSERT
  5
939
330
660
100
AcDbEntity
  8
寸法
  6
Continuous
370
    -2
100
AcDbBlockReference
  2
_ORIGIN
 10
5108.972416663295
 20
6693.394414438571
 30
0.0
 41
36.0
 42
36.0
 43
36.0
 50
180.0
  0
INSERT
  5
93A
330
660
100
AcDbEntity
  8
寸法
  6
Continuous
370
    -2
100
AcDbBlockReference
  2
_ORIGIN
 10
5558.972416663293
 20
6693.394414438571
 30
0.0
 41
36.0
 42
36.0
 43
36.0
  0
POINT
  5
93B
330
660
100
AcDbEntity
  8
DEFPOINTS
  6
Continuous
 62
     0
100
AcDbPoint
 10
5108.972416663295
 20
7053.325863427422
 30
0.0
  0
POINT
  5
93C
330
660
100
AcDbEntity
  8
DEFPOINTS
  6
Continuous
 62
     0
100
AcDbPoint
 10
5558.972416663293
 20
7053.325863427422
 30
0.0
  0
POINT
  5
93D
330
660
100
AcDbEntity
  8
DEFPOINTS
  6
Continuous
 62
     0
100
AcDbPoint
 10
5558.972416663293
 20
6693.394414438571
 30
0.0
  0
ENDBLK
  5
66B
330
660
100
AcDbEntity
  8
0
100
AcDbBlockEnd
  0
BLOCK
  5
676
330
66C
100
AcDbEntity
  8
0
100
AcDbBlockBegin
  2
*D7
 70
     1
 10
0.0
 20
0.0
 30
0.0
  3
*D7
  1

  0
LINE
  5
92C
330
66C
100
AcDbEntity
  8
画層3-寸法
  6
Continuous
370
    -2
100
AcDbLine
 10
7333.972416663295
 20
6823.325863427422
 30
0.0
 11
7333.972416663295
 21
5853.325863427421
 31
0.0
  0
LINE
  5
92D
330
66C
100
AcDbEntity
  8
画層3-寸法
  6
Continuous
370
    -2
100
AcDbLine
 10
9333.972416663295
 20
6823.325863427422
 30
0.0
 11
9333.972416663295
 21
5853.325863427421
 31
0.0
  0
LINE
  5
92E
330
66C
100
AcDbEntity
  8
画層3-寸法
  6
Continuous
370
    -2
100
AcDbLine
 10
7369.972416663293
 20
5853.325863427421
 30
0.0
 11
9297.972416663295
 21
5853.325863427421
 31
0.0
  0
INSERT
  5
92F
330
66C
100
AcDbEntity
  8
画層3-寸法
  6
Continuous
370
    -2
100
AcDbBlockReference
  2
_ORIGIN
 10
7333.972416663295
 20
5853.325863427421
 30
0.0
 41
36.0
 42
36.0
 43
36.0
 50
180.0
  0
INSERT
  5
930
330
66C
100
AcDbEntity
  8
画層3-寸法
  6
Continuous
370
    -2
100
AcDbBlockReference
  2
_ORIGIN
 10
9333.972416663295
 20
5853.325863427421
 30
0.0
 41
36.0
 42
36.0
 43
36.0
  0
MTEXT
  5
931
330
66C
100
AcDbEntity
  8
画層3-寸法
  6
Continuous
100
AcDbMText
 10
8333.972416663295
 20
6020.468720570278
 30
0.0
 40
180.0
 41
0.0
 71
     5
 72
     1
  1
\A1;2,000
  7
1_100
 73
     1
 44
1.0
1001
ACAD
1000
MTEXTBEGIN
1070
    73
1070
     1
1070
    44
1040
1.0
1070
    74
1070
     0
1000
MTEXTEND
  0
POINT
  5
932
330
66C
100
AcDbEntity
  8
DEFPOINTS
  6
Continuous
 62
     0
100
AcDbPoint
 10
7333.972416663295
 20
7003.325863427422
 30
0.0
  0
POINT
  5
933
330
66C
100
AcDbEntity
  8
DEFPOINTS
  6
Continuous
 62
     0
100
AcDbPoint
 10
9333.972416663295
 20
7003.325863427422
 30
0.0
  0
POINT
  5
934
330
66C
100
AcDbEntity
  8
DEFPOINTS
  6
Continuous
 62
     0
100
AcDbPoint
 10
9333.972416663295
 20
5853.325863427421
 30
0.0
  0
ENDBLK
  5
677
330
66C
100
AcDbEntity
  8
0
100
AcDbBlockEnd
  0
BLOCK
  5
684
330
678
100
AcDbEntity
  8
0
100
AcDbBlockBegin
  2
*D8
 70
     1
 10
0.0
 20
0.0
 30
0.0
  3
*D8
  1

  0
LINE
  5
7D4
330
678
100
AcDbEntity
  8
画層3-寸法
  6
Continuous
370
    -2
100
AcDbLine
 10
7208.972416663295
 20
7773.325863427422
 30
0.0
 11
7208.972416663295
 21
7641.711710781031
 31
0.0
  0
LINE
  5
7D5
330
678
100
AcDbEntity
  8
画層3-寸法
  6
Continuous
370
    -2
100
AcDbLine
 10
7458.972416663295
 20
7773.325863427422
 30
0.0
 11
7458.972416663295
 21
7641.711710781031
 31
0.0
  0
LINE
  5
7D6
330
678
100
AcDbEntity
  8
画層3-寸法
  6
Continuous
370
    -2
100
AcDbLine
 10
7172.972416663295
 20
7641.711710781031
 30
0.0
 11
7136.972416663295
 21
7641.711710781031
 31
0.0
  0
LINE
  5
7D7
330
678
100
AcDbEntity
  8
画層3-寸法
  6
Continuous
370
    -2
100
AcDbLine
 10
7494.972416663293
 20
7641.711710781031
 30
0.0
 11
7530.972416663295
 21
7641.711710781031
 31
0.0
  0
LINE
  5
7D8
330
678
100
AcDbEntity
  8
画層3-寸法
  6
Continuous
370
    -2
100
AcDbLine
 10
7208.972416663295
 20
7641.711710781031
 30
0.0
 11
7458.972416663295
 21
7641.711710781031
 31
0.0
  0
INSERT
  5
7D9
330
678
100
AcDbEntity
  8
画層3-寸法
  6
Continuous
370
    -2
100
AcDbBlockReference
  2
_ORIGIN
 10
7208.972416663295
 20
7641.711710781031
 30
0.0
 41
36.0
 42
36.0
 43
36.0
  0
INSERT
  5
7DA
330
678
100
AcDbEntity
  8
画層3-寸法
  6
Continuous
370
    -2
100
AcDbBlockReference
  2
_ORIGIN
 10
7458.972416663295
 20
7641.711710781031
 30
0.0
 41
36.0
 42
36.0
 43
36.0
 50
180.0
  0
MTEXT
  5
7DB
330
678
100
AcDbEntity
  8
画層3-寸法
  6
Continuous
100
AcDbMText
 10
7333.972416663295
 20
7491.711710781031
 30
0.0
 40
180.0
 41
0.0
 71
     5
 72
     1
  1
\A1;□250
  7
1_100
 73
     1
 44
1.0
1001
ACAD
1000
MTEXTBEGIN
1070
    73
1070
     1
1070
    44
1040
1.0
1070
    74
1070
     0
1000
MTEXTEND
  0
POINT
  5
7DC
330
678
100
AcDbEntity
  8
DEFPOINTS
  6
Continuous
 62
     0
100
AcDbPoint
 10
7208.972416663295
 20
7953.325863427422
 30
0.0
  0
POINT
  5
7DD
330
678
100
AcDbEntity
  8
DEFPOINTS
  6
Continuous
 62
     0
100
AcDbPoint
 10
7458.972416663295
 20
7953.325863427422
 30
0.0
  0
POINT
  5
7DE
330
678
100
AcDbEntity
  8
DEFPOINTS
  6
Continuous
 62
     0
100
AcDbPoint
 10
7458.972416663295
 20
7641.711710781031
 30
0.0
  0
ENDBLK
  5
685
330
678
100
AcDbEntity
  8
0
100
AcDbBlockEnd
  0
BLOCK
  5
690
330
686
100
AcDbEntity
  8
0
100
AcDbBlockBegin
  2
*D9
 70
     1
 10
0.0
 20
0.0
 30
0.0
  3
*D9
  1

  0
LINE
  5
AF6
330
686
100
AcDbEntity
  8
寸法
  6
Continuous
370
    -2
100
AcDbLine
 10
5333.972416663295
 20
6123.325863427421
 30
0.0
 11
5333.972416663295
 21
5373.325863427421
 31
0.0
  0
LINE
  5
AF7
330
686
100
AcDbEntity
  8
寸法
  6
Continuous
370
    -2
100
AcDbLine
 10
13333.97241666329
 20
6730.858391634129
 30
0.0
 11
13333.97241666329
 21
5373.325863427421
 31
0.0
  0
LINE
  5
AF8
330
686
100
AcDbEntity
  8
寸法
  6
Continuous
370
    -2
100
AcDbLine
 10
5369.972416663295
 20
5373.325863427421
 30
0.0
 11
13297.97241666329
 21
5373.325863427421
 31
0.0
  0
INSERT
  5
AF9
330
686
100
AcDbEntity
  8
寸法
  6
Continuous
370
    -2
100
AcDbBlockReference
  2
_ORIGIN
 10
5333.972416663295
 20
5373.325863427421
 30
0.0
 41
36.0
 42
36.0
 43
36.0
 50
180.0
  0
INSERT
  5
AFA
330
686
100
AcDbEntity
  8
寸法
  6
Continuous
370
    -2
100
AcDbBlockReference
  2
_ORIGIN
 10
13333.97241666329
 20
5373.325863427421
 30
0.0
 41
36.0
 42
36.0
 43
36.0
  0
MTEXT
  5
AFB
330
686
100
AcDbEntity
  8
寸法
  6
Continuous
100
AcDbMText
 10
9333.972416663295
 20
5540.468720570278
 30
0.0
 40
180.0
 41
0.0
 71
     5
 72
     1
  1
\A1;8,000
  7
1_100
 73
     1
 44
1.0
1001
ACAD
1000
MTEXTBEGIN
1070
    73
1070
     1
1070
    44
1040
1.0
1070
    74
1070
     0
1000
MTEXTEND
  0
POINT
  5
AFC
330
686
100
AcDbEntity
  8
DEFPOINTS
  6
Continuous
 62
     0
100
AcDbPoint
 10
5333.972416663295
 20
6303.325863427422
 30
0.0
  0
POINT
  5
AFD
330
686
100
AcDbEntity
  8
DEFPOINTS
  6
Continuous
 62
     0
100
AcDbPoint
 10
13333.97241666329
 20
6910.858391634127
 30
0.0
  0
POINT
  5
AFE
330
686
100
AcDbEntity
  8
DEFPOINTS
  6
Continuous
 62
     0
100
AcDbPoint
 10
13333.97241666329
 20
5373.325863427421
 30
0.0
  0
ENDBLK
  5
691
330
686
100
AcDbEntity
  8
0
100
AcDbBlockEnd
  0
BLOCK
  5
6A8
330
69E
100
AcDbEntity
  8
0
100
AcDbBlockBegin
  2
*D10
 70
     1
 10
0.0
 20
0.0
 30
0.0
  3
*D10
  1

  0
LINE
  5
AED
330
69E
100
AcDbEntity
  8
画層3-寸法
  6
Continuous
370
    -2
100
AcDbLine
 10
13333.97241666329
 20
6730.858391634129
 30
0.0
 11
13333.97241666329
 21
5853.325863427421
 31
0.0
  0
LINE
  5
AEE
330
69E
100
AcDbEntity
  8
画層3-寸法
  6
Continuous
370
    -2
100
AcDbLine
 10
15333.97241666329
 20
6823.325863427422
 30
0.0
 11
15333.97241666329
 21
5853.325863427421
 31
0.0
  0
LINE
  5
AEF
330
69E
100
AcDbEntity
  8
画層3-寸法
  6
Continuous
370
    -2
100
AcDbLine
 10
13369.97241666329
 20
5853.325863427421
 30
0.0
 11
15297.97241666329
 21
5853.325863427421
 31
0.0
  0
INSERT
  5
AF0
330
69E
100
AcDbEntity
  8
画層3-寸法
  6
Continuous
370
    -2
100
AcDbBlockReference
  2
_ORIGIN
 10
13333.97241666329
 20
5853.325863427421
 30
0.0
 41
36.0
 42
36.0
 43
36.0
 50
180.0
  0
INSERT
  5
AF1
330
69E
100
AcDbEntity
  8
画層3-寸法
  6
Continuous
370
    -2
100
AcDbBlockReference
  2
_ORIGIN
 10
15333.97241666329
 20
5853.325863427421
 30
0.0
 41
36.0
 42
36.0
 43
36.0
  0
MTEXT
  5
AF2
330
69E
100
AcDbEntity
  8
画層3-寸法
  6
Continuous
100
AcDbMText
 10
14333.97241666329
 20
6020.468720570278
 30
0.0
 40
180.0
 41
0.0
 71
     5
 72
     1
  1
\A1;2,000
  7
1_100
 73
     1
 44
1.0
1001
ACAD
1000
MTEXTBEGIN
1070
    73
1070
     1
1070
    44
1040
1.0
1070
    74
1070
     0
1000
MTEXTEND
  0
POINT
  5
AF3
330
69E
100
AcDbEntity
  8
DEFPOINTS
  6
Continuous
 62
     0
100
AcDbPoint
 10
13333.97241666329
 20
6910.858391634127
 30
0.0
  0
POINT
  5
AF4
330
69E
100
AcDbEntity
  8
DEFPOINTS
  6
Continuous
 62
     0
100
AcDbPoint
 10
15333.97241666329
 20
7003.325863427422
 30
0.0
  0
POINT
  5
AF5
330
69E
100
AcDbEntity
  8
DEFPOINTS
  6
Continuous
 62
     0
100
AcDbPoint
 10
15333.97241666329
 20
5853.325863427421
 30
0.0
  0
ENDBLK
  5
6A9
330
69E
100
AcDbEntity
  8
0
100
AcDbBlockEnd
  0
BLOCK
  5
6B6
330
6AA
100
AcDbEntity
  8
0
100
AcDbBlockBegin
  2
*D11
 70
     1
 10
0.0
 20
0.0
 30
0.0
  3
*D11
  1

  0
LINE
  5
BBD
330
6AA
100
AcDbEntity
  8
寸法
  6
Continuous
370
    -2
100
AcDbLine
 10
19406.40833906758
 20
13583.32586342789
 30
0.0
 11
19406.40833906758
 21
13763.32586342765
 31
0.0
  0
LINE
  5
BBE
330
6AA
100
AcDbEntity
  8
寸法
  6
Continuous
370
    -2
100
AcDbLine
 10
19546.20833906786
 20
13583.32586342789
 30
0.0
 11
19546.20833906786
 21
13763.32586342765
 31
0.0
  0
LINE
  5
BBF
330
6AA
100
AcDbEntity
  8
寸法
  6
Continuous
370
    -2
100
AcDbLine
 10
19370.40833906758
 20
13763.32586342765
 30
0.0
 11
19334.40833906758
 21
13763.32586342765
 31
0.0
  0
LINE
  5
BC0
330
6AA
100
AcDbEntity
  8
寸法
  6
Continuous
370
    -2
100
AcDbLine
 10
19582.20833906786
 20
13763.32586342765
 30
0.0
 11
19618.20833906786
 21
13763.32586342765
 31
0.0
  0
MTEXT
  5
BC1
330
6AA
100
AcDbEntity
  8
寸法
  6
Continuous
100
AcDbMText
 10
19476.30833906772
 20
13943.32586342765
 30
0.0
 40
180.0
 41
0.0
 71
     5
 72
     1
  1
\A1;φ139.8
  7
1_100
 73
     1
 44
1.0
1001
ACAD
1000
MTEXTBEGIN
1070
    73
1070
     1
1070
    44
1040
1.0
1070
    74
1070
     0
1000
MTEXTEND
  0
LINE
  5
BC2
330
6AA
100
AcDbEntity
  8
寸法
  6
Continuous
370
    -2
100
AcDbLine
 10
19406.40833906758
 20
13763.32586342765
 30
0.0
 11
19546.20833906786
 21
13763.32586342765
 31
0.0
  0
INSERT
  5
BC3
330
6AA
100
AcDbEntity
  8
寸法
  6
Continuous
370
    -2
100
AcDbBlockReference
  2
_ORIGIN
 10
19406.40833906758
 20
13763.32586342765
 30
0.0
 41
36.0
 42
36.0
 43
36.0
  0
INSERT
  5
BC4
330
6AA
100
AcDbEntity
  8
寸法
  6
Continuous
370
    -2
100
AcDbBlockReference
  2
_ORIGIN
 10
19546.20833906786
 20
13763.32586342765
 30
0.0
 41
36.0
 42
36.0
 43
36.0
 50
180.0
  0
POINT
  5
BC5
330
6AA
100
AcDbEntity
  8
DEFPOINTS
  6
Continuous
 62
     0
100
AcDbPoint
 10
19406.40833906758
 20
13403.32586342789
 30
0.0
  0
POINT
  5
BC6
330
6AA
100
AcDbEntity
  8
DEFPOINTS
  6
Continuous
 62
     0
100
AcDbPoint
 10
19546.20833906786
 20
13403.32586342789
 30
0.0
  0
POINT
  5
BC7
330
6AA
100
AcDbEntity
  8
DEFPOINTS
  6
Continuous
 62
     0
100
AcDbPoint
 10
19546.20833906786
 20
13763.32586342765
 30
0.0
  0
ENDBLK
  5
6B7
330
6AA
100
AcDbEntity
  8
0
100
AcDbBlockEnd
  0
BLOCK
  5
6C2
330
6B8
100
AcDbEntity
  8
0
100
AcDbBlockBegin
  2
*D12
 70
     1
 10
0.0
 20
0.0
 30
0.0
  3
*D12
  1

  0
LINE
  5
BDA
330
6B8
100
AcDbEntity
  8
寸法
  6
Continuous
370
    -2
100
AcDbLine
 10
20256.30833906795
 20
8403.325863427886
 30
0.0
 11
20736.30833906795
 21
8403.325863427886
 31
0.0
  0
LINE
  5
BDB
330
6B8
100
AcDbEntity
  8
寸法
  6
Continuous
370
    -2
100
AcDbLine
 10
20256.30833906795
 20
10403.32586342789
 30
0.0
 11
20736.30833906795
 21
10403.32586342788
 31
0.0
  0
LINE
  5
BDC
330
6B8
100
AcDbEntity
  8
寸法
  6
Continuous
370
    -2
100
AcDbLine
 10
20736.30833906795
 20
8439.325863427885
 30
0.0
 11
20736.30833906795
 21
10367.32586342788
 31
0.0
  0
INSERT
  5
BDD
330
6B8
100
AcDbEntity
  8
寸法
  6
Continuous
370
    -2
100
AcDbBlockReference
  2
_ORIGIN
 10
20736.30833906795
 20
8403.325863427886
 30
0.0
 41
36.0
 42
36.0
 43
36.0
 50
270.0
  0
INSERT
  5
BDE
330
6B8
100
AcDbEntity
  8
寸法
  6
Continuous
370
    -2
100
AcDbBlockReference
  2
_ORIGIN
 10
20736.30833906795
 20
10403.32586342788
 30
0.0
 41
36.0
 42
36.0
 43
36.0
 50
90.0
  0
MTEXT
  5
BDF
330
6B8
100
AcDbEntity
  8
寸法
  6
Continuous
100
AcDbMText
 10
20569.16548192509
 20
9403.325863427888
 30
0.0
 40
180.0
 41
0.0
 71
     5
 72
     1
  1
\A1;2,000
  7
1_100
 11
0.0000000000000001
 21
1.0
 31
0.0
 73
     1
 44
1.0
1001
ACAD
1000
MTEXTBEGIN
1070
    73
1070
     1
1070
    44
1040
1.0
1070
    74
1070
     0
1000
MTEXTEND
  0
POINT
  5
BE0
330
6B8
100
AcDbEntity
  8
DEFPOINTS
  6
Continuous
 62
     0
100
AcDbPoint
 10
20076.30833906795
 20
8403.325863427886
 30
0.0
  0
POINT
  5
BE1
330
6B8
100
AcDbEntity
  8
DEFPOINTS
  6
Continuous
 62
     0
100
AcDbPoint
 10
20076.30833906795
 20
10403.32586342789
 30
0.0
  0
POINT
  5
BE2
330
6B8
100
AcDbEntity
  8
DEFPOINTS
  6
Continuous
 62
     0
100
AcDbPoint
 10
20736.30833906795
 20
10403.32586342788
 30
0.0
  0
ENDBLK
  5
6C3
330
6B8
100
AcDbEntity
  8
0
100
AcDbBlockEnd
  0
BLOCK
  5
6CE
330
6C4
100
AcDbEntity
  8
0
100
AcDbBlockBegin
  2
*D13
 70
     1
 10
0.0
 20
0.0
 30
0.0
  3
*D13
  1

  0
LINE
  5
C27
330
6C4
100
AcDbEntity
  8
寸法
  6
Continuous
370
    -2
100
AcDbLine
 10
16764.65477506186
 20
8403.32586342742
 30
0.0
 11
17244.65477506186
 21
8403.32586342742
 31
0.0
  0
LINE
  5
C28
330
6C4
100
AcDbEntity
  8
寸法
  6
Continuous
370
    -2
100
AcDbLine
 10
16764.65477506186
 20
10403.32586342742
 30
0.0
 11
17244.65477506186
 21
10403.32586342742
 31
0.0
  0
LINE
  5
C29
330
6C4
100
AcDbEntity
  8
寸法
  6
Continuous
370
    -2
100
AcDbLine
 10
17244.65477506186
 20
8439.32586342742
 30
0.0
 11
17244.65477506186
 21
10367.32586342742
 31
0.0
  0
INSERT
  5
C2A
330
6C4
100
AcDbEntity
  8
寸法
  6
Continuous
370
    -2
100
AcDbBlockReference
  2
_ORIGIN
 10
17244.65477506186
 20
8403.32586342742
 30
0.0
 41
36.0
 42
36.0
 43
36.0
 50
270.0
  0
INSERT
  5
C2B
330
6C4
100
AcDbEntity
  8
寸法
  6
Continuous
370
    -2
100
AcDbBlockReference
  2
_ORIGIN
 10
17244.65477506186
 20
10403.32586342742
 30
0.0
 41
36.0
 42
36.0
 43
36.0
 50
90.0
  0
MTEXT
  5
C2C
330
6C4
100
AcDbEntity
  8
寸法
  6
Continuous
100
AcDbMText
 10
17077.511917919
 20
9403.325863427424
 30
0.0
 40
180.0
 41
0.0
 71
     5
 72
     1
  1
\A1;2,000
  7
1_100
 11
0.0000000000000001
 21
1.0
 31
0.0
 73
     1
 44
1.0
1001
ACAD
1000
MTEXTBEGIN
1070
    73
1070
     1
1070
    44
1040
1.0
1070
    74
1070
     0
1000
MTEXTEND
  0
POINT
  5
C2D
330
6C4
100
AcDbEntity
  8
DEFPOINTS
  6
Continuous
 62
     0
100
AcDbPoint
 10
16584.65477506186
 20
8403.32586342742
 30
0.0
  0
POINT
  5
C2E
330
6C4
100
AcDbEntity
  8
DEFPOINTS
  6
Continuous
 62
     0
100
AcDbPoint
 10
16584.65477506186
 20
10403.32586342742
 30
0.0
  0
POINT
  5
C2F
330
6C4
100
AcDbEntity
  8
DEFPOINTS
  6
Continuous
 62
     0
100
AcDbPoint
 10
17244.65477506186
 20
10403.32586342742
 30
0.0
  0
ENDBLK
  5
6CF
330
6C4
100
AcDbEntity
  8
0
100
AcDbBlockEnd
  0
BLOCK
  5
6DA
330
6D0
100
AcDbEntity
  8
0
100
AcDbBlockBegin
  2
*D14
 70
     1
 10
0.0
 20
0.0
 30
0.0
  3
*D14
  1

  0
LINE
  5
B83
330
6D0
100
AcDbEntity
  8
寸法
  6
Continuous
370
    -2
100
AcDbLine
 10
20256.30833906795
 20
8403.325863427886
 30
0.0
 11
20736.30833906796
 21
8403.325863427886
 31
0.0
  0
LINE
  5
B84
330
6D0
100
AcDbEntity
  8
寸法
  6
Continuous
370
    -2
100
AcDbLine
 10
20256.30833906795
 20
8103.325863427889
 30
0.0
 11
20736.30833906795
 21
8103.325863427889
 31
0.0
  0
LINE
  5
B85
330
6D0
100
AcDbEntity
  8
寸法
  6
Continuous
370
    -2
100
AcDbLine
 10
20736.30833906796
 20
8367.325863427884
 30
0.0
 11
20736.30833906795
 21
8139.325863427888
 31
0.0
  0
MTEXT
  5
B86
330
6D0
100
AcDbEntity
  8
寸法
  6
Continuous
100
AcDbMText
 10
20902.19759659864
 20
8135.10474713909
 30
0.0
 40
180.0
 41
0.0
 71
     5
 72
     1
  1
\A1;300
  7
1_100
 11
0.0000000000000001
 21
1.0
 31
0.0
 73
     1
 44
1.0
1001
ACAD
1000
MTEXTBEGIN
1070
    73
1070
     1
1070
    44
1040
1.0
1070
    74
1070
     0
1000
MTEXTEND
  0
INSERT
  5
B87
330
6D0
100
AcDbEntity
  8
寸法
  6
Continuous
370
    -2
100
AcDbBlockReference
  2
_ORIGIN
 10
20736.30833906796
 20
8403.325863427886
 30
0.0
 41
36.0
 42
36.0
 43
36.0
 50
90.0
  0
INSERT
  5
B88
330
6D0
100
AcDbEntity
  8
寸法
  6
Continuous
370
    -2
100
AcDbBlockReference
  2
_ORIGIN
 10
20736.30833906795
 20
8103.325863427889
 30
0.0
 41
36.0
 42
36.0
 43
36.0
 50
270.0
  0
POINT
  5
B89
330
6D0
100
AcDbEntity
  8
DEFPOINTS
  6
Continuous
 62
     0
100
AcDbPoint
 10
20076.30833906795
 20
8403.325863427886
 30
0.0
  0
POINT
  5
B8A
330
6D0
100
AcDbEntity
  8
DEFPOINTS
  6
Continuous
 62
     0
100
AcDbPoint
 10
20076.30833906795
 20
8103.325863427889
 30
0.0
  0
POINT
  5
B8B
330
6D0
100
AcDbEntity
  8
DEFPOINTS
  6
Continuous
 62
     0
100
AcDbPoint
 10
20736.30833906795
 20
8103.325863427889
 30
0.0
  0
ENDBLK
  5
6DB
330
6D0
100
AcDbEntity
  8
0
100
AcDbBlockEnd
  0
BLOCK
  5
6E6
330
6DC
100
AcDbEntity
  8
0
100
AcDbBlockBegin
  2
*D15
 70
     1
 10
0.0
 20
0.0
 30
0.0
  3
*D15
  1

  0
LINE
  5
B8C
330
6DC
100
AcDbEntity
  8
寸法
  6
Continuous
370
    -2
100
AcDbLine
 10
20256.30833906795
 20
7153.325863427888
 30
0.0
 11
20736.30833906795
 21
7153.325863427888
 31
0.0
  0
LINE
  5
B8D
330
6DC
100
AcDbEntity
  8
寸法
  6
Continuous
370
    -2
100
AcDbLine
 10
20256.30833906795
 20
8103.325863427889
 30
0.0
 11
20736.30833906795
 21
8103.325863427889
 31
0.0
  0
LINE
  5
B8E
330
6DC
100
AcDbEntity
  8
寸法
  6
Continuous
370
    -2
100
AcDbLine
 10
20736.30833906795
 20
7189.325863427888
 30
0.0
 11
20736.30833906795
 21
8067.325863427887
 31
0.0
  0
INSERT
  5
B8F
330
6DC
100
AcDbEntity
  8
寸法
  6
Continuous
370
    -2
100
AcDbBlockReference
  2
_ORIGIN
 10
20736.30833906795
 20
7153.325863427888
 30
0.0
 41
36.0
 42
36.0
 43
36.0
 50
270.0
  0
INSERT
  5
B90
330
6DC
100
AcDbEntity
  8
寸法
  6
Continuous
370
    -2
100
AcDbBlockReference
  2
_ORIGIN
 10
20736.30833906795
 20
8103.325863427889
 30
0.0
 41
36.0
 42
36.0
 43
36.0
 50
90.0
  0
MTEXT
  5
B91
330
6DC
100
AcDbEntity
  8
寸法
  6
Continuous
100
AcDbMText
 10
20586.30833906796
 20
7628.325863427891
 30
0.0
 40
180.0
 41
0.0
 71
     5
 72
     1
  1
\A1;950
  7
1_100
 11
0.0000000000000001
 21
1.0
 31
0.0
 73
     1
 44
1.0
1001
ACAD
1000
MTEXTBEGIN
1070
    73
1070
     1
1070
    44
1040
1.0
1070
    74
1070
     0
1000
MTEXTEND
  0
POINT
  5
B92
330
6DC
100
AcDbEntity
  8
DEFPOINTS
  6
Continuous
 62
     0
100
AcDbPoint
 10
20076.30833906795
 20
7153.325863427888
 30
0.0
  0
POINT
  5
B93
330
6DC
100
AcDbEntity
  8
DEFPOINTS
  6
Continuous
 62
     0
100
AcDbPoint
 10
20076.30833906795
 20
8103.325863427889
 30
0.0
  0
POINT
  5
B94
330
6DC
100
AcDbEntity
  8
DEFPOINTS
  6
Continuous
 62
     0
100
AcDbPoint
 10
20736.30833906795
 20
8103.325863427889
 30
0.0
  0
ENDBLK
  5
6E7
330
6DC
100
AcDbEntity
  8
0
100
AcDbBlockEnd
  0
BLOCK
  5
6F2
330
6E8
100
AcDbEntity
  8
0
100
AcDbBlockBegin
  2
*D16
 70
     1
 10
0.0
 20
0.0
 30
0.0
  3
*D16
  1

  0
LINE
  5
B95
330
6E8
100
AcDbEntity
  8
寸法
  6
Continuous
370
    -2
100
AcDbLine
 10
20256.30833906795
 20
8403.325863427886
 30
0.0
 11
21336.30833906796
 21
8403.325863427886
 31
0.0
  0
LINE
  5
B96
330
6E8
100
AcDbEntity
  8
寸法
  6
Continuous
370
    -2
100
AcDbLine
 10
20256.30833906795
 20
7153.325863427888
 30
0.0
 11
21336.30833906795
 21
7153.325863427888
 31
0.0
  0
LINE
  5
B97
330
6E8
100
AcDbEntity
  8
寸法
  6
Continuous
370
    -2
100
AcDbLine
 10
21336.30833906796
 20
8367.325863427884
 30
0.0
 11
21336.30833906795
 21
7189.325863427888
 31
0.0
  0
INSERT
  5
B98
330
6E8
100
AcDbEntity
  8
寸法
  6
Continuous
370
    -2
100
AcDbBlockReference
  2
_ORIGIN
 10
21336.30833906796
 20
8403.325863427886
 30
0.0
 41
36.0
 42
36.0
 43
36.0
 50
90.0
  0
INSERT
  5
B99
330
6E8
100
AcDbEntity
  8
寸法
  6
Continuous
370
    -2
100
AcDbBlockReference
  2
_ORIGIN
 10
21336.30833906795
 20
7153.325863427888
 30
0.0
 41
36.0
 42
36.0
 43
36.0
 50
270.0
  0
MTEXT
  5
B9A
330
6E8
100
AcDbEntity
  8
寸法
  6
Continuous
100
AcDbMText
 10
21169.16548192509
 20
7778.325863427891
 30
0.0
 40
180.0
 41
0.0
 71
     5
 72
     1
  1
\A1;1,250
  7
1_100
 11
0.0000000000000001
 21
1.0
 31
0.0
 73
     1
 44
1.0
1001
ACAD
1000
MTEXTBEGIN
1070
    73
1070
     1
1070
    44
1040
1.0
1070
    74
1070
     0
1000
MTEXTEND
  0
POINT
  5
B9B
330
6E8
100
AcDbEntity
  8
DEFPOINTS
  6
Continuous
 62
     0
100
AcDbPoint
 10
20076.30833906795
 20
8403.325863427886
 30
0.0
  0
POINT
  5
B9C
330
6E8
100
AcDbEntity
  8
DEFPOINTS
  6
Continuous
 62
     0
100
AcDbPoint
 10
20076.30833906795
 20
7153.325863427888
 30
0.0
  0
POINT
  5
B9D
330
6E8
100
AcDbEntity
  8
DEFPOINTS
  6
Continuous
 62
     0
100
AcDbPoint
 10
21336.30833906795
 20
7153.325863427888
 30
0.0
  0
ENDBLK
  5
6F3
330
6E8
100
AcDbEntity
  8
0
100
AcDbBlockEnd
  0
BLOCK
  5
700
330
6F4
100
AcDbEntity
  8
0
100
AcDbBlockBegin
  2
*D17
 70
     1
 10
0.0
 20
0.0
 30
0.0
  3
*D17
  1

  0
LINE
  5
BB2
330
6F4
100
AcDbEntity
  8
寸法
  6
Continuous
370
    -2
100
AcDbLine
 10
20256.30833906795
 20
7053.325863427888
 30
0.0
 11
20736.30833906795
 21
7053.325863427888
 31
0.0
  0
LINE
  5
BB3
330
6F4
100
AcDbEntity
  8
寸法
  6
Continuous
370
    -2
100
AcDbLine
 10
20256.30833906795
 20
7153.325863427888
 30
0.0
 11
20736.30833906795
 21
7153.325863427888
 31
0.0
  0
LINE
  5
BB4
330
6F4
100
AcDbEntity
  8
寸法
  6
Continuous
370
    -2
100
AcDbLine
 10
20736.30833906795
 20
7017.325863427888
 30
0.0
 11
20736.30833906795
 21
6981.325863427888
 31
0.0
  0
LINE
  5
BB5
330
6F4
100
AcDbEntity
  8
寸法
  6
Continuous
370
    -2
100
AcDbLine
 10
20736.30833906795
 20
7189.325863427888
 30
0.0
 11
20736.30833906795
 21
7225.325863427888
 31
0.0
  0
MTEXT
  5
BB6
330
6F4
100
AcDbEntity
  8
寸法
  6
Continuous
100
AcDbMText
 10
20581.40977033808
 20
6791.873961982489
 30
0.0
 40
180.0
 41
0.0
 71
     5
 72
     1
  1
\A1;100
  7
1_100
 11
0.0000000000000001
 21
1.0
 31
0.0
 73
     1
 44
1.0
1001
ACAD
1000
MTEXTBEGIN
1070
    73
1070
     1
1070
    44
1040
1.0
1070
    74
1070
     0
1000
MTEXTEND
  0
LINE
  5
BB7
330
6F4
100
AcDbEntity
  8
寸法
  6
Continuous
370
    -2
100
AcDbLine
 10
20736.30833906795
 20
7053.325863427888
 30
0.0
 11
20736.30833906795
 21
7153.325863427888
 31
0.0
  0
INSERT
  5
BB8
330
6F4
100
AcDbEntity
  8
寸法
  6
Continuous
370
    -2
100
AcDbBlockReference
  2
_ORIGIN
 10
20736.30833906795
 20
7053.325863427888
 30
0.0
 41
36.0
 42
36.0
 43
36.0
 50
90.0
  0
INSERT
  5
BB9
330
6F4
100
AcDbEntity
  8
寸法
  6
Continuous
370
    -2
100
AcDbBlockReference
  2
_ORIGIN
 10
20736.30833906795
 20
7153.325863427888
 30
0.0
 41
36.0
 42
36.0
 43
36.0
 50
270.0
  0
POINT
  5
BBA
330
6F4
100
AcDbEntity
  8
DEFPOINTS
  6
Continuous
 62
     0
100
AcDbPoint
 10
20076.30833906795
 20
7053.325863427888
 30
0.0
  0
POINT
  5
BBB
330
6F4
100
AcDbEntity
  8
DEFPOINTS
  6
Continuous
 62
     0
100
AcDbPoint
 10
20076.30833906795
 20
7153.325863427888
 30
0.0
  0
POINT
  5
BBC
330
6F4
100
AcDbEntity
  8
DEFPOINTS
  6
Continuous
 62
     0
100
AcDbPoint
 10
20736.30833906795
 20
7153.325863427888
 30
0.0
  0
ENDBLK
  5
701
330
6F4
100
AcDbEntity
  8
0
100
AcDbBlockEnd
  0
BLOCK
  5
70C
330
702
100
AcDbEntity
  8
0
100
AcDbBlockBegin
  2
*D18
 70
     1
 10
0.0
 20
0.0
 30
0.0
  3
*D18
  1

  0
LINE
  5
C01
330
702
100
AcDbEntity
  8
寸法
  6
Continuous
370
    -2
100
AcDbLine
 10
16764.65477506186
 20
7153.325863427422
 30
0.0
 11
17244.65477506186
 21
7153.325863427422
 31
0.0
  0
LINE
  5
C02
330
702
100
AcDbEntity
  8
寸法
  6
Continuous
370
    -2
100
AcDbLine
 10
16764.65477506186
 20
8103.32586342742
 30
0.0
 11
17244.65477506186
 21
8103.32586342742
 31
0.0
  0
LINE
  5
C03
330
702
100
AcDbEntity
  8
寸法
  6
Continuous
370
    -2
100
AcDbLine
 10
17244.65477506186
 20
7189.325863427422
 30
0.0
 11
17244.65477506186
 21
8067.325863427422
 31
0.0
  0
INSERT
  5
C04
330
702
100
AcDbEntity
  8
寸法
  6
Continuous
370
    -2
100
AcDbBlockReference
  2
_ORIGIN
 10
17244.65477506186
 20
7153.325863427422
 30
0.0
 41
36.0
 42
36.0
 43
36.0
 50
270.0
  0
INSERT
  5
C05
330
702
100
AcDbEntity
  8
寸法
  6
Continuous
370
    -2
100
AcDbBlockReference
  2
_ORIGIN
 10
17244.65477506186
 20
8103.32586342742
 30
0.0
 41
36.0
 42
36.0
 43
36.0
 50
90.0
  0
MTEXT
  5
C06
330
702
100
AcDbEntity
  8
寸法
  6
Continuous
100
AcDbMText
 10
17094.65477506186
 20
7628.325863427424
 30
0.0
 40
180.0
 41
0.0
 71
     5
 72
     1
  1
\A1;950
  7
1_100
 11
0.0000000000000001
 21
1.0
 31
0.0
 73
     1
 44
1.0
1001
ACAD
1000
MTEXTBEGIN
1070
    73
1070
     1
1070
    44
1040
1.0
1070
    74
1070
     0
1000
MTEXTEND
  0
POINT
  5
C07
330
702
100
AcDbEntity
  8
DEFPOINTS
  6
Continuous
 62
     0
100
AcDbPoint
 10
16584.65477506186
 20
7153.325863427422
 30
0.0
  0
POINT
  5
C08
330
702
100
AcDbEntity
  8
DEFPOINTS
  6
Continuous
 62
     0
100
AcDbPoint
 10
16584.65477506186
 20
8103.32586342742
 30
0.0
  0
POINT
  5
C09
330
702
100
AcDbEntity
  8
DEFPOINTS
  6
Continuous
 62
     0
100
AcDbPoint
 10
17244.65477506186
 20
8103.32586342742
 30
0.0
  0
ENDBLK
  5
70D
330
702
100
AcDbEntity
  8
0
100
AcDbBlockEnd
  0
BLOCK
  5
718
330
70E
100
AcDbEntity
  8
0
100
AcDbBlockBegin
  2
*D19
 70
     1
 10
0.0
 20
0.0
 30
0.0
  3
*D19
  1

  0
LINE
  5
BF8
330
70E
100
AcDbEntity
  8
寸法
  6
Continuous
370
    -2
100
AcDbLine
 10
16764.65477506186
 20
8403.32586342742
 30
0.0
 11
17244.65477506186
 21
8403.32586342742
 31
0.0
  0
LINE
  5
BF9
330
70E
100
AcDbEntity
  8
寸法
  6
Continuous
370
    -2
100
AcDbLine
 10
16764.65477506186
 20
8103.32586342742
 30
0.0
 11
17244.65477506186
 21
8103.32586342742
 31
0.0
  0
LINE
  5
BFA
330
70E
100
AcDbEntity
  8
寸法
  6
Continuous
370
    -2
100
AcDbLine
 10
17244.65477506186
 20
8367.325863427421
 30
0.0
 11
17244.65477506186
 21
8139.325863427421
 31
0.0
  0
MTEXT
  5
BFB
330
70E
100
AcDbEntity
  8
寸法
  6
Continuous
100
AcDbMText
 10
17410.23407706919
 20
8175.45027880481
 30
0.0
 40
180.0
 41
0.0
 71
     5
 72
     1
  1
\A1;300
  7
1_100
 11
0.0000000000000001
 21
1.0
 31
0.0
 73
     1
 44
1.0
1001
ACAD
1000
MTEXTBEGIN
1070
    73
1070
     1
1070
    44
1040
1.0
1070
    74
1070
     0
1000
MTEXTEND
  0
INSERT
  5
BFC
330
70E
100
AcDbEntity
  8
寸法
  6
Continuous
370
    -2
100
AcDbBlockReference
  2
_ORIGIN
 10
17244.65477506186
 20
8403.32586342742
 30
0.0
 41
36.0
 42
36.0
 43
36.0
 50
90.0
  0
INSERT
  5
BFD
330
70E
100
AcDbEntity
  8
寸法
  6
Continuous
370
    -2
100
AcDbBlockReference
  2
_ORIGIN
 10
17244.65477506186
 20
8103.32586342742
 30
0.0
 41
36.0
 42
36.0
 43
36.0
 50
270.0
  0
POINT
  5
BFE
330
70E
100
AcDbEntity
  8
DEFPOINTS
  6
Continuous
 62
     0
100
AcDbPoint
 10
16584.65477506186
 20
8403.32586342742
 30
0.0
  0
POINT
  5
BFF
330
70E
100
AcDbEntity
  8
DEFPOINTS
  6
Continuous
 62
     0
100
AcDbPoint
 10
16584.65477506186
 20
8103.32586342742
 30
0.0
  0
POINT
  5
C00
330
70E
100
AcDbEntity
  8
DEFPOINTS
  6
Continuous
 62
     0
100
AcDbPoint
 10
17244.65477506186
 20
8103.32586342742
 30
0.0
  0
ENDBLK
  5
719
330
70E
100
AcDbEntity
  8
0
100
AcDbBlockEnd
  0
BLOCK
  5
724
330
71A
100
AcDbEntity
  8
0
100
AcDbBlockBegin
  2
*D20
 70
     1
 10
0.0
 20
0.0
 30
0.0
  3
*D20
  1

  0
LINE
  5
BEF
330
71A
100
AcDbEntity
  8
寸法
  6
Continuous
370
    -2
100
AcDbLine
 10
16764.65477506186
 20
8403.32586342742
 30
0.0
 11
17844.65477506187
 21
8403.32586342742
 31
0.0
  0
LINE
  5
BF0
330
71A
100
AcDbEntity
  8
寸法
  6
Continuous
370
    -2
100
AcDbLine
 10
16764.65477506186
 20
7153.325863427422
 30
0.0
 11
17844.65477506186
 21
7153.325863427422
 31
0.0
  0
LINE
  5
BF1
330
71A
100
AcDbEntity
  8
寸法
  6
Continuous
370
    -2
100
AcDbLine
 10
17844.65477506187
 20
8367.325863427421
 30
0.0
 11
17844.65477506186
 21
7189.325863427422
 31
0.0
  0
INSERT
  5
BF2
330
71A
100
AcDbEntity
  8
寸法
  6
Continuous
370
    -2
100
AcDbBlockReference
  2
_ORIGIN
 10
17844.65477506187
 20
8403.32586342742
 30
0.0
 41
36.0
 42
36.0
 43
36.0
 50
90.0
  0
INSERT
  5
BF3
330
71A
100
AcDbEntity
  8
寸法
  6
Continuous
370
    -2
100
AcDbBlockReference
  2
_ORIGIN
 10
17844.65477506186
 20
7153.325863427422
 30
0.0
 41
36.0
 42
36.0
 43
36.0
 50
270.0
  0
MTEXT
  5
BF4
330
71A
100
AcDbEntity
  8
寸法
  6
Continuous
100
AcDbMText
 10
17677.511917919
 20
7778.325863427423
 30
0.0
 40
180.0
 41
0.0
 71
     5
 72
     1
  1
\A1;1,250
  7
1_100
 11
0.0000000000000001
 21
1.0
 31
0.0
 73
     1
 44
1.0
1001
ACAD
1000
MTEXTBEGIN
1070
    73
1070
     1
1070
    44
1040
1.0
1070
    74
1070
     0
1000
MTEXTEND
  0
POINT
  5
BF5
330
71A
100
AcDbEntity
  8
DEFPOINTS
  6
Continuous
 62
     0
100
AcDbPoint
 10
16584.65477506186
 20
8403.32586342742
 30
0.0
  0
POINT
  5
BF6
330
71A
100
AcDbEntity
  8
DEFPOINTS
  6
Continuous
 62
     0
100
AcDbPoint
 10
16584.65477506186
 20
7153.325863427422
 30
0.0
  0
POINT
  5
BF7
330
71A
100
AcDbEntity
  8
DEFPOINTS
  6
Continuous
 62
     0
100
AcDbPoint
 10
17844.65477506186
 20
7153.325863427422
 30
0.0
  0
ENDBLK
  5
725
330
71A
100
AcDbEntity
  8
0
100
AcDbBlockEnd
  0
BLOCK
  5
732
330
726
100
AcDbEntity
  8
0
100
AcDbBlockBegin
  2
*D21
 70
     1
 10
0.0
 20
0.0
 30
0.0
  3
*D21
  1

  0
LINE
  5
C0A
330
726
100
AcDbEntity
  8
寸法
  6
Continuous
370
    -2
100
AcDbLine
 10
16764.65477506186
 20
7053.325863427422
 30
0.0
 11
17244.65477506186
 21
7053.325863427422
 31
0.0
  0
LINE
  5
C0B
330
726
100
AcDbEntity
  8
寸法
  6
Continuous
370
    -2
100
AcDbLine
 10
16764.65477506186
 20
7153.325863427422
 30
0.0
 11
17244.65477506186
 21
7153.325863427422
 31
0.0
  0
LINE
  5
C0C
330
726
100
AcDbEntity
  8
寸法
  6
Continuous
370
    -2
100
AcDbLine
 10
17244.65477506186
 20
7017.325863427422
 30
0.0
 11
17244.65477506186
 21
6981.325863427422
 31
0.0
  0
LINE
  5
C0D
330
726
100
AcDbEntity
  8
寸法
  6
Continuous
370
    -2
100
AcDbLine
 10
17244.65477506186
 20
7189.325863427422
 30
0.0
 11
17244.65477506186
 21
7225.32586342742
 31
0.0
  0
MTEXT
  5
C0E
330
726
100
AcDbEntity
  8
寸法
  6
Continuous
100
AcDbMText
 10
17054.95299330934
 20
6819.77715160063
 30
0.0
 40
180.0
 41
0.0
 71
     5
 72
     1
  1
\A1;100
  7
1_100
 11
0.0000000000000001
 21
1.0
 31
0.0
 73
     1
 44
1.0
1001
ACAD
1000
MTEXTBEGIN
1070
    73
1070
     1
1070
    44
1040
1.0
1070
    74
1070
     0
1000
MTEXTEND
  0
LINE
  5
C0F
330
726
100
AcDbEntity
  8
寸法
  6
Continuous
370
    -2
100
AcDbLine
 10
17244.65477506186
 20
7053.325863427422
 30
0.0
 11
17244.65477506186
 21
7153.325863427422
 31
0.0
  0
INSERT
  5
C10
330
726
100
AcDbEntity
  8
寸法
  6
Continuous
370
    -2
100
AcDbBlockReference
  2
_ORIGIN
 10
17244.65477506186
 20
7053.325863427422
 30
0.0
 41
36.0
 42
36.0
 43
36.0
 50
90.0
  0
INSERT
  5
C11
330
726
100
AcDbEntity
  8
寸法
  6
Continuous
370
    -2
100
AcDbBlockReference
  2
_ORIGIN
 10
17244.65477506186
 20
7153.325863427422
 30
0.0
 41
36.0
 42
36.0
 43
36.0
 50
270.0
  0
POINT
  5
C12
330
726
100
AcDbEntity
  8
DEFPOINTS
  6
Continuous
 62
     0
100
AcDbPoint
 10
16584.65477506186
 20
7053.325863427422
 30
0.0
  0
POINT
  5
C13
330
726
100
AcDbEntity
  8
DEFPOINTS
  6
Continuous
 62
     0
100
AcDbPoint
 10
16584.65477506186
 20
7153.325863427422
 30
0.0
  0
POINT
  5
C14
330
726
100
AcDbEntity
  8
DEFPOINTS
  6
Continuous
 62
     0
100
AcDbPoint
 10
17244.65477506186
 20
7153.325863427422
 30
0.0
  0
ENDBLK
  5
733
330
726
100
AcDbEntity
  8
0
100
AcDbBlockEnd
  0
BLOCK
  5
740
330
734
100
AcDbEntity
  8
0
100
AcDbBlockBegin
  2
*D22
 70
     1
 10
0.0
 20
0.0
 30
0.0
  3
*D22
  1

  0
LINE
  5
B9E
330
734
100
AcDbEntity
  8
寸法
  6
Continuous
370
    -2
100
AcDbLine
 10
19226.30833906795
 20
6873.325863427422
 30
0.0
 11
19226.30833906795
 21
6453.325863427422
 31
0.0
  0
LINE
  5
B9F
330
734
100
AcDbEntity
  8
寸法
  6
Continuous
370
    -2
100
AcDbLine
 10
19726.30833906795
 20
6873.325863427189
 30
0.0
 11
19726.30833906795
 21
6453.325863427422
 31
0.0
  0
LINE
  5
BA0
330
734
100
AcDbEntity
  8
寸法
  6
Continuous
370
    -2
100
AcDbLine
 10
19190.30833906795
 20
6453.325863427422
 30
0.0
 11
19154.30833906795
 21
6453.325863427422
 31
0.0
  0
LINE
  5
BA1
330
734
100
AcDbEntity
  8
寸法
  6
Continuous
370
    -2
100
AcDbLine
 10
19762.30833906795
 20
6453.325863427422
 30
0.0
 11
19798.30833906795
 21
6453.325863427422
 31
0.0
  0
LINE
  5
BA2
330
734
100
AcDbEntity
  8
寸法
  6
Continuous
370
    -2
100
AcDbLine
 10
19226.30833906795
 20
6453.325863427422
 30
0.0
 11
19726.30833906795
 21
6453.325863427422
 31
0.0
  0
INSERT
  5
BA3
330
734
100
AcDbEntity
  8
寸法
  6
Continuous
370
    -2
100
AcDbBlockReference
  2
_ORIGIN
 10
19226.30833906795
 20
6453.325863427422
 30
0.0
 41
36.0
 42
36.0
 43
36.0
  0
INSERT
  5
BA4
330
734
100
AcDbEntity
  8
寸法
  6
Continuous
370
    -2
100
AcDbBlockReference
  2
_ORIGIN
 10
19726.30833906795
 20
6453.325863427422
 30
0.0
 41
36.0
 42
36.0
 43
36.0
 50
180.0
  0
MTEXT
  5
BA5
330
734
100
AcDbEntity
  8
寸法
  6
Continuous
100
AcDbMText
 10
19476.30833906795
 20
6303.325863427422
 30
0.0
 40
180.0
 41
0.0
 71
     5
 72
     1
  1
\A1;□500
  7
1_100
 73
     1
 44
1.0
1001
ACAD
1000
MTEXTBEGIN
1070
    73
1070
     1
1070
    44
1040
1.0
1070
    74
1070
     0
1000
MTEXTEND
  0
POINT
  5
BA6
330
734
100
AcDbEntity
  8
DEFPOINTS
  6
Continuous
 62
     0
100
AcDbPoint
 10
19226.30833906795
 20
7053.325863427422
 30
0.0
  0
POINT
  5
BA7
330
734
100
AcDbEntity
  8
DEFPOINTS
  6
Continuous
 62
     0
100
AcDbPoint
 10
19726.30833906795
 20
7053.325863427189
 30
0.0
  0
POINT
  5
BA8
330
734
100
AcDbEntity
  8
DEFPOINTS
  6
Continuous
 62
     0
100
AcDbPoint
 10
19726.30833906795
 20
6453.325863427422
 30
0.0
  0
ENDBLK
  5
741
330
734
100
AcDbEntity
  8
0
100
AcDbBlockEnd
  0
BLOCK
  5
74C
330
742
100
AcDbEntity
  8
0
100
AcDbBlockBegin
  2
*D23
 70
     1
 10
0.0
 20
0.0
 30
0.0
  3
*D23
  1

  0
LINE
  5
BA9
330
742
100
AcDbEntity
  8
寸法
  6
Continuous
370
    -2
100
AcDbLine
 10
19251.30833906795
 20
6873.325863427422
 30
0.0
 11
19251.30833906795
 21
6693.394414438571
 31
0.0
  0
LINE
  5
BAA
330
742
100
AcDbEntity
  8
寸法
  6
Continuous
370
    -2
100
AcDbLine
 10
19701.30833906795
 20
6873.325863427422
 30
0.0
 11
19701.30833906795
 21
6693.394414438571
 31
0.0
  0
LINE
  5
BAB
330
742
100
AcDbEntity
  8
寸法
  6
Continuous
370
    -2
100
AcDbLine
 10
19287.30833906795
 20
6693.394414438571
 30
0.0
 11
19665.30833906795
 21
6693.394414438571
 31
0.0
  0
MTEXT
  5
BAC
330
742
100
AcDbEntity
  8
寸法
  6
Continuous
100
AcDbMText
 10
18874.73498118784
 20
6766.452368331314
 30
0.0
 40
180.0
 41
0.0
 71
     5
 72
     1
  1
\A1;φ450
  7
1_100
 73
     1
 44
1.0
1001
ACAD
1000
MTEXTBEGIN
1070
    73
1070
     1
1070
    44
1040
1.0
1070
    74
1070
     0
1000
MTEXTEND
  0
INSERT
  5
BAD
330
742
100
AcDbEntity
  8
寸法
  6
Continuous
370
    -2
100
AcDbBlockReference
  2
_ORIGIN
 10
19251.30833906795
 20
6693.394414438571
 30
0.0
 41
36.0
 42
36.0
 43
36.0
 50
180.0
  0
INSERT
  5
BAE
330
742
100
AcDbEntity
  8
寸法
  6
Continuous
370
    -2
100
AcDbBlockReference
  2
_ORIGIN
 10
19701.30833906795
 20
6693.394414438571
 30
0.0
 41
36.0
 42
36.0
 43
36.0
  0
POINT
  5
BAF
330
742
100
AcDbEntity
  8
DEFPOINTS
  6
Continuous
 62
     0
100
AcDbPoint
 10
19251.30833906795
 20
7053.325863427422
 30
0.0
  0
POINT
  5
BB0
330
742
100
AcDbEntity
  8
DEFPOINTS
  6
Continuous
 62
     0
100
AcDbPoint
 10
19701.30833906795
 20
7053.325863427422
 30
0.0
  0
POINT
  5
BB1
330
742
100
AcDbEntity
  8
DEFPOINTS
  6
Continuous
 62
     0
100
AcDbPoint
 10
19701.30833906795
 20
6693.394414438571
 30
0.0
  0
ENDBLK
  5
74D
330
742
100
AcDbEntity
  8
0
100
AcDbBlockEnd
  0
BLOCK
  5
758
330
74E
100
AcDbEntity
  8
0
100
AcDbBlockBegin
  2
*D24
 70
     1
 10
0.0
 20
0.0
 30
0.0
  3
*D24
  1

  0
LINE
  5
BC8
330
74E
100
AcDbEntity
  8
寸法
  6
Continuous
370
    -2
100
AcDbLine
 10
20256.30833906795
 20
13403.32586342789
 30
0.0
 11
21336.30833906795
 21
13403.32586342788
 31
0.0
  0
LINE
  5
BC9
330
74E
100
AcDbEntity
  8
寸法
  6
Continuous
370
    -2
100
AcDbLine
 10
20256.30833906795
 20
8403.325863427886
 30
0.0
 11
21336.30833906795
 21
8403.325863427886
 31
0.0
  0
LINE
  5
BCA
330
74E
100
AcDbEntity
  8
寸法
  6
Continuous
370
    -2
100
AcDbLine
 10
21336.30833906795
 20
13367.32586342789
 30
0.0
 11
21336.30833906795
 21
8439.325863427885
 31
0.0
  0
INSERT
  5
BCB
330
74E
100
AcDbEntity
  8
寸法
  6
Continuous
370
    -2
100
AcDbBlockReference
  2
_ORIGIN
 10
21336.30833906795
 20
13403.32586342788
 30
0.0
 41
36.0
 42
36.0
 43
36.0
 50
90.0
  0
INSERT
  5
BCC
330
74E
100
AcDbEntity
  8
寸法
  6
Continuous
370
    -2
100
AcDbBlockReference
  2
_ORIGIN
 10
21336.30833906795
 20
8403.325863427886
 30
0.0
 41
36.0
 42
36.0
 43
36.0
 50
270.0
  0
MTEXT
  5
BCD
330
74E
100
AcDbEntity
  8
寸法
  6
Continuous
100
AcDbMText
 10
21169.16548192509
 20
10903.32586342789
 30
0.0
 40
180.0
 41
0.0
 71
     5
 72
     1
  1
\A1;5,000
  7
1_100
 11
0.0000000000000001
 21
1.0
 31
0.0
 73
     1
 44
1.0
1001
ACAD
1000
MTEXTBEGIN
1070
    73
1070
     1
1070
    44
1040
1.0
1070
    74
1070
     0
1000
MTEXTEND
  0
POINT
  5
BCE
330
74E
100
AcDbEntity
  8
DEFPOINTS
  6
Continuous
 62
     0
100
AcDbPoint
 10
20076.30833906795
 20
13403.32586342789
 30
0.0
  0
POINT
  5
BCF
330
74E
100
AcDbEntity
  8
DEFPOINTS
  6
Continuous
 62
     0
100
AcDbPoint
 10
20076.30833906795
 20
8403.325863427886
 30
0.0
  0
POINT
  5
BD0
330
74E
100
AcDbEntity
  8
DEFPOINTS
  6
Continuous
 62
     0
100
AcDbPoint
 10
21336.30833906795
 20
8403.325863427886
 30
0.0
  0
ENDBLK
  5
759
330
74E
100
AcDbEntity
  8
0
100
AcDbBlockEnd
  0
BLOCK
  5
764
330
75A
100
AcDbEntity
  8
0
100
AcDbBlockBegin
  2
*D25
 70
     1
 10
0.0
 20
0.0
 30
0.0
  3
*D25
  1

  0
LINE
  5
C1E
330
75A
100
AcDbEntity
  8
寸法
  6
Continuous
370
    -2
100
AcDbLine
 10
16764.65477506186
 20
13403.32586342742
 30
0.0
 11
17844.65477506186
 21
13403.32586342742
 31
0.0
  0
LINE
  5
C1F
330
75A
100
AcDbEntity
  8
寸法
  6
Continuous
370
    -2
100
AcDbLine
 10
16764.65477506186
 20
8403.32586342742
 30
0.0
 11
17844.65477506186
 21
8403.32586342742
 31
0.0
  0
LINE
  5
C20
330
75A
100
AcDbEntity
  8
寸法
  6
Continuous
370
    -2
100
AcDbLine
 10
17844.65477506186
 20
13367.32586342742
 30
0.0
 11
17844.65477506186
 21
8439.32586342742
 31
0.0
  0
INSERT
  5
C21
330
75A
100
AcDbEntity
  8
寸法
  6
Continuous
370
    -2
100
AcDbBlockReference
  2
_ORIGIN
 10
17844.65477506186
 20
13403.32586342742
 30
0.0
 41
36.0
 42
36.0
 43
36.0
 50
90.0
  0
INSERT
  5
C22
330
75A
100
AcDbEntity
  8
寸法
  6
Continuous
370
    -2
100
AcDbBlockReference
  2
_ORIGIN
 10
17844.65477506186
 20
8403.32586342742
 30
0.0
 41
36.0
 42
36.0
 43
36.0
 50
270.0
  0
MTEXT
  5
C23
330
75A
100
AcDbEntity
  8
寸法
  6
Continuous
100
AcDbMText
 10
17677.511917919
 20
10903.32586342742
 30
0.0
 40
180.0
 41
0.0
 71
     5
 72
     1
  1
\A1;5,000
  7
1_100
 11
0.0000000000000001
 21
1.0
 31
0.0
 73
     1
 44
1.0
1001
ACAD
1000
MTEXTBEGIN
1070
    73
1070
     1
1070
    44
1040
1.0
1070
    74
1070
     0
1000
MTEXTEND
  0
POINT
  5
C24
330
75A
100
AcDbEntity
  8
DEFPOINTS
  6
Continuous
 62
     0
100
AcDbPoint
 10
16584.65477506186
 20
13403.32586342742
 30
0.0
  0
POINT
  5
C25
330
75A
100
AcDbEntity
  8
DEFPOINTS
  6
Continuous
 62
     0
100
AcDbPoint
 10
16584.65477506186
 20
8403.32586342742
 30
0.0
  0
POINT
  5
C26
330
75A
100
AcDbEntity
  8
DEFPOINTS
  6
Continuous
 62
     0
100
AcDbPoint
 10
17844.65477506186
 20
8403.32586342742
 30
0.0
  0
ENDBLK
  5
765
330
75A
100
AcDbEntity
  8
0
100
AcDbBlockEnd
  0
BLOCK
  5
772
330
766
100
AcDbEntity
  8
0
100
AcDbBlockBegin
  2
*D26
 70
     1
 10
0.0
 20
0.0
 30
0.0
  3
*D26
  1

  0
LINE
  5
BE3
330
766
100
AcDbEntity
  8
寸法
  6
Continuous
370
    -2
100
AcDbLine
 10
20256.30833906795
 20
13363.32586342789
 30
0.0
 11
20736.30833906795
 21
13363.32586342788
 31
0.0
  0
LINE
  5
BE4
330
766
100
AcDbEntity
  8
寸法
  6
Continuous
370
    -2
100
AcDbLine
 10
20256.30833906795
 20
13403.32586342789
 30
0.0
 11
20736.30833906795
 21
13403.32586342788
 31
0.0
  0
LINE
  5
BE5
330
766
100
AcDbEntity
  8
寸法
  6
Continuous
370
    -2
100
AcDbLine
 10
20736.30833906795
 20
13327.32586342789
 30
0.0
 11
20736.30833906795
 21
13291.32586342788
 31
0.0
  0
LINE
  5
BE6
330
766
100
AcDbEntity
  8
寸法
  6
Continuous
370
    -2
100
AcDbLine
 10
20736.30833906795
 20
13439.32586342788
 30
0.0
 11
20736.30833906795
 21
13475.32586342788
 31
0.0
  0
MTEXT
  5
BE7
330
766
100
AcDbEntity
  8
寸法
  6
Continuous
100
AcDbMText
 10
20586.06403031315
 20
13589.10288763436
 30
0.0
 40
180.0
 41
0.0
 71
     5
 72
     1
  1
\A1;40
  7
1_100
 11
0.0000000000000001
 21
1.0
 31
0.0
 73
     1
 44
1.0
1001
ACAD
1000
MTEXTBEGIN
1070
    73
1070
     1
1070
    44
1040
1.0
1070
    74
1070
     0
1000
MTEXTEND
  0
LINE
  5
BE8
330
766
100
AcDbEntity
  8
寸法
  6
Continuous
370
    -2
100
AcDbLine
 10
20736.30833906795
 20
13363.32586342788
 30
0.0
 11
20736.30833906795
 21
13403.32586342788
 31
0.0
  0
INSERT
  5
BE9
330
766
100
AcDbEntity
  8
寸法
  6
Continuous
370
    -2
100
AcDbBlockReference
  2
_ORIGIN
 10
20736.30833906795
 20
13363.32586342788
 30
0.0
 41
36.0
 42
36.0
 43
36.0
 50
90.0
  0
INSERT
  5
BEA
330
766
100
AcDbEntity
  8
寸法
  6
Continuous
370
    -2
100
AcDbBlockReference
  2
_ORIGIN
 10
20736.30833906795
 20
13403.32586342788
 30
0.0
 41
36.0
 42
36.0
 43
36.0
 50
270.0
  0
POINT
  5
BEB
330
766
100
AcDbEntity
  8
DEFPOINTS
  6
Continuous
 62
     0
100
AcDbPoint
 10
20076.30833906795
 20
13363.32586342789
 30
0.0
  0
POINT
  5
BEC
330
766
100
AcDbEntity
  8
DEFPOINTS
  6
Continuous
 62
     0
100
AcDbPoint
 10
20076.30833906795
 20
13403.32586342789
 30
0.0
  0
POINT
  5
BED
330
766
100
AcDbEntity
  8
DEFPOINTS
  6
Continuous
 62
     0
100
AcDbPoint
 10
20736.30833906795
 20
13403.32586342788
 30
0.0
  0
ENDBLK
  5
773
330
766
100
AcDbEntity
  8
0
100
AcDbBlockEnd
  0
BLOCK
  5
77E
330
774
100
AcDbEntity
  8
0
100
AcDbBlockBegin
  2
*D27
 70
     1
 10
0.0
 20
0.0
 30
0.0
  3
*D27
  1

  0
LINE
  5
BD1
330
774
100
AcDbEntity
  8
寸法
  6
Continuous
370
    -2
100
AcDbLine
 10
20256.30833906795
 20
10403.32586342789
 30
0.0
 11
20736.30833906795
 21
10403.32586342788
 31
0.0
  0
LINE
  5
BD2
330
774
100
AcDbEntity
  8
寸法
  6
Continuous
370
    -2
100
AcDbLine
 10
20256.30833906795
 20
13363.32586342789
 30
0.0
 11
20736.30833906795
 21
13363.32586342788
 31
0.0
  0
LINE
  5
BD3
330
774
100
AcDbEntity
  8
寸法
  6
Continuous
370
    -2
100
AcDbLine
 10
20736.30833906795
 20
10439.32586342788
 30
0.0
 11
20736.30833906795
 21
13327.32586342789
 31
0.0
  0
INSERT
  5
BD4
330
774
100
AcDbEntity
  8
寸法
  6
Continuous
370
    -2
100
AcDbBlockReference
  2
_ORIGIN
 10
20736.30833906795
 20
10403.32586342788
 30
0.0
 41
36.0
 42
36.0
 43
36.0
 50
270.0
  0
INSERT
  5
BD5
330
774
100
AcDbEntity
  8
寸法
  6
Continuous
370
    -2
100
AcDbBlockReference
  2
_ORIGIN
 10
20736.30833906795
 20
13363.32586342788
 30
0.0
 41
36.0
 42
36.0
 43
36.0
 50
90.0
  0
MTEXT
  5
BD6
330
774
100
AcDbEntity
  8
寸法
  6
Continuous
100
AcDbMText
 10
20569.16548192509
 20
11883.32586342789
 30
0.0
 40
180.0
 41
0.0
 71
     5
 72
     1
  1
\A1;2,960
  7
1_100
 11
0.0000000000000001
 21
1.0
 31
0.0
 73
     1
 44
1.0
1001
ACAD
1000
MTEXTBEGIN
1070
    73
1070
     1
1070
    44
1040
1.0
1070
    74
1070
     0
1000
MTEXTEND
  0
POINT
  5
BD7
330
774
100
AcDbEntity
  8
DEFPOINTS
  6
Continuous
 62
     0
100
AcDbPoint
 10
20076.30833906795
 20
10403.32586342789
 30
0.0
  0
POINT
  5
BD8
330
774
100
AcDbEntity
  8
DEFPOINTS
  6
Continuous
 62
     0
100
AcDbPoint
 10
20076.30833906795
 20
13363.32586342789
 30
0.0
  0
POINT
  5
BD9
330
774
100
AcDbEntity
  8
DEFPOINTS
  6
Continuous
 62
     0
100
AcDbPoint
 10
20736.30833906795
 20
13363.32586342788
 30
0.0
  0
ENDBLK
  5
77F
330
774
100
AcDbEntity
  8
0
100
AcDbBlockEnd
  0
BLOCK
  5
78C
330
780
100
AcDbEntity
  8
0
100
AcDbBlockBegin
  2
*D28
 70
     1
 10
0.0
 20
0.0
 30
0.0
  3
*D28
  1

  0
LINE
  5
C30
330
780
100
AcDbEntity
  8
寸法
  6
Continuous
370
    -2
100
AcDbLine
 10
16764.65477506186
 20
13363.32586342742
 30
0.0
 11
17244.65477506186
 21
13363.32586342742
 31
0.0
  0
LINE
  5
C31
330
780
100
AcDbEntity
  8
寸法
  6
Continuous
370
    -2
100
AcDbLine
 10
16764.65477506186
 20
13403.32586342742
 30
0.0
 11
17244.65477506186
 21
13403.32586342742
 31
0.0
  0
LINE
  5
C32
330
780
100
AcDbEntity
  8
寸法
  6
Continuous
370
    -2
100
AcDbLine
 10
17244.65477506186
 20
13327.32586342742
 30
0.0
 11
17244.65477506186
 21
13291.32586342742
 31
0.0
  0
LINE
  5
C33
330
780
100
AcDbEntity
  8
寸法
  6
Continuous
370
    -2
100
AcDbLine
 10
17244.65477506186
 20
13439.32586342742
 30
0.0
 11
17244.65477506186
 21
13475.32586342742
 31
0.0
  0
MTEXT
  5
C34
330
780
100
AcDbEntity
  8
寸法
  6
Continuous
100
AcDbMText
 10
17069.93981673031
 20
13595.65747949219
 30
0.0
 40
180.0
 41
0.0
 71
     5
 72
     1
  1
\A1;40
  7
1_100
 11
0.0000000000000001
 21
1.0
 31
0.0
 73
     1
 44
1.0
1001
ACAD
1000
MTEXTBEGIN
1070
    73
1070
     1
1070
    44
1040
1.0
1070
    74
1070
     0
1000
MTEXTEND
  0
LINE
  5
C35
330
780
100
AcDbEntity
  8
寸法
  6
Continuous
370
    -2
100
AcDbLine
 10
17244.65477506186
 20
13363.32586342742
 30
0.0
 11
17244.65477506186
 21
13403.32586342742
 31
0.0
  0
INSERT
  5
C36
330
780
100
AcDbEntity
  8
寸法
  6
Continuous
370
    -2
100
AcDbBlockReference
  2
_ORIGIN
 10
17244.65477506186
 20
13363.32586342742
 30
0.0
 41
36.0
 42
36.0
 43
36.0
 50
90.0
  0
INSERT
  5
C37
330
780
100
AcDbEntity
  8
寸法
  6
Continuous
370
    -2
100
AcDbBlockReference
  2
_ORIGIN
 10
17244.65477506186
 20
13403.32586342742
 30
0.0
 41
36.0
 42
36.0
 43
36.0
 50
270.0
  0
POINT
  5
C38
330
780
100
AcDbEntity
  8
DEFPOINTS
  6
Continuous
 62
     0
100
AcDbPoint
 10
16584.65477506186
 20
13363.32586342742
 30
0.0
  0
POINT
  5
C39
330
780
100
AcDbEntity
  8
DEFPOINTS
  6
Continuous
 62
     0
100
AcDbPoint
 10
16584.65477506186
 20
13403.32586342742
 30
0.0
  0
POINT
  5
C3A
330
780
100
AcDbEntity
  8
DEFPOINTS
  6
Continuous
 62
     0
100
AcDbPoint
 10
17244.65477506186
 20
13403.32586342742
 30
0.0
  0
ENDBLK
  5
78D
330
780
100
AcDbEntity
  8
0
100
AcDbBlockEnd
  0
BLOCK
  5
798
330
78E
100
AcDbEntity
  8
0
100
AcDbBlockBegin
  2
*D29
 70
     1
 10
0.0
 20
0.0
 30
0.0
  3
*D29
  1

  0
LINE
  5
C15
330
78E
100
AcDbEntity
  8
寸法
  6
Continuous
370
    -2
100
AcDbLine
 10
16764.65477506186
 20
10403.32586342742
 30
0.0
 11
17244.65477506186
 21
10403.32586342742
 31
0.0
  0
LINE
  5
C16
330
78E
100
AcDbEntity
  8
寸法
  6
Continuous
370
    -2
100
AcDbLine
 10
16764.65477506186
 20
13363.32586342742
 30
0.0
 11
17244.65477506186
 21
13363.32586342742
 31
0.0
  0
LINE
  5
C17
330
78E
100
AcDbEntity
  8
寸法
  6
Continuous
370
    -2
100
AcDbLine
 10
17244.65477506186
 20
10439.32586342742
 30
0.0
 11
17244.65477506186
 21
13327.32586342742
 31
0.0
  0
INSERT
  5
C18
330
78E
100
AcDbEntity
  8
寸法
  6
Continuous
370
    -2
100
AcDbBlockReference
  2
_ORIGIN
 10
17244.65477506186
 20
10403.32586342742
 30
0.0
 41
36.0
 42
36.0
 43
36.0
 50
270.0
  0
INSERT
  5
C19
330
78E
100
AcDbEntity
  8
寸法
  6
Continuous
370
    -2
100
AcDbBlockReference
  2
_ORIGIN
 10
17244.65477506186
 20
13363.32586342742
 30
0.0
 41
36.0
 42
36.0
 43
36.0
 50
90.0
  0
MTEXT
  5
C1A
330
78E
100
AcDbEntity
  8
寸法
  6
Continuous
100
AcDbMText
 10
17077.511917919
 20
11883.32586342742
 30
0.0
 40
180.0
 41
0.0
 71
     5
 72
     1
  1
\A1;2,960
  7
1_100
 11
0.0000000000000001
 21
1.0
 31
0.0
 73
     1
 44
1.0
1001
ACAD
1000
MTEXTBEGIN
1070
    73
1070
     1
1070
    44
1040
1.0
1070
    74
1070
     0
1000
MTEXTEND
  0
POINT
  5
C1B
330
78E
100
AcDbEntity
  8
DEFPOINTS
  6
Continuous
 62
     0
100
AcDbPoint
 10
16584.65477506186
 20
10403.32586342742
 30
0.0
  0
POINT
  5
C1C
330
78E
100
AcDbEntity
  8
DEFPOINTS
  6
Continuous
 62
     0
100
AcDbPoint
 10
16584.65477506186
 20
13363.32586342742
 30
0.0
  0
POINT
  5
C1D
330
78E
100
AcDbEntity
  8
DEFPOINTS
  6
Continuous
 62
     0
100
AcDbPoint
 10
17244.65477506186
 20
13363.32586342742
 30
0.0
  0
ENDBLK
  5
799
330
78E
100
AcDbEntity
  8
0
100
AcDbBlockEnd
  0
BLOCK
  5
B34
330
B2A
100
AcDbEntity
  8
0
100
AcDbBlockBegin
  2
*D30
 70
     1
 10
0.0
 20
0.0
 30
0.0
  3
*D30
  1

  0
LINE
  5
B54
330
B2A
100
AcDbEntity
  8
画層3-寸法
  6
Continuous
370
    -2
100
AcDbLine
 10
9333.972416663295
 20
6823.325863427422
 30
0.0
 11
9333.972416663295
 21
5853.325863427421
 31
0.0
  0
LINE
  5
B55
330
B2A
100
AcDbEntity
  8
画層3-寸法
  6
Continuous
370
    -2
100
AcDbLine
 10
11333.97241666329
 20
6823.325863427422
 30
0.0
 11
11333.97241666329
 21
5853.325863427421
 31
0.0
  0
LINE
  5
B56
330
B2A
100
AcDbEntity
  8
画層3-寸法
  6
Continuous
370
    -2
100
AcDbLine
 10
9369.972416663292
 20
5853.325863427421
 30
0.0
 11
11297.97241666329
 21
5853.325863427421
 31
0.0
  0
INSERT
  5
B57
330
B2A
100
AcDbEntity
  8
画層3-寸法
  6
Continuous
370
    -2
100
AcDbBlockReference
  2
_ORIGIN
 10
9333.972416663295
 20
5853.325863427421
 30
0.0
 41
36.0
 42
36.0
 43
36.0
 50
180.0
  0
INSERT
  5
B58
330
B2A
100
AcDbEntity
  8
画層3-寸法
  6
Continuous
370
    -2
100
AcDbBlockReference
  2
_ORIGIN
 10
11333.97241666329
 20
5853.325863427421
 30
0.0
 41
36.0
 42
36.0
 43
36.0
  0
MTEXT
  5
B59
330
B2A
100
AcDbEntity
  8
画層3-寸法
  6
Continuous
100
AcDbMText
 10
10333.97241666329
 20
6020.468720570278
 30
0.0
 40
180.0
 41
0.0
 71
     5
 72
     1
  1
\A1;2,000
  7
1_100
 73
     1
 44
1.0
1001
ACAD
1000
MTEXTBEGIN
1070
    73
1070
     1
1070
    44
1040
1.0
1070
    74
1070
     0
1000
MTEXTEND
  0
POINT
  5
B5A
330
B2A
100
AcDbEntity
  8
DEFPOINTS
  6
Continuous
 62
     0
100
AcDbPoint
 10
9333.972416663295
 20
7003.325863427422
 30
0.0
  0
POINT
  5
B5B
330
B2A
100
AcDbEntity
  8
DEFPOINTS
  6
Continuous
 62
     0
100
AcDbPoint
 10
11333.97241666329
 20
7003.325863427422
 30
0.0
  0
POINT
  5
B5C
330
B2A
100
AcDbEntity
  8
DEFPOINTS
  6
Continuous
 62
     0
100
AcDbPoint
 10
11333.97241666329
 20
5853.325863427421
 30
0.0
  0
ENDBLK
  5
B35
330
B2A
100
AcDbEntity
  8
0
100
AcDbBlockEnd
  0
BLOCK
  5
B40
330
B36
100
AcDbEntity
  8
0
100
AcDbBlockBegin
  2
*D31
 70
     1
 10
0.0
 20
0.0
 30
0.0
  3
*D31
  1

  0
LINE
  5
B4B
330
B36
100
AcDbEntity
  8
画層3-寸法
  6
Continuous
370
    -2
100
AcDbLine
 10
11333.97241666329
 20
6823.325863427422
 30
0.0
 11
11333.97241666329
 21
5853.325863427421
 31
0.0
  0
LINE
  5
B4C
330
B36
100
AcDbEntity
  8
画層3-寸法
  6
Continuous
370
    -2
100
AcDbLine
 10
13333.97241666329
 20
6823.325863427422
 30
0.0
 11
13333.97241666329
 21
5853.325863427421
 31
0.0
  0
LINE
  5
B4D
330
B36
100
AcDbEntity
  8
画層3-寸法
  6
Continuous
370
    -2
100
AcDbLine
 10
11369.97241666329
 20
5853.325863427421
 30
0.0
 11
13297.97241666329
 21
5853.325863427421
 31
0.0
  0
INSERT
  5
B4E
330
B36
100
AcDbEntity
  8
画層3-寸法
  6
Continuous
370
    -2
100
AcDbBlockReference
  2
_ORIGIN
 10
11333.97241666329
 20
5853.325863427421
 30
0.0
 41
36.0
 42
36.0
 43
36.0
 50
180.0
  0
INSERT
  5
B4F
330
B36
100
AcDbEntity
  8
画層3-寸法
  6
Continuous
370
    -2
100
AcDbBlockReference
  2
_ORIGIN
 10
13333.97241666329
 20
5853.325863427421
 30
0.0
 41
36.0
 42
36.0
 43
36.0
  0
MTEXT
  5
B50
330
B36
100
AcDbEntity
  8
画層3-寸法
  6
Continuous
100
AcDbMText
 10
12333.97241666329
 20
6020.468720570278
 30
0.0
 40
180.0
 41
0.0
 71
     5
 72
     1
  1
\A1;2,000
  7
1_100
 73
     1
 44
1.0
1001
ACAD
1000
MTEXTBEGIN
1070
    73
1070
     1
1070
    44
1040
1.0
1070
    74
1070
     0
1000
MTEXTEND
  0
POINT
  5
B51
330
B36
100
AcDbEntity
  8
DEFPOINTS
  6
Continuous
 62
     0
100
AcDbPoint
 10
11333.97241666329
 20
7003.325863427422
 30
0.0
  0
POINT
  5
B52
330
B36
100
AcDbEntity
  8
DEFPOINTS
  6
Continuous
 62
     0
100
AcDbPoint
 10
13333.97241666329
 20
7003.325863427422
 30
0.0
  0
POINT
  5
B53
330
B36
100
AcDbEntity
  8
DEFPOINTS
  6
Continuous
 62
     0
100
AcDbPoint
 10
13333.97241666329
 20
5853.325863427421
 30
0.0
  0
ENDBLK
  5
B41
330
B36
100
AcDbEntity
  8
0
100
AcDbBlockEnd
  0
ENDSEC
  0
SECTION
  2
ENTITIES
  0
LWPOLYLINE
  5
425
330
1F
100
AcDbEntity
  8
図面枠
100
AcDbPolyline
 90
        4
 70
     1
 43
0.0
 10
813.9723793357207
 20
833.3255885808446
 10
24213.97237933572
 20
833.3255885808446
 10
24213.97237933572
 20
16133.32558858084
 10
813.9723793357207
 20
16133.32558858084
  0
LWPOLYLINE
  5
426
330
1F
100
AcDbEntity
  8
図面枠
100
AcDbPolyline
 90
        4
 70
     1
 43
0.0
 10
813.9723793362794
 20
833.3255885808446
 10
24213.97237933628
 20
833.3255885808446
 10
24213.97237933628
 20
16133.32558858084
 10
813.9723793362794
 20
16133.32558858084
  0
LINE
  5
427
330
1F
100
AcDbEntity
  8
寸法
  6
Continuous
 62
     3
100
AcDbLine
 10
9917.916459375206
 20
15191.82177925817
 30
0.0
 11
15110.02829929735
 21
15191.82177925817
 31
0.0
  0
LINE
  5
428
330
1F
100
AcDbEntity
  8
寸法
  6
Continuous
 62
     3
100
AcDbLine
 10
9917.916459375206
 20
15155.82177925957
 30
0.0
 11
15110.02829929735
 21
15155.82177925957
 31
0.0
  0
MTEXT
  5
429
330
1F
100
AcDbEntity
  8
寸法
  6
Continuous
 62
     3
100
AcDbMText
 10
12513.97237933558
 20
15250.35155538085
 30
0.0
 40
300.0
 41
0.0
 71
     8
 72
     1
  1
防球ネット　ＫＳ－Ⅱ型　Ｈ＝５,０００
  7
MSP明朝
 73
     1
 44
1.0
1001
ACAD
1000
ACAD_MTEXT_DEFINED_HEIGHT_BEGIN
1070
    46
1040
0.0
1000
ACAD_MTEXT_DEFINED_HEIGHT_END
1000
MTEXTBEGIN
1070
    73
1070
     1
1070
    44
1040
1.0
1070
    74
1070
     0
1000
MTEXTEND
  0
MTEXT
  5
42A
330
1F
100
AcDbEntity
  8
画層1-1
100
AcDbMText
 10
2503.931441326451
 20
3532.835926659076
 30
0.0
 40
179.9999999999992
 41
0.0
 71
     1
 72
     5
  1
{\F|c128;・※印表記のネットを使用する場合標準柱スパンは変更になる場合があります}
  7
1_100
 73
     1
 44
1.0
1001
AcDbBlockRepETag
1070
     1
1071
        0
1005
42A
1001
ACAD
1000
MTEXTBEGIN
1070
    73
1070
     1
1070
    44
1040
1.0
1070
    74
1070
     0
1000
MTEXTEND
  0
MTEXT
  5
42B
330
1F
100
AcDbEntity
  8
画層1-1
100
AcDbMText
 10
2503.931441326451
 20
1526.459012437243
 30
0.0
 40
179.9999999999992
 41
0.0
 71
     1
 72
     5
  1
・速度圧　q=0.6EVo （N/㎡）　・地表面粗度区分　　　・基礎　普通土質 [B] を選定
  7
1_100
 73
     1
 44
1.0
1001
AcDbBlockRepETag
1070
     1
1071
        1
1005
42B
1001
ACAD
1000
MTEXTBEGIN
1070
    73
1070
     1
1070
    44
1040
1.0
1070
    74
1070
     0
1000
MTEXTEND
  0
MTEXT
  5
42C
330
1F
100
AcDbEntity
  8
画層1-1
100
AcDbMText
 10
2503.931441326451
 20
4612.83592665907
 30
0.0
 40
179.9999999999992
 41
0.0
 71
     1
 72
     5
  1
・主柱．端末ポール．バンド金具．ボルトは溶融亜鉛メッキ仕上げとする
  7
1_100
 73
     1
 44
1.0
1001
AcDbBlockRepETag
1070
     1
1071
        2
1005
42C
1001
ACAD
1000
MTEXTBEGIN
1070
    73
1070
     1
1070
    44
1040
1.0
1070
    74
1070
     0
1000
MTEXTEND
  0
MTEXT
  5
42D
330
1F
100
AcDbEntity
  8
画層1-1
100
AcDbMText
 10
2503.931441326451
 20
4252.835926659073
 30
0.0
 40
179.9999999999992
 41
0.0
 71
     1
 72
     5
  1
・主柱ポール基礎部（ＧＬ）はＦＲＰ被覆補強とする
  7
1_100
 73
     1
 44
1.0
1001
AcDbBlockRepETag
1070
     1
1071
        3
1005
42D
1001
ACAD
1000
MTEXTBEGIN
1070
    73
1070
     1
1070
    44
1040
1.0
1070
    74
1070
     0
1000
MTEXTEND
  0
MTEXT
  5
42E
330
1F
100
AcDbEntity
  8
画層1-1
100
AcDbMText
 10
2503.931441326451
 20
2656.621173449855
 30
0.0
 40
179.9999999999992
 41
0.0
 71
     1
 72
     5
  1
・構造計算書．材料承認願いを提出後施工のこと
  7
1_100
 73
     1
 44
1.0
1001
AcDbBlockRepETag
1070
     1
1071
        4
1005
42E
1001
ACAD
1000
MTEXTBEGIN
1070
    73
1070
     1
1070
    44
1040
1.0
1070
    74
1070
     0
1000
MTEXTEND
  0
MTEXT
  5
42F
330
1F
100
AcDbEntity
  8
画層1-1
100
AcDbMText
 10
2503.931441326451
 20
3892.835926659074
 30
0.0
 40
179.9999999999992
 41
0.0
 71
     1
 72
     5
  1
・上部（補強ポール・ネット）下り防止金具付きとする
  7
1_100
 73
     1
 44
1.0
1001
AcDbBlockRepETag
1070
     1
1071
        5
1005
42F
1001
ACAD
1000
MTEXTBEGIN
1070
    73
1070
     1
1070
    44
1040
1.0
1070
    74
1070
     0
1000
MTEXTEND
  0
POINT
  5
430
330
1F
100
AcDbEntity
  8
画層1-1
100
AcDbPoint
 10
813.9723998407561
 20
1143.469958349789
 30
0.0
1001
AcDbBlockRepETag
1070
     1
1071
        6
1005
430
  0
MTEXT
  5
431
330
1F
100
AcDbEntity
  8
画層1-1
100
AcDbMText
 10
2203.931441326453
 20
2214.227664230189
 30
0.0
 40
239.999999999999
 41
0.0
 71
     1
 72
     5
  1
設計条件
  7
1_100
 73
     1
 44
1.0
1001
AcDbBlockRepETag
1070
     1
1071
        7
1005
431
1001
ACAD
1000
MTEXTBEGIN
1070
    73
1070
     1
1070
    44
1040
1.0
1070
    74
1070
     0
1000
MTEXTEND
  0
MTEXT
  5
432
330
1F
100
AcDbEntity
  8
画層1-1
100
AcDbMText
 10
2203.931441326453
 20
3047.235034259281
 30
0.0
 40
239.999999999999
 41
0.0
 71
     1
 72
     5
  1
特記
  7
1_100
 73
     1
 44
1.0
1001
AcDbBlockRepETag
1070
     1
1071
        8
1005
432
1001
ACAD
1000
MTEXTBEGIN
1070
    73
1070
     1
1070
    44
1040
1.0
1070
    74
1070
     0
1000
MTEXTEND
  0
MTEXT
  5
433
330
1F
100
AcDbEntity
  8
画層1-1
100
AcDbMText
 10
2203.931441326453
 20
5015.693307422332
 30
0.0
 40
239.999999999999
 41
0.0
 71
     1
 72
     5
  1
仕様について
  7
1_100
 73
     1
 44
1.0
1001
AcDbBlockRepETag
1070
     1
1071
        9
1005
433
1001
ACAD
1000
MTEXTBEGIN
1070
    73
1070
     1
1070
    44
1040
1.0
1070
    74
1070
     0
1000
MTEXTEND
  0
MTEXT
  5
434
330
1F
100
AcDbEntity
  8
画層1-1
100
AcDbMText
 10
6641.967347748246
 20
1489.153123520541
 30
0.0
 40
179.9999999999992
 41
0.0
 71
     1
 72
     5
  1
Ⅲ
  7
STYLE1
 73
     1
 44
1.0
1001
AcDbBlockRepETag
1070
     1
1071
       10
1005
434
1001
ACAD
1000
MTEXTBEGIN
1070
    73
1070
     1
1070
    44
1040
1.0
1070
    74
1070
     0
1000
MTEXTEND
  0
MTEXT
  5
435
330
1F
100
AcDbEntity
  8
画層1-1
100
AcDbMText
 10
4294.018223333658
 20
1505.150867646556
 30
0.0
 40
71.99999999999966
 41
0.0
 71
     1
 72
     5
  1
2
  7
1_100
 73
     1
 44
1.0
1001
AcDbBlockRepETag
1070
     1
1071
       11
1005
435
1001
ACAD
1000
MTEXTBEGIN
1070
    73
1070
     1
1070
    44
1040
1.0
1070
    74
1070
     0
1000
MTEXTEND
  0
MTEXT
  5
436
330
1F
100
AcDbEntity
  8
画層1-1
100
AcDbMText
 10
2503.931441326451
 20
1835.699788076967
 30
0.0
 40
179.9999999999992
 41
0.0
 71
     1
 72
     5
  1
・設計荷重。建築基準法・同施工令（平成12年6月）に基づく風圧力に依る、基準風速。
  7
1_100
 73
     1
 44
1.0
1001
AcDbBlockRepETag
1070
     1
1071
       12
1005
436
1001
ACAD
1000
ACAD_MTEXT_DEFINED_HEIGHT_BEGIN
1070
    46
1040
0.0
1000
ACAD_MTEXT_DEFINED_HEIGHT_END
1000
MTEXTBEGIN
1070
    73
1070
     1
1070
    44
1040
1.0
1070
    74
1070
     0
1000
MTEXTEND
  0
LEADER
  5
437
330
1F
100
AcDbEntity
  8
寸法引出
  6
Continuous
100
AcDbLeader
  3
1_60
 71
     0
 73
     0
 74
     0
 75
     1
 40
508.0
 41
3097.285714285713
 76
     3
 10
13978.80376142844
 20
13363.32586342742
 30
0.0
 10
14301.67712338616
 20
13998.27933691832
 30
0.0
 10
14337.67712338616
 20
13998.27933691832
 30
0.0
340
438
  0
MTEXT
  5
438
102
{ACAD_REACTORS
330
437
102
}
330
1F
100
AcDbEntity
  8
寸法文字
  6
Continuous
100
AcDbMText
 10
14397.67712338616
 20
14058.27933691831
 30
0.0
 40
180.0
 41
0.0
 71
     7
 72
     1
  1
ネット上下6mm合繊ロープに4mm合繊\Pロープにて22m㎡ワイヤーに巻付
  7
1_100
 73
     1
 44
1.0
1001
ACAD
1000
MTEXTBEGIN
1070
    73
1070
     1
1070
    44
1040
1.0
1070
    74
1070
     0
1000
MTEXTEND
  0
LINE
  5
439
330
1F
100
AcDbEntity
  8
画層3-通り芯
  6
DASHDOT
 48
60.0
100
AcDbLine
 10
15333.97241666329
 20
7856.956308295656
 30
0.0
 11
15333.97241666329
 21
10403.32586342765
 31
0.0
  0
LINE
  5
43B
330
1F
100
AcDbEntity
  8
画層3-1
  6
Continuous
100
AcDbLine
 10
15308.57241666339
 20
9068.325863427423
 30
0.0
 11
15308.57241666339
 21
8461.425863427281
 31
0.0
  0
LINE
  5
43C
330
1F
100
AcDbEntity
  8
画層3-1
  6
Continuous
100
AcDbLine
 10
15359.3724166632
 20
9068.325863427423
 30
0.0
 11
15359.3724166632
 21
8461.425863427514
 31
0.0
  0
LINE
  5
43D
330
1F
100
AcDbEntity
  8
画層3-2
  6
Continuous
100
AcDbLine
 10
15399.32241666338
 20
9068.325863427423
 30
0.0
 11
15399.32241666338
 21
8403.32586342742
 31
0.0
  0
LINE
  5
43E
330
1F
100
AcDbEntity
  8
画層3-2
  6
Continuous
100
AcDbLine
 10
15268.6224166632
 20
8403.32586342742
 30
0.0
 11
15268.6224166632
 21
9068.325863427423
 31
0.0
  0
LINE
  5
43F
330
1F
100
AcDbEntity
  8
画層3-1
  6
Continuous
100
AcDbLine
 10
15268.6224166632
 20
8481.425863427514
 30
0.0
 11
15399.32241666338
 21
8481.425863427514
 31
0.0
  0
LWPOLYLINE
  5
440
330
1F
100
AcDbEntity
  8
画層3-2
100
AcDbPolyline
 90
        4
 70
     0
 43
0.0
 10
15458.97241666329
 20
8403.32586342742
 10
15458.97241666329
 20
7953.325863427422
 10
15208.97241666329
 20
7953.325863427422
 10
15208.97241666329
 20
8403.32586342742
  0
HATCH
  5
441
330
1F
100
AcDbEntity
  8
画層3-3
100
AcDbHatch
 10
0.0
 20
0.0
 30
0.0
210
0.0
220
0.0
230
1.0
  2
PLAST
 70
     0
 71
     0
 91
        1
 92
        7
 72
     0
 73
     1
 93
        4
 10
15458.97241666329
 20
8403.32586342742
 10
15208.97241666329
 20
8403.32586342742
 10
15208.97241666329
 20
7953.325863427422
 10
15458.97241666329
 20
7953.325863427422
 97
        0
 75
     0
 76
     1
 52
45.0
 41
1800.0
 77
     0
 78
     3
 53
45.0
 43
9191.629760897006
 44
1961.658846916337
 45
-318.1980515339463
 46
318.1980515339464
 79
     0
 53
45.0
 43
9151.855004455649
 44
2001.433603357928
 45
-318.1980515339463
 46
318.1980515339464
 79
     0
 53
45.0
 43
9112.080248013825
 44
2041.208359799752
 45
-318.1980515339463
 46
318.1980515339464
 79
     0
 47
2.4753793195157
 98
        1
 10
15447.86561442654
 20
8162.533311435193
  0
TEXT
  5
442
330
1F
100
AcDbEntity
  8
寸法
  6
Continuous
100
AcDbText
 10
14946.76034774839
 20
5436.132972284858
 30
0.0
 40
180.0
  1
8,000
 41
0.75
  7
1_100
 11
14946.76034774839
 21
5436.132972284858
 31
0.0
100
AcDbText
 73
     1
  0
TEXT
  5
443
330
1F
100
AcDbEntity
  8
画層3-寸法
  6
Continuous
100
AcDbText
 10
15653.05663389548
 20
5926.56475009833
 30
0.0
 40
180.0
  1
2,000
 41
0.75
  7
1_100
 11
15653.05663389548
 21
5926.56475009833
 31
0.0
100
AcDbText
 73
     1
  0
LINE
  5
444
330
1F
100
AcDbEntity
  8
画層3-1
  6
Continuous
100
AcDbLine
 10
15359.3724166632
 20
8423.32586342742
 30
0.0
 11
16284.65477506186
 21
8423.32586342742
 31
0.0
  0
LINE
  5
445
330
1F
100
AcDbEntity
  8
画層3-1
  6
Continuous
100
AcDbLine
 10
15359.3724166632
 20
8461.425863427514
 30
0.0
 11
16284.65477506186
 21
8461.425863427514
 31
0.0
  0
LINE
  5
446
330
1F
100
AcDbEntity
  8
画層3-1
  6
Continuous
100
AcDbLine
 10
15384.77241666357
 20
10340.22586342733
 30
0.0
 11
15384.77241666357
 21
10378.32586342742
 31
0.0
  0
LINE
  5
447
330
1F
100
AcDbEntity
  8
画層3-1
  6
Continuous
100
AcDbLine
 10
15369.77241666357
 20
10325.22586342733
 30
0.0
 11
15384.77241666357
 21
10340.22586342733
 31
0.0
  0
ARC
  5
448
330
1F
100
AcDbEntity
  8
画層3-1
  6
Continuous
100
AcDbCircle
 10
15293.57241666339
 20
10325.22586342756
 30
0.0
 40
15.0
100
AcDbArc
 50
0.0
 51
90.0
  0
LINE
  5
449
330
1F
100
AcDbEntity
  8
画層3-1
  6
Continuous
100
AcDbLine
 10
15283.17241666348
 20
10378.32586342742
 30
0.0
 11
15283.17241666348
 21
10340.22586342756
 31
0.0
  0
LINE
  5
44A
330
1F
100
AcDbEntity
  8
画層3-1
  6
Continuous
100
AcDbLine
 10
15283.17241666348
 20
10340.22586342756
 30
0.0
 11
15298.17241666348
 21
10325.22586342756
 31
0.0
  0
LINE
  5
44B
330
1F
100
AcDbEntity
  8
画層3-1
  6
Continuous
100
AcDbLine
 10
15369.77241666357
 20
10325.22586342733
 30
0.0
 11
15298.17241666348
 21
10325.22586342756
 31
0.0
  0
ARC
  5
44C
330
1F
100
AcDbEntity
  8
画層3-1
  6
Continuous
100
AcDbCircle
 10
15374.3724166632
 20
10325.22586342733
 30
0.0
 40
15.0
100
AcDbArc
 50
90.0
 51
180.0
  0
LINE
  5
44D
330
1F
100
AcDbEntity
  8
画層3-1
  6
Continuous
100
AcDbLine
 10
15414.32241666339
 20
9728.325863427425
 30
0.0
 11
15414.32241666339
 21
9758.325863427424
 31
0.0
  0
LINE
  5
44E
330
1F
100
AcDbEntity
  8
画層3-1
  6
Continuous
100
AcDbLine
 10
15253.6224166632
 20
9758.325863427424
 30
0.0
 11
15253.6224166632
 21
9728.325863427425
 31
0.0
  0
LINE
  5
44F
330
1F
100
AcDbEntity
  8
画層3-1
  6
Continuous
100
AcDbLine
 10
15414.32241666339
 20
9758.325863427424
 30
0.0
 11
15253.6224166632
 21
9758.325863427424
 31
0.0
  0
LINE
  5
450
330
1F
100
AcDbEntity
  8
画層3-1
  6
Continuous
100
AcDbLine
 10
15253.6224166632
 20
9728.325863427425
 30
0.0
 11
15414.32241666339
 21
9728.325863427425
 31
0.0
  0
LINE
  5
451
330
1F
100
AcDbEntity
  8
画層3-1
  6
Continuous
100
AcDbLine
 10
15308.57241666339
 20
10325.22586342756
 30
0.0
 11
15308.57241666339
 21
9758.325863427424
 31
0.0
  0
LINE
  5
452
330
1F
100
AcDbEntity
  8
画層3-1
  6
Continuous
100
AcDbLine
 10
15359.3724166632
 20
10325.22586342733
 30
0.0
 11
15359.3724166632
 21
9758.325863427424
 31
0.0
  0
LINE
  5
453
330
1F
100
AcDbEntity
  8
画層3-2
  6
Continuous
100
AcDbLine
 10
15268.6224166632
 20
9758.325863427424
 30
0.0
 11
15268.6224166632
 21
10340.22586342756
 31
0.0
  0
LINE
  5
454
330
1F
100
AcDbEntity
  8
画層3-2
  6
Continuous
100
AcDbLine
 10
15399.32241666338
 20
10340.22586342756
 30
0.0
 11
15399.32241666338
 21
9758.325863427424
 31
0.0
  0
LINE
  5
455
330
1F
100
AcDbEntity
  8
画層3-1
  6
Continuous
100
AcDbLine
 10
15414.32241666339
 20
9068.325863427423
 30
0.0
 11
15414.32241666339
 21
9098.325863427422
 31
0.0
  0
LINE
  5
456
330
1F
100
AcDbEntity
  8
画層3-1
  6
Continuous
100
AcDbLine
 10
15253.6224166632
 20
9098.325863427422
 30
0.0
 11
15253.6224166632
 21
9068.325863427423
 31
0.0
  0
LINE
  5
457
330
1F
100
AcDbEntity
  8
画層3-1
  6
Continuous
100
AcDbLine
 10
15414.32241666339
 20
9098.325863427422
 30
0.0
 11
15253.6224166632
 21
9098.325863427422
 31
0.0
  0
LINE
  5
458
330
1F
100
AcDbEntity
  8
画層3-1
  6
Continuous
100
AcDbLine
 10
15253.6224166632
 20
9068.325863427423
 30
0.0
 11
15414.32241666339
 21
9068.325863427423
 31
0.0
  0
LINE
  5
459
330
1F
100
AcDbEntity
  8
画層3-1
  6
Continuous
100
AcDbLine
 10
15308.57241666339
 20
9728.325863427425
 30
0.0
 11
15308.57241666339
 21
9098.325863427422
 31
0.0
  0
LINE
  5
45A
330
1F
100
AcDbEntity
  8
画層3-1
  6
Continuous
100
AcDbLine
 10
15359.3724166632
 20
9728.325863427425
 30
0.0
 11
15359.3724166632
 21
9098.325863427422
 31
0.0
  0
LINE
  5
45B
330
1F
100
AcDbEntity
  8
画層3-2
  6
Continuous
100
AcDbLine
 10
15399.32241666338
 20
9728.325863427425
 30
0.0
 11
15399.32241666338
 21
9098.325863427422
 31
0.0
  0
LINE
  5
45C
330
1F
100
AcDbEntity
  8
画層3-2
  6
Continuous
100
AcDbLine
 10
15268.6224166632
 20
9098.325863427422
 30
0.0
 11
15268.6224166632
 21
9728.325863427425
 31
0.0
  0
LINE
  5
45D
330
1F
100
AcDbEntity
  8
画層3-2
  6
Continuous
100
AcDbLine
 10
15414.32241666339
 20
9743.325863427422
 30
0.0
 11
16284.65477506186
 21
9743.325863427422
 31
0.0
  0
LINE
  5
45E
330
1F
100
AcDbEntity
  8
画層3-2
  6
Continuous
100
AcDbLine
 10
16284.65477506186
 20
9083.325863427424
 30
0.0
 11
15414.32241666339
 21
9083.325863427424
 31
0.0
  0
LINE
  5
45F
330
1F
100
AcDbEntity
  8
画層3-1
  6
Continuous
100
AcDbLine
 10
15374.3724166632
 20
10340.22586342733
 30
0.0
 11
16284.65477506186
 21
10340.22586342756
 31
0.0
  0
LWPOLYLINE
  5
460
330
1F
100
AcDbEntity
  8
画層3-1
100
AcDbPolyline
 90
        4
 70
     0
 43
0.0
 10
15359.3724166632
 20
8423.32586342742
 10
15359.3724166632
 20
8103.32586342742
 10
15308.57241666339
 20
8103.32586342742
 10
15308.57241666339
 20
8423.325863427654
  0
LINE
  5
461
330
1F
100
AcDbEntity
  8
ﾊｯﾁﾝｸﾞ
  6
Continuous
100
AcDbLine
 10
13798.22003586519
 20
8403.32586342742
 30
0.0
 11
13678.22003586472
 21
8283.325863427188
 31
0.0
  0
LINE
  5
462
330
1F
100
AcDbEntity
  8
ﾊｯﾁﾝｸﾞ
  6
Continuous
100
AcDbLine
 10
13706.54977433824
 20
8311.655601900239
 30
0.0
 11
13734.87951281083
 21
8283.325863427188
 31
0.0
  0
LINE
  5
463
330
1F
100
AcDbEntity
  8
ﾊｯﾁﾝｸﾞ
  6
Continuous
100
AcDbLine
 10
13746.14775408453
 20
8351.253581646767
 30
0.0
 11
13814.07547230388
 21
8283.325863427419
 31
0.0
  0
LINE
  5
464
330
1F
100
AcDbEntity
  8
ﾊｯﾁﾝｸﾞ
  6
Continuous
100
AcDbLine
 10
13785.74573383129
 20
8390.851561393295
 30
0.0
 11
13893.27143179693
 21
8283.325863427419
 31
0.0
  0
LINE
  5
465
330
1F
100
AcDbEntity
  8
ﾊｯﾁﾝｸﾞ
  6
Continuous
100
AcDbLine
 10
13944.1376528174
 20
8311.655601900239
 30
0.0
 11
13972.46739128999
 21
8283.325863427188
 31
0.0
  0
LINE
  5
466
330
1F
100
AcDbEntity
  8
ﾊｯﾁﾝｸﾞ
  6
Continuous
100
AcDbLine
 10
13983.73563256416
 20
8351.253581646767
 30
0.0
 11
14051.66335078351
 21
8283.325863427419
 31
0.0
  0
LINE
  5
467
330
1F
100
AcDbEntity
  8
ﾊｯﾁﾝｸﾞ
  6
Continuous
100
AcDbLine
 10
13877.41599535871
 20
8403.32586342742
 30
0.0
 11
13825.34371357759
 21
8351.253581646767
 31
0.0
  0
LINE
  5
468
330
1F
100
AcDbEntity
  8
ﾊｯﾁﾝｸﾞ
  6
Continuous
100
AcDbLine
 10
13956.61195485176
 20
8403.32586342742
 30
0.0
 11
13864.94169332388
 21
8311.655601900239
 31
0.0
  0
LINE
  5
469
330
1F
100
AcDbEntity
  8
ﾊｯﾁﾝｸﾞ
  6
Continuous
100
AcDbLine
 10
14035.80791434481
 20
8403.32586342742
 30
0.0
 11
13915.80791434388
 21
8283.325863427419
 31
0.0
  0
LINE
  5
46A
330
1F
100
AcDbEntity
  8
ﾊｯﾁﾝｸﾞ
  6
Continuous
100
AcDbLine
 10
14023.33361231045
 20
8390.851561393295
 30
0.0
 11
14077.0964612935
 21
8337.08871241024
 31
0.0
  0
LINE
  5
46B
102
{ACAD_REACTORS
330
CC6
102
}
330
1F
100
AcDbEntity
  8
DEFPOINTS
100
AcDbLine
 10
16284.65477506186
 20
13363.32586342742
 30
0.0
 11
16284.65477506186
 21
8403.32586342742
 31
0.0
  0
LINE
  5
46E
330
1F
100
AcDbEntity
  8
画層1
  6
Continuous
100
AcDbLine
 10
13453.8724166632
 20
13338.32586342742
 30
0.0
 11
13453.8724166632
 21
13388.32586342742
 31
0.0
  0
LINE
  5
46F
330
1F
100
AcDbEntity
  8
画層1
  6
Continuous
100
AcDbLine
 10
13358.97241666329
 20
13338.32586342742
 30
0.0
 11
13358.97241666329
 21
13388.32586342742
 31
0.0
  0
CIRCLE
  5
470
330
1F
100
AcDbEntity
  8
画層1
  6
Continuous
100
AcDbCircle
 10
13428.8724166632
 20
13363.32586342742
 30
0.0
 40
10.9509940156
  0
CIRCLE
  5
471
330
1F
100
AcDbEntity
  8
画層1
  6
Continuous
100
AcDbCircle
 10
13428.8724166632
 20
13313.32586342742
 30
0.0
 40
10.9509940156
  0
LINE
  5
472
330
1F
100
AcDbEntity
  8
画層1
  6
Continuous
100
AcDbLine
 10
13308.97241666329
 20
13388.32586342742
 30
0.0
 11
13308.97241666329
 21
13338.32586342742
 31
0.0
  0
LINE
  5
473
330
1F
100
AcDbEntity
  8
画層1
  6
Continuous
100
AcDbLine
 10
13214.07241666339
 20
13388.32586342742
 30
0.0
 11
13214.07241666339
 21
13338.32586342742
 31
0.0
  0
CIRCLE
  5
474
330
1F
100
AcDbEntity
  8
画層1
  6
Continuous
100
AcDbCircle
 10
13239.07241666339
 20
13363.32586342742
 30
0.0
 40
10.9509940156
  0
CIRCLE
  5
475
330
1F
100
AcDbEntity
  8
画層1
  6
Continuous
100
AcDbCircle
 10
13239.07241666339
 20
13313.32586342742
 30
0.0
 40
10.9509940156
  0
LINE
  5
477
330
1F
100
AcDbEntity
  8
画層1
  6
Continuous
100
AcDbLine
 10
13453.8724166632
 20
13388.32586342742
 30
0.0
 11
13214.07241666339
 21
13388.32586342742
 31
0.0
  0
LINE
  5
478
330
1F
100
AcDbEntity
  8
画層1
  6
Continuous
100
AcDbLine
 10
13264.07241666339
 20
13403.32586342742
 30
0.0
 11
13403.8724166632
 21
13403.32586342742
 31
0.0
  0
LINE
  5
479
330
1F
100
AcDbEntity
  8
画層1
  6
Continuous
100
AcDbLine
 10
13214.07241666339
 20
13338.32586342742
 30
0.0
 11
13453.8724166632
 21
13338.32586342742
 31
0.0
  0
LINE
  5
47A
330
1F
100
AcDbEntity
  8
画層1
  6
Continuous
100
AcDbLine
 10
13453.8724166632
 20
13338.32586342742
 30
0.0
 11
13214.07241666339
 21
13338.32586342742
 31
0.0
  0
MTEXT
  5
47B
330
1F
100
AcDbEntity
  8
寸法文字
  6
Continuous
100
AcDbMText
 10
8749.649700771772
 20
13808.18540512834
 30
0.0
 40
180.0
 41
0.0
 71
     4
 72
     1
  1
（STK-540鋼管）
  7
1_100
 73
     1
 44
1.0
1001
ACAD
1000
MTEXTBEGIN
1070
    73
1070
     1
1070
    44
1040
1.0
1070
    74
1070
     0
1000
MTEXTEND
  0
LWPOLYLINE
  5
47C
330
1F
100
AcDbEntity
  8
画層1
100
AcDbPolyline
 90
        4
 70
     1
 43
0.0
 10
5518.872416663202
 20
13383.10214276629
 10
5698.872416663202
 20
13383.10214276629
 10
5698.872416663202
 20
13343.10214276629
 10
5518.872416663202
 20
13343.10214276629
  0
LINE
  5
47D
330
1F
100
AcDbEntity
  8
画層1
  6
Continuous
100
AcDbLine
 10
5453.872416663202
 20
13338.32586342742
 30
0.0
 11
5453.872416663202
 21
13388.32586342742
 31
0.0
  0
LINE
  5
47E
330
1F
100
AcDbEntity
  8
画層1
  6
Continuous
100
AcDbLine
 10
5308.972416663294
 20
13388.32586342742
 30
0.0
 11
5308.972416663294
 21
13338.32586342742
 31
0.0
  0
LINE
  5
47F
330
1F
100
AcDbEntity
  8
画層1
  6
Continuous
100
AcDbLine
 10
5358.972416663295
 20
13338.32586342742
 30
0.0
 11
5358.972416663295
 21
13388.32586342742
 31
0.0
  0
CIRCLE
  5
480
330
1F
100
AcDbEntity
  8
画層1
  6
Continuous
100
AcDbCircle
 10
5428.872416663202
 20
13363.32586342742
 30
0.0
 40
10.9509940156
  0
CIRCLE
  5
481
330
1F
100
AcDbEntity
  8
画層1
  6
Continuous
100
AcDbCircle
 10
5428.872416663202
 20
13313.32586342742
 30
0.0
 40
10.9509940156
  0
LINE
  5
482
330
1F
100
AcDbEntity
  8
画層1
  6
Continuous
100
AcDbLine
 10
5214.072416663388
 20
13388.32586342742
 30
0.0
 11
5214.072416663388
 21
13338.32586342742
 31
0.0
  0
CIRCLE
  5
483
330
1F
100
AcDbEntity
  8
画層1
  6
Continuous
100
AcDbCircle
 10
5239.072416663388
 20
13363.32586342742
 30
0.0
 40
10.9509940156
  0
CIRCLE
  5
484
330
1F
100
AcDbEntity
  8
画層1
  6
Continuous
100
AcDbCircle
 10
5239.072416663388
 20
13313.32586342742
 30
0.0
 40
10.9509940156
  0
LINE
  5
485
330
1F
100
AcDbEntity
  8
画層1
  6
Continuous
100
AcDbLine
 10
5453.872416663202
 20
13388.32586342742
 30
0.0
 11
5214.072416663388
 21
13388.32586342742
 31
0.0
  0
LINE
  5
486
330
1F
100
AcDbEntity
  8
画層1
  6
Continuous
100
AcDbLine
 10
5264.072416663388
 20
13403.32586342742
 30
0.0
 11
5403.872416663202
 21
13403.32586342742
 31
0.0
  0
LINE
  5
487
330
1F
100
AcDbEntity
  8
画層1
  6
Continuous
100
AcDbLine
 10
5214.072416663388
 20
13338.32586342742
 30
0.0
 11
5453.872416663202
 21
13338.32586342742
 31
0.0
  0
LINE
  5
488
330
1F
100
AcDbEntity
  8
画層1
  6
Continuous
100
AcDbLine
 10
5453.872416663202
 20
13338.32586342742
 30
0.0
 11
5214.072416663388
 21
13338.32586342742
 31
0.0
  0
LINE
  5
489
330
1F
100
AcDbEntity
  8
画層1
  6
Continuous
100
AcDbLine
 10
5506.372416663202
 20
13363.32586342742
 30
0.0
 11
5453.872416663202
 21
13363.32586342742
 31
0.0
  0
DIMENSION
  5
48B
330
1F
100
AcDbEntity
  8
寸法
  6
Continuous
100
AcDbDimension
  2
*D2
 10
5403.872416663202
 20
13763.32586342765
 30
0.0
 11
5333.972416663295
 21
13943.32586342765
 31
0.0
 70
    32
  1
φ<>
 71
     5
 42
139.7999999998137
  3
1_60
100
AcDbAlignedDimension
 13
5264.072416663388
 23
13388.32586342742
 33
0.0
 14
5403.872416663202
 24
13388.32586342742
 34
0.0
100
AcDbRotatedDimension
  0
LINE
  5
48C
330
1F
100
AcDbEntity
  8
画層1
  6
Continuous
100
AcDbLine
 10
13333.97241666329
 20
13363.32586342742
 30
0.0
 11
5333.972416663295
 21
13363.32586342742
 31
0.0
  0
LEADER
  5
48D
330
1F
100
AcDbEntity
  8
寸法引出
  6
Continuous
100
AcDbLeader
  3
1_60
 71
     0
 73
     0
 74
     0
 75
     1
 40
180.0
 41
3528.0
 76
     3
 10
7727.594810876282
 20
13307.06755895464
 30
0.0
 10
8046.942438417332
 20
14017.87045612389
 30
0.0
 10
8082.942438417331
 20
14017.87045612389
 30
0.0
340
48E
1001
ACAD
1000
DSTYLE
1002
{
1002
}
  0
MTEXT
  5
48E
102
{ACAD_REACTORS
330
48D
102
}
330
1F
100
AcDbEntity
  8
寸法文字
  6
Continuous
100
AcDbMText
 10
8142.942438417334
 20
14077.8704561239
 30
0.0
 40
180.0
 41
0.0
 71
     7
 72
     1
  1
端末・コーナー補強ポールφ114.3×3.0mm
  7
1_100
 73
     1
 44
1.0
1001
ACAD
1000
MTEXTBEGIN
1070
    73
1070
     1
1070
    44
1040
1.0
1070
    74
1070
     0
1000
MTEXTEND
  0
LEADER
  5
48F
330
1F
100
AcDbEntity
  8
寸法引出
  6
Continuous
100
AcDbLeader
  3
1_60
 71
     0
 73
     0
 75
     1
 40
180.0
 41
1764.0
 76
     3
 10
5333.972416663295
 20
13403.32586342765
 30
0.0
 10
4597.003054893794
 20
13920.915404831
 30
0.0
 10
4561.003054893794
 20
13920.915404831
 30
0.0
340
490
1001
ACAD
1000
DSTYLE
1002
{
1002
}
  0
MTEXT
  5
490
102
{ACAD_REACTORS
330
48F
102
}
330
1F
100
AcDbEntity
  8
寸法文字
  6
Continuous
100
AcDbMText
 10
4501.003054893794
 20
13980.915404831
 30
0.0
 40
180.0
 41
0.0
 71
     9
 72
     1
  1
上部ネット下り防止付き
  7
1_100
 73
     1
 44
1.0
1001
ACAD
1000
MTEXTBEGIN
1070
    73
1070
     1
1070
    44
1040
1.0
1070
    74
1070
     0
1000
MTEXTEND
  0
LEADER
  5
491
330
1F
100
AcDbEntity
  8
寸法引出
  6
Continuous
100
AcDbLeader
  3
1_60
 71
     0
 73
     0
 75
     1
 40
180.0
 41
657.0000000000002
 76
     3
 10
5278.683981470515
 20
8476.896020750686
 30
0.0
 10
4788.662433359058
 20
8879.055936190006
 30
0.0
 10
4752.662433359058
 20
8879.055936190006
 30
0.0
340
492
1001
ACAD
1000
DSTYLE
1002
{
1002
}
  0
MTEXT
  5
492
102
{ACAD_REACTORS
330
491
102
}
330
1F
100
AcDbEntity
  8
寸法文字
  6
Continuous
100
AcDbMText
 10
4692.662433359059
 20
8939.055936190007
 30
0.0
 40
180.0
 41
0.0
 71
     9
 72
     1
  1
FRP被覆
  7
1_100
 73
     1
 44
1.0
1001
ACAD
1000
MTEXTBEGIN
1070
    73
1070
     1
1070
    44
1040
1.0
1070
    74
1070
     0
1000
MTEXTEND
  0
MTEXT
  5
493
330
1F
100
AcDbEntity
  8
寸法文字
  6
Continuous
100
AcDbMText
 10
4648.929974830926
 20
8827.923172439156
 30
0.0
 40
180.0
 41
0.0
 71
     3
 72
     1
  1
（250）
  7
1_100
 73
     1
 44
1.0
1001
ACAD
1000
MTEXTBEGIN
1070
    73
1070
     1
1070
    44
1040
1.0
1070
    74
1070
     0
1000
MTEXTEND
  0
LINE
  5
494
330
1F
100
AcDbEntity
  8
画層3-2
  6
Continuous
100
AcDbLine
 10
13268.6224166632
 20
8403.32586342742
 30
0.0
 11
13268.6224166632
 21
9068.325863427423
 31
0.0
  0
LINE
  5
495
330
1F
100
AcDbEntity
  8
画層3-2
  6
Continuous
100
AcDbLine
 10
13399.32241666339
 20
9068.325863427423
 30
0.0
 11
13399.32241666339
 21
8403.32586342742
 31
0.0
  0
LINE
  5
496
330
1F
100
AcDbEntity
  8
画層3-1
  6
Continuous
100
AcDbLine
 10
13308.57241666339
 20
9068.325863427423
 30
0.0
 11
13308.57241666339
 21
8461.425863427281
 31
0.0
  0
LINE
  5
497
330
1F
100
AcDbEntity
  8
画層3-1
  6
Continuous
100
AcDbLine
 10
13359.3724166632
 20
9068.325863427423
 30
0.0
 11
13359.3724166632
 21
8461.425863427514
 31
0.0
  0
LEADER
  5
498
330
1F
100
AcDbEntity
  8
寸法引出
  6
Continuous
100
AcDbLeader
  3
1_60
 71
     0
 73
     0
 74
     0
 75
     1
 40
180.0
 41
1859.142857142857
 76
     3
 10
7494.984878251546
 20
8461.425863427281
 30
0.0
 10
7650.897394384148
 20
8646.501042610672
 30
0.0
 10
7686.897394384148
 20
8646.501042610672
 30
0.0
340
499
213
69.95590756242018
223
0.0
233
0.0
1001
ACAD
1000
DSTYLE
1002
{
1002
}
  0
MTEXT
  5
499
102
{ACAD_REACTORS
330
498
102
}
330
1F
100
AcDbEntity
  8
寸法文字
  6
Continuous
100
AcDbMText
 10
7676.941486821728
 20
8706.501042610673
 30
0.0
 40
180.0
 41
0.0
 71
     7
 72
     1
  1
φ38.1×1.6ｔ（上下）
  7
1_100
 73
     1
 44
1.0
1001
ACAD
1000
MTEXTBEGIN
1070
    73
1070
     1
1070
    44
1040
1.0
1070
    74
1070
     0
1000
MTEXTEND
  0
LINE
  5
49A
330
1F
100
AcDbEntity
  8
画層3-通り芯
  6
DASHDOT
 48
60.0
100
AcDbLine
 10
9333.972416663295
 20
7856.956308295656
 30
0.0
 11
9333.972416663295
 21
8646.501042610672
 31
0.0
  0
LINE
  5
49B
330
1F
100
AcDbEntity
  8
画層3-通り芯
  6
DASHDOT
 48
60.0
100
AcDbLine
 10
7333.972416663295
 20
7856.956308295656
 30
0.0
 11
7333.972416663295
 21
10403.32586342765
 31
0.0
  0
HATCH
  5
49C
330
1F
100
AcDbEntity
  8
画層3-3
 62
   230
370
    13
100
AcDbHatch
 10
0.0
 20
0.0
 30
0.0
210
0.0
220
0.0
230
1.0
  2
NET
 70
     0
 71
     0
 91
        3
 92
        7
 72
     0
 73
     1
 93
        8
 10
7308.572416663388
 20
9068.325863427423
 10
7253.622416663202
 20
9068.325863427423
 10
7253.622416663202
 20
9083.325863427424
 10
5414.322416663388
 20
9083.325863427424
 10
5414.322416663388
 20
9068.325863427423
 10
5359.372416663202
 20
9068.325863427423
 10
5359.372416663202
 20
8461.425863427514
 10
7308.572416663388
 20
8461.425863427281
 97
        0
 92
        7
 72
     0
 73
     1
 93
       12
 10
7308.572416663388
 20
9728.325863427425
 10
7253.622416663202
 20
9728.325863427425
 10
7253.622416663202
 20
9743.325863427422
 10
5414.322416663388
 20
9743.325863427422
 10
5414.322416663388
 20
9728.325863427425
 10
5359.372416663202
 20
9728.325863427425
 10
5359.372416663202
 20
9098.325863427422
 10
5414.322416663388
 20
9098.325863427422
 10
5414.322416663388
 20
9083.325863427424
 10
7253.622416663202
 20
9083.325863427424
 10
7253.622416663202
 20
9098.325863427422
 10
7308.572416663388
 20
9098.325863427422
 97
        0
 92
        7
 72
     0
 73
     1
 93
       12
 10
7308.572416663388
 20
10325.22586342733
 10
7298.172416663482
 20
10325.22586342756
 10
7283.172416663481
 20
10340.22586342733
 10
5384.772416663574
 20
10340.22586342733
 10
5369.772416663574
 20
10325.22586342733
 10
5359.372416663202
 20
10325.22586342733
 10
5359.372416663202
 20
9758.325863427424
 10
5414.322416663388
 20
9758.325863427424
 10
5414.322416663388
 20
9743.325863427422
 10
7253.622416663202
 20
9743.325863427422
 10
7253.622416663202
 20
9758.325863427424
 10
7308.572416663388
 20
9758.325863427424
 97
        0
 75
     0
 76
     1
 52
45.0
 41
33.0
 77
     0
 78
     2
 53
45.0
 43
0.0
 44
0.0
 45
-74.0871129988205
 46
74.08711299882051
 79
     0
 53
135.0
 43
0.0
 44
0.0
 45
-74.08711299882051
 46
-74.0871129988205
 79
     0
 47
15.97588838339475
 98
        3
 10
6435.911526549826
 20
8711.943875570256
 10
6403.934597723405
 20
9319.02724586072
 10
6435.911526549826
 20
10085.8703679018
  0
LINE
  5
49D
330
1F
100
AcDbEntity
  8
画層3-1
  6
Continuous
100
AcDbLine
 10
5308.572416663388
 20
10340.22586342756
 30
0.0
 11
5308.572416663388
 21
8423.32586342742
 31
0.0
  0
LINE
  5
49E
330
1F
100
AcDbEntity
  8
画層3-2
  6
Continuous
100
AcDbLine
 10
5399.322416663387
 20
9068.325863427423
 30
0.0
 11
5399.322416663387
 21
8403.32586342742
 31
0.0
  0
LINE
  5
49F
330
1F
100
AcDbEntity
  8
画層3-1
  6
Continuous
100
AcDbLine
 10
5359.372416663202
 20
9068.325863427423
 30
0.0
 11
5359.372416663202
 21
8461.425863427514
 31
0.0
  0
LINE
  5
4A0
330
1F
100
AcDbEntity
  8
画層3-2
  6
Continuous
100
AcDbLine
 10
7399.322416663387
 20
9068.325863427423
 30
0.0
 11
7399.322416663387
 21
8403.32586342742
 31
0.0
  0
LINE
  5
4A1
330
1F
100
AcDbEntity
  8
画層3-2
  6
Continuous
100
AcDbLine
 10
7268.622416663202
 20
8403.32586342742
 30
0.0
 11
7268.622416663202
 21
9068.325863427423
 31
0.0
  0
LINE
  5
4A2
330
1F
100
AcDbEntity
  8
画層3-1
  6
Continuous
100
AcDbLine
 10
7308.572416663388
 20
9068.325863427423
 30
0.0
 11
7308.572416663388
 21
8461.425863427281
 31
0.0
  0
LINE
  5
4A3
330
1F
100
AcDbEntity
  8
画層3-1
  6
Continuous
100
AcDbLine
 10
7359.372416663202
 20
9068.325863427423
 30
0.0
 11
7359.372416663202
 21
8461.425863427514
 31
0.0
  0
LINE
  5
4A4
330
1F
100
AcDbEntity
  8
画層3-2
  6
Continuous
100
AcDbLine
 10
9268.622416663202
 20
8403.32586342742
 30
0.0
 11
9268.622416663202
 21
8646.501042610672
 31
0.0
  0
LINE
  5
4A5
330
1F
100
AcDbEntity
  8
画層3-2
  6
Continuous
100
AcDbLine
 10
9399.322416663387
 20
9068.325863427423
 30
0.0
 11
9399.322416663387
 21
8946.501042610673
 31
0.0
  0
LINE
  5
4A6
330
1F
100
AcDbEntity
  8
画層3-1
  6
Continuous
100
AcDbLine
 10
9359.372416663202
 20
9068.325863427423
 30
0.0
 11
9359.372416663202
 21
8946.501042610673
 31
0.0
  0
LINE
  5
4A7
330
1F
100
AcDbEntity
  8
画層3-1
  6
Continuous
100
AcDbLine
 10
9308.572416663388
 20
9068.325863427423
 30
0.0
 11
9308.572416663388
 21
8946.501042610673
 31
0.0
  0
LINE
  5
4A8
330
1F
100
AcDbEntity
  8
画層3-1
  6
Continuous
100
AcDbLine
 10
13268.6224166632
 20
8481.425863427514
 30
0.0
 11
13399.32241666339
 21
8481.425863427514
 31
0.0
  0
LINE
  5
4A9
330
1F
100
AcDbEntity
  8
画層2-1
  6
Continuous
100
AcDbLine
 10
13264.07241666339
 20
8253.32586342742
 30
0.0
 11
13403.8724166632
 21
8253.32586342742
 31
0.0
  0
LINE
  5
4AA
330
1F
100
AcDbEntity
  8
画層3-1
  6
Continuous
100
AcDbLine
 10
9268.622416663202
 20
8481.425863427514
 30
0.0
 11
9399.322416663387
 21
8481.425863427514
 31
0.0
  0
LWPOLYLINE
  5
4AB
330
1F
100
AcDbEntity
  8
画層3-2
100
AcDbPolyline
 90
        4
 70
     0
 43
0.0
 10
9458.972416663295
 20
8403.32586342742
 10
9458.972416663295
 20
7953.325863427422
 10
9208.972416663295
 20
7953.325863427422
 10
9208.972416663295
 20
8403.32586342742
  0
HATCH
  5
4AC
330
1F
100
AcDbEntity
  8
画層3-3
100
AcDbHatch
 10
0.0
 20
0.0
 30
0.0
210
0.0
220
0.0
230
1.0
  2
PLAST
 70
     0
 71
     0
 91
        1
 92
        7
 72
     0
 73
     1
 93
        4
 10
9458.972416663295
 20
8403.32586342742
 10
9208.972416663295
 20
8403.32586342742
 10
9208.972416663295
 20
7953.325863427422
 10
9458.972416663295
 20
7953.325863427422
 97
        0
 75
     0
 76
     1
 52
45.0
 41
1800.0
 77
     0
 78
     3
 53
45.0
 43
3191.629760897007
 44
1961.658846916337
 45
-318.1980515339463
 46
318.1980515339464
 79
     0
 53
45.0
 43
3151.855004455649
 44
2001.433603357928
 45
-318.1980515339463
 46
318.1980515339464
 79
     0
 53
45.0
 43
3112.080248013823
 44
2041.208359799752
 45
-318.1980515339463
 46
318.1980515339464
 79
     0
 47
2.4753793195157
 98
        1
 10
9447.86561442654
 20
8162.533311435193
  0
LINE
  5
4AD
330
1F
100
AcDbEntity
  8
画層3-1
  6
Continuous
100
AcDbLine
 10
7268.622416663202
 20
8481.425863427514
 30
0.0
 11
7399.322416663387
 21
8481.425863427514
 31
0.0
  0
DIMENSION
  5
4AE
330
1F
100
AcDbEntity
  8
画層3-寸法
  6
Continuous
100
AcDbDimension
  2
*D3
 10
6892.783883554148
 20
7953.325863427422
 30
0.0
 11
6712.783883554147
 21
8178.325863427422
 31
0.0
 70
    32
 71
     5
 42
449.9999999999992
  3
1_60
100
AcDbAlignedDimension
 13
7208.972416663295
 23
8403.32586342742
 33
0.0
 14
7208.972416663295
 24
7953.325863427422
 34
0.0
 50
90.0
100
AcDbRotatedDimension
  0
LWPOLYLINE
  5
4AF
330
1F
100
AcDbEntity
  8
画層3-2
100
AcDbPolyline
 90
        4
 70
     0
 43
0.0
 10
7458.972416663295
 20
8403.32586342742
 10
7458.972416663295
 20
7953.325863427422
 10
7208.972416663295
 20
7953.325863427422
 10
7208.972416663295
 20
8403.32586342742
  0
HATCH
  5
4B0
330
1F
100
AcDbEntity
  8
画層3-3
100
AcDbHatch
 10
0.0
 20
0.0
 30
0.0
210
0.0
220
0.0
230
1.0
  2
PLAST
 70
     0
 71
     0
 91
        1
 92
        7
 72
     0
 73
     1
 93
        4
 10
7458.972416663295
 20
8403.32586342742
 10
7208.972416663295
 20
8403.32586342742
 10
7208.972416663295
 20
7953.325863427422
 10
7458.972416663295
 20
7953.325863427422
 97
        0
 75
     0
 76
     1
 52
45.0
 41
1800.0
 77
     0
 78
     3
 53
45.0
 43
1191.629760897006
 44
1961.658846916337
 45
-318.1980515339463
 46
318.1980515339464
 79
     0
 53
45.0
 43
1151.855004455647
 44
2001.433603357928
 45
-318.1980515339463
 46
318.1980515339464
 79
     0
 53
45.0
 43
1112.080248013823
 44
2041.208359799752
 45
-318.1980515339463
 46
318.1980515339464
 79
     0
 47
2.4753793195157
 98
        1
 10
7447.86561442654
 20
8162.533311435193
  0
LINE
  5
4B1
330
1F
100
AcDbEntity
  8
画層2-1
  6
Continuous
100
AcDbLine
 10
5403.872416663202
 20
8253.32586342742
 30
0.0
 11
5264.072416663388
 21
8253.32586342742
 31
0.0
  0
LINE
  5
4B2
330
1F
100
AcDbEntity
  8
画層3-1
  6
Continuous
100
AcDbLine
 10
5308.572416663388
 20
8461.425863427281
 30
0.0
 11
7308.572416663388
 21
8461.425863427281
 31
0.0
  0
LINE
  5
4B3
330
1F
100
AcDbEntity
  8
画層3-1
  6
Continuous
100
AcDbLine
 10
5308.572416663388
 20
8423.32586342742
 30
0.0
 11
7308.572416663388
 21
8423.32586342742
 31
0.0
  0
LEADER
  5
4B4
330
1F
100
AcDbEntity
  8
寸法引出
  6
Continuous
100
AcDbLeader
  3
1_60
 71
     0
 73
     0
 74
     0
 75
     1
 40
180.0
 41
297.0
 76
     3
 10
5558.972416663293
 20
7102.631210538264
 30
0.0
 10
5850.022762997292
 20
7339.637952081567
 30
0.0
 10
5886.022762997292
 20
7339.637952081567
 30
0.0
340
4B5
213
0.0
223
50.0
233
0.0
1001
ACAD
1000
DSTYLE
1002
{
1002
}
  0
MTEXT
  5
4B5
102
{ACAD_REACTORS
330
4B4
102
}
330
1F
100
AcDbEntity
  8
寸法文字
  6
Continuous
100
AcDbMText
 10
5946.022762997293
 20
7349.637952081565
 30
0.0
 40
180.0
 41
0.0
 71
     7
 72
     1
  1
砕石
  7
1_100
 73
     1
 44
1.0
1001
ACAD
1000
MTEXTBEGIN
1070
    73
1070
     1
1070
    44
1040
1.0
1070
    74
1070
     0
1000
MTEXTEND
  0
LEADER
  5
4B6
330
1F
100
AcDbEntity
  8
寸法引出
  6
Continuous
100
AcDbLeader
  3
1_60
 71
     0
 73
     0
 74
     0
 75
     1
 40
180.0
 41
928.2857142857139
 76
     3
 10
5558.972416663293
 20
7408.289838065332
 30
0.0
 10
5837.644376220401
 20
7650.314704019749
 30
0.0
 10
5873.644376220401
 20
7650.314704019749
 30
0.0
340
4B7
1001
ACAD
1000
DSTYLE
1002
{
1002
}
  0
MTEXT
  5
4B7
102
{ACAD_REACTORS
330
4B6
102
}
330
1F
100
AcDbEntity
  8
寸法文字
  6
Continuous
100
AcDbMText
 10
5933.644376220399
 20
7710.314704019748
 30
0.0
 40
180.0
 41
0.0
 71
     7
 72
     1
  1
コンクリート
  7
1_100
 73
     1
 44
1.0
1001
ACAD
1000
MTEXTBEGIN
1070
    73
1070
     1
1070
    44
1040
1.0
1070
    74
1070
     0
1000
MTEXTEND
  0
DIMENSION
  5
4B8
330
1F
100
AcDbEntity
  8
画層3-寸法
  6
Continuous
100
AcDbDimension
  2
*D4
 10
7333.972416663295
 20
5853.325863427421
 30
0.0
 11
6333.972416663296
 21
6020.468720570278
 31
0.0
 70
    32
 71
     5
 42
2000.0
  3
1_60
100
AcDbAlignedDimension
 13
5333.972416663295
 23
6303.325863427422
 33
0.0
 14
7333.972416663295
 24
7003.325863427422
 34
0.0
100
AcDbRotatedDimension
  0
DIMENSION
  5
4B9
330
1F
100
AcDbEntity
  8
寸法
  6
Continuous
100
AcDbDimension
  2
*D5
 10
5583.972416663295
 20
6453.325863427422
 30
0.0
 11
5333.972416663295
 21
6303.325863427422
 31
0.0
 70
    32
  1
□<>
 71
     5
 42
500.0
  3
1_60
100
AcDbAlignedDimension
 13
5083.972416663295
 23
7053.325863427422
 33
0.0
 14
5583.972416663295
 24
7053.325863427189
 34
0.0
100
AcDbRotatedDimension
1001
ACAD
1000
DSTYLE
1002
{
1070
    77
1070
     2
1070
   174
1070
     1
1002
}
  0
DIMENSION
  5
4BA
330
1F
100
AcDbEntity
  8
寸法
  6
Continuous
100
AcDbDimension
  2
*D6
 10
5558.972416663293
 20
6693.394414438571
 30
0.0
 11
4753.464890710296
 21
6752.160909773486
 31
0.0
 70
   160
  1
φ<>
 71
     5
 42
450.0
  3
1_60
100
AcDbAlignedDimension
 13
5108.972416663295
 23
7053.325863427422
 33
0.0
 14
5558.972416663293
 24
7053.325863427422
 34
0.0
100
AcDbRotatedDimension
  0
DIMENSION
  5
4BB
330
1F
100
AcDbEntity
  8
画層3-寸法
  6
Continuous
100
AcDbDimension
  2
*D7
 10
9333.972416663295
 20
5853.325863427421
 30
0.0
 11
8333.972416663295
 21
6020.468720570278
 31
0.0
 70
    32
 71
     5
 42
2000.0
  3
1_60
100
AcDbAlignedDimension
 13
7333.972416663295
 23
7003.325863427422
 33
0.0
 14
9333.972416663295
 24
7003.325863427422
 34
0.0
100
AcDbRotatedDimension
  0
LINE
  5
4BC
330
1F
100
AcDbEntity
  8
画層3-1
  6
Continuous
100
AcDbLine
 10
7359.372416663202
 20
8423.32586342742
 30
0.0
 11
9308.572416663388
 21
8423.32586342742
 31
0.0
  0
LINE
  5
4BD
330
1F
100
AcDbEntity
  8
画層3-1
  6
Continuous
100
AcDbLine
 10
7359.372416663202
 20
8461.425863427281
 30
0.0
 11
9308.572416663388
 21
8461.425863427514
 31
0.0
  0
DIMENSION
  5
4BE
330
1F
100
AcDbEntity
  8
画層3-寸法
  6
Continuous
100
AcDbDimension
  2
*D8
 10
7458.972416663295
 20
7641.711710781031
 30
0.0
 11
7333.972416663295
 21
7491.711710781031
 31
0.0
 70
    32
  1
□<>
 71
     5
 42
250.0
  3
1_60
100
AcDbAlignedDimension
 13
7208.972416663295
 23
7953.325863427422
 33
0.0
 14
7458.972416663295
 24
7953.325863427422
 34
0.0
100
AcDbRotatedDimension
1001
ACAD
1000
DSTYLE
1002
{
1070
    77
1070
     2
1070
   174
1070
     1
1002
}
  0
DIMENSION
  5
4BF
330
1F
100
AcDbEntity
  8
寸法
  6
Continuous
100
AcDbDimension
  2
*D9
 10
13333.97241666329
 20
5373.325863427421
 30
0.0
 11
9333.972416663295
 21
5540.468720570278
 31
0.0
 70
    32
 71
     5
 42
8000.0
  3
1_60
100
AcDbAlignedDimension
 13
5333.972416663295
 23
6303.325863427422
 33
0.0
 14
13333.97241666329
 24
6910.858391634127
 34
0.0
100
AcDbRotatedDimension
  0
LINE
  5
4C3
330
1F
100
AcDbEntity
  8
画層1
  6
Continuous
100
AcDbLine
 10
13214.07241666339
 20
13288.32586342742
 30
0.0
 11
13453.8724166632
 21
13288.32586342742
 31
0.0
  0
ARC
  5
4C4
330
1F
100
AcDbEntity
  8
画層3-1
  6
Continuous
100
AcDbCircle
 10
13374.3724166632
 20
10325.22586342733
 30
0.0
 40
15.0
100
AcDbArc
 50
90.0
 51
180.0
  0
LINE
  5
4C5
330
1F
100
AcDbEntity
  8
画層3-1
  6
Continuous
100
AcDbLine
 10
13384.77241666357
 20
10340.22586342733
 30
0.0
 11
13384.77241666357
 21
10378.32586342742
 31
0.0
  0
LINE
  5
4C6
330
1F
100
AcDbEntity
  8
画層3-1
  6
Continuous
100
AcDbLine
 10
13369.77241666357
 20
10325.22586342733
 30
0.0
 11
13384.77241666357
 21
10340.22586342733
 31
0.0
  0
LINE
  5
4C7
330
1F
100
AcDbEntity
  8
画層1
  6
Continuous
100
AcDbLine
 10
13358.97241666329
 20
10378.32586342742
 30
0.0
 11
13358.97241666329
 21
10428.32586342742
 31
0.0
  0
CIRCLE
  5
4C8
330
1F
100
AcDbEntity
  8
画層1
  6
Continuous
100
AcDbCircle
 10
13428.8724166632
 20
10403.32586342742
 30
0.0
 40
10.9509940156
  0
LINE
  5
4C9
330
1F
100
AcDbEntity
  8
画層3-1
  6
Continuous
100
AcDbLine
 10
13283.17241666348
 20
10340.22586342756
 30
0.0
 11
13298.17241666348
 21
10325.22586342756
 31
0.0
  0
LINE
  5
4CA
330
1F
100
AcDbEntity
  8
画層3-1
  6
Continuous
100
AcDbLine
 10
13283.17241666348
 20
10378.32586342742
 30
0.0
 11
13283.17241666348
 21
10340.22586342756
 31
0.0
  0
ARC
  5
4CB
330
1F
100
AcDbEntity
  8
画層3-1
  6
Continuous
100
AcDbCircle
 10
13293.57241666339
 20
10325.22586342756
 30
0.0
 40
15.0
100
AcDbArc
 50
0.0
 51
90.0
  0
LINE
  5
4CC
330
1F
100
AcDbEntity
  8
画層1
  6
Continuous
100
AcDbLine
 10
13308.97241666329
 20
10428.32586342742
 30
0.0
 11
13308.97241666329
 21
10378.32586342742
 31
0.0
  0
CIRCLE
  5
4CD
330
1F
100
AcDbEntity
  8
画層1
  6
Continuous
100
AcDbCircle
 10
13239.07241666339
 20
10403.32586342742
 30
0.0
 40
10.9509940156
  0
LINE
  5
4CE
330
1F
100
AcDbEntity
  8
画層3-1
  6
Continuous
100
AcDbLine
 10
13369.77241666357
 20
10325.22586342733
 30
0.0
 11
13298.17241666348
 21
10325.22586342756
 31
0.0
  0
LWPOLYLINE
  5
4CF
330
1F
100
AcDbEntity
  8
画層1-1
100
AcDbPolyline
 90
        4
 70
     1
 43
0.0
 10
13160.84521515173
 20
10453.816704076
 10
12992.17267881105
 20
10516.66235217097
 10
12978.20697923443
 20
10479.1795663176
 10
13146.87951557511
 20
10416.33391822262
  0
LINE
  5
4D0
330
1F
100
AcDbEntity
  8
画層3-1
  6
Continuous
100
AcDbLine
 10
13414.32241666339
 20
9728.325863427425
 30
0.0
 11
13414.32241666339
 21
9758.325863427424
 31
0.0
  0
LINE
  5
4D1
330
1F
100
AcDbEntity
  8
画層3-1
  6
Continuous
100
AcDbLine
 10
13253.6224166632
 20
9758.325863427424
 30
0.0
 11
13253.6224166632
 21
9728.325863427425
 31
0.0
  0
LINE
  5
4D2
330
1F
100
AcDbEntity
  8
画層3-1
  6
Continuous
100
AcDbLine
 10
13253.6224166632
 20
9728.325863427425
 30
0.0
 11
13414.32241666339
 21
9728.325863427425
 31
0.0
  0
LINE
  5
4D3
330
1F
100
AcDbEntity
  8
画層3-1
  6
Continuous
100
AcDbLine
 10
13414.32241666339
 20
9758.325863427424
 30
0.0
 11
13253.6224166632
 21
9758.325863427424
 31
0.0
  0
LINE
  5
4D4
330
1F
100
AcDbEntity
  8
画層3-2
  6
Continuous
100
AcDbLine
 10
13399.32241666339
 20
10340.22586342756
 30
0.0
 11
13399.32241666339
 21
9758.325863427424
 31
0.0
  0
LINE
  5
4D5
330
1F
100
AcDbEntity
  8
画層3-2
  6
Continuous
100
AcDbLine
 10
13268.6224166632
 20
9758.325863427424
 30
0.0
 11
13268.6224166632
 21
10340.22586342756
 31
0.0
  0
LINE
  5
4D6
330
1F
100
AcDbEntity
  8
画層3-1
  6
Continuous
100
AcDbLine
 10
13308.57241666339
 20
10325.22586342756
 30
0.0
 11
13308.57241666339
 21
9758.325863427424
 31
0.0
  0
LINE
  5
4D7
330
1F
100
AcDbEntity
  8
画層3-1
  6
Continuous
100
AcDbLine
 10
13359.3724166632
 20
10325.22586342733
 30
0.0
 11
13359.3724166632
 21
9758.325863427424
 31
0.0
  0
LINE
  5
4D8
330
1F
100
AcDbEntity
  8
画層3-1
  6
Continuous
100
AcDbLine
 10
13414.32241666339
 20
9068.325863427423
 30
0.0
 11
13414.32241666339
 21
9098.325863427422
 31
0.0
  0
LINE
  5
4D9
330
1F
100
AcDbEntity
  8
画層3-1
  6
Continuous
100
AcDbLine
 10
13253.6224166632
 20
9098.325863427422
 30
0.0
 11
13253.6224166632
 21
9068.325863427423
 31
0.0
  0
LINE
  5
4DA
330
1F
100
AcDbEntity
  8
画層3-1
  6
Continuous
100
AcDbLine
 10
13253.6224166632
 20
9068.325863427423
 30
0.0
 11
13414.32241666339
 21
9068.325863427423
 31
0.0
  0
LINE
  5
4DB
330
1F
100
AcDbEntity
  8
画層3-1
  6
Continuous
100
AcDbLine
 10
13414.32241666339
 20
9098.325863427422
 30
0.0
 11
13253.6224166632
 21
9098.325863427422
 31
0.0
  0
LINE
  5
4DC
330
1F
100
AcDbEntity
  8
画層3-2
  6
Continuous
100
AcDbLine
 10
13268.6224166632
 20
9098.325863427422
 30
0.0
 11
13268.6224166632
 21
9728.325863427425
 31
0.0
  0
LINE
  5
4DD
330
1F
100
AcDbEntity
  8
画層3-2
  6
Continuous
100
AcDbLine
 10
13399.32241666339
 20
9728.325863427425
 30
0.0
 11
13399.32241666339
 21
9098.325863427422
 31
0.0
  0
LINE
  5
4DE
330
1F
100
AcDbEntity
  8
画層3-1
  6
Continuous
100
AcDbLine
 10
13308.57241666339
 20
9728.325863427425
 30
0.0
 11
13308.57241666339
 21
9098.325863427422
 31
0.0
  0
LINE
  5
4DF
330
1F
100
AcDbEntity
  8
画層3-1
  6
Continuous
100
AcDbLine
 10
13359.3724166632
 20
9728.325863427425
 30
0.0
 11
13359.3724166632
 21
9098.325863427422
 31
0.0
  0
LINE
  5
4E0
330
1F
100
AcDbEntity
  8
画層2-1
  6
Continuous
100
AcDbLine
 10
13264.07241666339
 20
8503.32586342742
 30
0.0
 11
13403.8724166632
 21
8503.32586342742
 31
0.0
  0
LINE
  5
4E1
330
1F
100
AcDbEntity
  8
画層1
  6
Continuous
100
AcDbLine
 10
5214.072416663388
 20
13288.32586342742
 30
0.0
 11
5453.872416663202
 21
13288.32586342742
 31
0.0
  0
LINE
  5
4E2
330
1F
100
AcDbEntity
  8
寸法引出
  6
Continuous
100
AcDbLine
 10
10193.50144536533
 20
11538.07420872935
 30
0.0
 11
10551.07996921815
 21
11775.49152936617
 31
0.0
  0
ARC
  5
4E3
330
1F
100
AcDbEntity
  8
画層3-1
  6
Continuous
100
AcDbCircle
 10
9374.372416663202
 20
10325.22586342733
 30
0.0
 40
15.0
100
AcDbArc
 50
90.0
 51
180.0
  0
LINE
  5
4E4
330
1F
100
AcDbEntity
  8
画層3-1
  6
Continuous
100
AcDbLine
 10
9369.772416663577
 20
10325.22586342733
 30
0.0
 11
9384.772416663574
 21
10340.22586342733
 31
0.0
  0
LINE
  5
4E5
330
1F
100
AcDbEntity
  8
画層3-1
  6
Continuous
100
AcDbLine
 10
9384.772416663574
 20
10340.22586342733
 30
0.0
 11
9384.772416663574
 21
10378.32586342742
 31
0.0
  0
LINE
  5
4E6
330
1F
100
AcDbEntity
  8
画層3-1
  6
Continuous
100
AcDbLine
 10
9283.172416663481
 20
10340.22586342756
 30
0.0
 11
9298.172416663479
 21
10325.22586342756
 31
0.0
  0
LINE
  5
4E7
330
1F
100
AcDbEntity
  8
画層3-1
  6
Continuous
100
AcDbLine
 10
9283.172416663481
 20
10378.32586342742
 30
0.0
 11
9283.172416663481
 21
10340.22586342756
 31
0.0
  0
ARC
  5
4E8
330
1F
100
AcDbEntity
  8
画層3-1
  6
Continuous
100
AcDbCircle
 10
9293.572416663389
 20
10325.22586342756
 30
0.0
 40
15.0
100
AcDbArc
 50
0.0
 51
90.0
  0
LINE
  5
4E9
330
1F
100
AcDbEntity
  8
画層3-1
  6
Continuous
100
AcDbLine
 10
9369.772416663577
 20
10325.22586342733
 30
0.0
 11
9298.172416663479
 21
10325.22586342756
 31
0.0
  0
LINE
  5
4EA
330
1F
100
AcDbEntity
  8
画層3-1
  6
Continuous
100
AcDbLine
 10
9414.322416663388
 20
9728.325863427425
 30
0.0
 11
9414.322416663388
 21
9758.325863427424
 31
0.0
  0
LINE
  5
4EB
330
1F
100
AcDbEntity
  8
画層3-1
  6
Continuous
100
AcDbLine
 10
9253.622416663203
 20
9758.325863427424
 30
0.0
 11
9253.622416663203
 21
9728.325863427425
 31
0.0
  0
LINE
  5
4EC
330
1F
100
AcDbEntity
  8
画層3-1
  6
Continuous
100
AcDbLine
 10
9253.622416663203
 20
9728.325863427425
 30
0.0
 11
9414.322416663388
 21
9728.325863427425
 31
0.0
  0
LINE
  5
4ED
330
1F
100
AcDbEntity
  8
画層3-1
  6
Continuous
100
AcDbLine
 10
9414.322416663388
 20
9758.325863427424
 30
0.0
 11
9253.622416663203
 21
9758.325863427424
 31
0.0
  0
LINE
  5
4EE
330
1F
100
AcDbEntity
  8
画層3-2
  6
Continuous
100
AcDbLine
 10
9399.322416663387
 20
10340.22586342756
 30
0.0
 11
9399.322416663387
 21
9758.325863427424
 31
0.0
  0
LINE
  5
4EF
330
1F
100
AcDbEntity
  8
画層3-2
  6
Continuous
100
AcDbLine
 10
9268.622416663202
 20
9758.325863427424
 30
0.0
 11
9268.622416663202
 21
10340.22586342756
 31
0.0
  0
LINE
  5
4F0
330
1F
100
AcDbEntity
  8
画層3-1
  6
Continuous
100
AcDbLine
 10
9359.372416663202
 20
10325.22586342733
 30
0.0
 11
9359.372416663202
 21
9758.325863427424
 31
0.0
  0
LINE
  5
4F1
330
1F
100
AcDbEntity
  8
画層3-1
  6
Continuous
100
AcDbLine
 10
9308.572416663388
 20
10325.22586342756
 30
0.0
 11
9308.572416663388
 21
9758.325863427424
 31
0.0
  0
LINE
  5
4F2
330
1F
100
AcDbEntity
  8
画層3-1
  6
Continuous
100
AcDbLine
 10
9414.322416663388
 20
9068.325863427423
 30
0.0
 11
9414.322416663388
 21
9098.325863427422
 31
0.0
  0
LINE
  5
4F3
330
1F
100
AcDbEntity
  8
画層3-1
  6
Continuous
100
AcDbLine
 10
9253.622416663203
 20
9098.325863427422
 30
0.0
 11
9253.622416663203
 21
9068.325863427423
 31
0.0
  0
LINE
  5
4F4
330
1F
100
AcDbEntity
  8
画層3-1
  6
Continuous
100
AcDbLine
 10
9253.622416663203
 20
9068.325863427423
 30
0.0
 11
9414.322416663388
 21
9068.325863427423
 31
0.0
  0
LINE
  5
4F5
330
1F
100
AcDbEntity
  8
画層3-1
  6
Continuous
100
AcDbLine
 10
9414.322416663388
 20
9098.325863427422
 30
0.0
 11
9253.622416663203
 21
9098.325863427422
 31
0.0
  0
LINE
  5
4F6
330
1F
100
AcDbEntity
  8
画層3-2
  6
Continuous
100
AcDbLine
 10
9268.622416663202
 20
9098.325863427422
 30
0.0
 11
9268.622416663202
 21
9728.325863427425
 31
0.0
  0
LINE
  5
4F7
330
1F
100
AcDbEntity
  8
画層3-2
  6
Continuous
100
AcDbLine
 10
9399.322416663387
 20
9728.325863427425
 30
0.0
 11
9399.322416663387
 21
9098.325863427422
 31
0.0
  0
LINE
  5
4F8
330
1F
100
AcDbEntity
  8
画層3-1
  6
Continuous
100
AcDbLine
 10
9359.372416663202
 20
9728.325863427425
 30
0.0
 11
9359.372416663202
 21
9098.325863427422
 31
0.0
  0
LINE
  5
4F9
330
1F
100
AcDbEntity
  8
画層3-1
  6
Continuous
100
AcDbLine
 10
9308.572416663388
 20
9728.325863427425
 30
0.0
 11
9308.572416663388
 21
9098.325863427422
 31
0.0
  0
LEADER
  5
4FA
330
1F
100
AcDbEntity
  8
寸法引出
  6
Continuous
100
AcDbLeader
  3
1_60
 71
     0
 73
     0
 75
     1
 40
180.0
 41
657.0
 76
     3
 10
9023.798660950022
 20
9083.325863427424
 30
0.0
 10
8808.649025986188
 20
9296.84596269176
 30
0.0
 10
8772.649025986188
 20
9296.84596269176
 30
0.0
340
4FB
1001
ACAD
1000
DSTYLE
1002
{
1002
}
  0
MTEXT
  5
4FB
102
{ACAD_REACTORS
330
4FA
102
}
330
1F
100
AcDbEntity
  8
寸法文字
  6
Continuous
100
AcDbMText
 10
8712.649025986189
 20
9356.84596269176
 30
0.0
 40
180.0
 41
0.0
 71
     9
 72
     1
  1
4mm線
  7
1_100
 73
     1
 44
1.0
1001
ACAD
1000
MTEXTBEGIN
1070
    73
1070
     1
1070
    44
1040
1.0
1070
    74
1070
     0
1000
MTEXTEND
  0
LINE
  5
4FC
330
1F
100
AcDbEntity
  8
寸法引出
  6
Continuous
100
AcDbLine
 10
8808.64902598619
 20
9296.84596269176
 30
0.0
 11
9016.769698438453
 21
9743.325863427422
 31
0.0
  0
LEADER
  5
4FD
330
1F
100
AcDbEntity
  8
寸法引出
  6
Continuous
100
AcDbLeader
  3
1_60
 71
     0
 73
     0
 74
     0
 75
     1
 40
180.0
 41
1107.0
 76
     3
 10
9399.322416663387
 20
10103.49084273999
 30
0.0
 10
9648.686555389533
 20
9885.608871115314
 30
0.0
 10
9684.686555389532
 20
9885.608871115314
 30
0.0
340
4FE
1001
ACAD
1000
DSTYLE
1002
{
1002
}
  0
MTEXT
  5
4FE
102
{ACAD_REACTORS
330
4FD
102
}
330
1F
100
AcDbEntity
  8
寸法文字
  6
Continuous
100
AcDbMText
 10
9744.686555389534
 20
9945.608871115314
 30
0.0
 40
180.0
 41
0.0
 71
     7
 72
     1
  1
FB-4.5×19
  7
1_100
 73
     1
 44
1.0
1001
ACAD
1000
MTEXTBEGIN
1070
    73
1070
     1
1070
    44
1040
1.0
1070
    74
1070
     0
1000
MTEXTEND
  0
LINE
  5
4FF
330
1F
100
AcDbEntity
  8
画層3-1
  6
Continuous
100
AcDbLine
 10
7384.772416663574
 20
10340.22586342733
 30
0.0
 11
7384.772416663574
 21
10378.32586342742
 31
0.0
  0
LINE
  5
500
330
1F
100
AcDbEntity
  8
画層3-1
  6
Continuous
100
AcDbLine
 10
7369.772416663575
 20
10325.22586342733
 30
0.0
 11
7384.772416663574
 21
10340.22586342733
 31
0.0
  0
ARC
  5
501
330
1F
100
AcDbEntity
  8
画層3-1
  6
Continuous
100
AcDbCircle
 10
7374.372416663202
 20
10325.22586342733
 30
0.0
 40
15.0
100
AcDbArc
 50
90.0
 51
180.0
  0
LINE
  5
502
330
1F
100
AcDbEntity
  8
画層3-1
  6
Continuous
100
AcDbLine
 10
7283.172416663481
 20
10340.22586342756
 30
0.0
 11
7298.172416663482
 21
10325.22586342756
 31
0.0
  0
LINE
  5
503
330
1F
100
AcDbEntity
  8
画層3-1
  6
Continuous
100
AcDbLine
 10
7283.172416663481
 20
10378.32586342742
 30
0.0
 11
7283.172416663481
 21
10340.22586342756
 31
0.0
  0
LINE
  5
504
330
1F
100
AcDbEntity
  8
画層3-1
  6
Continuous
100
AcDbLine
 10
7369.772416663575
 20
10325.22586342733
 30
0.0
 11
7298.172416663482
 21
10325.22586342756
 31
0.0
  0
ARC
  5
505
330
1F
100
AcDbEntity
  8
画層3-1
  6
Continuous
100
AcDbCircle
 10
7293.572416663389
 20
10325.22586342756
 30
0.0
 40
15.0
100
AcDbArc
 50
0.0
 51
90.0
  0
LINE
  5
506
330
1F
100
AcDbEntity
  8
画層3-1
  6
Continuous
100
AcDbLine
 10
7414.322416663387
 20
9728.325863427425
 30
0.0
 11
7414.322416663387
 21
9758.325863427424
 31
0.0
  0
LINE
  5
507
330
1F
100
AcDbEntity
  8
画層3-1
  6
Continuous
100
AcDbLine
 10
7253.622416663202
 20
9758.325863427424
 30
0.0
 11
7253.622416663202
 21
9728.325863427425
 31
0.0
  0
LINE
  5
508
330
1F
100
AcDbEntity
  8
画層3-1
  6
Continuous
100
AcDbLine
 10
7414.322416663387
 20
9758.325863427424
 30
0.0
 11
7253.622416663202
 21
9758.325863427424
 31
0.0
  0
LINE
  5
509
330
1F
100
AcDbEntity
  8
画層3-1
  6
Continuous
100
AcDbLine
 10
7253.622416663202
 20
9728.325863427425
 30
0.0
 11
7414.322416663387
 21
9728.325863427425
 31
0.0
  0
LINE
  5
50A
330
1F
100
AcDbEntity
  8
画層3-2
  6
Continuous
100
AcDbLine
 10
7268.622416663202
 20
9758.325863427424
 30
0.0
 11
7268.622416663202
 21
10340.22586342756
 31
0.0
  0
LINE
  5
50B
330
1F
100
AcDbEntity
  8
画層3-2
  6
Continuous
100
AcDbLine
 10
7399.322416663387
 20
10340.22586342756
 30
0.0
 11
7399.322416663387
 21
9758.325863427424
 31
0.0
  0
LINE
  5
50C
330
1F
100
AcDbEntity
  8
画層3-1
  6
Continuous
100
AcDbLine
 10
7308.572416663388
 20
10325.22586342756
 30
0.0
 11
7308.572416663388
 21
9758.325863427424
 31
0.0
  0
LINE
  5
50D
330
1F
100
AcDbEntity
  8
画層3-1
  6
Continuous
100
AcDbLine
 10
7359.372416663202
 20
10325.22586342733
 30
0.0
 11
7359.372416663202
 21
9758.325863427424
 31
0.0
  0
LINE
  5
50E
330
1F
100
AcDbEntity
  8
画層3-1
  6
Continuous
100
AcDbLine
 10
7414.322416663387
 20
9068.325863427423
 30
0.0
 11
7414.322416663387
 21
9098.325863427422
 31
0.0
  0
LINE
  5
50F
330
1F
100
AcDbEntity
  8
画層3-1
  6
Continuous
100
AcDbLine
 10
7253.622416663202
 20
9098.325863427422
 30
0.0
 11
7253.622416663202
 21
9068.325863427423
 31
0.0
  0
LINE
  5
510
330
1F
100
AcDbEntity
  8
画層3-1
  6
Continuous
100
AcDbLine
 10
7414.322416663387
 20
9098.325863427422
 30
0.0
 11
7253.622416663202
 21
9098.325863427422
 31
0.0
  0
LINE
  5
511
330
1F
100
AcDbEntity
  8
画層3-1
  6
Continuous
100
AcDbLine
 10
7253.622416663202
 20
9068.325863427423
 30
0.0
 11
7414.322416663387
 21
9068.325863427423
 31
0.0
  0
LINE
  5
512
330
1F
100
AcDbEntity
  8
画層3-2
  6
Continuous
100
AcDbLine
 10
7399.322416663387
 20
9728.325863427425
 30
0.0
 11
7399.322416663387
 21
9098.325863427422
 31
0.0
  0
LINE
  5
513
330
1F
100
AcDbEntity
  8
画層3-2
  6
Continuous
100
AcDbLine
 10
7268.622416663202
 20
9098.325863427422
 30
0.0
 11
7268.622416663202
 21
9728.325863427425
 31
0.0
  0
LINE
  5
514
330
1F
100
AcDbEntity
  8
画層3-1
  6
Continuous
100
AcDbLine
 10
7308.572416663388
 20
9728.325863427425
 30
0.0
 11
7308.572416663388
 21
9098.325863427422
 31
0.0
  0
LINE
  5
515
330
1F
100
AcDbEntity
  8
画層3-1
  6
Continuous
100
AcDbLine
 10
7359.372416663202
 20
9728.325863427425
 30
0.0
 11
7359.372416663202
 21
9098.325863427422
 31
0.0
  0
LWPOLYLINE
  5
516
330
1F
100
AcDbEntity
  8
画層1
100
AcDbPolyline
 90
        4
 70
     1
 43
0.0
 10
5503.872416663202
 20
10423.32685774139
 10
5683.872416663202
 20
10423.32685774139
 10
5683.872416663202
 20
10383.32685774139
 10
5503.872416663202
 20
10383.32685774139
  0
LWPOLYLINE
  5
517
330
1F
100
AcDbEntity
  8
画層1-1
100
AcDbPolyline
 90
        4
 70
     1
 43
0.0
 10
5528.535325495536
 20
10461.80289158719
 10
5697.20820899047
 20
10524.64760794061
 10
5711.173701513464
 20
10487.16474494184
 10
5542.500818018993
 20
10424.32002858836
  0
LINE
  5
518
330
1F
100
AcDbEntity
  8
画層3-1
  6
Continuous
100
AcDbLine
 10
5369.772416663574
 20
10325.22586342733
 30
0.0
 11
5384.772416663574
 21
10340.22586342733
 31
0.0
  0
LINE
  5
519
330
1F
100
AcDbEntity
  8
画層3-1
  6
Continuous
100
AcDbLine
 10
5369.772416663574
 20
10325.22586342733
 30
0.0
 11
5308.572416663388
 21
10325.22586342756
 31
0.0
  0
ARC
  5
51A
330
1F
100
AcDbEntity
  8
画層3-1
  6
Continuous
100
AcDbCircle
 10
5346.179457693112
 20
10342.6711694076
 30
0.0
 40
37.68645720078001
100
AcDbArc
 50
108.8995839705432
 51
183.7202809701269
  0
ARC
  5
51B
330
1F
100
AcDbEntity
  8
画層3-1
  6
Continuous
100
AcDbCircle
 10
5374.372416663202
 20
10325.22586342733
 30
0.0
 40
15.0
100
AcDbArc
 50
90.0
 51
180.0
  0
LINE
  5
51C
330
1F
100
AcDbEntity
  8
画層3-1
  6
Continuous
100
AcDbLine
 10
5384.772416663574
 20
10340.22586342733
 30
0.0
 11
5384.772416663574
 21
10378.32586342742
 31
0.0
  0
LINE
  5
51D
330
1F
100
AcDbEntity
  8
画層1
  6
Continuous
100
AcDbLine
 10
5308.972416663294
 20
10428.32586342742
 30
0.0
 11
5308.972416663294
 21
10378.32586342742
 31
0.0
  0
LINE
  5
51E
330
1F
100
AcDbEntity
  8
画層1
  6
Continuous
100
AcDbLine
 10
5358.972416663295
 20
10378.32586342742
 30
0.0
 11
5358.972416663295
 21
10428.32586342742
 31
0.0
  0
CIRCLE
  5
51F
330
1F
100
AcDbEntity
  8
画層1
  6
Continuous
100
AcDbCircle
 10
5428.872416663202
 20
10403.32586342742
 30
0.0
 40
10.9509940156
  0
CIRCLE
  5
520
330
1F
100
AcDbEntity
  8
画層1
  6
Continuous
100
AcDbCircle
 10
5239.072416663388
 20
10403.32586342742
 30
0.0
 40
10.9509940156
  0
LINE
  5
521
330
1F
100
AcDbEntity
  8
画層3-1
  6
Continuous
100
AcDbLine
 10
5414.322416663388
 20
9758.325863427424
 30
0.0
 11
5308.572416663388
 21
9758.325863427424
 31
0.0
  0
LINE
  5
522
330
1F
100
AcDbEntity
  8
画層3-1
  6
Continuous
100
AcDbLine
 10
5414.322416663388
 20
9728.325863427425
 30
0.0
 11
5414.322416663388
 21
9758.325863427424
 31
0.0
  0
LINE
  5
523
330
1F
100
AcDbEntity
  8
画層3-1
  6
Continuous
100
AcDbLine
 10
5308.572416663388
 20
9728.325863427425
 30
0.0
 11
5414.322416663388
 21
9728.325863427425
 31
0.0
  0
LINE
  5
524
330
1F
100
AcDbEntity
  8
画層3-2
  6
Continuous
100
AcDbLine
 10
5399.322416663387
 20
10340.22586342756
 30
0.0
 11
5399.322416663387
 21
9758.325863427424
 31
0.0
  0
LINE
  5
525
330
1F
100
AcDbEntity
  8
画層3-1
  6
Continuous
100
AcDbLine
 10
5359.372416663202
 20
10325.22586342733
 30
0.0
 11
5359.372416663202
 21
9758.325863427424
 31
0.0
  0
LINE
  5
526
330
1F
100
AcDbEntity
  8
画層3-1
  6
Continuous
100
AcDbLine
 10
5414.322416663388
 20
9098.325863427422
 30
0.0
 11
5308.572416663388
 21
9098.325863427422
 31
0.0
  0
LINE
  5
527
330
1F
100
AcDbEntity
  8
画層3-1
  6
Continuous
100
AcDbLine
 10
5414.322416663388
 20
9068.325863427423
 30
0.0
 11
5414.322416663388
 21
9098.325863427422
 31
0.0
  0
LINE
  5
528
330
1F
100
AcDbEntity
  8
画層3-1
  6
Continuous
100
AcDbLine
 10
5308.572416663388
 20
9068.325863427423
 30
0.0
 11
5414.322416663388
 21
9068.325863427423
 31
0.0
  0
LINE
  5
529
330
1F
100
AcDbEntity
  8
画層3-2
  6
Continuous
100
AcDbLine
 10
5399.322416663387
 20
9728.325863427425
 30
0.0
 11
5399.322416663387
 21
9098.325863427422
 31
0.0
  0
LINE
  5
52A
330
1F
100
AcDbEntity
  8
画層3-1
  6
Continuous
100
AcDbLine
 10
5359.372416663202
 20
9728.325863427425
 30
0.0
 11
5359.372416663202
 21
9098.325863427422
 31
0.0
  0
LINE
  5
52B
330
1F
100
AcDbEntity
  8
画層3-2
  6
Continuous
100
AcDbLine
 10
5414.322416663388
 20
9743.325863427422
 30
0.0
 11
7253.622416663202
 21
9743.325863427422
 31
0.0
  0
LINE
  5
52C
330
1F
100
AcDbEntity
  8
画層3-2
  6
Continuous
100
AcDbLine
 10
7253.622416663202
 20
9083.325863427424
 30
0.0
 11
5414.322416663388
 21
9083.325863427424
 31
0.0
  0
LINE
  5
52D
330
1F
100
AcDbEntity
  8
画層3-1
  6
Continuous
100
AcDbLine
 10
5374.372416663202
 20
10340.22586342733
 30
0.0
 11
7293.572416663389
 21
10340.22586342733
 31
0.0
  0
LWPOLYLINE
  5
52E
330
1F
100
AcDbEntity
  8
画層1
100
AcDbPolyline
 90
        4
 70
     1
 43
0.0
 10
5315.091278203983
 20
10758.32586342742
 10
5355.091278203982
 20
10758.32586342742
 10
5355.091278203982
 20
10578.32586342742
 10
5315.091278203983
 20
10578.32586342742
  0
LEADER
  5
52F
330
1F
100
AcDbEntity
  8
寸法引出
  6
Continuous
100
AcDbLeader
  3
1_60
 71
     0
 73
     0
 74
     0
 75
     1
 40
180.0
 41
1581.428571428572
 76
     3
 10
7359.372416663202
 20
9823.089937145994
 30
0.0
 10
7541.545610246932
 20
9986.438880618138
 30
0.0
 10
7577.545610246932
 20
9986.438880618138
 30
0.0
340
530
1001
ACAD
1000
DSTYLE
1002
{
1002
}
  0
MTEXT
  5
530
102
{ACAD_REACTORS
330
52F
102
}
330
1F
100
AcDbEntity
  8
寸法文字
  6
Continuous
100
AcDbMText
 10
7637.545610246933
 20
10046.43888061813
 30
0.0
 40
180.0
 41
0.0
 71
     7
 72
     1
  1
主柱φ50.8×2.3ｔ
  7
1_100
 73
     1
 44
1.0
1001
ACAD
1000
MTEXTBEGIN
1070
    73
1070
     1
1070
    44
1040
1.0
1070
    74
1070
     0
1000
MTEXTEND
  0
LINE
  5
531
330
1F
100
AcDbEntity
  8
画層3-2
  6
Continuous
100
AcDbLine
 10
7414.322416663387
 20
9743.325863427422
 30
0.0
 11
9253.622416663203
 21
9743.325863427422
 31
0.0
  0
LINE
  5
532
330
1F
100
AcDbEntity
  8
画層3-2
  6
Continuous
100
AcDbLine
 10
9253.622416663203
 20
9083.325863427424
 30
0.0
 11
7414.322416663387
 21
9083.325863427424
 31
0.0
  0
LINE
  5
533
330
1F
100
AcDbEntity
  8
画層3-1
  6
Continuous
100
AcDbLine
 10
7374.372416663202
 20
10340.22586342733
 30
0.0
 11
9293.572416663389
 21
10340.22586342733
 31
0.0
  0
LINE
  5
537
330
1F
100
AcDbEntity
  8
画層2-1
  6
Continuous
100
AcDbLine
 10
5264.072416663388
 20
8503.32586342742
 30
0.0
 11
5403.872416663202
 21
8503.32586342742
 31
0.0
  0
MTEXT
  5
53A
330
1F
100
AcDbEntity
  8
寸法文字
  6
Continuous
100
AcDbMText
 10
10333.97241666329
 20
9446.714026439641
 30
0.0
 40
180.0
 41
0.0
 71
     8
 72
     1
  1
カラーハガネ線
  7
1_100
 73
     1
 44
1.0
1001
ACAD
1000
MTEXTBEGIN
1070
    73
1070
     1
1070
    44
1040
1.0
1070
    74
1070
     0
1000
MTEXTEND
  0
MTEXT
  5
53B
330
1F
100
AcDbEntity
  8
寸法文字
  6
Continuous
100
AcDbMText
 10
10331.49844680562
 20
9200.640842483551
 30
0.0
 40
180.0
 41
0.0
 71
     8
 72
     1
  1
φ2.6×40mm目
  7
1_100
 73
     1
 44
1.0
1001
ACAD
1000
MTEXTBEGIN
1070
    73
1070
     1
1070
    44
1040
1.0
1070
    74
1070
     0
1000
MTEXTEND
  0
LEADER
  5
53D
330
1F
100
AcDbEntity
  8
寸法引出
  6
Continuous
100
AcDbLeader
  3
1_60
 71
     0
 73
     0
 74
     0
 75
     1
 40
408.0
 41
1870.285714285715
 76
     3
 10
10104.98586610988
 20
12145.5975258547
 30
0.0
 10
10551.07996921815
 20
11775.49152936617
 30
0.0
 10
10587.07996921815
 20
11775.49152936617
 30
0.0
340
53E
1001
ACAD
1000
DSTYLE
1002
{
1002
}
  0
MTEXT
  5
53E
102
{ACAD_REACTORS
330
53D
102
}
330
1F
100
AcDbEntity
  8
寸法文字
  6
Continuous
100
AcDbMText
 10
10647.07996921815
 20
11835.49152936617
 30
0.0
 40
180.0
 41
0.0
 71
     7
 72
     1
  1
筋違\Pメッセンワイヤー22m㎡
  7
1_100
 73
     1
 44
0.6666666666666666
1001
ACAD
1000
MTEXTBEGIN
1070
    73
1070
     1
1070
    44
1040
0.6666666666666666
1070
    74
1070
     0
1000
MTEXTEND
  0
LINE
  5
53F
330
1F
100
AcDbEntity
  8
画層1
  6
Continuous
100
AcDbLine
 10
5333.972416663295
 20
10403.32586342742
 30
0.0
 11
13333.97241666329
 21
10403.32586342742
 31
0.0
  0
LEADER
  5
540
330
1F
100
AcDbEntity
  8
寸法引出
  6
Continuous
100
AcDbLeader
  3
1_60
 71
     0
 73
     0
 40
180.0
 41
1433.571428571427
 76
     2
 10
12978.20697923443
 20
10479.1795663176
 30
0.0
 10
12258.82295172869
 20
10571.90703802992
 30
0.0
340
541
1001
ACAD
1000
DSTYLE
1002
{
1002
}
  0
MTEXT
  5
541
102
{ACAD_REACTORS
330
540
102
}
330
1F
100
AcDbEntity
  8
寸法文字
  6
Continuous
100
AcDbMText
 10
12198.82295172869
 20
10631.90703802992
 30
0.0
 40
180.0
 41
0.0
 71
     9
 72
     1
  1
タンバックル9mm
  7
1_100
 73
     1
 44
1.0
1001
ACAD
1000
MTEXTBEGIN
1070
    73
1070
     1
1070
    44
1040
1.0
1070
    74
1070
     0
1000
MTEXTEND
  0
LWPOLYLINE
  5
542
330
1F
100
AcDbEntity
  8
画層3-1
100
AcDbPolyline
 90
        4
 70
     0
 43
0.0
 10
9359.372416663202
 20
8423.32586342742
 10
9359.372416663202
 20
8103.32586342742
 10
9308.572416663388
 20
8103.32586342742
 10
9308.572416663388
 20
8423.325863427654
  0
LWPOLYLINE
  5
543
102
{ACAD_REACTORS
330
9B1
102
}
330
1F
100
AcDbEntity
  8
画層3-1
100
AcDbPolyline
 90
        4
 70
     0
 43
0.0
 10
5308.572416663388
 20
8423.32586342742
 10
5308.572416663388
 20
8103.32586342742
 10
5359.372416663202
 20
8103.32586342742
 10
5359.372416663202
 20
8423.32586342742
  0
LWPOLYLINE
  5
544
330
1F
100
AcDbEntity
  8
画層3-1
100
AcDbPolyline
 90
        4
 70
     0
 43
0.0
 10
7359.372416663202
 20
8423.32586342742
 10
7359.372416663202
 20
8103.32586342742
 10
7308.572416663388
 20
8103.32586342742
 10
7308.572416663388
 20
8423.325863427654
  0
LWPOLYLINE
  5
545
102
{ACAD_REACTORS
330
998
102
}
330
1F
100
AcDbEntity
  8
画層3-1
100
AcDbPolyline
 90
        4
 70
     0
 43
0.0
 10
13359.3724166632
 20
8423.32586342742
 10
13359.3724166632
 20
8103.32586342742
 10
13308.57241666339
 20
8103.32586342742
 10
13308.57241666339
 20
8423.325863427654
  0
LWPOLYLINE
  5
546
330
1F
100
AcDbEntity
  8
画層1
  6
Continuous
100
AcDbPolyline
 90
        4
 70
     1
 43
0.0
 10
5214.072416663388
 20
10428.32586342742
 10
5453.872416663202
 20
10428.32586342742
 10
5453.872416663202
 20
10378.32586342742
 10
5214.072416663388
 20
10378.32586342742
  0
LWPOLYLINE
  5
547
330
1F
100
AcDbEntity
  8
画層1
  6
Continuous
100
AcDbPolyline
 90
        4
 70
     1
 43
0.0
 10
13214.07241666339
 20
10428.32586342742
 10
13453.8724166632
 20
10428.32586342742
 10
13453.8724166632
 20
10378.32586342742
 10
13214.07241666339
 20
10378.32586342742
  0
LINE
  5
548
330
1F
100
AcDbEntity
  8
ﾊｯﾁﾝｸﾞ
  6
Continuous
100
AcDbLine
 10
4644.611221016137
 20
8390.851561393295
 30
0.0
 11
4590.848372033084
 21
8337.08871241024
 31
0.0
  0
LINE
  5
549
330
1F
100
AcDbEntity
  8
ﾊｯﾁﾝｸﾞ
  6
Continuous
100
AcDbLine
 10
4632.136918981777
 20
8403.32586342742
 30
0.0
 11
4752.136918982709
 21
8283.325863427419
 31
0.0
  0
LINE
  5
54A
330
1F
100
AcDbEntity
  8
ﾊｯﾁﾝｸﾞ
  6
Continuous
100
AcDbLine
 10
4711.33287847483
 20
8403.32586342742
 30
0.0
 11
4803.003140002708
 21
8311.655601900239
 31
0.0
  0
LINE
  5
54B
330
1F
100
AcDbEntity
  8
ﾊｯﾁﾝｸﾞ
  6
Continuous
100
AcDbLine
 10
4790.528837967882
 20
8403.32586342742
 30
0.0
 11
4842.601119749001
 21
8351.253581646767
 31
0.0
  0
LINE
  5
54C
330
1F
100
AcDbEntity
  8
ﾊｯﾁﾝｸﾞ
  6
Continuous
100
AcDbLine
 10
4684.209200762429
 20
8351.253581646767
 30
0.0
 11
4616.281482543083
 21
8283.325863427419
 31
0.0
  0
LINE
  5
54D
330
1F
100
AcDbEntity
  8
ﾊｯﾁﾝｸﾞ
  6
Continuous
100
AcDbLine
 10
4723.807180509188
 20
8311.655601900239
 30
0.0
 11
4695.477442036601
 21
8283.325863427188
 31
0.0
  0
LINE
  5
54E
330
1F
100
AcDbEntity
  8
ﾊｯﾁﾝｸﾞ
  6
Continuous
100
AcDbLine
 10
4882.199099495294
 20
8390.851561393295
 30
0.0
 11
4774.673401529653
 21
8283.325863427419
 31
0.0
  0
LINE
  5
54F
330
1F
100
AcDbEntity
  8
ﾊｯﾁﾝｸﾞ
  6
Continuous
100
AcDbLine
 10
4921.797079242053
 20
8351.253581646767
 30
0.0
 11
4853.869361022706
 21
8283.325863427419
 31
0.0
  0
LINE
  5
550
330
1F
100
AcDbEntity
  8
ﾊｯﾁﾝｸﾞ
  6
Continuous
100
AcDbLine
 10
4961.395058988347
 20
8311.655601900239
 30
0.0
 11
4933.065320515758
 21
8283.325863427188
 31
0.0
  0
LINE
  5
551
330
1F
100
AcDbEntity
  8
ﾊｯﾁﾝｸﾞ
  6
Continuous
100
AcDbLine
 10
4869.7247974614
 20
8403.32586342742
 30
0.0
 11
4989.724797461866
 21
8283.325863427188
 31
0.0
  0
LINE
  5
552
330
1F
100
AcDbEntity
  8
ﾊｯﾁﾝｸﾞ
  6
Continuous
100
AcDbLine
 10
4948.920756953987
 20
8403.32586342742
 30
0.0
 11
5068.920756954918
 21
8283.325863427188
 31
0.0
  0
LINE
  5
553
330
1F
100
AcDbEntity
  8
ﾊｯﾁﾝｸﾞ
  6
Continuous
100
AcDbLine
 10
5028.116716447505
 20
8403.325863427188
 30
0.0
 11
5083.972416663295
 21
8347.470163211864
 31
0.0
  0
LWPOLYLINE
  5
554
102
{ACAD_REACTORS
330
9B1
102
}
330
1F
100
AcDbEntity
  8
画層2
100
AcDbPolyline
 90
        8
 70
     0
 43
0.0
 10
5083.972416663295
 20
8403.32586342742
 10
5083.972416663295
 20
8103.32586342742
 10
5108.972416663295
 20
8103.32586342742
 10
5108.972416663295
 20
7053.325863427422
 10
5558.972416663293
 20
7053.325863427422
 10
5558.972416663293
 20
8103.32586342742
 10
5583.972416663295
 20
8103.32586342742
 10
5583.972416663295
 20
8403.32586342742
  0
LINE
  5
555
330
1F
100
AcDbEntity
  8
ﾊｯﾁﾝｸﾞ
  6
Continuous
100
AcDbLine
 10
5639.828116879084
 20
8403.325863427188
 30
0.0
 11
5583.972416663295
 21
8347.470163211864
 31
0.0
  0
LINE
  5
556
330
1F
100
AcDbEntity
  8
ﾊｯﾁﾝｸﾞ
  6
Continuous
100
AcDbLine
 10
5719.024076372602
 20
8403.32586342742
 30
0.0
 11
5599.024076371672
 21
8283.325863427188
 31
0.0
  0
LINE
  5
557
330
1F
100
AcDbEntity
  8
ﾊｯﾁﾝｸﾞ
  6
Continuous
100
AcDbLine
 10
5798.220035865191
 20
8403.32586342742
 30
0.0
 11
5678.220035864725
 21
8283.325863427188
 31
0.0
  0
LINE
  5
558
330
1F
100
AcDbEntity
  8
ﾊｯﾁﾝｸﾞ
  6
Continuous
100
AcDbLine
 10
5706.549774338243
 20
8311.655601900239
 30
0.0
 11
5734.879512810832
 21
8283.325863427188
 31
0.0
  0
LINE
  5
559
330
1F
100
AcDbEntity
  8
ﾊｯﾁﾝｸﾞ
  6
Continuous
100
AcDbLine
 10
5746.147754084537
 20
8351.253581646767
 30
0.0
 11
5814.075472303884
 21
8283.325863427419
 31
0.0
  0
LINE
  5
55A
330
1F
100
AcDbEntity
  8
ﾊｯﾁﾝｸﾞ
  6
Continuous
100
AcDbLine
 10
5785.745733831296
 20
8390.851561393295
 30
0.0
 11
5893.271431796939
 21
8283.325863427419
 31
0.0
  0
LINE
  5
55B
330
1F
100
AcDbEntity
  8
ﾊｯﾁﾝｸﾞ
  6
Continuous
100
AcDbLine
 10
5944.137652817399
 20
8311.655601900239
 30
0.0
 11
5972.467391289988
 21
8283.325863427188
 31
0.0
  0
LINE
  5
55C
330
1F
100
AcDbEntity
  8
ﾊｯﾁﾝｸﾞ
  6
Continuous
100
AcDbLine
 10
5983.735632564158
 20
8351.253581646767
 30
0.0
 11
6051.663350783506
 21
8283.325863427419
 31
0.0
  0
LINE
  5
55D
330
1F
100
AcDbEntity
  8
ﾊｯﾁﾝｸﾞ
  6
Continuous
100
AcDbLine
 10
5877.415995358709
 20
8403.32586342742
 30
0.0
 11
5825.34371357759
 21
8351.253581646767
 31
0.0
  0
LINE
  5
55E
330
1F
100
AcDbEntity
  8
ﾊｯﾁﾝｸﾞ
  6
Continuous
100
AcDbLine
 10
5956.611954851759
 20
8403.32586342742
 30
0.0
 11
5864.941693323881
 21
8311.655601900239
 31
0.0
  0
LINE
  5
55F
330
1F
100
AcDbEntity
  8
ﾊｯﾁﾝｸﾞ
  6
Continuous
100
AcDbLine
 10
6035.807914344812
 20
8403.32586342742
 30
0.0
 11
5915.807914343881
 21
8283.325863427419
 31
0.0
  0
LINE
  5
560
330
1F
100
AcDbEntity
  8
ﾊｯﾁﾝｸﾞ
  6
Continuous
100
AcDbLine
 10
6023.333612310453
 20
8390.851561393295
 30
0.0
 11
6077.096461293506
 21
8337.08871241024
 31
0.0
  0
LINE
  5
561
330
1F
100
AcDbEntity
  8
ﾊｯﾁﾝｸﾞ
  6
Continuous
100
AcDbLine
 10
5427.328999554958
 20
7153.325863427422
 30
0.0
 11
5443.436132861985
 21
7131.482787799029
 31
0.0
  0
LINE
  5
562
102
{ACAD_REACTORS
330
9B1
102
}
330
1F
100
AcDbEntity
  8
ﾊｯﾁﾝｸﾞ
  6
Continuous
100
AcDbLine
 10
5335.726459176498
 20
7153.325863427422
 30
0.0
 11
5351.833592483526
 21
7131.482787799029
 31
0.0
  0
LINE
  5
563
330
1F
100
AcDbEntity
  8
ﾊｯﾁﾝｸﾞ
  6
Continuous
100
AcDbLine
 10
5319.54795501822
 20
7075.562423354186
 30
0.0
 11
5332.38623887788
 21
7053.325863427422
 31
0.0
  0
LINE
  5
564
330
1F
100
AcDbEntity
  8
ﾊｯﾁﾝｸﾞ
  6
Continuous
100
AcDbLine
 10
5411.15049539668
 20
7075.562423354186
 30
0.0
 11
5423.988779256339
 21
7053.325863427422
 31
0.0
  0
LINE
  5
565
330
1F
100
AcDbEntity
  8
ﾊｯﾁﾝｸﾞ
  6
Continuous
100
AcDbLine
 10
5306.709671158562
 20
7053.325863427422
 30
0.0
 11
5364.444698077845
 21
7153.325863427422
 31
0.0
  0
LINE
  5
566
330
1F
100
AcDbEntity
  8
ﾊｯﾁﾝｸﾞ
  6
Continuous
100
AcDbLine
 10
5398.312211537021
 20
7053.325863427422
 30
0.0
 11
5456.047238456303
 21
7153.325863427422
 31
0.0
  0
LINE
  5
567
330
1F
100
AcDbEntity
  8
ﾊｯﾁﾝｸﾞ
  6
Continuous
100
AcDbLine
 10
5244.123918798039
 20
7153.325863427422
 30
0.0
 11
5260.231052105067
 21
7131.482787799029
 31
0.0
  0
LINE
  5
568
330
1F
100
AcDbEntity
  8
ﾊｯﾁﾝｸﾞ
  6
Continuous
100
AcDbLine
 10
5227.945414639762
 20
7075.562423354186
 30
0.0
 11
5240.783698499421
 21
7053.325863427422
 31
0.0
  0
LINE
  5
569
330
1F
100
AcDbEntity
  8
ﾊｯﾁﾝｸﾞ
  6
Continuous
100
AcDbLine
 10
5215.107130780103
 20
7053.325863427422
 30
0.0
 11
5272.842157699386
 21
7153.325863427422
 31
0.0
  0
LINE
  5
56A
102
{ACAD_REACTORS
330
9B1
102
}
330
1F
100
AcDbEntity
  8
画層2
  6
Continuous
100
AcDbLine
 10
5558.972416663293
 20
7153.325863427422
 30
0.0
 11
5108.972416663295
 21
7153.325863427422
 31
0.0
  0
LINE
  5
56B
330
1F
100
AcDbEntity
  8
ﾊｯﾁﾝｸﾞ
  6
Continuous
100
AcDbLine
 10
13028.1167164475
 20
8403.325863427188
 30
0.0
 11
13083.97241666329
 21
8347.470163211864
 31
0.0
  0
LINE
  5
56C
330
1F
100
AcDbEntity
  8
ﾊｯﾁﾝｸﾞ
  6
Continuous
100
AcDbLine
 10
12644.61122101613
 20
8390.851561393295
 30
0.0
 11
12590.84837203308
 21
8337.08871241024
 31
0.0
  0
LINE
  5
56D
330
1F
100
AcDbEntity
  8
ﾊｯﾁﾝｸﾞ
  6
Continuous
100
AcDbLine
 10
12632.13691898178
 20
8403.32586342742
 30
0.0
 11
12752.13691898271
 21
8283.325863427419
 31
0.0
  0
LINE
  5
56E
330
1F
100
AcDbEntity
  8
ﾊｯﾁﾝｸﾞ
  6
Continuous
100
AcDbLine
 10
12711.33287847483
 20
8403.32586342742
 30
0.0
 11
12803.00314000271
 21
8311.655601900239
 31
0.0
  0
LINE
  5
56F
330
1F
100
AcDbEntity
  8
ﾊｯﾁﾝｸﾞ
  6
Continuous
100
AcDbLine
 10
12790.52883796788
 20
8403.32586342742
 30
0.0
 11
12842.601119749
 21
8351.253581646767
 31
0.0
  0
LINE
  5
570
330
1F
100
AcDbEntity
  8
ﾊｯﾁﾝｸﾞ
  6
Continuous
100
AcDbLine
 10
12684.20920076243
 20
8351.253581646767
 30
0.0
 11
12616.28148254308
 21
8283.325863427419
 31
0.0
  0
LINE
  5
571
330
1F
100
AcDbEntity
  8
ﾊｯﾁﾝｸﾞ
  6
Continuous
100
AcDbLine
 10
12723.80718050919
 20
8311.655601900239
 30
0.0
 11
12695.4774420366
 21
8283.325863427188
 31
0.0
  0
LINE
  5
572
330
1F
100
AcDbEntity
  8
ﾊｯﾁﾝｸﾞ
  6
Continuous
100
AcDbLine
 10
12882.19909949529
 20
8390.851561393295
 30
0.0
 11
12774.67340152965
 21
8283.325863427419
 31
0.0
  0
LINE
  5
573
330
1F
100
AcDbEntity
  8
ﾊｯﾁﾝｸﾞ
  6
Continuous
100
AcDbLine
 10
12921.79707924205
 20
8351.253581646767
 30
0.0
 11
12853.8693610227
 21
8283.325863427419
 31
0.0
  0
LINE
  5
574
330
1F
100
AcDbEntity
  8
ﾊｯﾁﾝｸﾞ
  6
Continuous
100
AcDbLine
 10
12961.39505898834
 20
8311.655601900239
 30
0.0
 11
12933.06532051575
 21
8283.325863427188
 31
0.0
  0
LINE
  5
575
330
1F
100
AcDbEntity
  8
ﾊｯﾁﾝｸﾞ
  6
Continuous
100
AcDbLine
 10
12869.7247974614
 20
8403.32586342742
 30
0.0
 11
12989.72479746186
 21
8283.325863427188
 31
0.0
  0
LINE
  5
576
330
1F
100
AcDbEntity
  8
ﾊｯﾁﾝｸﾞ
  6
Continuous
100
AcDbLine
 10
12948.92075695399
 20
8403.32586342742
 30
0.0
 11
13068.92075695492
 21
8283.325863427188
 31
0.0
  0
LINE
  5
577
330
1F
100
AcDbEntity
  8
ﾊｯﾁﾝｸﾞ
  6
Continuous
100
AcDbLine
 10
13639.82811687908
 20
8403.325863427188
 30
0.0
 11
13583.97241666329
 21
8347.470163211864
 31
0.0
  0
LINE
  5
578
330
1F
100
AcDbEntity
  8
ﾊｯﾁﾝｸﾞ
  6
Continuous
100
AcDbLine
 10
5123.504590401644
 20
7053.325863427422
 30
0.0
 11
5181.239617320927
 21
7153.325863427422
 31
0.0
  0
LINE
  5
579
330
1F
100
AcDbEntity
  8
ﾊｯﾁﾝｸﾞ
  6
Continuous
100
AcDbLine
 10
5136.342874261303
 20
7075.562423354186
 30
0.0
 11
5149.181158120962
 21
7053.325863427422
 31
0.0
  0
LINE
  5
57A
330
1F
100
AcDbEntity
  8
ﾊｯﾁﾝｸﾞ
  6
Continuous
100
AcDbLine
 10
5152.521378419582
 20
7153.325863427422
 30
0.0
 11
5168.628511726609
 21
7131.482787799029
 31
0.0
  0
LINE
  5
57B
330
1F
100
AcDbEntity
  8
ﾊｯﾁﾝｸﾞ
  6
Continuous
100
AcDbLine
 10
5489.914751915479
 20
7053.325863427422
 30
0.0
 11
5547.649778834762
 21
7153.325863427422
 31
0.0
  0
LINE
  5
57C
330
1F
100
AcDbEntity
  8
ﾊｯﾁﾝｸﾞ
  6
Continuous
100
AcDbLine
 10
5502.753035775139
 20
7075.562423354186
 30
0.0
 11
5515.591319634797
 21
7053.325863427422
 31
0.0
  0
LINE
  5
57D
330
1F
100
AcDbEntity
  8
ﾊｯﾁﾝｸﾞ
  6
Continuous
100
AcDbLine
 10
5518.931539933415
 20
7153.325863427422
 30
0.0
 11
5535.038673240444
 21
7131.482787799029
 31
0.0
  0
LWPOLYLINE
  5
57E
102
{ACAD_REACTORS
330
998
102
}
330
1F
100
AcDbEntity
  8
画層2
100
AcDbPolyline
 90
        8
 70
     0
 43
0.0
 10
13083.97241666329
 20
8403.32586342742
 10
13083.97241666329
 20
8103.32586342742
 10
13108.97241666329
 20
8103.32586342742
 10
13108.97241666329
 20
7053.325863427422
 10
13558.97241666329
 20
7053.325863427422
 10
13558.97241666329
 20
8103.32586342742
 10
13583.97241666329
 20
8103.32586342742
 10
13583.97241666329
 20
8403.32586342742
  0
LINE
  5
57F
330
1F
100
AcDbEntity
  8
ﾊｯﾁﾝｸﾞ
  6
Continuous
100
AcDbLine
 10
13518.93153993341
 20
7153.325863427422
 30
0.0
 11
13535.03867324044
 21
7131.482787799029
 31
0.0
  0
LINE
  5
580
330
1F
100
AcDbEntity
  8
ﾊｯﾁﾝｸﾞ
  6
Continuous
100
AcDbLine
 10
13502.75303577514
 20
7075.562423354186
 30
0.0
 11
13515.5913196348
 21
7053.325863427422
 31
0.0
  0
LINE
  5
581
330
1F
100
AcDbEntity
  8
ﾊｯﾁﾝｸﾞ
  6
Continuous
100
AcDbLine
 10
13489.91475191547
 20
7053.325863427422
 30
0.0
 11
13547.64977883476
 21
7153.325863427422
 31
0.0
  0
LINE
  5
582
330
1F
100
AcDbEntity
  8
ﾊｯﾁﾝｸﾞ
  6
Continuous
100
AcDbLine
 10
13152.52137841958
 20
7153.325863427422
 30
0.0
 11
13168.62851172661
 21
7131.482787799029
 31
0.0
  0
LINE
  5
583
330
1F
100
AcDbEntity
  8
ﾊｯﾁﾝｸﾞ
  6
Continuous
100
AcDbLine
 10
13136.3428742613
 20
7075.562423354186
 30
0.0
 11
13149.18115812096
 21
7053.325863427422
 31
0.0
  0
LINE
  5
584
330
1F
100
AcDbEntity
  8
ﾊｯﾁﾝｸﾞ
  6
Continuous
100
AcDbLine
 10
13123.50459040164
 20
7053.325863427422
 30
0.0
 11
13181.23961732093
 21
7153.325863427422
 31
0.0
  0
LINE
  5
585
102
{ACAD_REACTORS
330
998
102
}
330
1F
100
AcDbEntity
  8
画層2
  6
Continuous
100
AcDbLine
 10
13558.97241666329
 20
7153.325863427422
 30
0.0
 11
13108.97241666329
 21
7153.325863427422
 31
0.0
  0
LINE
  5
586
330
1F
100
AcDbEntity
  8
ﾊｯﾁﾝｸﾞ
  6
Continuous
100
AcDbLine
 10
13215.1071307801
 20
7053.325863427422
 30
0.0
 11
13272.84215769938
 21
7153.325863427422
 31
0.0
  0
LINE
  5
587
330
1F
100
AcDbEntity
  8
ﾊｯﾁﾝｸﾞ
  6
Continuous
100
AcDbLine
 10
13227.94541463976
 20
7075.562423354186
 30
0.0
 11
13240.78369849942
 21
7053.325863427422
 31
0.0
  0
LINE
  5
588
330
1F
100
AcDbEntity
  8
ﾊｯﾁﾝｸﾞ
  6
Continuous
100
AcDbLine
 10
13244.12391879804
 20
7153.325863427422
 30
0.0
 11
13260.23105210507
 21
7131.482787799029
 31
0.0
  0
LINE
  5
589
330
1F
100
AcDbEntity
  8
ﾊｯﾁﾝｸﾞ
  6
Continuous
100
AcDbLine
 10
13398.31221153702
 20
7053.325863427422
 30
0.0
 11
13456.0472384563
 21
7153.325863427422
 31
0.0
  0
LINE
  5
58A
330
1F
100
AcDbEntity
  8
ﾊｯﾁﾝｸﾞ
  6
Continuous
100
AcDbLine
 10
13306.70967115856
 20
7053.325863427422
 30
0.0
 11
13364.44469807784
 21
7153.325863427422
 31
0.0
  0
LINE
  5
58B
330
1F
100
AcDbEntity
  8
ﾊｯﾁﾝｸﾞ
  6
Continuous
100
AcDbLine
 10
13411.15049539668
 20
7075.562423354186
 30
0.0
 11
13423.98877925634
 21
7053.325863427422
 31
0.0
  0
LINE
  5
58C
330
1F
100
AcDbEntity
  8
ﾊｯﾁﾝｸﾞ
  6
Continuous
100
AcDbLine
 10
13319.54795501822
 20
7075.562423354186
 30
0.0
 11
13332.38623887788
 21
7053.325863427422
 31
0.0
  0
LINE
  5
58D
102
{ACAD_REACTORS
330
998
102
}
330
1F
100
AcDbEntity
  8
ﾊｯﾁﾝｸﾞ
  6
Continuous
100
AcDbLine
 10
13335.7264591765
 20
7153.325863427422
 30
0.0
 11
13351.83359248352
 21
7131.482787799029
 31
0.0
  0
LINE
  5
58E
330
1F
100
AcDbEntity
  8
ﾊｯﾁﾝｸﾞ
  6
Continuous
100
AcDbLine
 10
13427.32899955495
 20
7153.325863427422
 30
0.0
 11
13443.43613286198
 21
7131.482787799029
 31
0.0
  0
LEADER
  5
591
330
1F
100
AcDbEntity
  8
寸法引出
  6
Continuous
100
AcDbLeader
  3
1_60
 71
     0
 73
     0
 75
     1
 40
180.0
 41
2819.571428571427
 76
     3
 10
5264.072416663388
 20
12448.02018033102
 30
0.0
 10
4586.311854008337
 20
12911.86908046592
 30
0.0
 10
4550.311854008337
 20
12911.86908046592
 30
0.0
340
592
1001
ACAD
1000
DSTYLE
1002
{
1002
}
  0
MTEXT
  5
592
102
{ACAD_REACTORS
330
591
102
}
330
1F
100
AcDbEntity
  8
寸法文字
  6
Continuous
100
AcDbMText
 10
4490.311854008337
 20
12971.86908046592
 30
0.0
 40
180.0
 41
0.0
 71
     9
 72
     1
  1
主柱KSポールφ139.8厚さ3.0mm
  7
1_100
 73
     1
 44
1.0
1001
ACAD
1000
ACAD_MTEXT_DEFINED_HEIGHT_BEGIN
1070
    46
1040
0.0
1000
ACAD_MTEXT_DEFINED_HEIGHT_END
1000
MTEXTBEGIN
1070
    73
1070
     1
1070
    44
1040
1.0
1070
    74
1070
     0
1000
MTEXTEND
  0
LEADER
  5
593
330
1F
100
AcDbEntity
  8
寸法引出
  6
Continuous
100
AcDbLeader
  3
1_60
 71
     0
 73
     0
 75
     1
 40
207.9999999999999
 41
1870.285714285715
 76
     3
 10
5333.972416663295
 20
11099.53896576323
 30
0.0
 10
4573.596673941923
 20
11598.90388906578
 30
0.0
 10
4537.596673941924
 20
11598.90388906578
 30
0.0
340
594
1001
ACAD
1000
DSTYLE
1002
{
1002
}
  0
MTEXT
  5
594
102
{ACAD_REACTORS
330
593
102
}
330
1F
100
AcDbEntity
  8
寸法文字
  6
Continuous
100
AcDbMText
 10
4477.596673941923
 20
11658.90388906578
 30
0.0
 40
180.0
 41
0.0
 71
     9
 72
     1
  1
メッセンワイヤー22m㎡
  7
1_100
 73
     1
 44
1.0
1001
ACAD
1000
MTEXTBEGIN
1070
    73
1070
     1
1070
    44
1040
1.0
1070
    74
1070
     0
1000
MTEXTEND
  0
TEXT
  5
595
330
1F
100
AcDbEntity
  8
寸法
  6
Continuous
100
AcDbText
 10
3451.805988637551
 20
8456.446894808843
 30
0.0
 40
180.0
  1
▽GL
 41
0.75
  7
1_100
 72
     1
 11
3656.234560066122
 21
8456.446894808843
 31
0.0
100
AcDbText
 73
     1
  0
MTEXT
  5
596
330
1F
100
AcDbEntity
  8
寸法文字
  6
Continuous
100
AcDbMText
 10
4217.585733446974
 20
12837.14674059668
 30
0.0
 40
180.0
 41
0.0
 71
     3
 72
     1
  1
（STK-540鋼管）
  7
1_100
 73
     1
 44
1.0
1001
ACAD
1000
ACAD_MTEXT_DEFINED_HEIGHT_BEGIN
1070
    46
1040
0.0
1000
ACAD_MTEXT_DEFINED_HEIGHT_END
1000
MTEXTBEGIN
1070
    73
1070
     1
1070
    44
1040
1.0
1070
    74
1070
     0
1000
MTEXTEND
  0
LINE
  5
597
330
1F
100
AcDbEntity
  8
画層1
  6
Continuous
100
AcDbLine
 10
13403.8724166632
 20
7153.325863427422
 30
0.0
 11
13403.8724166632
 21
13403.32586342742
 31
0.0
  0
LINE
  5
598
102
{ACAD_REACTORS
330
998
102
}
330
1F
100
AcDbEntity
  8
通り芯
  6
DASHDOT
 48
60.0
100
AcDbLine
 10
13333.97241666329
 20
6910.858391634127
 30
0.0
 11
13333.97241666329
 21
13483.78852313006
 31
0.0
  0
LINE
  5
599
330
1F
100
AcDbEntity
  8
画層1
  6
Continuous
100
AcDbLine
 10
13264.07241666339
 20
13403.32586342742
 30
0.0
 11
13264.07241666339
 21
7153.325863427422
 31
0.0
  0
LINE
  5
59A
330
1F
100
AcDbEntity
  8
画層1
  6
Continuous
100
AcDbLine
 10
5403.872416663202
 20
7153.325863427422
 30
0.0
 11
5403.872416663202
 21
13403.30231858085
 31
0.0
  0
LINE
  5
59B
102
{ACAD_REACTORS
330
9B1
102
}
330
1F
100
AcDbEntity
  8
通り芯
  6
DASHDOT
 48
60.0
100
AcDbLine
 10
5333.972416663295
 20
6910.858391634127
 30
0.0
 11
5333.972416663295
 21
13483.78852313006
 31
0.0
  0
LINE
  5
59C
330
1F
100
AcDbEntity
  8
画層1
  6
Continuous
100
AcDbLine
 10
5264.072416663388
 20
13403.32586342742
 30
0.0
 11
5264.072416663388
 21
7153.325863427422
 31
0.0
  0
LINE
  5
59D
330
1F
100
AcDbEntity
  8
画層1
  6
Continuous
100
AcDbLine
 10
13358.97241666329
 20
13288.32586342742
 30
0.0
 11
13358.97241666329
 21
13338.32586342742
 31
0.0
  0
LINE
  5
59E
330
1F
100
AcDbEntity
  8
画層1
  6
Continuous
100
AcDbLine
 10
13453.8724166632
 20
13288.32586342742
 30
0.0
 11
13453.8724166632
 21
13338.32586342742
 31
0.0
  0
LINE
  5
59F
330
1F
100
AcDbEntity
  8
画層1
  6
Continuous
100
AcDbLine
 10
13214.07241666339
 20
13338.32586342742
 30
0.0
 11
13214.07241666339
 21
13288.32586342742
 31
0.0
  0
LINE
  5
5A0
330
1F
100
AcDbEntity
  8
画層1
  6
Continuous
100
AcDbLine
 10
13308.97241666329
 20
13338.32586342742
 30
0.0
 11
13308.97241666329
 21
13288.32586342742
 31
0.0
  0
LINE
  5
5A1
330
1F
100
AcDbEntity
  8
画層1
  6
Continuous
100
AcDbLine
 10
5358.972416663295
 20
13288.32586342742
 30
0.0
 11
5358.972416663295
 21
13338.32586342742
 31
0.0
  0
LINE
  5
5A2
330
1F
100
AcDbEntity
  8
画層1
  6
Continuous
100
AcDbLine
 10
5308.972416663294
 20
13338.32586342742
 30
0.0
 11
5308.972416663294
 21
13288.32586342742
 31
0.0
  0
LINE
  5
5A3
330
1F
100
AcDbEntity
  8
画層1
  6
Continuous
100
AcDbLine
 10
5453.872416663202
 20
13288.32586342742
 30
0.0
 11
5453.872416663202
 21
13338.32586342742
 31
0.0
  0
LINE
  5
5A4
330
1F
100
AcDbEntity
  8
画層1
  6
Continuous
100
AcDbLine
 10
5214.072416663388
 20
13338.32586342742
 30
0.0
 11
5214.072416663388
 21
13288.32586342742
 31
0.0
  0
LINE
  5
5A5
330
1F
100
AcDbEntity
  8
画層1
  6
Continuous
100
AcDbLine
 10
5333.972416663295
 20
13388.32586342742
 30
0.0
 11
5333.972416663295
 21
10403.32586342742
 31
0.0
  0
LINE
  5
5A6
330
1F
100
AcDbEntity
  8
DEFPOINTS
100
AcDbLine
 10
6893.035679090987
 20
13363.32586342742
 30
0.0
 11
7741.576591446748
 21
10378.32586342742
 31
0.0
  0
LINE
  5
5A7
330
1F
100
AcDbEntity
  8
画層1-1
  6
Continuous
100
AcDbLine
 10
13239.07241666339
 20
10403.32586342742
 30
0.0
 11
8143.402099969845
 21
12301.92008912943
 31
0.0
  0
LINE
  5
5A8
330
1F
100
AcDbEntity
  8
画層1-1
  6
Continuous
100
AcDbLine
 10
13239.07241666339
 20
13313.32586342742
 30
0.0
 11
5428.872416663202
 21
10403.32586342742
 31
0.0
  0
HATCH
  5
5AA
330
1F
100
AcDbEntity
  8
ﾈｯﾄ
 62
   230
100
AcDbHatch
 10
0.0
 20
0.0
 30
0.0
210
0.0
220
0.0
230
1.0
  2
NET
 70
     0
 71
     0
 91
        1
 92
        7
 72
     0
 73
     1
 93
       17
 10
6893.035679090987
 20
13363.32586342742
 10
5698.872416663202
 20
13363.32586342742
 10
5698.872416663202
 20
13343.10214276629
 10
5518.872416663202
 20
13343.10214276606
 10
5518.872416663202
 20
13363.32586342742
 10
5453.872416663202
 20
13363.32586342742
 10
5453.872416663202
 20
13338.32586342742
 10
5453.872416663202
 20
13288.32586342742
 10
5403.872416663202
 20
13288.32586342742
 10
5403.872416663202
 20
10428.32586342742
 10
5453.872416663202
 20
10428.32586342742
 10
5453.872416663202
 20
10403.32586342742
 10
5503.872416663202
 20
10403.32586342742
 10
5503.872416663202
 20
10423.32685774163
 10
5683.872416663202
 20
10423.32685774163
 10
5683.872416663202
 20
10403.32586342742
 10
7734.469883637721
 20
10403.32586342742
 97
        0
 75
     0
 76
     1
 52
0.0
 41
25.0
 77
     0
 78
     2
 53
0.0
 43
0.0
 44
0.0
 45
0.0
 46
79.375
 79
     0
 53
90.0
 43
0.0
 44
0.0
 45
-79.375
 46
0.0000000000000049
 79
     0
 47
9.52420667627318
 98
        1
 10
6641.76212097633
 20
11938.54090010252
  0
LINE
  5
5AB
102
{ACAD_REACTORS
330
998
330
9B1
102
}
330
1F
100
AcDbEntity
  8
画層2
  6
Continuous
100
AcDbLine
 10
16284.65477506186
 20
8403.32586342742
 30
0.0
 11
3362.282311883974
 21
8403.32586342742
 31
0.0
  0
LINE
  5
5AD
330
1F
100
AcDbEntity
  8
画層3-1
  6
Continuous
100
AcDbLine
 10
13359.3724166632
 20
8423.32586342742
 30
0.0
 11
15308.57241666339
 21
8423.32586342742
 31
0.0
  0
LINE
  5
5AE
330
1F
100
AcDbEntity
  8
画層3-1
  6
Continuous
100
AcDbLine
 10
13359.3724166632
 20
8461.425863427514
 30
0.0
 11
15308.57241666339
 21
8461.425863427281
 31
0.0
  0
DIMENSION
  5
5AF
330
1F
100
AcDbEntity
  8
画層3-寸法
  6
Continuous
100
AcDbDimension
  2
*D10
 10
15333.97241666329
 20
5853.325863427421
 30
0.0
 11
14333.97241666329
 21
6020.468720570278
 31
0.0
 70
    32
 71
     5
 42
2000.0
  3
1_60
100
AcDbAlignedDimension
 13
13333.97241666329
 23
6910.858391634127
 33
0.0
 14
15333.97241666329
 24
7003.325863427422
 34
0.0
100
AcDbRotatedDimension
  0
LINE
  5
5B0
102
{ACAD_REACTORS
330
CC6
102
}
330
1F
100
AcDbEntity
  8
画層1
  6
Continuous
100
AcDbLine
 10
13333.97241666329
 20
13363.32586342742
 30
0.0
 11
16284.65477506186
 21
13363.32586342742
 31
0.0
  0
LINE
  5
5B1
330
1F
100
AcDbEntity
  8
画層3-2
  6
Continuous
100
AcDbLine
 10
15253.6224166632
 20
9083.325863427424
 30
0.0
 11
13414.32241666339
 21
9083.325863427424
 31
0.0
  0
LINE
  5
5B2
330
1F
100
AcDbEntity
  8
画層3-2
  6
Continuous
100
AcDbLine
 10
13414.32241666339
 20
9743.325863427422
 30
0.0
 11
15253.6224166632
 21
9743.325863427422
 31
0.0
  0
LINE
  5
5B3
330
1F
100
AcDbEntity
  8
画層3-1
  6
Continuous
100
AcDbLine
 10
13374.3724166632
 20
10340.22586342756
 30
0.0
 11
15268.6224166632
 21
10340.22586342756
 31
0.0
  0
MTEXT
  5
5B4
102
{ACAD_REACTORS
330
5B5
102
}
330
1F
100
AcDbEntity
  8
寸法文字
  6
Continuous
100
AcDbMText
 10
13774.99657994949
 20
11056.25246417423
 30
0.0
 40
180.0
 41
0.0
 71
     7
 72
     1
  1
バンド金具
  7
1_100
 73
     1
 44
1.0
1001
ACAD
1000
MTEXTBEGIN
1070
    73
1070
     1
1070
    44
1040
1.0
1070
    74
1070
     0
1000
MTEXTEND
  0
LEADER
  5
5B5
330
1F
100
AcDbEntity
  8
寸法引出
  6
Continuous
100
AcDbLeader
  3
1_60
 71
     0
 73
     0
 74
     0
 75
     1
 40
180.0
 41
791.9999999999991
 76
     3
 10
13426.65156291261
 20
10428.32586342742
 30
0.0
 10
13678.99657994949
 20
10996.25246417423
 30
0.0
 10
13714.99657994949
 20
10996.25246417423
 30
0.0
340
5B4
1001
ACAD
1000
DSTYLE
1002
{
1002
}
  0
LINE
  5
5B6
102
{ACAD_REACTORS
330
CC6
102
}
330
1F
100
AcDbEntity
  8
画層1
  6
Continuous
100
AcDbLine
 10
16284.65477506186
 20
10403.32586342742
 30
0.0
 11
13333.97241666329
 21
10403.32586342742
 31
0.0
  0
LINE
  5
5B9
330
1F
100
AcDbEntity
  8
画層3-1
  6
Continuous
100
AcDbLine
 10
5333.972416663295
 20
10378.32586342742
 30
0.0
 11
16284.65477506186
 21
10378.32586342742
 31
0.0
  0
LINE
  5
5BB
330
1F
100
AcDbEntity
  8
ﾊｯﾁﾝｸﾞ
  6
Continuous
100
AcDbLine
 10
13719.0240763726
 20
8403.32586342742
 30
0.0
 11
13599.02407637167
 21
8283.325863427188
 31
0.0
  0
LINE
  5
5BC
330
1F
100
AcDbEntity
  8
画層1
  6
Continuous
100
AcDbLine
 10
19493.45833906786
 20
13388.32586342789
 30
0.0
 11
19546.20833906786
 21
13388.32586342789
 31
0.0
  0
LINE
  5
5BD
330
1F
100
AcDbEntity
  8
画層1
  6
Continuous
100
AcDbLine
 10
19406.40833906758
 20
13403.32586342789
 30
0.0
 11
19546.20833906786
 21
13403.32586342789
 31
0.0
  0
LINE
  5
5BE
330
1F
100
AcDbEntity
  8
画層1
  6
Continuous
100
AcDbLine
 10
19459.15833906758
 20
13388.32586342789
 30
0.0
 11
19406.40833906758
 21
13388.32586342789
 31
0.0
  0
LINE
  5
5BF
330
1F
100
AcDbEntity
  8
画層1
  6
Continuous
100
AcDbLine
 10
19493.45833906786
 20
13338.32586342789
 30
0.0
 11
19546.20833906786
 21
13338.32586342789
 31
0.0
  0
LINE
  5
5C0
330
1F
100
AcDbEntity
  8
画層1
  6
Continuous
100
AcDbLine
 10
19459.15833906758
 20
13338.32586342789
 30
0.0
 11
19406.40833906758
 21
13338.32586342789
 31
0.0
  0
LINE
  5
5C1
330
1F
100
AcDbEntity
  8
画層1
  6
Continuous
100
AcDbLine
 10
19493.45833906786
 20
13388.32586342789
 30
0.0
 11
19493.45833906786
 21
13338.32586342789
 31
0.0
  0
LINE
  5
5C2
330
1F
100
AcDbEntity
  8
画層1
  6
Continuous
100
AcDbLine
 10
19459.15833906758
 20
13388.32586342789
 30
0.0
 11
19459.15833906758
 21
13338.32586342789
 31
0.0
  0
CIRCLE
  5
5C3
330
1F
100
AcDbEntity
  8
画層1
  6
Continuous
100
AcDbCircle
 10
19476.30833906795
 20
13363.32586342789
 30
0.0
 40
10.9509940156
  0
LINE
  5
5C4
330
1F
100
AcDbEntity
  8
画層1
  6
Continuous
100
AcDbLine
 10
19356.40833906758
 20
13388.32586342789
 30
0.0
 11
19356.40833906758
 21
13338.32586342789
 31
0.0
  0
LINE
  5
5C5
330
1F
100
AcDbEntity
  8
画層1
  6
Continuous
100
AcDbLine
 10
19356.40833906758
 20
13363.32586342789
 30
0.0
 11
19406.40833906758
 21
13363.32586342789
 31
0.0
  0
DIMENSION
  5
5C6
330
1F
100
AcDbEntity
  8
寸法
  6
Continuous
100
AcDbDimension
  2
*D11
 10
19546.20833906786
 20
13763.32586342765
 30
0.0
 11
19476.30833906772
 21
13943.32586342765
 31
0.0
 70
    32
  1
φ<>
 71
     5
 42
139.8000000002794
  3
1_60
100
AcDbAlignedDimension
 13
19406.40833906758
 23
13403.32586342789
 33
0.0
 14
19546.20833906786
 24
13403.32586342789
 34
0.0
100
AcDbRotatedDimension
  0
MTEXT
  5
5C7
330
1F
100
AcDbEntity
  8
寸法文字
  6
Continuous
100
AcDbMText
 10
20770.26437858235
 20
14122.17846886551
 30
0.0
 40
180.0
 41
0.0
 71
     4
 72
     1
  1
（溶融亜鉛メッキ450g/㎡）
  7
1_100
 73
     1
 44
1.0
1001
ACAD
1000
MTEXTBEGIN
1070
    73
1070
     1
1070
    44
1040
1.0
1070
    74
1070
     0
1000
MTEXTEND
  0
TEXT
  5
5C8
330
1F
100
AcDbEntity
  8
寸法
  6
Continuous
100
AcDbText
 10
18541.25645671627
 20
8457.979603832292
 30
0.0
 40
180.0
  1
▽GL
 41
0.75
  7
1_100
 72
     1
 11
18745.68502814484
 21
8457.979603832292
 31
0.0
100
AcDbText
 73
     1
  0
DIMENSION
  5
5C9
330
1F
100
AcDbEntity
  8
寸法
  6
Continuous
100
AcDbDimension
  2
*D12
 10
20736.30833906795
 20
10403.32586342788
 30
0.0
 11
20569.16548192509
 21
9403.325863427888
 31
0.0
 70
    32
 71
     5
 42
2000.000000000002
  3
1_60
100
AcDbAlignedDimension
 13
20076.30833906795
 23
8403.325863427886
 33
0.0
 14
20076.30833906795
 24
10403.32586342789
 34
0.0
 50
90.0
100
AcDbRotatedDimension
  0
LWPOLYLINE
  5
5CA
330
1F
100
AcDbEntity
  8
画層3-1
100
AcDbPolyline
 90
        4
 70
     0
 43
0.0
 10
19384.15833906804
 20
10403.32586342765
 10
19384.15833906804
 20
8103.32586342742
 10
19333.35833906776
 20
8103.32586342742
 10
19333.35833906776
 20
10403.32586342765
  0
DIMENSION
  5
5CB
330
1F
100
AcDbEntity
  8
寸法
  6
Continuous
100
AcDbDimension
  2
*D13
 10
17244.65477506186
 20
10403.32586342742
 30
0.0
 11
17077.511917919
 21
9403.325863427424
 31
0.0
 70
    32
 71
     5
 42
2000.000000000002
  3
1_60
100
AcDbAlignedDimension
 13
16584.65477506186
 23
8403.32586342742
 33
0.0
 14
16584.65477506186
 24
10403.32586342742
 34
0.0
 50
90.0
100
AcDbRotatedDimension
  0
DIMENSION
  5
5CC
330
1F
100
AcDbEntity
  8
寸法
  6
Continuous
100
AcDbDimension
  2
*D14
 10
20736.30833906795
 20
8103.325863427889
 30
0.0
 11
20902.19759659864
 21
8135.10474713909
 31
0.0
 70
   160
 71
     5
 42
299.9999999999982
  3
1_60
100
AcDbAlignedDimension
 13
20076.30833906795
 23
8403.325863427886
 33
0.0
 14
20076.30833906795
 24
8103.325863427889
 34
0.0
 50
90.0
100
AcDbRotatedDimension
  0
DIMENSION
  5
5CD
330
1F
100
AcDbEntity
  8
寸法
  6
Continuous
100
AcDbDimension
  2
*D15
 10
20736.30833906795
 20
8103.325863427889
 30
0.0
 11
20586.30833906796
 21
7628.325863427891
 31
0.0
 70
    32
 71
     5
 42
950.0
  3
1_60
100
AcDbAlignedDimension
 13
20076.30833906795
 23
7153.325863427888
 33
0.0
 14
20076.30833906795
 24
8103.325863427889
 34
0.0
 50
90.0
100
AcDbRotatedDimension
  0
DIMENSION
  5
5CE
330
1F
100
AcDbEntity
  8
寸法
  6
Continuous
100
AcDbDimension
  2
*D16
 10
21336.30833906795
 20
7153.325863427888
 30
0.0
 11
21169.16548192509
 21
7778.325863427891
 31
0.0
 70
    32
 71
     5
 42
1249.999999999998
  3
1_60
100
AcDbAlignedDimension
 13
20076.30833906795
 23
8403.325863427886
 33
0.0
 14
20076.30833906795
 24
7153.325863427888
 34
0.0
 50
90.0
100
AcDbRotatedDimension
  0
DIMENSION
  5
5CF
330
1F
100
AcDbEntity
  8
寸法
  6
Continuous
100
AcDbDimension
  2
*D17
 10
20736.30833906795
 20
7153.325863427888
 30
0.0
 11
20581.40977033808
 21
6791.873961982489
 31
0.0
 70
   160
 71
     5
 42
100.0
  3
1_60
100
AcDbAlignedDimension
 13
20076.30833906795
 23
7053.325863427888
 33
0.0
 14
20076.30833906795
 24
7153.325863427888
 34
0.0
 50
90.0
100
AcDbRotatedDimension
  0
LINE
  5
5D0
330
1F
100
AcDbEntity
  8
画層2-1
  6
Continuous
100
AcDbLine
 10
19406.40833906758
 20
8253.325863427887
 30
0.0
 11
19546.20833906786
 21
8253.325863427887
 31
0.0
  0
DIMENSION
  5
5D1
330
1F
100
AcDbEntity
  8
寸法
  6
Continuous
100
AcDbDimension
  2
*D18
 10
17244.65477506186
 20
8103.32586342742
 30
0.0
 11
17094.65477506186
 21
7628.325863427424
 31
0.0
 70
    32
 71
     5
 42
950.0
  3
1_60
100
AcDbAlignedDimension
 13
16584.65477506186
 23
7153.325863427422
 33
0.0
 14
16584.65477506186
 24
8103.32586342742
 34
0.0
 50
90.0
100
AcDbRotatedDimension
  0
DIMENSION
  5
5D2
330
1F
100
AcDbEntity
  8
寸法
  6
Continuous
100
AcDbDimension
  2
*D19
 10
17244.65477506186
 20
8103.32586342742
 30
0.0
 11
17410.23407706919
 21
8175.45027880481
 31
0.0
 70
   160
 71
     5
 42
299.9999999999992
  3
1_60
100
AcDbAlignedDimension
 13
16584.65477506186
 23
8403.32586342742
 33
0.0
 14
16584.65477506186
 24
8103.32586342742
 34
0.0
 50
90.0
100
AcDbRotatedDimension
  0
DIMENSION
  5
5D3
330
1F
100
AcDbEntity
  8
寸法
  6
Continuous
100
AcDbDimension
  2
*D20
 10
17844.65477506186
 20
7153.325863427422
 30
0.0
 11
17677.511917919
 21
7778.325863427423
 31
0.0
 70
    32
 71
     5
 42
1249.999999999999
  3
1_60
100
AcDbAlignedDimension
 13
16584.65477506186
 23
8403.32586342742
 33
0.0
 14
16584.65477506186
 24
7153.325863427422
 34
0.0
 50
90.0
100
AcDbRotatedDimension
  0
DIMENSION
  5
5D4
330
1F
100
AcDbEntity
  8
寸法
  6
Continuous
100
AcDbDimension
  2
*D21
 10
17244.65477506186
 20
7153.325863427422
 30
0.0
 11
17054.95299330934
 21
6819.77715160063
 31
0.0
 70
   160
 71
     5
 42
100.0
  3
1_60
100
AcDbAlignedDimension
 13
16584.65477506186
 23
7053.325863427422
 33
0.0
 14
16584.65477506186
 24
7153.325863427422
 34
0.0
 50
90.0
100
AcDbRotatedDimension
  0
LINE
  5
5D5
330
1F
100
AcDbEntity
  8
画層2
  6
Continuous
100
AcDbLine
 10
18486.82985885857
 20
8403.325863427465
 30
0.0
 11
20256.30833906795
 21
8403.325863427886
 31
0.0
  0
DIMENSION
  5
5D6
330
1F
100
AcDbEntity
  8
寸法
  6
Continuous
100
AcDbDimension
  2
*D22
 10
19726.30833906795
 20
6453.325863427422
 30
0.0
 11
19476.30833906795
 21
6303.325863427422
 31
0.0
 70
    32
  1
□<>
 71
     5
 42
500.0
  3
1_60
100
AcDbAlignedDimension
 13
19226.30833906795
 23
7053.325863427422
 33
0.0
 14
19726.30833906795
 24
7053.325863427189
 34
0.0
100
AcDbRotatedDimension
1001
ACAD
1000
DSTYLE
1002
{
1070
    77
1070
     2
1070
   174
1070
     1
1002
}
  0
DIMENSION
  5
5D7
330
1F
100
AcDbEntity
  8
寸法
  6
Continuous
100
AcDbDimension
  2
*D23
 10
19701.30833906795
 20
6693.394414438571
 30
0.0
 11
18874.73498118784
 21
6766.452368331314
 31
0.0
 70
   160
  1
φ<>
 71
     5
 42
450.0
  3
1_60
100
AcDbAlignedDimension
 13
19251.30833906795
 23
7053.325863427422
 33
0.0
 14
19701.30833906795
 24
7053.325863427422
 34
0.0
100
AcDbRotatedDimension
  0
LINE
  5
5D8
330
1F
100
AcDbEntity
  8
画層1
  6
Continuous
100
AcDbLine
 10
19493.45833906786
 20
10428.32586342742
 30
0.0
 11
19546.20833906786
 21
10428.32586342742
 31
0.0
  0
LINE
  5
5D9
330
1F
100
AcDbEntity
  8
画層1
  6
Continuous
100
AcDbLine
 10
19493.45833906786
 20
10378.32586342742
 30
0.0
 11
19546.20833906786
 21
10378.32586342742
 31
0.0
  0
LINE
  5
5DA
330
1F
100
AcDbEntity
  8
画層1
  6
Continuous
100
AcDbLine
 10
19493.45833906786
 20
10428.32586342742
 30
0.0
 11
19493.45833906786
 21
10378.32586342742
 31
0.0
  0
LINE
  5
5DB
330
1F
100
AcDbEntity
  8
画層1
  6
Continuous
100
AcDbLine
 10
19459.15833906758
 20
10428.32586342742
 30
0.0
 11
19459.15833906758
 21
10378.32586342742
 31
0.0
  0
CIRCLE
  5
5DC
330
1F
100
AcDbEntity
  8
画層1
  6
Continuous
100
AcDbCircle
 10
19476.30833906795
 20
10403.32586342742
 30
0.0
 40
10.9509940156
  0
LINE
  5
5DD
330
1F
100
AcDbEntity
  8
画層1
  6
Continuous
100
AcDbLine
 10
19459.15833906758
 20
10378.32586342742
 30
0.0
 11
19406.40833906758
 21
10378.32586342742
 31
0.0
  0
LINE
  5
5DE
330
1F
100
AcDbEntity
  8
画層1
  6
Continuous
100
AcDbLine
 10
19459.15833906758
 20
10428.32586342742
 30
0.0
 11
19406.40833906758
 21
10428.32586342742
 31
0.0
  0
LINE
  5
5DF
330
1F
100
AcDbEntity
  8
画層1
  6
Continuous
100
AcDbLine
 10
19356.40833906758
 20
10428.32586342742
 30
0.0
 11
19356.40833906758
 21
10378.32586342742
 31
0.0
  0
CIRCLE
  5
5E0
330
1F
100
AcDbEntity
  8
画層3-1
100
AcDbCircle
 10
19358.75833906767
 20
10403.32586342765
 30
0.0
 40
25.40000000002328
  0
LINE
  5
5E1
330
1F
100
AcDbEntity
  8
画層1
  6
Continuous
100
AcDbLine
 10
19356.40833906758
 20
10403.32586342742
 30
0.0
 11
19406.40833906758
 21
10403.32586342742
 31
0.0
  0
LINE
  5
5E2
330
1F
100
AcDbEntity
  8
画層1
  6
Continuous
 62
     7
100
AcDbLine
 10
19476.30833906795
 20
10578.55057840439
 30
0.0
 11
19476.30833906795
 21
10403.32586342742
 31
0.0
  0
LWPOLYLINE
  5
5E3
330
1F
100
AcDbEntity
  8
画層1
100
AcDbPolyline
 90
        4
 70
     1
 43
0.0
 10
19456.30833906795
 20
10758.55057840253
 10
19496.30833906795
 20
10758.55057840253
 10
19496.30833906795
 20
10578.55057840253
 10
19456.30833906795
 20
10578.55057840253
  0
LINE
  5
5E4
330
1F
100
AcDbEntity
  8
画層2-1
  6
Continuous
100
AcDbLine
 10
19406.40833906758
 20
8503.325863427887
 30
0.0
 11
19546.20833906786
 21
8503.325863427887
 31
0.0
  0
LINE
  5
5E5
330
1F
100
AcDbEntity
  8
画層3-1
100
AcDbLine
 10
19384.15833906804
 20
8532.000449331416
 30
0.0
 11
19333.35833906776
 21
8532.000449331416
 31
0.0
  0
LINE
  5
5E6
330
1F
100
AcDbEntity
  8
画層3-1
100
AcDbLine
 10
19384.15833906804
 20
8507.000449331416
 30
0.0
 11
19333.35833906776
 21
8507.000449331416
 31
0.0
  0
LINE
  5
5E7
330
1F
100
AcDbEntity
  8
画層3-1
100
AcDbLine
 10
19358.75833906767
 20
8532.000449331416
 30
0.0
 11
19358.75833906767
 21
10377.92586342751
 31
0.0
  0
LINE
  5
5E8
330
1F
100
AcDbEntity
  8
ﾊｯﾁﾝｸﾞ
  6
Continuous
100
AcDbLine
 10
20165.66953471511
 20
8390.851561393525
 30
0.0
 11
20219.4323836977
 21
8337.088712410475
 31
0.0
  0
LINE
  5
5E9
330
1F
100
AcDbEntity
  8
ﾊｯﾁﾝｸﾞ
  6
Continuous
100
AcDbLine
 10
20178.14383674901
 20
8403.325863427651
 30
0.0
 11
20058.14383674807
 21
8283.325863427654
 31
0.0
  0
LINE
  5
5EA
330
1F
100
AcDbEntity
  8
ﾊｯﾁﾝｸﾞ
  6
Continuous
100
AcDbLine
 10
20098.94787725642
 20
8403.325863427651
 30
0.0
 11
20007.27761572854
 21
8311.655601900708
 31
0.0
  0
LINE
  5
5EB
330
1F
100
AcDbEntity
  8
ﾊｯﾁﾝｸﾞ
  6
Continuous
100
AcDbLine
 10
20019.7519177629
 20
8403.325863427651
 30
0.0
 11
19967.67963598225
 21
8351.253581646998
 31
0.0
  0
LINE
  5
5EC
330
1F
100
AcDbEntity
  8
ﾊｯﾁﾝｸﾞ
  6
Continuous
100
AcDbLine
 10
20126.07155496835
 20
8351.253581646998
 30
0.0
 11
20193.9992731877
 21
8283.325863427654
 31
0.0
  0
LINE
  5
5ED
330
1F
100
AcDbEntity
  8
ﾊｯﾁﾝｸﾞ
  6
Continuous
100
AcDbLine
 10
20086.47357522206
 20
8311.655601900708
 30
0.0
 11
20114.80331369465
 21
8283.325863427654
 31
0.0
  0
LINE
  5
5EE
330
1F
100
AcDbEntity
  8
ﾊｯﾁﾝｸﾞ
  6
Continuous
100
AcDbLine
 10
19928.08165623549
 20
8390.851561393525
 30
0.0
 11
20035.6073542016
 21
8283.325863427654
 31
0.0
  0
LINE
  5
5EF
330
1F
100
AcDbEntity
  8
ﾊｯﾁﾝｸﾞ
  6
Continuous
100
AcDbLine
 10
19888.48367648919
 20
8351.253581646998
 30
0.0
 11
19956.41139470854
 21
8283.325863427654
 31
0.0
  0
LINE
  5
5F0
330
1F
100
AcDbEntity
  8
ﾊｯﾁﾝｸﾞ
  6
Continuous
100
AcDbLine
 10
19848.8856967429
 20
8311.655601900708
 30
0.0
 11
19877.21543521549
 21
8283.325863427654
 31
0.0
  0
LINE
  5
5F1
330
1F
100
AcDbEntity
  8
ﾊｯﾁﾝｸﾞ
  6
Continuous
100
AcDbLine
 10
19940.55595826985
 20
8403.325863427651
 30
0.0
 11
19820.55595826938
 21
8283.325863427654
 31
0.0
  0
LINE
  5
5F2
330
1F
100
AcDbEntity
  8
ﾊｯﾁﾝｸﾞ
  6
Continuous
100
AcDbLine
 10
19861.3599987768
 20
8403.325863427651
 30
0.0
 11
19741.35999877586
 21
8283.325863427654
 31
0.0
  0
LINE
  5
5F3
330
1F
100
AcDbEntity
  8
ﾊｯﾁﾝｸﾞ
  6
Continuous
100
AcDbLine
 10
19782.16403928374
 20
8403.325863427651
 30
0.0
 11
19726.30833906795
 21
8347.470163211864
 31
0.0
  0
LINE
  5
5F4
330
1F
100
AcDbEntity
  8
ﾊｯﾁﾝｸﾞ
  6
Continuous
100
AcDbLine
 10
19091.25667935864
 20
8403.325863427651
 30
0.0
 11
19211.25667935957
 21
8283.325863427654
 31
0.0
  0
LINE
  5
5F5
330
1F
100
AcDbEntity
  8
ﾊｯﾁﾝｸﾞ
  6
Continuous
100
AcDbLine
 10
19012.06071986559
 20
8403.325863427651
 30
0.0
 11
19132.06071986652
 21
8283.325863427654
 31
0.0
  0
LINE
  5
5F6
330
1F
100
AcDbEntity
  8
ﾊｯﾁﾝｸﾞ
  6
Continuous
100
AcDbLine
 10
19103.730981393
 20
8311.655601900708
 30
0.0
 11
19075.40124292042
 21
8283.325863427654
 31
0.0
  0
LINE
  5
5F7
330
1F
100
AcDbEntity
  8
ﾊｯﾁﾝｸﾞ
  6
Continuous
100
AcDbLine
 10
19064.13300164624
 20
8351.253581646998
 30
0.0
 11
18996.2052834269
 21
8283.325863427654
 31
0.0
  0
LINE
  5
5F8
330
1F
100
AcDbEntity
  8
ﾊｯﾁﾝｸﾞ
  6
Continuous
100
AcDbLine
 10
19024.53502189995
 20
8390.851561393525
 30
0.0
 11
18917.00932393431
 21
8283.325863427654
 31
0.0
  0
LINE
  5
5F9
330
1F
100
AcDbEntity
  8
ﾊｯﾁﾝｸﾞ
  6
Continuous
100
AcDbLine
 10
18866.14310291338
 20
8311.655601900708
 30
0.0
 11
18837.81336444079
 21
8283.325863427654
 31
0.0
  0
LINE
  5
5FA
330
1F
100
AcDbEntity
  8
ﾊｯﾁﾝｸﾞ
  6
Continuous
100
AcDbLine
 10
18826.54512316709
 20
8351.253581646998
 30
0.0
 11
18758.61740494774
 21
8283.325863427654
 31
0.0
  0
LINE
  5
5FB
330
1F
100
AcDbEntity
  8
ﾊｯﾁﾝｸﾞ
  6
Continuous
100
AcDbLine
 10
18932.86476037254
 20
8403.325863427651
 30
0.0
 11
18984.93704215366
 21
8351.253581646998
 31
0.0
  0
LINE
  5
5FC
330
1F
100
AcDbEntity
  8
ﾊｯﾁﾝｸﾞ
  6
Continuous
100
AcDbLine
 10
18853.66880087948
 20
8403.325863427651
 30
0.0
 11
18945.3390624069
 21
8311.655601900474
 31
0.0
  0
LINE
  5
5FD
330
1F
100
AcDbEntity
  8
ﾊｯﾁﾝｸﾞ
  6
Continuous
100
AcDbLine
 10
18774.47284138643
 20
8403.325863427651
 30
0.0
 11
18894.47284138737
 21
8283.325863427654
 31
0.0
  0
LINE
  5
5FE
330
1F
100
AcDbEntity
  8
ﾊｯﾁﾝｸﾞ
  6
Continuous
100
AcDbLine
 10
18786.94714342079
 20
8390.851561393525
 30
0.0
 11
18733.18429443774
 21
8337.088712410475
 31
0.0
  0
LINE
  5
5FF
330
1F
100
AcDbEntity
  8
ﾊｯﾁﾝｸﾞ
  6
Continuous
100
AcDbLine
 10
19170.45263885169
 20
8403.325863427651
 30
0.0
 11
19226.30833906795
 21
8347.470163211864
 31
0.0
  0
LWPOLYLINE
  5
600
330
1F
100
AcDbEntity
  8
画層2
100
AcDbPolyline
 90
        8
 70
     0
 43
0.0
 10
19226.30833906795
 20
8403.32586342742
 10
19226.30833906795
 20
8103.32586342742
 10
19251.30833906795
 20
8103.32586342742
 10
19251.30833906795
 20
7053.325863427422
 10
19701.30833906795
 20
7053.325863427422
 10
19701.30833906795
 20
8103.32586342742
 10
19726.30833906795
 20
8103.32586342742
 10
19726.30833906795
 20
8403.32586342742
  0
LINE
  5
601
330
1F
100
AcDbEntity
  8
ﾊｯﾁﾝｸﾞ
  6
Continuous
100
AcDbLine
 10
19661.26746233807
 20
7153.325863427422
 30
0.0
 11
19677.3745956451
 21
7131.482787799029
 31
0.0
  0
LINE
  5
602
330
1F
100
AcDbEntity
  8
ﾊｯﾁﾝｸﾞ
  6
Continuous
100
AcDbLine
 10
19645.08895817979
 20
7075.562423354186
 30
0.0
 11
19657.92724203899
 21
7053.325863427422
 31
0.0
  0
LINE
  5
603
330
1F
100
AcDbEntity
  8
ﾊｯﾁﾝｸﾞ
  6
Continuous
100
AcDbLine
 10
19632.25067432014
 20
7053.325863427422
 30
0.0
 11
19689.98570123895
 21
7153.325863427422
 31
0.0
  0
LINE
  5
604
330
1F
100
AcDbEntity
  8
ﾊｯﾁﾝｸﾞ
  6
Continuous
100
AcDbLine
 10
19294.85730082424
 20
7153.325863427422
 30
0.0
 11
19310.96443413126
 21
7131.482787799029
 31
0.0
  0
LINE
  5
605
330
1F
100
AcDbEntity
  8
ﾊｯﾁﾝｸﾞ
  6
Continuous
100
AcDbLine
 10
19278.67879666596
 20
7075.562423354186
 30
0.0
 11
19291.51708052515
 21
7053.325863427422
 31
0.0
  0
LINE
  5
606
330
1F
100
AcDbEntity
  8
ﾊｯﾁﾝｸﾞ
  6
Continuous
100
AcDbLine
 10
19265.8405128063
 20
7053.325863427422
 30
0.0
 11
19323.57553972512
 21
7153.325863427422
 31
0.0
  0
LINE
  5
607
330
1F
100
AcDbEntity
  8
画層2
  6
Continuous
100
AcDbLine
 10
19701.30833906795
 20
7153.325863427422
 30
0.0
 11
19251.30833906795
 21
7153.325863427422
 31
0.0
  0
LINE
  5
608
330
1F
100
AcDbEntity
  8
ﾊｯﾁﾝｸﾞ
  6
Continuous
100
AcDbLine
 10
19357.44305318475
 20
7053.325863427422
 30
0.0
 11
19415.17808010358
 21
7153.325863427422
 31
0.0
  0
LINE
  5
609
330
1F
100
AcDbEntity
  8
ﾊｯﾁﾝｸﾞ
  6
Continuous
100
AcDbLine
 10
19370.28133704442
 20
7075.562423354186
 30
0.0
 11
19383.11962090361
 21
7053.325863427422
 31
0.0
  0
LINE
  5
60A
330
1F
100
AcDbEntity
  8
ﾊｯﾁﾝｸﾞ
  6
Continuous
100
AcDbLine
 10
19386.4598412027
 20
7153.325863427422
 30
0.0
 11
19402.56697450973
 21
7131.482787799029
 31
0.0
  0
LINE
  5
60B
330
1F
100
AcDbEntity
  8
ﾊｯﾁﾝｸﾞ
  6
Continuous
100
AcDbLine
 10
19540.64813394168
 20
7053.325863427422
 30
0.0
 11
19598.3831608605
 21
7153.325863427422
 31
0.0
  0
LINE
  5
60C
330
1F
100
AcDbEntity
  8
ﾊｯﾁﾝｸﾞ
  6
Continuous
100
AcDbLine
 10
19449.04559356321
 20
7053.325863427422
 30
0.0
 11
19506.78062048203
 21
7153.325863427422
 31
0.0
  0
LINE
  5
60D
330
1F
100
AcDbEntity
  8
ﾊｯﾁﾝｸﾞ
  6
Continuous
100
AcDbLine
 10
19553.48641780133
 20
7075.562423354186
 30
0.0
 11
19566.32470166053
 21
7053.325863427422
 31
0.0
  0
LINE
  5
60E
330
1F
100
AcDbEntity
  8
ﾊｯﾁﾝｸﾞ
  6
Continuous
100
AcDbLine
 10
19461.88387742288
 20
7075.562423354186
 30
0.0
 11
19474.72216128207
 21
7053.325863427422
 31
0.0
  0
LINE
  5
60F
330
1F
100
AcDbEntity
  8
ﾊｯﾁﾝｸﾞ
  6
Continuous
100
AcDbLine
 10
19478.06238158069
 20
7153.325863427422
 30
0.0
 11
19494.16951488818
 21
7131.482787799029
 31
0.0
  0
LINE
  5
610
330
1F
100
AcDbEntity
  8
ﾊｯﾁﾝｸﾞ
  6
Continuous
100
AcDbLine
 10
19569.66492195961
 20
7153.325863427422
 30
0.0
 11
19585.77205526664
 21
7131.482787799029
 31
0.0
  0
DIMENSION
  5
612
330
1F
100
AcDbEntity
  8
寸法
  6
Continuous
100
AcDbDimension
  2
*D24
 10
21336.30833906795
 20
8403.325863427886
 30
0.0
 11
21169.16548192509
 21
10903.32586342789
 31
0.0
 70
    32
 71
     5
 42
5000.000000000002
  3
1_60
100
AcDbAlignedDimension
 13
20076.30833906795
 23
13403.32586342789
 33
0.0
 14
20076.30833906795
 24
8403.325863427886
 34
0.0
 50
90.0
100
AcDbRotatedDimension
  0
LINE
  5
613
330
1F
100
AcDbEntity
  8
通り芯
  6
DASHDOT
 48
60.0
100
AcDbLine
 10
19476.30833906795
 20
6910.85839163436
 30
0.0
 11
19476.30833906795
 21
13483.78852313052
 31
0.0
  0
DIMENSION
  5
614
330
1F
100
AcDbEntity
  8
寸法
  6
Continuous
100
AcDbDimension
  2
*D25
 10
17844.65477506186
 20
8403.32586342742
 30
0.0
 11
17677.511917919
 21
10903.32586342742
 31
0.0
 70
    32
 71
     5
 42
5000.000000000002
  3
1_60
100
AcDbAlignedDimension
 13
16584.65477506186
 23
13403.32586342742
 33
0.0
 14
16584.65477506186
 24
8403.32586342742
 34
0.0
 50
90.0
100
AcDbRotatedDimension
  0
LINE
  5
615
330
1F
100
AcDbEntity
  8
画層1
  6
Continuous
100
AcDbLine
 10
19406.40833906758
 20
13403.32586342789
 30
0.0
 11
19406.40833906758
 21
7153.325863427888
 31
0.0
  0
LINE
  5
616
330
1F
100
AcDbEntity
  8
画層1
  6
Continuous
100
AcDbLine
 10
19546.20833906786
 20
7153.325863427888
 30
0.0
 11
19546.20833906786
 21
13403.32586342789
 31
0.0
  0
MTEXT
  5
617
102
{ACAD_REACTORS
330
618
102
}
330
1F
100
AcDbEntity
  8
寸法文字
  6
Continuous
100
AcDbMText
 10
20518.38230725866
 20
14358.18551815854
 30
0.0
 40
180.0
 41
0.0
 71
     7
 72
     1
  1
主柱KSポールφ139.8厚さ3.0mm
  7
1_100
 73
     1
 44
1.0
1001
ACAD
1000
ACAD_MTEXT_DEFINED_HEIGHT_BEGIN
1070
    46
1040
0.0
1000
ACAD_MTEXT_DEFINED_HEIGHT_END
1000
MTEXTBEGIN
1070
    73
1070
     1
1070
    44
1040
1.0
1070
    74
1070
     0
1000
MTEXTEND
  0
LEADER
  5
618
330
1F
100
AcDbEntity
  8
寸法引出
  6
Continuous
100
AcDbLeader
  3
1_60
 71
     0
 73
     0
 74
     0
 75
     1
 40
180.0
 41
2819.571428571427
 76
     3
 10
19546.20833906786
 20
13112.6868309669
 30
0.0
 10
20422.38230725865
 20
14298.18551815854
 30
0.0
 10
20458.38230725865
 20
14298.18551815854
 30
0.0
340
617
1001
ACAD
1000
DSTYLE
1002
{
1002
}
  0
DIMENSION
  5
619
330
1F
100
AcDbEntity
  8
寸法
  6
Continuous
100
AcDbDimension
  2
*D26
 10
20736.30833906795
 20
13403.32586342788
 30
0.0
 11
20586.06403031315
 21
13589.10288763436
 31
0.0
 70
   160
 71
     5
 42
40.0
  3
1_60
100
AcDbAlignedDimension
 13
20076.30833906795
 23
13363.32586342789
 33
0.0
 14
20076.30833906795
 24
13403.32586342789
 34
0.0
 50
90.0
100
AcDbRotatedDimension
  0
DIMENSION
  5
61A
330
1F
100
AcDbEntity
  8
寸法
  6
Continuous
100
AcDbDimension
  2
*D27
 10
20736.30833906795
 20
13363.32586342788
 30
0.0
 11
20569.16548192509
 21
11883.32586342789
 31
0.0
 70
    32
 71
     5
 42
2960.0
  3
1_60
100
AcDbAlignedDimension
 13
20076.30833906795
 23
10403.32586342789
 33
0.0
 14
20076.30833906795
 24
13363.32586342789
 34
0.0
 50
90.0
100
AcDbRotatedDimension
  0
DIMENSION
  5
61B
330
1F
100
AcDbEntity
  8
寸法
  6
Continuous
100
AcDbDimension
  2
*D28
 10
17244.65477506186
 20
13403.32586342742
 30
0.0
 11
17069.93981673031
 21
13595.65747949219
 31
0.0
 70
   160
 71
     5
 42
40.0
  3
1_60
100
AcDbAlignedDimension
 13
16584.65477506186
 23
13363.32586342742
 33
0.0
 14
16584.65477506186
 24
13403.32586342742
 34
0.0
 50
90.0
100
AcDbRotatedDimension
  0
DIMENSION
  5
61C
330
1F
100
AcDbEntity
  8
寸法
  6
Continuous
100
AcDbDimension
  2
*D29
 10
17244.65477506186
 20
13363.32586342742
 30
0.0
 11
17077.511917919
 21
11883.32586342742
 31
0.0
 70
    32
 71
     5
 42
2960.0
  3
1_60
100
AcDbAlignedDimension
 13
16584.65477506186
 23
10403.32586342742
 33
0.0
 14
16584.65477506186
 24
13363.32586342742
 34
0.0
 50
90.0
100
AcDbRotatedDimension
  0
LINE
  5
61D
330
1F
100
AcDbEntity
  8
画層1-1
  6
DASHED
 48
60.0
100
AcDbLine
 10
19381.40833906758
 20
13363.32586342789
 30
0.0
 11
19381.40833906758
 21
10403.32586342742
 31
0.0
  0
LINE
  5
61E
330
1F
100
AcDbEntity
  8
画層1
  6
Continuous
100
AcDbLine
 10
19476.30833906795
 20
13403.32586342789
 30
0.0
 11
19476.30833906795
 21
10403.32586342742
 31
0.0
  0
TEXT
  5
61F
330
1F
100
AcDbEntity
  8
図面枠
 62
     3
100
AcDbText
 10
2052.016551044676
 20
508.5903969809858
 30
0.0
 40
180.0
  1
KS2-H05
 41
0.75
  7
1_100
 11
2052.016551044676
 21
508.5903969809858
 31
0.0
100
AcDbText
 73
     1
  0
TEXT
  5
620
330
1F
100
AcDbEntity
  8
図面枠
 62
     3
100
AcDbText
 10
1018.593051584998
 20
508.4588484861283
 30
0.0
 40
180.0
  1
1/60
 41
0.75
  7
1_100
 11
1018.593051584998
 21
508.4588484861283
 31
0.0
100
AcDbText
 73
     1
  0
LINE
  5
621
330
1F
100
AcDbEntity
  8
画層3-2
  6
Continuous
100
AcDbLine
 10
9268.622416663202
 20
8946.501042610673
 30
0.0
 11
9268.622416663202
 21
9068.325863427423
 31
0.0
  0
LINE
  5
622
330
1F
100
AcDbEntity
  8
画層3-1
  6
Continuous
100
AcDbLine
 10
9308.572416663388
 20
8646.501042610672
 30
0.0
 11
9308.572416663388
 21
8461.425863427281
 31
0.0
  0
LINE
  5
623
330
1F
100
AcDbEntity
  8
画層3-通り芯
  6
DASHDOT
 48
60.0
100
AcDbLine
 10
9333.972416663295
 20
8946.501042610673
 30
0.0
 11
9333.972416663295
 21
10403.32586342765
 31
0.0
  0
LINE
  5
624
330
1F
100
AcDbEntity
  8
画層3-1
  6
Continuous
100
AcDbLine
 10
9359.372416663202
 20
8646.501042610672
 30
0.0
 11
9359.372416663202
 21
8461.425863427514
 31
0.0
  0
LINE
  5
625
330
1F
100
AcDbEntity
  8
画層3-2
  6
Continuous
100
AcDbLine
 10
9399.322416663387
 20
8646.501042610672
 30
0.0
 11
9399.322416663387
 21
8403.32586342742
 31
0.0
  0
LWPOLYLINE
  5
626
330
1F
100
AcDbEntity
  8
寸法引出
100
AcDbPolyline
 90
        2
 70
     0
 43
0.0
 10
16330.32688383128
 20
5373.325863427655
 10
13333.97241666329
 20
5373.325863427421
1001
ACAD
1000
DSTYLE
1002
{
1070
    41
1040
3.0
1070
   341
1005
0
1002
}
  0
LWPOLYLINE
  5
627
330
1F
100
AcDbEntity
  8
寸法引出
100
AcDbPolyline
 90
        2
 70
     0
 43
0.0
 10
16330.32688383128
 20
5853.325863427652
 10
15333.97241666329
 20
5853.325863427652
1001
ACAD
1000
DSTYLE
1002
{
1070
    41
1040
3.0
1070
   341
1005
0
1002
}
  0
LINE
  5
628
330
1F
100
AcDbEntity
  8
寸法引出
  6
ByBlock
100
AcDbLine
 10
16150.32688383128
 20
5901.556717627656
 30
0.0
 11
16330.32688383128
 21
5853.325863427652
 31
0.0
  0
LINE
  5
629
330
1F
100
AcDbEntity
  8
寸法引出
  6
ByBlock
100
AcDbLine
 10
16330.32688383128
 20
5853.325863427652
 30
0.0
 11
16150.32688383128
 21
5805.095009227652
 31
0.0
  0
LINE
  5
62A
330
1F
100
AcDbEntity
  8
寸法引出
  6
ByBlock
100
AcDbLine
 10
16150.32688383127
 20
5421.556717627641
 30
0.0
 11
16330.32688383128
 21
5373.325863427655
 31
0.0
  0
LINE
  5
62B
330
1F
100
AcDbEntity
  8
寸法引出
  6
ByBlock
100
AcDbLine
 10
16330.32688383128
 20
5373.325863427655
 30
0.0
 11
16150.32688383128
 21
5325.095009227641
 31
0.0
  0
HATCH
  5
978
330
1F
100
AcDbEntity
  8
ﾊｯﾁﾝｸﾞ
100
AcDbHatch
 10
0.0
 20
0.0
 30
0.0
210
0.0
220
0.0
230
1.0
  2
PLAST
 70
     0
 71
     0
 91
        2
 92
        7
 72
     0
 73
     1
 93
        7
 10
19476.30833906795
 20
7155.704541403806
 10
19478.06238158069
 20
7153.325863427422
 10
19701.30833906795
 20
7153.325863427422
 10
19701.30833906795
 20
8103.32586342742
 10
19726.30833906795
 20
8103.325863427423
 10
19726.30833906795
 20
8403.325863427761
 10
19476.30833906795
 20
8403.325863427703
 97
        0
 92
        7
 72
     0
 73
     1
 93
       10
 10
19476.30833906795
 20
8403.325863427701
 10
19384.15833906804
 20
8403.32586342768
 10
19384.15833906804
 20
8103.32586342742
 10
19333.35833906776
 20
8103.32586342742
 10
19333.35833906776
 20
8403.325863427665
 10
19226.30833906795
 20
8403.325863427639
 10
19226.30833906795
 20
8103.325863427423
 10
19251.30833906795
 20
8103.32586342742
 10
19251.30833906795
 20
7153.325863427422
 10
19476.30833906795
 20
7153.325863427422
 97
        0
 75
     0
 76
     1
 52
45.0
 41
80.0
 77
     0
 78
     3
 53
45.0
 43
1800.0
 44
0.0
 45
-359.2102448427661
 46
359.2102448427661
 79
     0
 53
45.0
 43
1755.098719394654
 44
44.90128060534575
 45
-359.2102448427661
 46
359.2102448427661
 79
     0
 53
45.0
 43
1710.197438789309
 44
89.80256121069151
 45
-359.2102448427661
 46
359.2102448427661
 79
     0
 47
8.226002006399884
 98
        2
 10
19566.37210715464
 20
7738.625737294438
 10
19368.84831600827
 20
7648.139707392329
  0
HATCH
  5
998
330
1F
100
AcDbEntity
  8
ﾊｯﾁﾝｸﾞ
100
AcDbHatch
 10
0.0
 20
0.0
 30
0.0
210
0.0
220
0.0
230
1.0
  2
PLAST
 70
     0
 71
     1
 91
        2
 92
        7
 72
     0
 73
     1
 93
        9
 10
13558.97241666329
 20
8103.325863427423
 10
13583.97241666329
 20
8103.32586342742
 10
13583.97241666329
 20
8403.32586342742
 10
13359.3724166632
 20
8403.32586342742
 10
13359.3724166632
 20
8103.32586342742
 10
13333.9724166633
 20
8103.32586342742
 10
13333.97241666329
 20
7155.704541404499
 10
13335.7264591765
 20
7153.325863427422
 10
13558.97241666329
 20
7153.325863427422
 97
        6
330
57E
330
5AB
330
545
330
598
330
58D
330
585
 92
        7
 72
     0
 73
     1
 93
        8
 10
13108.97241666329
 20
7153.325863427422
 10
13333.97241666329
 20
7153.325863427422
 10
13333.97241666329
 20
8103.32586342742
 10
13308.57241666339
 20
8103.32586342742
 10
13308.57241666338
 20
8403.32586342742
 10
13083.97241666329
 20
8403.32586342742
 10
13083.97241666329
 20
8103.325863427423
 10
13108.97241666329
 20
8103.32586342742
 97
        5
330
545
330
5AB
330
57E
330
585
330
598
 75
     0
 76
     1
 52
45.0
 41
80.0
 77
     0
 78
     3
 53
45.0
 43
2000.0
 44
0.0
 45
-359.2102448427661
 46
359.2102448427661
 79
     0
 53
45.0
 43
1955.098719394654
 44
44.90128060534575
 45
-359.2102448427661
 46
359.2102448427661
 79
     0
 53
45.0
 43
1910.197438789309
 44
89.80256121069151
 45
-359.2102448427661
 46
359.2102448427661
 79
     0
 47
14.57793736449053
 98
        2
 10
13464.70557405104
 20
7715.789620101488
 10
13202.17012007738
 20
7686.6337890063
  0
HATCH
  5
9B1
330
1F
100
AcDbEntity
  8
ﾊｯﾁﾝｸﾞ
100
AcDbHatch
 10
0.0
 20
0.0
 30
0.0
210
0.0
220
0.0
230
1.0
  2
PLAST
 70
     0
 71
     1
 91
        2
 92
        7
 72
     0
 73
     1
 93
        9
 10
5333.972416663295
 20
7155.704541404499
 10
5335.726459176497
 20
7153.325863427422
 10
5558.972416663293
 20
7153.325863427422
 10
5558.972416663293
 20
8103.32586342742
 10
5583.972416663295
 20
8103.325863427423
 10
5583.972416663295
 20
8403.32586342742
 10
5359.372416663202
 20
8403.32586342742
 10
5359.372416663201
 20
8103.32586342742
 10
5333.972416663296
 20
8103.32586342742
 97
        6
330
554
330
5AB
330
543
330
59B
330
562
330
56A
 92
        7
 72
     0
 73
     1
 93
        8
 10
5333.972416663295
 20
8103.325863427423
 10
5308.572416663388
 20
8103.32586342742
 10
5308.572416663388
 20
8403.32586342742
 10
5083.972416663295
 20
8403.32586342742
 10
5083.972416663294
 20
8103.325863427423
 10
5108.972416663295
 20
8103.32586342742
 10
5108.972416663295
 20
7153.325863427422
 10
5333.972416663295
 20
7153.325863427422
 97
        5
330
543
330
5AB
330
554
330
56A
330
59B
 75
     0
 76
     1
 52
45.0
 41
80.0
 77
     0
 78
     3
 53
45.0
 43
0.0
 44
0.0
 45
-359.2102448427661
 46
359.2102448427661
 79
     0
 53
45.0
 43
-44.90128060534575
 44
44.90128060534575
 45
-359.2102448427661
 46
359.2102448427661
 79
     0
 53
45.0
 43
-89.80256121069151
 44
89.80256121069151
 45
-359.2102448427661
 46
359.2102448427661
 79
     0
 47
9.018724193372683
 98
        2
 10
5437.781479418452
 20
7606.022106668992
 10
5248.292534484557
 20
7606.022106668992
  0
HATCH
  5
B08
330
1F
100
AcDbEntity
  8
画層3-3
100
AcDbHatch
 10
0.0
 20
0.0
 30
0.0
210
0.0
220
0.0
230
1.0
  2
PLAST
 70
     0
 71
     0
 91
        1
 92
        7
 72
     0
 73
     1
 93
        4
 10
11458.97241666329
 20
8403.32586342742
 10
11208.97241666329
 20
8403.32586342742
 10
11208.97241666329
 20
7953.325863427422
 10
11458.97241666329
 20
7953.325863427422
 97
        0
 75
     0
 76
     1
 52
45.0
 41
1800.0
 77
     0
 78
     3
 53
45.0
 43
5191.629760897005
 44
1961.658846916337
 45
-318.1980515339463
 46
318.1980515339464
 79
     0
 53
45.0
 43
5151.855004455647
 44
2001.433603357928
 45
-318.1980515339463
 46
318.1980515339464
 79
     0
 53
45.0
 43
5112.080248013824
 44
2041.208359799752
 45
-318.1980515339463
 46
318.1980515339464
 79
     0
 47
2.4753793195157
 98
        1
 10
11447.86561442654
 20
8162.533311435193
  0
LWPOLYLINE
  5
B09
330
1F
100
AcDbEntity
  8
画層3-2
100
AcDbPolyline
 90
        4
 70
     0
 43
0.0
 10
11458.97241666329
 20
8403.32586342742
 10
11458.97241666329
 20
7953.325863427422
 10
11208.97241666329
 20
7953.325863427422
 10
11208.97241666329
 20
8403.32586342742
  0
LINE
  5
B0A
330
1F
100
AcDbEntity
  8
画層3-通り芯
  6
DASHDOT
 48
60.0
100
AcDbLine
 10
11333.97241666329
 20
7856.956308295656
 30
0.0
 11
11333.97241666329
 21
10403.32586342765
 31
0.0
  0
LINE
  5
B0B
330
1F
100
AcDbEntity
  8
画層3-1
  6
Continuous
100
AcDbLine
 10
11359.3724166632
 20
9728.325863427425
 30
0.0
 11
11359.3724166632
 21
9098.325863427422
 31
0.0
  0
LINE
  5
B0C
330
1F
100
AcDbEntity
  8
画層3-1
  6
Continuous
100
AcDbLine
 10
11308.57241666339
 20
9728.325863427425
 30
0.0
 11
11308.57241666339
 21
9098.325863427422
 31
0.0
  0
LINE
  5
B0D
330
1F
100
AcDbEntity
  8
画層3-2
  6
Continuous
100
AcDbLine
 10
11268.6224166632
 20
9098.325863427422
 30
0.0
 11
11268.6224166632
 21
9728.325863427425
 31
0.0
  0
LINE
  5
B0E
330
1F
100
AcDbEntity
  8
画層3-2
  6
Continuous
100
AcDbLine
 10
11399.32241666339
 20
9728.325863427425
 30
0.0
 11
11399.32241666339
 21
9098.325863427422
 31
0.0
  0
LINE
  5
B0F
330
1F
100
AcDbEntity
  8
画層3-1
  6
Continuous
100
AcDbLine
 10
11253.6224166632
 20
9068.325863427423
 30
0.0
 11
11414.32241666339
 21
9068.325863427423
 31
0.0
  0
LINE
  5
B10
330
1F
100
AcDbEntity
  8
画層3-1
  6
Continuous
100
AcDbLine
 10
11414.32241666339
 20
9098.325863427422
 30
0.0
 11
11253.6224166632
 21
9098.325863427422
 31
0.0
  0
LINE
  5
B11
330
1F
100
AcDbEntity
  8
画層3-1
  6
Continuous
100
AcDbLine
 10
11268.6224166632
 20
8481.425863427514
 30
0.0
 11
11399.32241666339
 21
8481.425863427514
 31
0.0
  0
LINE
  5
B12
330
1F
100
AcDbEntity
  8
画層3-1
  6
Continuous
100
AcDbLine
 10
11359.3724166632
 20
9068.325863427423
 30
0.0
 11
11359.3724166632
 21
8461.425863427514
 31
0.0
  0
LINE
  5
B13
330
1F
100
AcDbEntity
  8
画層3-1
  6
Continuous
100
AcDbLine
 10
11308.57241666339
 20
9068.325863427423
 30
0.0
 11
11308.57241666339
 21
8461.425863427281
 31
0.0
  0
LINE
  5
B14
330
1F
100
AcDbEntity
  8
画層3-2
  6
Continuous
100
AcDbLine
 10
11268.6224166632
 20
8403.32586342742
 30
0.0
 11
11268.6224166632
 21
9068.325863427423
 31
0.0
  0
LWPOLYLINE
  5
B15
330
1F
100
AcDbEntity
  8
画層3-1
100
AcDbPolyline
 90
        4
 70
     0
 43
0.0
 10
11359.3724166632
 20
8423.32586342742
 10
11359.3724166632
 20
8103.32586342742
 10
11308.57241666339
 20
8103.32586342742
 10
11308.57241666339
 20
8423.325863427654
  0
LINE
  5
B16
330
1F
100
AcDbEntity
  8
画層3-1
  6
Continuous
100
AcDbLine
 10
11253.6224166632
 20
9098.325863427422
 30
0.0
 11
11253.6224166632
 21
9068.325863427423
 31
0.0
  0
LINE
  5
B17
330
1F
100
AcDbEntity
  8
画層3-2
  6
Continuous
100
AcDbLine
 10
11399.32241666339
 20
9068.325863427423
 30
0.0
 11
11399.32241666339
 21
8403.32586342742
 31
0.0
  0
LINE
  5
B18
330
1F
100
AcDbEntity
  8
画層3-1
  6
Continuous
100
AcDbLine
 10
11414.32241666339
 20
9068.325863427423
 30
0.0
 11
11414.32241666339
 21
9098.325863427422
 31
0.0
  0
LINE
  5
B19
330
1F
100
AcDbEntity
  8
画層3-1
  6
Continuous
100
AcDbLine
 10
11253.6224166632
 20
9728.325863427425
 30
0.0
 11
11414.32241666339
 21
9728.325863427425
 31
0.0
  0
LINE
  5
B1A
330
1F
100
AcDbEntity
  8
画層3-1
  6
Continuous
100
AcDbLine
 10
11414.32241666339
 20
9758.325863427424
 30
0.0
 11
11253.6224166632
 21
9758.325863427424
 31
0.0
  0
LINE
  5
B1B
330
1F
100
AcDbEntity
  8
画層3-1
  6
Continuous
100
AcDbLine
 10
11369.77241666357
 20
10325.22586342733
 30
0.0
 11
11384.77241666357
 21
10340.22586342733
 31
0.0
  0
LINE
  5
B1C
330
1F
100
AcDbEntity
  8
画層3-1
  6
Continuous
100
AcDbLine
 10
11359.3724166632
 20
10325.22586342733
 30
0.0
 11
11359.3724166632
 21
9758.325863427424
 31
0.0
  0
LINE
  5
B1D
330
1F
100
AcDbEntity
  8
画層3-1
  6
Continuous
100
AcDbLine
 10
11308.57241666339
 20
10325.22586342756
 30
0.0
 11
11308.57241666339
 21
9758.325863427424
 31
0.0
  0
LINE
  5
B1E
330
1F
100
AcDbEntity
  8
画層3-2
  6
Continuous
100
AcDbLine
 10
11268.6224166632
 20
9758.325863427424
 30
0.0
 11
11268.6224166632
 21
10340.22586342756
 31
0.0
  0
LINE
  5
B1F
330
1F
100
AcDbEntity
  8
画層3-1
  6
Continuous
100
AcDbLine
 10
11253.6224166632
 20
9758.325863427424
 30
0.0
 11
11253.6224166632
 21
9728.325863427425
 31
0.0
  0
ARC
  5
B20
330
1F
100
AcDbEntity
  8
画層3-1
  6
Continuous
100
AcDbCircle
 10
11293.57241666339
 20
10325.22586342756
 30
0.0
 40
15.0
100
AcDbArc
 50
0.0
 51
90.0
  0
LINE
  5
B21
330
1F
100
AcDbEntity
  8
画層3-1
  6
Continuous
100
AcDbLine
 10
11369.77241666357
 20
10325.22586342733
 30
0.0
 11
11298.17241666348
 21
10325.22586342756
 31
0.0
  0
LINE
  5
B22
330
1F
100
AcDbEntity
  8
画層3-1
  6
Continuous
100
AcDbLine
 10
11283.17241666348
 20
10378.32586342742
 30
0.0
 11
11283.17241666348
 21
10340.22586342756
 31
0.0
  0
LINE
  5
B23
330
1F
100
AcDbEntity
  8
画層3-1
  6
Continuous
100
AcDbLine
 10
11283.17241666348
 20
10340.22586342756
 30
0.0
 11
11298.17241666348
 21
10325.22586342756
 31
0.0
  0
ARC
  5
B24
330
1F
100
AcDbEntity
  8
画層3-1
  6
Continuous
100
AcDbCircle
 10
11374.3724166632
 20
10325.22586342733
 30
0.0
 40
15.0
100
AcDbArc
 50
90.0
 51
180.0
  0
LINE
  5
B25
330
1F
100
AcDbEntity
  8
画層3-2
  6
Continuous
100
AcDbLine
 10
11399.32241666339
 20
10340.22586342756
 30
0.0
 11
11399.32241666339
 21
9758.325863427424
 31
0.0
  0
LINE
  5
B26
330
1F
100
AcDbEntity
  8
画層3-1
  6
Continuous
100
AcDbLine
 10
11414.32241666339
 20
9728.325863427425
 30
0.0
 11
11414.32241666339
 21
9758.325863427424
 31
0.0
  0
LINE
  5
B27
330
1F
100
AcDbEntity
  8
画層3-1
  6
Continuous
100
AcDbLine
 10
11384.77241666357
 20
10340.22586342733
 30
0.0
 11
11384.77241666357
 21
10378.32586342742
 31
0.0
  0
DIMENSION
  5
B28
330
1F
100
AcDbEntity
  8
画層3-寸法
  6
Continuous
100
AcDbDimension
  2
*D31
 10
13333.97241666329
 20
5853.325863427421
 30
0.0
 11
12333.97241666329
 21
6020.468720570278
 31
0.0
 70
    32
 71
     5
 42
2000.0
  3
1_60
100
AcDbAlignedDimension
 13
11333.97241666329
 23
7003.325863427422
 33
0.0
 14
13333.97241666329
 24
7003.325863427422
 34
0.0
100
AcDbRotatedDimension
  0
DIMENSION
  5
B29
330
1F
100
AcDbEntity
  8
画層3-寸法
  6
Continuous
100
AcDbDimension
  2
*D30
 10
11333.97241666329
 20
5853.325863427421
 30
0.0
 11
10333.97241666329
 21
6020.468720570278
 31
0.0
 70
    32
 71
     5
 42
2000.0
  3
1_60
100
AcDbAlignedDimension
 13
9333.972416663295
 23
7003.325863427422
 33
0.0
 14
11333.97241666329
 24
7003.325863427422
 34
0.0
100
AcDbRotatedDimension
  0
LINE
  5
B5E
330
1F
100
AcDbEntity
  8
画層3-2
  6
Continuous
100
AcDbLine
 10
11253.6224166632
 20
9083.325863427424
 30
0.0
 11
9414.322416663388
 21
9083.325863427424
 31
0.0
  0
LINE
  5
B5F
330
1F
100
AcDbEntity
  8
画層3-2
  6
Continuous
100
AcDbLine
 10
9414.322416663388
 20
9743.325863427422
 30
0.0
 11
11253.6224166632
 21
9743.325863427422
 31
0.0
  0
LINE
  5
B60
330
1F
100
AcDbEntity
  8
画層3-1
  6
Continuous
100
AcDbLine
 10
9374.372416663202
 20
10340.22586342733
 30
0.0
 11
11293.57241666339
 21
10340.22586342733
 31
0.0
  0
LINE
  5
B61
330
1F
100
AcDbEntity
  8
画層3-1
  6
Continuous
100
AcDbLine
 10
9359.372416663202
 20
8423.32586342742
 30
0.0
 11
11308.57241666339
 21
8423.32586342742
 31
0.0
  0
LINE
  5
B62
330
1F
100
AcDbEntity
  8
画層3-1
  6
Continuous
100
AcDbLine
 10
9359.372416663202
 20
8461.425863427281
 30
0.0
 11
11308.57241666339
 21
8461.425863427514
 31
0.0
  0
LINE
  5
B63
330
1F
100
AcDbEntity
  8
画層3-2
  6
Continuous
100
AcDbLine
 10
13253.6224166632
 20
9083.325863427424
 30
0.0
 11
11414.32241666339
 21
9083.325863427424
 31
0.0
  0
LINE
  5
B64
330
1F
100
AcDbEntity
  8
画層3-2
  6
Continuous
100
AcDbLine
 10
11414.32241666339
 20
9743.325863427422
 30
0.0
 11
13253.6224166632
 21
9743.325863427422
 31
0.0
  0
LINE
  5
B65
330
1F
100
AcDbEntity
  8
画層3-1
  6
Continuous
100
AcDbLine
 10
11374.3724166632
 20
10340.22586342733
 30
0.0
 11
13293.57241666339
 21
10340.22586342733
 31
0.0
  0
LINE
  5
B66
330
1F
100
AcDbEntity
  8
画層3-1
  6
Continuous
100
AcDbLine
 10
11359.3724166632
 20
8423.32586342742
 30
0.0
 11
13308.57241666339
 21
8423.32586342742
 31
0.0
  0
LINE
  5
B67
330
1F
100
AcDbEntity
  8
画層3-1
  6
Continuous
100
AcDbLine
 10
11359.3724166632
 20
8461.425863427281
 30
0.0
 11
13308.57241666339
 21
8461.425863427514
 31
0.0
  0
LINE
  5
B69
102
{ACAD_REACTORS
330
CC6
102
}
330
1F
100
AcDbEntity
  8
DEFPOINTS
100
AcDbLine
 10
14378.86105737408
 20
13363.32586342742
 30
0.0
 11
15227.40196972984
 21
10378.32586342742
 31
0.0
  0
LWPOLYLINE
  5
B6C
330
1F
100
AcDbEntity
  8
画層1-1
100
AcDbPolyline
 90
        4
 70
     1
 43
0.0
 10
13507.09961817485
 20
10453.816704076
 10
13675.77215451553
 20
10516.66235217097
 10
13689.73785409215
 20
10479.1795663176
 10
13521.06531775147
 20
10416.33391822262
  0
LWPOLYLINE
  5
B7B
102
{ACAD_REACTORS
330
C9C
102
}
330
1F
100
AcDbEntity
  8
画層2-1
  6
Continuous
100
AcDbPolyline
 90
        4
 70
     1
 43
0.0
 10
5513.8724166632
 20
13370.47586342739
 10
13154.07241666339
 20
13370.47586342739
 10
13154.07241666339
 20
13256.1758634274
 10
5513.8724166632
 20
13256.1758634274
  0
LINE
  5
B7C
102
{ACAD_REACTORS
330
C9C
102
}
330
1F
100
AcDbEntity
  8
画層2-1
  6
Continuous
100
AcDbLine
 10
5513.8724166632
 20
13313.32586342742
 30
0.0
 11
5453.872416663202
 21
13313.32586342742
 31
0.0
  0
LINE
  5
B7D
102
{ACAD_REACTORS
330
C9C
102
}
330
1F
100
AcDbEntity
  8
画層2-1
  6
Continuous
100
AcDbLine
 10
13154.07241666339
 20
13313.32586342742
 30
0.0
 11
13214.07241666339
 21
13313.32586342742
 31
0.0
  0
LINE
  5
C3B
102
{ACAD_REACTORS
330
CC6
102
}
330
1F
100
AcDbEntity
  8
画層1-1
  6
Continuous
100
AcDbLine
 10
13428.8724166632
 20
10403.32586342742
 30
0.0
 11
16284.65477506186
 21
11467.3609282068
 31
0.0
  0
LINE
  5
C3C
102
{ACAD_REACTORS
330
CC6
102
}
330
1F
100
AcDbEntity
  8
画層1-1
  6
Continuous
100
AcDbLine
 10
13428.8724166632
 20
13313.32586342742
 30
0.0
 11
16284.65477506186
 21
12249.29079864804
 31
0.0
  0
HATCH
  5
C61
330
1F
100
AcDbEntity
  8
画層3-3
 62
   230
370
    13
100
AcDbHatch
 10
0.0
 20
0.0
 30
0.0
210
0.0
220
0.0
230
1.0
  2
NET
 70
     0
 71
     0
 91
        1
 92
        7
 72
     0
 73
     1
 93
       24
 10
11414.32241666339
 20
9728.325863427425
 10
11359.3724166632
 20
9728.325863427425
 10
11359.3724166632
 20
9098.325863427422
 10
11414.32241666339
 20
9098.325863427422
 10
11414.32241666338
 20
9068.325863427423
 10
11359.3724166632
 20
9068.325863427423
 10
11359.3724166632
 20
8461.425863427281
 10
13308.57241666339
 20
8461.425863427514
 10
13308.57241666339
 20
9068.325863427423
 10
13253.6224166632
 20
9068.325863427423
 10
13253.6224166632
 20
9098.325863427424
 10
13308.57241666339
 20
9098.325863427424
 10
13308.57241666339
 20
9728.325863427425
 10
13253.6224166632
 20
9728.325863427425
 10
13253.6224166632
 20
9758.325863427424
 10
13308.57241666339
 20
9758.325863427424
 10
13308.57241666339
 20
10325.22586342753
 10
13298.17241666348
 20
10325.22586342756
 10
13283.17241666371
 20
10340.22586342733
 10
11384.77241666357
 20
10340.22586342733
 10
11369.77241666357
 20
10325.22586342733
 10
11359.3724166632
 20
10325.22586342736
 10
11359.3724166632
 20
9758.325863427424
 10
11414.32241666339
 20
9758.325863427424
 97
        0
 75
     0
 76
     1
 52
45.0
 41
33.0
 77
     0
 78
     2
 53
45.0
 43
0.0
 44
0.0
 45
-74.0871129988205
 46
74.08711299882051
 79
     0
 53
135.0
 43
0.0
 44
0.0
 45
-74.08711299882051
 46
-74.0871129988205
 79
     0
 47
20.41519587348289
 98
        1
 10
12129.72667748209
 20
9540.167519379336
  0
HATCH
  5
C95
330
1F
100
AcDbEntity
  8
画層3-3
 62
   230
370
    13
100
AcDbHatch
 10
0.0
 20
0.0
 30
0.0
210
0.0
220
0.0
230
1.0
  2
NET
 70
     0
 71
     0
 91
        2
 92
        7
 72
     0
 73
     1
 93
       26
 10
15308.57241666339
 20
9728.325863427425
 10
15253.6224166632
 20
9728.325863427425
 10
15253.6224166632
 20
9758.325863427424
 10
15308.57241666338
 20
9758.325863427424
 10
15308.57241666338
 20
10325.22586342753
 10
15298.17241666347
 20
10325.22586342756
 10
15283.17241666348
 20
10340.22586342756
 10
15283.17241666348
 20
10378.32586342742
 10
13384.77241666357
 20
10378.32586342742
 10
13384.77241666357
 20
10340.22586342733
 10
13369.77241666357
 20
10325.22586342732
 10
13359.3724166632
 20
10325.22586342736
 10
13359.3724166632
 20
9758.325863427424
 10
13414.32241666339
 20
9758.325863427424
 10
13414.32241666339
 20
9728.325863427425
 10
13359.3724166632
 20
9728.325863427425
 10
13359.3724166632
 20
9098.325863427422
 10
13414.32241666338
 20
9098.325863427422
 10
13414.32241666339
 20
9068.325863427423
 10
13359.3724166632
 20
9068.325863427423
 10
13359.3724166632
 20
8461.425863427514
 10
15308.57241666339
 20
8461.425863427283
 10
15308.57241666339
 20
9068.325863427423
 10
15253.6224166632
 20
9068.325863427423
 10
15253.6224166632
 20
9098.325863427424
 10
15308.57241666339
 20
9098.325863427424
 97
        0
 92
        7
 72
     0
 73
     1
 93
       14
 10
16284.65477506186
 20
10340.22586342756
 10
15384.77241666357
 20
10340.22586342733
 10
15369.77241666357
 20
10325.22586342732
 10
15359.3724166632
 20
10325.22586342736
 10
15359.3724166632
 20
9758.325863427424
 10
15414.32241666339
 20
9758.325863427424
 10
15414.32241666339
 20
9728.325863427425
 10
15359.3724166632
 20
9728.325863427425
 10
15359.3724166632
 20
9098.325863427422
 10
15414.32241666339
 20
9098.325863427422
 10
15414.32241666339
 20
9068.325863427423
 10
15359.3724166632
 20
9068.325863427423
 10
15359.3724166632
 20
8461.425863427512
 10
16284.65477506186
 20
8461.425863427512
 97
        0
 75
     0
 76
     1
 52
45.0
 41
33.0
 77
     0
 78
     2
 53
45.0
 43
0.0
 44
0.0
 45
-74.0871129988205
 46
74.08711299882051
 79
     0
 53
135.0
 43
0.0
 44
0.0
 45
-74.08711299882051
 46
-74.0871129988205
 79
     0
 47
14.41649728881824
 98
        2
 10
14583.84811098416
 20
9234.010375980302
 10
15652.04419239552
 20
9277.259856334858
  0
HATCH
  5
CC6
330
1F
100
AcDbEntity
  8
ﾈｯﾄ
 62
   230
100
AcDbHatch
 10
0.0
 20
0.0
 30
0.0
210
0.0
220
0.0
230
1.0
  2
NET
 70
     0
 71
     1
 91
        3
 92
        7
 72
     0
 73
     1
 93
        4
 10
16284.65477506186
 20
10403.32586342742
 10
16284.65477506186
 20
11467.3609282068
 10
15048.7275849984
 20
11006.86719909813
 10
15220.29526192116
 20
10403.32586342742
 97
        4
330
C3B
330
B69
330
5B6
330
46B
 92
        7
 72
     0
 73
     1
 93
        4
 10
14507.29620580985
 20
12911.51627770404
 10
15048.7275849984
 20
11006.86719909813
 10
16284.65477506186
 20
11467.3609282068
 10
16284.65477506186
 20
12249.29079864804
 97
        4
330
C3C
330
B69
330
C3B
330
46B
 92
        7
 72
     0
 73
     1
 93
        4
 10
16284.65477506186
 20
13363.32586342742
 10
14378.86105737408
 20
13363.32586342742
 10
14507.29620580985
 20
12911.51627770405
 10
16284.65477506186
 20
12249.29079864804
 97
        4
330
5B0
330
B69
330
C3C
330
46B
 75
     0
 76
     1
 52
0.0
 41
25.0
 77
     0
 78
     2
 53
0.0
 43
0.0
 44
0.0
 45
0.0
 46
79.375
 79
     0
 53
90.0
 43
0.0
 44
0.0
 45
-79.375
 46
0.0000000000000049
 79
     0
 47
19.5896009312207
 98
        3
 10
15861.86671750085
 20
10746.97485538118
 10
15469.87581636605
 20
11961.53014235958
 10
15920.66535541891
 20
12862.65177413092
  0
MTEXT
  5
1000
330
1F
100
AcDbEntity
  8
寸法文字
  6
Continuous
100
AcDbMText
 10
7514.203296137795
 20
12676.10626783908
 30
0.0
 40
120.0
 41
0.0
 71
     1
 72
     1
  1
※KRP-40　1100D18本40mm目（再生ポリエステル100%）\P※KSP-24　37.5mm目（ｽｰﾊﾟｰﾎﾟﾘｴﾁﾚﾝ）
  7
1_100
 73
     1
 44
1.0
1001
ACAD
1000
MTEXTBEGIN
1070
    73
1070
     1
1070
    44
1040
1.0
1070
    74
1070
     0
1000
MTEXTEND
  0
MTEXT
  5
1001
330
1F
100
AcDbEntity
  8
寸法文字
  6
Continuous
100
AcDbMText
 10
7499.461984756242
 20
12785.1700187199
 30
0.0
 40
180.0
 41
0.0
 71
     7
 72
     1
  1
ネット\Pクレモナ250D/80本×37.5mm目
  7
1_100
 73
     1
 44
0.6
1001
ACAD
1000
MTEXTBEGIN
1070
    73
1070
     1
1070
    44
1040
0.6
1070
    74
1070
     0
1000
MTEXTEND
  0
LEADER
  5
1002
330
1F
100
AcDbEntity
  8
寸法引出
100
AcDbLeader
  3
1_50
 71
     0
 76
     3
 10
7183.855146147242
 20
12340.28018993965
 30
0.0
 10
7379.46198475624
 20
12725.1700187199
 30
0.0
 10
10930.92653282486
 20
12725.1700187199
 30
0.0
1001
ACAD
1000
DSTYLE
1002
{
1070
    41
1040
1.0
1070
   341
1005
87
1070
   147
1040
0.625
1070
    77
1070
     0
1002
}
  0
LINE
  5
12F3
330
1F
100
AcDbEntity
  8
画層1-1
  6
Continuous
100
AcDbLine
 10
7465.384503325292
 20
12554.54245555226
 30
0.0
 11
5428.872416663202
 21
13313.32586342742
 31
0.0
  0
ENDSEC
  0
SECTION
  2
OBJECTS
  0
DICTIONARY
  5
C
330
0
100
AcDbDictionary
281
     1
  3
ACAD_COLOR
350
6B
  3
ACAD_GROUP
350
D
  3
ACAD_LAYOUT
350
1A
  3
ACAD_MATERIAL
350
6A
  3
ACAD_MLINESTYLE
350
17
  3
ACAD_PLOTSETTINGS
350
19
  3
ACAD_PLOTSTYLENAME
350
E
  3
ACAD_TABLESTYLE
350
D0B
  3
ACDBHEADERROUNDTRIPXREC
350
12F8
  3
AcDbVariableDictionary
350
5E
  3
ADE_QUERY_LIBRARY
350
1007
  3
AEC_CLASSIFICATION_SYSTEM_DEFS
350
FFE
  3
AEC_VARS
350
D38
  3
ASE_INDEX_DICTIONARY
350
1005
  3
Autodesk_MAP
350
D3A
  3
Root
350
101C
1001
ADE
1000
ADE02C004
1000
[Query]
1000
CaseSensitiveMatch=0
1000
SaveCurrQueryInSession=1
1000
MkSelSetWithQryObj=0
1000
ShowBlockAsInsPt=0
1000
CreateAssociativeHatchObjects=0
1000
ReferenceBoundaryForAreaLocation=1
1000
ShowImageAsBoundary=1
1000
DefaultJoinOperator=2
1000
ColorForAdd=red
1000
ColorForRemove=red
1000
BlockLocnForQuery=1
1000
TextLocnForQuery=1
1000
IncludeAllObjectsInGroups=0
1000
AlwaysUseLibraryDefinitions=0
1000
PreviewDefinitionsFrom=2
1000
[Save Back]
1000
RedefineBlockDefinitions=1
1000
RedefineLayerDefinitions=1
1000
RedefineTextStyleDefinitions=1
1000
RemoveUnusedGroups=1
1000
EraseSavedBackObjects=1
1000
RemoveLockAfterSave=1
1000
CreateHistoryFileOfChanges=0
1000
CreateBackupFileOfSourceDwg=1
1000
DontAddObjectsToSaveSet=0
1000
MarkObjectsForEditingWithoutPrompting=0
1000
[Coordinate Transformation]
1000
RestoreLastActiveDwgsOnStartup=1
1000
ActivateDwgsOnAttach=1
1000
AdjustSizesAndScalesForChangesInUnits=1
1000
AdjustRotationsForMapDistortions=1
1000
AdjustSizesAndScalesForMapDistortions=1
1000
AdjustElevations=1
1000
AdjustZeroRotationObjects=1
1000
ReconnectDbOnWSOpen=1
1000
NoOfSQLConditionsInHistory=10
  0
DICTIONARY
  5
12F4
330
1F
100
AcDbDictionary
280
     1
281
     1
  3
ACAD_SORTENTS
360
12F5
  0
DICTIONARY
  5
6B
102
{ACAD_REACTORS
330
C
102
}
330
C
100
AcDbDictionary
281
     1
  0
DICTIONARY
  5
D
102
{ACAD_REACTORS
330
C
102
}
330
C
100
AcDbDictionary
281
     1
  3
*A1
350
C9C
  0
DICTIONARY
  5
1A
102
{ACAD_REACTORS
330
C
102
}
330
C
100
AcDbDictionary
281
     1
  3
Model
350
22
  3
レイアウト1
350
51
  3
レイアウト2
350
56
  0
DICTIONARY
  5
6A
102
{ACAD_REACTORS
330
C
102
}
330
C
100
AcDbDictionary
281
     1
  0
DICTIONARY
  5
17
102
{ACAD_REACTORS
330
C
102
}
330
C
100
AcDbDictionary
281
     1
  3
Standard
350
18
  0
DICTIONARY
  5
19
102
{ACAD_REACTORS
330
C
102
}
330
C
100
AcDbDictionary
281
     1
  0
ACDBDICTIONARYWDFLT
  5
E
102
{ACAD_REACTORS
330
C
102
}
330
C
100
AcDbDictionary
281
     1
  3
Normal
350
F
100
AcDbDictionaryWithDefault
340
F
  0
DICTIONARY
  5
D0B
102
{ACAD_REACTORS
330
C
102
}
330
C
100
AcDbDictionary
281
     1
  3
Legend
350
D3E
  3
Standard
350
D0C
  0
DICTIONARY
  5
12F8
102
{ACAD_REACTORS
330
C
102
}
330
C
100
AcDbDictionary
281
     1
  0
DICTIONARY
  5
5E
102
{ACAD_REACTORS
330
C
102
}
330
C
100
AcDbDictionary
281
     1
  3
CTABLESTYLE
350
1009
  3
DIMASSOC
350
5F
  3
HIDETEXT
350
63
  3
PROJECTNAME
350
9C8
  3
SORTENTS
350
C3E
  0
DICTIONARY
  5
1007
102
{ACAD_REACTORS
330
C
102
}
330
C
100
AcDbDictionary
281
     1
  3
_CurrQry
350
12F6
  0
DICTIONARY
  5
FFE
102
{ACAD_REACTORS
330
C
102
}
330
C
100
AcDbDictionary
281
     1
  0
DICTIONARY
  5
D38
102
{ACAD_REACTORS
330
C
102
}
330
C
100
AcDbDictionary
281
     1
  3
AEC_VARS_DWG_SETUP
350
1041
  0
DICTIONARY
  5
1005
102
{ACAD_REACTORS
330
C
102
}
330
C
100
AcDbDictionary
281
     1
  3
ASEBlockHierarchyIndexRecord
350
1006
1001
DCO15
1040
1621578100.607
  0
DICTIONARY
  5
D3A
102
{ACAD_REACTORS
330
C
102
}
330
C
100
AcDbDictionary
281
     1
  3
MAP_DISPLAY_MANAGEMENT_DICTIONARY
350
D3B
  3
MAP_DISPLAY_STYLELIBRARY_DICTIONARY
350
D3C
  0
SORTENTSTABLE
  5
12F5
102
{ACAD_REACTORS
330
12F4
102
}
330
12F4
100
AcDbSortentsTable
330
1F
331
588
  5
588
331
5B2
  5
5B3
331
62B
  5
978
331
5EC
  5
5ED
331
4ED
  5
4ED
331
4CB
  5
4CB
331
60E
  5
60F
331
5C9
  5
5CA
331
529
  5
529
331
50F
  5
50F
331
4BE
  5
4BE
331
499
  5
499
331
B13
  5
B14
331
55D
  5
55D
331
57F
  5
57F
331
599
  5
599
331
5DB
  5
5DC
331
4DC
  5
4DC
331
4B2
  5
4B2
331
490
  5
490
331
5FD
  5
5FE
331
612
  5
613
331
5C7
  5
5C8
331
53A
  5
53A
331
4FE
  5
4FE
331
48D
  5
48D
331
46E
  5
46E
331
44C
  5
44C
331
B24
  5
B25
331
54C
  5
54C
331
56E
  5
56E
331
477
  5
477
331
45D
  5
45D
331
43B
  5
43B
331
42A
  5
42A
331
5B0
  5
5B1
331
629
  5
62A
331
5EA
  5
5EB
331
4EB
  5
4EB
331
4C9
  5
4C9
331
60C
  5
60D
331
527
  5
527
331
50D
  5
50D
331
4BC
  5
4BC
331
B29
  5
B5E
331
B11
  5
B12
331
9B1
  5
B08
331
C95
  5
CC6
331
57D
  5
57D
331
55B
  5
55B
331
597
  5
597
331
5D9
  5
5DA
331
4DA
  5
4DA
331
4B0
  5
4B0
331
5FB
  5
5FC
331
5C5
  5
5C6
331
610
  5
612
331
51E
  5
51E
331
4FC
  5
4FC
331
48B
  5
48B
331
486
  5
486
331
44A
  5
44A
331
B22
  5
B23
331
54A
  5
54A
331
B7C
  5
B7D
331
56C
  5
56C
331
475
  5
475
331
45B
  5
45B
331
439
  5
439
331
428
  5
428
331
5E8
  5
5E9
331
4E9
  5
4E9
331
60A
  5
60B
331
525
  5
525
331
50B
  5
50B
331
4BA
  5
4BA
331
B0F
  5
B10
331
61F
  5
620
331
547
  5
547
331
B69
  5
B6C
331
559
  5
559
331
57B
  5
57B
331
595
  5
595
331
5BF
  5
5C0
331
4D8
  5
4D8
331
4A6
  5
4A6
331
5F9
  5
5FA
331
5C3
  5
5C4
331
5D6
  5
5D7
331
51C
  5
51C
331
4FA
  5
4FA
331
489
  5
489
331
484
  5
484
331
46A
  5
46A
331
448
  5
448
331
B20
  5
B21
331
548
  5
548
331
56A
  5
56A
331
5A6
  5
5A6
331
4C7
  5
4C7
331
473
  5
473
331
459
  5
459
331
437
  5
437
331
426
  5
426
331
608
  5
609
331
B0D
  5
B0E
331
61D
  5
61E
331
545
  5
545
331
523
  5
523
331
509
  5
509
331
4B8
  5
4B8
331
B67
  5
B69
331
557
  5
557
331
579
  5
579
331
593
  5
593
331
5BD
  5
5BE
331
5F7
  5
5F8
331
5C1
  5
5C2
331
5D4
  5
5D5
331
51A
  5
51A
331
4F8
  5
4F8
331
4D6
  5
4D6
331
4A4
  5
4A4
331
482
  5
482
331
468
  5
468
331
446
  5
446
331
B1E
  5
B1F
331
568
  5
568
331
5A4
  5
5A4
331
5E6
  5
5E7
331
4E7
  5
4E7
331
4C5
  5
4C5
331
471
  5
471
331
457
  5
457
331
435
  5
435
331
B0B
  5
B0C
331
61B
  5
61C
331
543
  5
543
331
521
  5
521
331
B65
  5
B66
331
555
  5
555
331
577
  5
577
331
591
  5
591
331
5BB
  5
5BC
331
5F5
  5
5F6
331
627
  5
628
331
5AF
  5
5B0
331
5D2
  5
5D3
331
532
  5
532
331
518
  5
518
331
4F6
  5
4F6
331
4D4
  5
4D4
331
4A2
  5
4A2
331
480
  5
480
331
466
  5
466
331
444
  5
444
331
B1C
  5
B1D
331
5A2
  5
5A2
331
566
  5
566
331
5E4
  5
5E5
331
4E5
  5
4E5
331
4C3
  5
4C3
331
606
  5
607
331
507
  5
507
331
4AE
  5
4AE
331
455
  5
455
331
433
  5
433
331
B09
  5
B0A
331
619
  5
61A
331
541
  5
541
331
B63
  5
B64
331
553
  5
553
331
575
  5
575
331
5B9
  5
5BB
331
5F3
  5
5F4
331
625
  5
626
331
5AD
  5
5AE
331
5D0
  5
5D1
331
530
  5
530
331
516
  5
516
331
4F4
  5
4F4
331
4D2
  5
4D2
331
4A0
  5
4A0
331
47E
  5
47E
331
464
  5
464
331
442
  5
442
331
B1A
  5
B1B
331
586
  5
586
331
564
  5
564
331
C3B
  5
C3C
331
5E2
  5
5E3
331
5A0
  5
5A0
331
4E3
  5
4E3
331
604
  5
605
331
505
  5
505
331
4AC
  5
4AC
331
497
  5
497
331
453
  5
453
331
431
  5
431
331
B61
  5
B62
331
551
  5
551
331
573
  5
573
331
58D
  5
58D
331
5F1
  5
5F2
331
623
  5
624
331
5AB
  5
5AD
331
5CE
  5
5CF
331
B5F
  5
B60
331
52E
  5
52E
331
514
  5
514
331
4F2
  5
4F2
331
4D0
  5
4D0
331
49E
  5
49E
331
47C
  5
47C
331
462
  5
462
331
440
  5
440
331
B18
  5
B19
331
998
  5
9B1
331
584
  5
584
331
562
  5
562
331
59E
  5
59E
331
5E0
  5
5E1
331
4E1
  5
4E1
331
4B7
  5
4B7
331
602
  5
603
331
617
  5
618
331
53F
  5
53F
331
503
  5
503
331
4AA
  5
4AA
331
495
  5
495
331
451
  5
451
331
42F
  5
42F
331
C61
  5
C95
331
571
  5
571
331
58B
  5
58B
331
5B5
  5
5B6
331
5EF
  5
5F0
331
621
  5
622
331
5CC
  5
5CD
331
52C
  5
52C
331
512
  5
512
331
4F0
  5
4F0
331
4CE
  5
4CE
331
49C
  5
49C
331
47A
  5
47A
331
460
  5
460
331
B16
  5
B17
331
1002
  5
12F3
331
582
  5
582
331
560
  5
560
331
59C
  5
59C
331
5DE
  5
5DF
331
4DF
  5
4DF
331
4B5
  5
4B5
331
600
  5
601
331
615
  5
616
331
53D
  5
53D
331
501
  5
501
331
4A8
  5
4A8
331
493
  5
493
331
44F
  5
44F
331
B27
  5
B28
331
54F
  5
54F
331
43E
  5
43E
331
42D
  5
42D
331
589
  5
589
331
5B3
  5
5B4
331
12F3
  5
5A8
331
5ED
  5
5EE
331
4EE
  5
4EE
331
4CC
  5
4CC
331
60F
  5
610
331
5CA
  5
5CB
331
52A
  5
52A
331
510
  5
510
331
4BF
  5
4BF
331
49A
  5
49A
331
478
  5
478
331
B14
  5
B15
331
55E
  5
55E
331
1000
  5
1001
331
580
  5
580
331
59A
  5
59A
331
5DC
  5
5DD
331
4DD
  5
4DD
331
4B3
  5
4B3
331
491
  5
491
331
5FE
  5
5FF
331
613
  5
614
331
53B
  5
53B
331
4FF
  5
4FF
331
48E
  5
48E
331
46F
  5
46F
331
44D
  5
44D
331
B25
  5
B26
331
54D
  5
54D
331
56F
  5
56F
331
45E
  5
45E
331
43C
  5
43C
331
42B
  5
42B
331
5B1
  5
5B2
331
62A
  5
62B
331
5EB
  5
5EC
331
4EC
  5
4EC
331
4CA
  5
4CA
331
60D
  5
60E
331
5C8
  5
5C9
331
528
  5
528
331
50E
  5
50E
331
4BD
  5
4BD
331
498
  5
498
331
B12
  5
B13
331
B6C
  5
B7B
331
57E
  5
57E
331
55C
  5
55C
331
598
  5
598
331
5DA
  5
5DB
331
4DB
  5
4DB
331
4B1
  5
4B1
331
5FC
  5
5FD
331
5C6
  5
5C7
331
B23
  5
B24
331
54B
  5
54B
331
51F
  5
51F
331
4FD
  5
4FD
331
48C
  5
48C
331
487
  5
487
331
B7D
  5
C3B
331
56D
  5
56D
331
45C
  5
45C
331
44B
  5
44B
331
429
  5
429
331
628
  5
629
331
5E9
  5
5EA
331
4EA
  5
4EA
331
4C8
  5
4C8
331
60B
  5
60C
331
526
  5
526
331
50C
  5
50C
331
4BB
  5
4BB
331
B28
  5
B29
331
B10
  5
B11
331
55A
  5
55A
331
57C
  5
57C
331
596
  5
596
331
5D8
  5
5D9
331
5FA
  5
5FB
331
5C4
  5
5C5
331
5D7
  5
5D8
331
537
  5
537
331
51D
  5
51D
331
4FB
  5
4FB
331
4D9
  5
4D9
331
4A7
  5
4A7
331
485
  5
485
331
46B
  5
46B
331
449
  5
449
331
B21
  5
B22
331
549
  5
549
331
B7B
  5
B7C
331
56B
  5
56B
331
5A7
  5
5A7
331
474
  5
474
331
45A
  5
45A
331
438
  5
438
331
427
  5
427
331
4E8
  5
4E8
331
609
  5
60A
331
524
  5
524
331
50A
  5
50A
331
4B9
  5
4B9
331
B0E
  5
B0F
331
61E
  5
61F
331
546
  5
546
331
558
  5
558
331
57A
  5
57A
331
594
  5
594
331
5BE
  5
5BF
331
4D7
  5
4D7
331
4A5
  5
4A5
331
5F8
  5
5F9
331
5C2
  5
5C3
331
5D5
  5
5D6
331
51B
  5
51B
331
4F9
  5
4F9
331
488
  5
488
331
483
  5
483
331
469
  5
469
331
447
  5
447
331
B1F
  5
B20
331
569
  5
569
331
5A5
  5
5A5
331
5E7
  5
5E8
331
4C6
  5
4C6
331
472
  5
472
331
458
  5
458
331
436
  5
436
331
425
  5
425
331
B0C
  5
B0D
331
61C
  5
61D
331
544
  5
544
331
522
  5
522
331
508
  5
508
331
B66
  5
B67
331
556
  5
556
331
578
  5
578
331
592
  5
592
331
5BC
  5
5BD
331
5F6
  5
5F7
331
978
  5
998
331
5C0
  5
5C1
331
5D3
  5
5D4
331
533
  5
533
331
519
  5
519
331
4F7
  5
4F7
331
4D5
  5
4D5
331
4A3
  5
4A3
331
481
  5
481
331
467
  5
467
331
445
  5
445
331
B1D
  5
B1E
331
567
  5
567
331
5A3
  5
5A3
331
5E5
  5
5E6
331
4E6
  5
4E6
331
4C4
  5
4C4
331
607
  5
608
331
4AF
  5
4AF
331
470
  5
470
331
456
  5
456
331
434
  5
434
331
B0A
  5
B0B
331
61A
  5
61B
331
542
  5
542
331
520
  5
520
331
B64
  5
B65
331
554
  5
554
331
576
  5
576
331
5F4
  5
5F5
331
626
  5
627
331
5AE
  5
5AF
331
5D1
  5
5D2
331
531
  5
531
331
517
  5
517
331
4F5
  5
4F5
331
4D3
  5
4D3
331
4A1
  5
4A1
331
47F
  5
47F
331
465
  5
465
331
443
  5
443
331
B1B
  5
B1C
331
CC6
  5
1000
331
C3C
  5
C61
331
5E3
  5
5E4
331
5A1
  5
5A1
331
587
  5
587
331
565
  5
565
331
4E4
  5
4E4
331
605
  5
606
331
506
  5
506
331
4AD
  5
4AD
331
454
  5
454
331
432
  5
432
331
B08
  5
B09
331
618
  5
619
331
540
  5
540
331
B62
  5
B63
331
552
  5
552
331
574
  5
574
331
58E
  5
58E
331
5F2
  5
5F3
331
624
  5
625
331
5CF
  5
5D0
331
52F
  5
52F
331
515
  5
515
331
4F3
  5
4F3
331
4D1
  5
4D1
331
49F
  5
49F
331
47D
  5
47D
331
463
  5
463
331
441
  5
441
331
B19
  5
B1A
331
585
  5
585
331
563
  5
563
331
5E1
  5
5E2
331
59F
  5
59F
331
4E2
  5
4E2
331
603
  5
604
331
504
  5
504
331
4AB
  5
4AB
331
496
  5
496
331
452
  5
452
331
430
  5
430
331
B60
  5
B61
331
550
  5
550
331
572
  5
572
331
58C
  5
58C
331
5B6
  5
5B9
331
5F0
  5
5F1
331
622
  5
623
331
5AA
  5
5AB
331
5CD
  5
5CE
331
B5E
  5
B5F
331
52D
  5
52D
331
513
  5
513
331
4F1
  5
4F1
331
4CF
  5
4CF
331
49D
  5
49D
331
47B
  5
47B
331
461
  5
461
331
B17
  5
B18
331
583
  5
583
331
561
  5
561
331
59D
  5
59D
331
5DF
  5
5E0
331
4E0
  5
4E0
331
4B6
  5
4B6
331
601
  5
602
331
616
  5
617
331
53E
  5
53E
331
502
  5
502
331
4A9
  5
4A9
331
494
  5
494
331
450
  5
450
331
43F
  5
43F
331
42E
  5
42E
331
570
  5
570
331
58A
  5
58A
331
5B4
  5
5B5
331
5EE
  5
5EF
331
620
  5
621
331
5A8
  5
5AA
331
5CB
  5
5CC
331
52B
  5
52B
331
511
  5
511
331
4EF
  5
4EF
331
4CD
  5
4CD
331
49B
  5
49B
331
479
  5
479
331
B15
  5
B16
331
1001
  5
1002
331
581
  5
581
331
55F
  5
55F
331
59B
  5
59B
331
5DD
  5
5DE
331
4DE
  5
4DE
331
4B4
  5
4B4
331
492
  5
492
331
5FF
  5
600
331
614
  5
615
331
500
  5
500
331
48F
  5
48F
331
44E
  5
44E
331
B26
  5
B27
331
54E
  5
54E
331
45F
  5
45F
331
43D
  5
43D
331
42C
  5
42C
  0
GROUP
  5
C9C
102
{ACAD_REACTORS
330
D
102
}
330
D
100
AcDbGroup
300

 70
     1
 71
     1
340
B7B
340
B7D
340
B7C
  0
LAYOUT
  5
22
102
{ACAD_XDICTIONARY
360
12F9
102
}
102
{ACAD_REACTORS
330
1A
102
}
330
1A
100
AcDbPlotSettings
  1

  2
EPSON PM-3000C
  4
A4
  6

 40
3.757083177566528
 41
14.7637300491333
 42
3.757080078125
 43
3.757080078125
 44
209.9733276367186
 45
296.9683227539062
 46
0.0
 47
0.0
 48
0.0
 49
0.0
140
0.0
141
0.0
142
1.0
143
86.17507544956643
 70
 11952
 72
     1
 73
     1
 74
     0
  7
2.ctb
 75
     0
147
0.011604283428626
148
-712.9962601182651
149
432.7847223701391
100
AcDbLayout
  1
Model
 70
     1
 71
     0
 10
0.0
 20
0.0
 11
12.0
 21
9.0
 12
0.0
 22
0.0
 32
0.0
 14
0.0
 24
0.0
 34
0.0
 15
0.0
 25
0.0
 35
0.0
146
0.0
 13
0.0
 23
0.0
 33
0.0
 16
1.0
 26
0.0
 36
0.0
 17
0.0
 27
1.0
 37
0.0
 76
     0
330
1F
  0
LAYOUT
  5
51
102
{ACAD_XDICTIONARY
360
12FB
102
}
102
{ACAD_REACTORS
330
1A
102
}
330
1A
100
AcDbPlotSettings
  1

  2
None
  4

  6

 40
0.0
 41
0.0
 42
0.0
 43
0.0
 44
0.0
 45
0.0
 46
0.0
 47
0.0
 48
0.0
 49
0.0
140
0.0
141
0.0
142
1.0
143
1.0
 70
   688
 72
     0
 73
     0
 74
     5
  7

 75
    16
147
1.0
148
0.0
149
0.0
100
AcDbLayout
  1
レイアウト1
 70
     1
 71
     1
 10
0.0
 20
0.0
 11
12.0
 21
9.0
 12
0.0
 22
0.0
 32
0.0
 14
0.0
 24
0.0
 34
0.0
 15
0.0
 25
0.0
 35
0.0
146
0.0
 13
0.0
 23
0.0
 33
0.0
 16
1.0
 26
0.0
 36
0.0
 17
0.0
 27
1.0
 37
0.0
 76
     0
330
50
  0
LAYOUT
  5
56
102
{ACAD_XDICTIONARY
360
12FD
102
}
102
{ACAD_REACTORS
330
1A
102
}
330
1A
100
AcDbPlotSettings
  1

  2
None
  4

  6

 40
0.0
 41
0.0
 42
0.0
 43
0.0
 44
0.0
 45
0.0
 46
0.0
 47
0.0
 48
0.0
 49
0.0
140
0.0
141
0.0
142
1.0
143
1.0
 70
   688
 72
     0
 73
     0
 74
     5
  7

 75
    16
147
1.0
148
0.0
149
0.0
100
AcDbLayout
  1
レイアウト2
 70
     1
 71
     2
 10
0.0
 20
0.0
 11
12.0
 21
9.0
 12
0.0
 22
0.0
 32
0.0
 14
0.0
 24
0.0
 34
0.0
 15
0.0
 25
0.0
 35
0.0
146
0.0
 13
0.0
 23
0.0
 33
0.0
 16
1.0
 26
0.0
 36
0.0
 17
0.0
 27
1.0
 37
0.0
 76
     0
330
55
  0
MLINESTYLE
  5
18
102
{ACAD_REACTORS
330
17
102
}
330
17
100
AcDbMlineStyle
  2
STANDARD
 70
     0
  3

 62
   256
 51
90.0
 52
90.0
 71
     2
 49
0.5
 62
   256
  6
BYLAYER
 49
-0.5
 62
   256
  6
BYLAYER
  0
ACDBPLACEHOLDER
  5
F
102
{ACAD_REACTORS
330
E
102
}
330
E
  0
TABLESTYLE
  5
D3E
102
{ACAD_REACTORS
330
D0B
102
}
330
D0B
100
AcDbTableStyle
  3

 70
     0
 71
     1
 40
0.06
 41
0.06
280
     0
281
     0
  7
Standard
140
0.4
170
     4
 62
     0
 63
     7
283
     0
274
    -2
284
     0
 64
     0
275
    -2
285
     0
 65
     0
276
    -2
286
     1
 66
     0
277
    -2
287
     1
 67
     0
278
    -2
288
     0
 68
     0
279
    -2
289
     1
 69
     0
  7
Standard
140
0.5
170
     5
 62
     0
 63
     7
283
     0
274
    -2
284
     1
 64
     0
275
    -2
285
     0
 65
     0
276
    -2
286
     1
 66
     0
277
    -2
287
     1
 67
     0
278
    -2
288
     0
 68
     0
279
    -2
289
     1
 69
     0
  7
Standard
140
0.4
170
     4
 62
     0
 63
     7
283
     0
274
    -2
284
     1
 64
     0
275
    -2
285
     0
 65
     0
276
    -2
286
     1
 66
     0
277
    -2
287
     1
 67
     0
278
    -2
288
     0
 68
     0
279
    -2
289
     1
 69
     0
  0
TABLESTYLE
  5
D0C
102
{ACAD_REACTORS
330
D0B
102
}
330
D0B
100
AcDbTableStyle
  3
Standard
 70
     0
 71
     0
 40
1.5
 41
1.5
280
     0
281
     0
  7
Standard
140
4.5
170
     2
 62
     0
 63
     7
283
     0
274
    -2
284
     1
 64
     0
275
    -2
285
     1
 65
     0
276
    -2
286
     1
 66
     0
277
    -2
287
     1
 67
     0
278
    -2
288
     1
 68
     0
279
    -2
289
     1
 69
     0
  7
Standard
140
6.0
170
     5
 62
     0
 63
     7
283
     0
274
    -2
284
     1
 64
     0
275
    -2
285
     1
 65
     0
276
    -2
286
     1
 66
     0
277
    -2
287
     1
 67
     0
278
    -2
288
     1
 68
     0
279
    -2
289
     1
 69
     0
  7
Standard
140
4.5
170
     5
 62
     0
 63
     7
283
     0
274
    -2
284
     1
 64
     0
275
    -2
285
     1
 65
     0
276
    -2
286
     1
 66
     0
277
    -2
287
     1
 67
     0
278
    -2
288
     1
 68
     0
279
    -2
289
     1
 69
     0
  0
DICTIONARYVAR
  5
1009
102
{ACAD_REACTORS
330
5E
102
}
330
5E
100
DictionaryVariables
280
     0
  1
STANDARD
  0
DICTIONARYVAR
  5
5F
102
{ACAD_REACTORS
330
5E
102
}
330
5E
100
DictionaryVariables
280
     0
  1
2
  0
DICTIONARYVAR
  5
63
102
{ACAD_REACTORS
330
5E
102
}
330
5E
100
DictionaryVariables
280
     0
  1
1
  0
DICTIONARYVAR
  5
9C8
102
{ACAD_REACTORS
330
5E
102
}
330
5E
100
DictionaryVariables
280
     0
  1

  0
DICTIONARYVAR
  5
C3E
102
{ACAD_REACTORS
330
5E
102
}
330
5E
100
DictionaryVariables
280
     0
  1
96
  0
XRECORD
  5
12F6
102
{ACAD_REACTORS
330
1007
102
}
330
1007
100
AcDbXrecord
280
     1
1000
ADE02C001
1070
     1
1070
     0
1002
{
1002
}
1002
{
1002
}
1002
{
1002
}
1000

  0
XRECORD
  5
1006
102
{ACAD_REACTORS
330
1005
102
}
330
1005
100
AcDbXrecord
280
     1
330
7A0
330
7A1
330
7A9
330
7AA
330
94C
330
94D
330
943
330
944
330
939
330
93A
330
92F
330
930
330
7D9
330
7DA
330
AF9
330
AFA
330
AF0
330
AF1
330
BC3
330
BC4
330
BDD
330
BDE
330
C2A
330
C2B
330
B87
330
B88
330
B8F
330
B90
330
B98
330
B99
330
BB8
330
BB9
330
C04
330
C05
330
BFC
330
BFD
330
BF2
330
BF3
330
C10
330
C11
330
BA3
330
BA4
330
BAD
330
BAE
330
BCB
330
BCC
330
C21
330
C22
330
BE9
330
BEA
330
BD4
330
BD5
330
C36
330
C37
330
C18
330
C19
330
B57
330
B58
330
B4E
330
B4F
  0
DMMAPMANAGER
  5
D3B
102
{ACAD_REACTORS
330
D3A
102
}
330
D3A
100
AcDbDictionary
281
     1
  3
DisplayMap1
350
D3D
100
AcDbDictionaryWithDefault
340
D3D
100
AcMapDMMapManager
 70
     1
340
D3D
  0
DMSTYLELIBRARY
  5
D3C
102
{ACAD_REACTORS
330
D3A
102
}
330
D3A
100
AcMapDMStyleLibrary
 70
     1
 70
     1
360
D42
  0
DICTIONARY
  5
12F9
330
22
100
AcDbDictionary
280
     1
281
     1
  3
ACAD_XREC_ROUNDTRIP
360
12FA
  0
DICTIONARY
  5
12FB
330
51
100
AcDbDictionary
280
     1
281
     1
  3
ACAD_XREC_ROUNDTRIP
360
12FC
  0
DICTIONARY
  5
12FD
330
56
100
AcDbDictionary
280
     1
281
     1
  3
ACAD_XREC_ROUNDTRIP
360
12FE
  0
DMMAP
  5
D3D
102
{ACAD_REACTORS
330
D3B
330
D3F
102
}
330
D3B
100
AcMapDMMap
 70
     1
  1
既定値
 70
     1
330
0
100
AcMapDMMap
 70
     1
 90
        1
360
D3F
 90
        1
 40
1.797693134862314E+99
 70
     1
100
AcMapDMMap
 70
     2
 70
     0
 40
1.797693134862314E+99
290
     0
290
     1
 40
1.0
 40
3.0
  1
Legend
 90
        1
 40
1.797693134862314E+99
  1

 70
     0
 40
1.0
 70
     1
 90
        0
 90
        1
360
D40
  0
DMSTYLECATEGORY
  5
D42
102
{ACAD_REACTORS
330
D3C
102
}
330
D3C
100
AcMapDMStyleCategory
 70
     1
  1
スタイルを表示
 70
     0
  0
XRECORD
  5
12FA
102
{ACAD_REACTORS
330
12F9
102
}
330
12F9
100
AcDbXrecord
280
     1
102
SHADEPLOT
 70
     0
102
SHADEPLOTRESLEVEL
 70
     2
102
SHADEPLOTCUSTOMDPI
 70
   300
  0
XRECORD
  5
12FC
102
{ACAD_REACTORS
330
12FB
102
}
330
12FB
100
AcDbXrecord
280
     1
102
SHADEPLOT
 70
     0
102
SHADEPLOTRESLEVEL
 70
     2
102
SHADEPLOTCUSTOMDPI
 70
   300
  0
XRECORD
  5
12FE
102
{ACAD_REACTORS
330
12FD
102
}
330
12FD
100
AcDbXrecord
280
     1
102
SHADEPLOT
 70
     0
102
SHADEPLOTRESLEVEL
 70
     2
102
SHADEPLOTCUSTOMDPI
 70
   300
  0
DMBASEELEMENT
  5
D3F
102
{ACAD_REACTORS
330
D3D
102
}
330
D3D
100
AcMapDMBaseElement
 70
     1
  1
マップ ベース
 70
     1
330
D3D
100
AcMapDMBaseElement
 70
     1
  1

 70
     2
  1

 70
     1
 40
1.797693134862314E+99
 70
     1
 70
     1
 70
     1
 70
     1
360
D41
100
AcMapDMBaseElement
 70
     1
  0
DMDEFAULTSTYLE
  5
D40
102
{ACAD_REACTORS
330
D3D
102
}
330
D3D
100
AcMapDMDefaultStyle
 70
     1
 90
        1
  1
既定値
100
AcMapDMDefaultStyle
 70
     1
280
   100
 90
     0
  0
DMSTYLEREFERENCE
  5
D41
330
D3F
100
AcMapDMStyleReference
 70
     1
 70
     0
340
D40
330
D3D
  0
ENDSEC
  0
EOF
