  0
SECTION
  2
HEADER
  9
$ACADVER
  1
AC1015
  9
$ACADMAINTVER
 70
    20
  9
$DWGCODEPAGE
  3
ANSI_932
  9
$INSBASE
 10
0.0
 20
0.0
 30
0.0
  9
$EXTMIN
 10
692.3287683100352
 20
433.1107465280147
 30
-0.0000000349181948
  9
$EXTMAX
 10
39697.14506825825
 20
26577.91019057039
 30
0.0000000814935747
  9
$LIMMIN
 10
0.0
 20
0.0
  9
$LIMMAX
 10
420.0
 20
297.0
  9
$ORTHOMODE
 70
     0
  9
$REGENMODE
 70
     1
  9
$FILLMODE
 70
     1
  9
$QTEXTMODE
 70
     0
  9
$MIRRTEXT
 70
     0
  9
$LTSCALE
 40
1.0
  9
$ATTMODE
 70
     1
  9
$TEXTSIZE
 40
2.5
  9
$TRACEWID
 40
1.0
  9
$TEXTSTYLE
  7
Standard
  9
$CLAYER
  8
0
  9
$CELTYPE
  6
ByLayer
  9
$CECOLOR
 62
   256
  9
$CELTSCALE
 40
1.0
  9
$DISPSILH
 70
     0
  9
$DIMSCALE
 40
500.0
  9
$DIMASZ
 40
2.5
  9
$DIMEXO
 40
0.625
  9
$DIMDLI
 40
3.75
  9
$DIMRND
 40
0.0
  9
$DIMDLE
 40
0.0
  9
$DIMEXE
 40
1.25
  9
$DIMTP
 40
0.0
  9
$DIMTM
 40
0.0
  9
$DIMTXT
 40
2.5
  9
$DIMCEN
 40
2.5
  9
$DIMTSZ
 40
0.0
  9
$DIMTOL
 70
     0
  9
$DIMLIM
 70
     0
  9
$DIMTIH
 70
     0
  9
$DIMTOH
 70
     0
  9
$DIMSE1
 70
     0
  9
$DIMSE2
 70
     0
  9
$DIMTAD
 70
     1
  9
$DIMZIN
 70
     8
  9
$DIMBLK
  1

  9
$DIMASO
 70
     1
  9
$DIMSHO
 70
     1
  9
$DIMPOST
  1

  9
$DIMAPOST
  1

  9
$DIMALT
 70
     0
  9
$DIMALTD
 70
     3
  9
$DIMALTF
 40
0.03937007874016
  9
$DIMLFAC
 40
1.0
  9
$DIMTOFL
 70
     1
  9
$DIMTVP
 40
0.0
  9
$DIMTIX
 70
     0
  9
$DIMSOXD
 70
     0
  9
$DIMSAH
 70
     0
  9
$DIMBLK1
  1

  9
$DIMBLK2
  1

  9
$DIMSTYLE
  2
ISO-25
  9
$DIMCLRD
 70
     0
  9
$DIMCLRE
 70
     0
  9
$DIMCLRT
 70
     0
  9
$DIMTFAC
 40
1.0
  9
$DIMGAP
 40
0.625
  9
$DIMJUST
 70
     0
  9
$DIMSD1
 70
     0
  9
$DIMSD2
 70
     0
  9
$DIMTOLJ
 70
     0
  9
$DIMTZIN
 70
     8
  9
$DIMALTZ
 70
     0
  9
$DIMALTTZ
 70
     0
  9
$DIMUPT
 70
     0
  9
$DIMDEC
 70
     2
  9
$DIMTDEC
 70
     2
  9
$DIMALTU
 70
     2
  9
$DIMALTTD
 70
     3
  9
$DIMTXSTY
  7
Standard
  9
$DIMAUNIT
 70
     0
  9
$DIMADEC
 70
     0
  9
$DIMALTRND
 40
0.0
  9
$DIMAZIN
 70
     0
  9
$DIMDSEP
 70
    44
  9
$DIMATFIT
 70
     3
  9
$DIMFRAC
 70
     0
  9
$DIMLDRBLK
  1

  9
$DIMLUNIT
 70
     2
  9
$DIMLWD
 70
    -2
  9
$DIMLWE
 70
    -2
  9
$DIMTMOVE
 70
     0
  9
$LUNITS
 70
     2
  9
$LUPREC
 70
     4
  9
$SKETCHINC
 40
1.0
  9
$FILLETRAD
 40
0.0
  9
$AUNITS
 70
     0
  9
$AUPREC
 70
     0
  9
$MENU
  1
.
  9
$ELEVATION
 40
0.0
  9
$PELEVATION
 40
0.0
  9
$THICKNESS
 40
0.0
  9
$LIMCHECK
 70
     0
  9
$CHAMFERA
 40
0.0
  9
$CHAMFERB
 40
0.0
  9
$CHAMFERC
 40
0.0
  9
$CHAMFERD
 40
0.0
  9
$SKPOLY
 70
     0
  9
$TDCREATE
 40
2454361.399943392
  9
$TDUCREATE
 40
2454361.024943391
  9
$TDUPDATE
 40
2454571.492720602
  9
$TDUUPDATE
 40
2454571.117720602
  9
$TDINDWG
 40
0.0362854514
  9
$TDUSRTIMER
 40
0.0362746065
  9
$USRTIMER
 70
     1
  9
$ANGBASE
 50
0.0
  9
$ANGDIR
 70
     0
  9
$PDMODE
 70
     0
  9
$PDSIZE
 40
0.0
  9
$PLINEWID
 40
0.0
  9
$SPLFRAME
 70
     0
  9
$SPLINETYPE
 70
     6
  9
$SPLINESEGS
 70
     8
  9
$HANDSEED
  5
11F4
  9
$SURFTAB1
 70
     6
  9
$SURFTAB2
 70
     6
  9
$SURFTYPE
 70
     6
  9
$SURFU
 70
     6
  9
$SURFV
 70
     6
  9
$UCSBASE
  2

  9
$UCSNAME
  2

  9
$UCSORG
 10
0.0
 20
0.0
 30
0.0
  9
$UCSXDIR
 10
1.0
 20
0.0
 30
0.0
  9
$UCSYDIR
 10
0.0
 20
1.0
 30
0.0
  9
$UCSORTHOREF
  2

  9
$UCSORTHOVIEW
 70
     0
  9
$UCSORGTOP
 10
0.0
 20
0.0
 30
0.0
  9
$UCSORGBOTTOM
 10
0.0
 20
0.0
 30
0.0
  9
$UCSORGLEFT
 10
0.0
 20
0.0
 30
0.0
  9
$UCSORGRIGHT
 10
0.0
 20
0.0
 30
0.0
  9
$UCSORGFRONT
 10
0.0
 20
0.0
 30
0.0
  9
$UCSORGBACK
 10
0.0
 20
0.0
 30
0.0
  9
$PUCSBASE
  2

  9
$PUCSNAME
  2

  9
$PUCSORG
 10
0.0
 20
0.0
 30
0.0
  9
$PUCSXDIR
 10
1.0
 20
0.0
 30
0.0
  9
$PUCSYDIR
 10
0.0
 20
1.0
 30
0.0
  9
$PUCSORTHOREF
  2

  9
$PUCSORTHOVIEW
 70
     0
  9
$PUCSORGTOP
 10
0.0
 20
0.0
 30
0.0
  9
$PUCSORGBOTTOM
 10
0.0
 20
0.0
 30
0.0
  9
$PUCSORGLEFT
 10
0.0
 20
0.0
 30
0.0
  9
$PUCSORGRIGHT
 10
0.0
 20
0.0
 30
0.0
  9
$PUCSORGFRONT
 10
0.0
 20
0.0
 30
0.0
  9
$PUCSORGBACK
 10
0.0
 20
0.0
 30
0.0
  9
$USERI1
 70
     0
  9
$USERI2
 70
     0
  9
$USERI3
 70
     0
  9
$USERI4
 70
     0
  9
$USERI5
 70
     0
  9
$USERR1
 40
0.0
  9
$USERR2
 40
0.0
  9
$USERR3
 40
0.0
  9
$USERR4
 40
0.0
  9
$USERR5
 40
0.0
  9
$WORLDVIEW
 70
     1
  9
$SHADEDGE
 70
     3
  9
$SHADEDIF
 70
    70
  9
$TILEMODE
 70
     1
  9
$MAXACTVP
 70
    64
  9
$PINSBASE
 10
0.0
 20
0.0
 30
0.0
  9
$PLIMCHECK
 70
     0
  9
$PEXTMIN
 10
0.0
 20
0.0
 30
0.0
  9
$PEXTMAX
 10
0.0
 20
0.0
 30
0.0
  9
$PLIMMIN
 10
0.0
 20
0.0
  9
$PLIMMAX
 10
12.0
 20
9.0
  9
$UNITMODE
 70
     0
  9
$VISRETAIN
 70
     1
  9
$PLINEGEN
 70
     0
  9
$PSLTSCALE
 70
     1
  9
$TREEDEPTH
 70
  3020
  9
$CMLSTYLE
  2
Standard
  9
$CMLJUST
 70
     0
  9
$CMLSCALE
 40
20.0
  9
$PROXYGRAPHICS
 70
     1
  9
$MEASUREMENT
 70
     1
  9
$CELWEIGHT
370
    -1
  9
$ENDCAPS
280
     0
  9
$JOINSTYLE
280
     0
  9
$LWDISPLAY
290
     0
  9
$INSUNITS
 70
     6
  9
$HYPERLINKBASE
  1

  9
$STYLESHEET
  1
2.CTB
  9
$XEDIT
290
     1
  9
$CEPSNTYPE
380
     0
  9
$PSTYLEMODE
290
     1
  9
$FINGERPRINTGUID
  2
{FDEAD578-A652-11D2-9A35-0060089B3A3F}
  9
$VERSIONGUID
  2
{4E241F4E-7225-429D-81D5-4666219220EA}
  9
$EXTNAMES
290
     1
  9
$PSVPSCALE
 40
0.0
  9
$OLESTARTUP
290
     0
  0
ENDSEC
  0
SECTION
  2
CLASSES
  0
CLASS
  1
ACDBDICTIONARYWDFLT
  2
AcDbDictionaryWithDefault
  3
ObjectDBX Classes
 90
        0
280
     0
281
     0
  0
CLASS
  1
ACDBPLACEHOLDER
  2
AcDbPlaceHolder
  3
ObjectDBX Classes
 90
        0
280
     0
281
     0
  0
CLASS
  1
LAYOUT
  2
AcDbLayout
  3
ObjectDBX Classes
 90
        0
280
     0
281
     0
  0
CLASS
  1
DICTIONARYVAR
  2
AcDbDictionaryVar
  3
ObjectDBX Classes
 90
        0
280
     0
281
     0
  0
CLASS
  1
SORTENTSTABLE
  2
AcDbSortentsTable
  3
ObjectDBX Classes
 90
        0
280
     0
281
     0
  0
CLASS
  1
TABLESTYLE
  2
AcDbTableStyle
  3
ObjectDBX Classes
 90
     2047
280
     0
281
     0
  0
CLASS
  1
AECC_TREE_NODE
  2
AeccDbTreeNode
  3
AeccvBase10|Product Desc: Autodesk Civil 3D |Company: Autodesk,Inc. |WEB Address: www.autodesk.com
 90
     1023
280
     0
281
     0
  0
CLASS
  1
AECC_CLASS_NODE
  2
AeccDbClassNode
  3
AeccLand10|Product Desc: Autodesk Civil 3D |Company: Autodesk,Inc. |WEB Address: www.autodesk.com
 90
     1023
280
     0
281
     0
  0
CLASS
  1
AECC_ROOT_SETTINGS_NODE
  2
AeccDbRootSettingsNode
  3
AeccvBase10|Product Desc: Autodesk Civil 3D |Company: Autodesk,Inc. |WEB Address: www.autodesk.com
 90
     1023
280
     0
281
     0
  0
CLASS
  1
AEC_VARS_DWG_SETUP
  2
AecDbVarsDwgSetup
  3
AecBase40|Product Desc: Autodesk Architectural Desktop 2005 |Company: Autodesk,Inc. |WEB Address: www.autodesk.com
 90
      129
280
     0
281
     0
  0
CLASS
  1
DMMAPMANAGER
  2
AcMapDMMapManager
  3
AcMapDisplayManagement
 90
     1024
280
     0
281
     0
  0
CLASS
  1
DMSTYLELIBRARY
  2
AcMapDMStyleLibrary
  3
AcMapDisplayManagement
 90
     1024
280
     0
281
     0
  0
CLASS
  1
DMMAP
  2
AcMapDMMap
  3
AcMapDisplayManagement
 90
     1024
280
     0
281
     0
  0
CLASS
  1
DMBASEELEMENT
  2
AcMapDMBaseElement
  3
AcMapDisplayManagement
 90
     1024
280
     0
281
     0
  0
CLASS
  1
DMDEFAULTSTYLE
  2
AcMapDMDefaultStyle
  3
AcMapDisplayManagement
 90
     1024
280
     0
281
     0
  0
CLASS
  1
DMSTYLEREFERENCE
  2
AcMapDMStyleReference
  3
AcMapDisplayManagement
 90
     1024
280
     0
281
     0
  0
CLASS
  1
DMSTYLECATEGORY
  2
AcMapDMStyleCategory
  3
AcMapDisplayManagement
 90
     1024
280
     0
281
     0
  0
CLASS
  1
AECC_SETTINGS_NODE
  2
AeccDbSettingsNode
  3
AeccvBase10|Product Desc: Autodesk Civil 3D |Company: Autodesk,Inc. |WEB Address: www.autodesk.com
 90
     1023
280
     0
281
     0
  0
CLASS
  1
AECC_PROFILE_VIEW_STYLE
  2
AeccDbGraphStyleProfile
  3
AeccLand10|Product Desc: Autodesk Civil 3D |Company: Autodesk,Inc. |WEB Address: www.autodesk.com
 90
      129
280
     0
281
     0
  0
CLASS
  1
AECC_PROFILE_VIEW_BAND_STYLE_SET
  2
AeccDbGraphProfileBandStyleSet
  3
AeccLand10|Product Desc: Autodesk Civil 3D |Company: Autodesk,Inc. |WEB Address: www.autodesk.com
 90
      129
280
     0
281
     0
  0
CLASS
  1
AECC_PROFILE_VIEW_DATA_BAND_STYLE
  2
AeccDbGraphStyleProfileDataBands
  3
AeccLand10|Product Desc: Autodesk Civil 3D |Company: Autodesk,Inc. |WEB Address: www.autodesk.com
 90
      129
280
     0
281
     0
  0
CLASS
  1
AECC_LABEL_NODE
  2
AeccDbLabelNode
  3
AeccLand10|Product Desc: Autodesk Civil 3D |Company: Autodesk,Inc. |WEB Address: www.autodesk.com
 90
     1023
280
     0
281
     0
  0
CLASS
  1
AECC_LABEL_COLLECTOR_STYLE
  2
AeccDbLabelStyleCollector
  3
AeccLand10|Product Desc: Autodesk Civil 3D |Company: Autodesk,Inc. |WEB Address: www.autodesk.com
 90
     1023
280
     0
281
     0
  0
CLASS
  1
AECC_LABEL_TEXT_STYLE
  2
AeccDbLabelStyleText
  3
AeccLand10|Product Desc: Autodesk Civil 3D |Company: Autodesk,Inc. |WEB Address: www.autodesk.com
 90
     1023
280
     0
281
     0
  0
CLASS
  1
AECC_PROFILE_VIEW_HORIZONTAL_GEOMETRY_BAND_STYLE
  2
AeccDbGraphStyleHorGeometryBands
  3
AeccLand10|Product Desc: Autodesk Civil 3D |Company: Autodesk,Inc. |WEB Address: www.autodesk.com
 90
      129
280
     0
281
     0
  0
CLASS
  1
AECC_PROFILE_VIEW_VERTICAL_GEOMETRY_BAND_STYLE
  2
AeccDbGraphStyleVertGeometryBands
  3
AeccLand10|Product Desc: Autodesk Civil 3D |Company: Autodesk,Inc. |WEB Address: www.autodesk.com
 90
      129
280
     0
281
     0
  0
CLASS
  1
AECC_LABEL_RADIAL_LINE_STYLE
  2
AeccDbLabelStyleRadialLine
  3
AeccLand10|Product Desc: Autodesk Civil 3D |Company: Autodesk,Inc. |WEB Address: www.autodesk.com
 90
     1023
280
     0
281
     0
  0
CLASS
  1
AECC_POINT_STYLE
  2
AeccDbPointStyle
  3
AeccLand10|Product Desc: Autodesk Civil 3D |Company: Autodesk,Inc. |WEB Address: www.autodesk.com
 90
      895
280
     0
281
     0
  0
CLASS
  1
AECC_PROFILE_LABEL_SET
  2
AeccDbVAlignStnLabelsDlgTemplate
  3
AeccLand10|Product Desc: Autodesk Civil 3D |Company: Autodesk,Inc. |WEB Address: www.autodesk.com
 90
     1023
280
     0
281
     0
  0
CLASS
  1
AECC_SECTION_VIEW_STYLE
  2
AeccDbGraphStyleCrossSection
  3
AeccLand10|Product Desc: Autodesk Civil 3D |Company: Autodesk,Inc. |WEB Address: www.autodesk.com
 90
      129
280
     0
281
     0
  0
CLASS
  1
AECC_SECTION_VIEW_BAND_STYLE_SET
  2
AeccDbGraphSectionBandStyleSet
  3
AeccLand10|Product Desc: Autodesk Civil 3D |Company: Autodesk,Inc. |WEB Address: www.autodesk.com
 90
      129
280
     0
281
     0
  0
CLASS
  1
AECC_SECTION_VIEW_DATA_BAND_STYLE
  2
AeccDbGraphStyleSectionDataBands
  3
AeccLand10|Product Desc: Autodesk Civil 3D |Company: Autodesk,Inc. |WEB Address: www.autodesk.com
 90
      129
280
     0
281
     0
  0
CLASS
  1
AECC_SECTION_LABEL_SET
  2
AeccDbSectionLabelsDlgTemplate
  3
AeccLand10|Product Desc: Autodesk Civil 3D |Company: Autodesk,Inc. |WEB Address: www.autodesk.com
 90
     1023
280
     0
281
     0
  0
CLASS
  1
AECC_ALIGNMENT_STYLE
  2
AeccDbAlignmentStyle
  3
AeccLand10|Product Desc: Autodesk Civil 3D |Company: Autodesk,Inc. |WEB Address: www.autodesk.com
 90
     1023
280
     0
281
     0
  0
CLASS
  1
AECC_LABEL_VECTOR_ARROW_STYLE
  2
AeccDbLabelStyleVectorArrow
  3
AeccLand10|Product Desc: Autodesk Civil 3D |Company: Autodesk,Inc. |WEB Address: www.autodesk.com
 90
     1023
280
     0
281
     0
  0
CLASS
  1
AECC_ALIGNMENT_LABEL_SET
  2
AeccDbAlignStnLabelsDlgTemplate
  3
AeccLand10|Product Desc: Autodesk Civil 3D |Company: Autodesk,Inc. |WEB Address: www.autodesk.com
 90
     1023
280
     0
281
     0
  0
CLASS
  1
AECC_SURFACE_STYLE
  2
AeccDbSurfaceStyle
  3
AeccLand10|Product Desc: Autodesk Civil 3D |Company: Autodesk,Inc. |WEB Address: www.autodesk.com
 90
      129
280
     0
281
     0
  0
CLASS
  1
AECC_LEGEND_TABLE_STYLE
  2
AeccDbLegendScheduleTableStyle
  3
AeccLand10|Product Desc: Autodesk Civil 3D |Company: Autodesk,Inc. |WEB Address: www.autodesk.com
 90
     1023
280
     0
281
     0
  0
CLASS
  1
AECC_SECTION_STYLE
  2
AeccDbSectionStyle
  3
AeccLand10|Product Desc: Autodesk Civil 3D |Company: Autodesk,Inc. |WEB Address: www.autodesk.com
 90
     1023
280
     0
281
     0
  0
CLASS
  1
AECC_GRADING_STYLE
  2
AeccDbGradingStyle
  3
AeccLand10|Product Desc: Autodesk Civil 3D |Company: Autodesk,Inc. |WEB Address: www.autodesk.com
 90
     1023
280
     0
281
     0
  0
CLASS
  1
AECC_GRADING_CRITERIA
  2
AeccDbGradingCriteria
  3
AeccLand10|Product Desc: Autodesk Civil 3D |Company: Autodesk,Inc. |WEB Address: www.autodesk.com
 90
     1023
280
     0
281
     0
  0
CLASS
  1
AECC_PARCEL_STYLE
  2
AeccDbParcelStyle
  3
AeccLand10|Product Desc: Autodesk Civil 3D |Company: Autodesk,Inc. |WEB Address: www.autodesk.com
 90
      129
280
     0
281
     0
  0
CLASS
  1
AECC_SAMPLE_LINE_GROUP_STYLE
  2
AeccDbSampleLineGroupStyle
  3
AeccLand10|Product Desc: Autodesk Civil 3D |Company: Autodesk,Inc. |WEB Address: www.autodesk.com
 90
      129
280
     0
281
     0
  0
CLASS
  1
AECC_SHEET_STYLE
  2
AeccDbSheetStyle
  3
AeccLand10|Product Desc: Autodesk Civil 3D |Company: Autodesk,Inc. |WEB Address: www.autodesk.com
 90
      129
280
     0
281
     0
  0
CLASS
  1
AECC_SAMPLE_LINE_STYLE
  2
AeccDbSampleLineStyle
  3
AeccLand10|Product Desc: Autodesk Civil 3D |Company: Autodesk,Inc. |WEB Address: www.autodesk.com
 90
     1023
280
     0
281
     0
  0
CLASS
  1
AECC_PROFILE_STYLE
  2
AeccDbVAlignmentStyle
  3
AeccLand10|Product Desc: Autodesk Civil 3D |Company: Autodesk,Inc. |WEB Address: www.autodesk.com
 90
     1023
280
     0
281
     0
  0
CLASS
  1
AECC_STATION_FORMAT_STYLE
  2
AeccDbStationFormatStyle
  3
AeccLand10|Product Desc: Autodesk Civil 3D |Company: Autodesk,Inc. |WEB Address: www.autodesk.com
 90
     1023
280
     0
281
     0
  0
CLASS
  1
AECC_TABLE_STYLE
  2
AeccDbScheduleTableStyle
  3
AeccLand10|Product Desc: Autodesk Civil 3D |Company: Autodesk,Inc. |WEB Address: www.autodesk.com
 90
     1023
280
     0
281
     0
  0
CLASS
  1
AECC_GRADING_CRITERIA_SET
  2
AeccDbGradingCriteriaSet
  3
AeccLand10|Product Desc: Autodesk Civil 3D |Company: Autodesk,Inc. |WEB Address: www.autodesk.com
 90
     1023
280
     0
281
     0
  0
CLASS
  1
AECC_FORMAT_MANAGER_OBJECT
  2
AeccDbFormatManagerObject
  3
AeccLand10|Product Desc: Autodesk Civil 3D |Company: Autodesk,Inc. |WEB Address: www.autodesk.com
 90
     1023
280
     0
281
     0
  0
CLASS
  1
AECC_POINT_DESCRIPTION_KEY_SET_NODE
  2
AeccDbPointDescKeySetsNode
  3
AeccvBase10|Product Desc: Autodesk Civil 3D |Company: Autodesk,Inc. |WEB Address: www.autodesk.com
 90
     1023
280
     0
281
     0
  0
ENDSEC
  0
SECTION
  2
TABLES
  0
TABLE
  2
VPORT
  5
8
330
0
100
AcDbSymbolTable
 70
     2
  0
VPORT
  5
11EC
330
8
100
AcDbSymbolTableRecord
100
AcDbViewportTableRecord
  2
*Active
 70
     0
 10
0.0
 20
0.0
 11
1.0
 21
1.0
 12
19848.57253412912
 22
13288.95509528519
 13
0.0
 23
0.0
 14
10.0
 24
10.0
 15
10.0
 25
10.0
 16
0.0
 26
0.0
 36
1.0
 17
0.0
 27
0.0
 37
0.0
 40
32536.31834339602
 41
1.227931488801053
 42
50.0
 43
0.0
 44
0.0
 50
0.0
 51
0.0
 71
     0
 72
  1000
 73
     1
 74
     1
 75
     0
 76
     0
 77
     0
 78
     0
281
     0
 65
     1
110
0.0
120
0.0
130
0.0
111
1.0
121
0.0
131
0.0
112
0.0
122
1.0
132
0.0
 79
     0
146
0.0
  0
ENDTAB
  0
TABLE
  2
LTYPE
  5
5
330
0
100
AcDbSymbolTable
 70
     3
  0
LTYPE
  5
14
330
5
100
AcDbSymbolTableRecord
100
AcDbLinetypeTableRecord
  2
ByBlock
 70
     0
  3

 72
    65
 73
     0
 40
0.0
  0
LTYPE
  5
15
330
5
100
AcDbSymbolTableRecord
100
AcDbLinetypeTableRecord
  2
ByLayer
 70
     0
  3

 72
    65
 73
     0
 40
0.0
  0
LTYPE
  5
16
330
5
100
AcDbSymbolTableRecord
100
AcDbLinetypeTableRecord
  2
Continuous
 70
     0
  3
Solid line
 72
    65
 73
     0
 40
0.0
  0
LTYPE
  5
246
330
5
100
AcDbSymbolTableRecord
100
AcDbLinetypeTableRecord
  2
DASHED
 70
     0
  3
__ __ __ __ __ __ __ __ __ __ __ __ __ __ __
 72
    65
 73
     2
 40
3.0
 49
2.0
 74
     0
 49
-1.0
 74
     0
  0
LTYPE
  5
247
330
5
100
AcDbSymbolTableRecord
100
AcDbLinetypeTableRecord
  2
DASHDOT
 70
     0
  3
__ . __ . __ . __ . __ . __ . __ . __ . __ . __
 72
    65
 73
     4
 40
8.5
 49
6.0
 74
     0
 49
-1.0
 74
     0
 49
0.5
 74
     0
 49
-1.0
 74
     0
  0
ENDTAB
  0
TABLE
  2
LAYER
  5
2
330
0
100
AcDbSymbolTable
 70
    18
  0
LAYER
  5
10
330
2
100
AcDbSymbolTableRecord
100
AcDbLayerTableRecord
  2
0
 70
     0
 62
     7
  6
Continuous
370
    -3
390
F
  0
LAYER
  5
248
330
2
100
AcDbSymbolTableRecord
100
AcDbLayerTableRecord
  2
DEFPOINTS
 70
     0
 62
     4
  6
Continuous
290
     0
370
    -3
390
F
  0
LAYER
  5
249
330
2
100
AcDbSymbolTableRecord
100
AcDbLayerTableRecord
  2
寸法
 70
     0
 62
     6
  6
Continuous
370
    -3
390
F
  0
LAYER
  5
24A
330
2
100
AcDbSymbolTableRecord
100
AcDbLayerTableRecord
  2
画層1-1
 70
     0
 62
    82
  6
Continuous
370
    -3
390
F
  0
LAYER
  5
24B
330
2
100
AcDbSymbolTableRecord
100
AcDbLayerTableRecord
  2
図面枠
 70
     0
 62
     7
  6
Continuous
370
    -3
390
F
  0
LAYER
  5
24C
330
2
100
AcDbSymbolTableRecord
100
AcDbLayerTableRecord
  2
ﾊｯﾁﾝｸﾞ
 70
     0
 62
     1
  6
Continuous
370
    -3
390
F
  0
LAYER
  5
24D
330
2
100
AcDbSymbolTableRecord
100
AcDbLayerTableRecord
  2
画層1
 70
     0
 62
     7
  6
Continuous
370
    -3
390
F
  0
LAYER
  5
24E
330
2
100
AcDbSymbolTableRecord
100
AcDbLayerTableRecord
  2
画層2
 70
     0
 62
    40
  6
Continuous
370
    -3
390
F
  0
LAYER
  5
24F
330
2
100
AcDbSymbolTableRecord
100
AcDbLayerTableRecord
  2
通り芯
 70
     0
 62
     4
  6
Continuous
370
    13
390
F
  0
LAYER
  5
250
330
2
100
AcDbSymbolTableRecord
100
AcDbLayerTableRecord
  2
ﾈｯﾄ
 70
     0
 62
   230
  6
Continuous
370
    13
390
F
  0
LAYER
  5
251
330
2
100
AcDbSymbolTableRecord
100
AcDbLayerTableRecord
  2
画層3-3
 70
     0
 62
     1
  6
Continuous
370
    -3
390
F
  0
LAYER
  5
252
330
2
100
AcDbSymbolTableRecord
100
AcDbLayerTableRecord
  2
画層3-1
 70
     0
 62
     3
  6
Continuous
370
    -3
390
F
  0
LAYER
  5
253
330
2
100
AcDbSymbolTableRecord
100
AcDbLayerTableRecord
  2
画層3-2
 70
     0
 62
    60
  6
Continuous
370
    -3
390
F
  0
LAYER
  5
254
330
2
100
AcDbSymbolTableRecord
100
AcDbLayerTableRecord
  2
画層2-1
 70
     0
 62
     7
  6
Continuous
370
    -3
390
F
  0
LAYER
  5
255
330
2
100
AcDbSymbolTableRecord
100
AcDbLayerTableRecord
  2
画層3-通り芯
 70
     0
 62
     4
  6
Continuous
370
    -3
390
F
  0
LAYER
  5
256
330
2
100
AcDbSymbolTableRecord
100
AcDbLayerTableRecord
  2
画層3-寸法
 70
     0
 62
     6
  6
Continuous
370
    -3
390
F
  0
LAYER
  5
257
330
2
100
AcDbSymbolTableRecord
100
AcDbLayerTableRecord
  2
寸法文字
 70
     0
 62
     6
  6
Continuous
370
    -3
390
F
  0
LAYER
  5
258
330
2
100
AcDbSymbolTableRecord
100
AcDbLayerTableRecord
  2
寸法引出
 70
     0
 62
     3
  6
Continuous
370
    -3
390
F
  0
ENDTAB
  0
TABLE
  2
STYLE
  5
3
330
0
100
AcDbSymbolTable
 70
     4
  0
STYLE
  5
11
330
3
100
AcDbSymbolTableRecord
100
AcDbTextStyleTableRecord
  2
Standard
 70
     0
 40
0.0
 41
1.0
 50
0.0
 71
     0
 42
2.5
  3
txt
  4

  0
STYLE
  5
259
330
3
100
AcDbSymbolTableRecord
100
AcDbTextStyleTableRecord
  2
1_100
 70
     0
 40
0.0
 41
0.75
 50
0.0
 71
     0
 42
2.5
  3
romans.shx
  4
extfont2.shx
  0
STYLE
  5
25A
330
3
100
AcDbSymbolTableRecord
100
AcDbTextStyleTableRecord
  2
STYLE1
 70
     0
 40
0.0
 41
0.75
 50
0.0
 71
     0
 42
0.2
  3
HGRSKP.TTF
  4

1001
ACAD
1000
HGSeikaishotaiPRO
1071
    32833
  0
STYLE
  5
25B
330
3
100
AcDbSymbolTableRecord
100
AcDbTextStyleTableRecord
  2
MSP明朝
 70
     0
 40
0.0
 41
0.75
 50
0.0
 71
     0
 42
0.2
  3
MS PMincho.ttf
  4

1001
ACAD
1000
MS PMincho
1071
    32786
  0
ENDTAB
  0
TABLE
  2
VIEW
  5
6
330
0
100
AcDbSymbolTable
 70
     0
  0
ENDTAB
  0
TABLE
  2
UCS
  5
7
330
0
100
AcDbSymbolTable
 70
     0
  0
ENDTAB
  0
TABLE
  2
APPID
  5
9
330
0
100
AcDbSymbolTable
 70
     4
  0
APPID
  5
12
330
9
100
AcDbSymbolTableRecord
100
AcDbRegAppTableRecord
  2
ACAD
 70
     0
  0
APPID
  5
25F
330
9
100
AcDbSymbolTableRecord
100
AcDbRegAppTableRecord
  2
AcDbBlockRepETag
 70
     0
  0
APPID
  5
EEA
330
9
100
AcDbSymbolTableRecord
100
AcDbRegAppTableRecord
  2
ADE
 70
     0
  0
APPID
  5
EEB
330
9
100
AcDbSymbolTableRecord
100
AcDbRegAppTableRecord
  2
DCO15
 70
     0
  0
ENDTAB
  0
TABLE
  2
DIMSTYLE
  5
A
330
0
100
AcDbSymbolTable
 70
     5
100
AcDbDimStyleTable
 71
     0
  0
DIMSTYLE
105
27
330
A
100
AcDbSymbolTableRecord
100
AcDbDimStyleTableRecord
  2
ISO-25
 70
     0
 41
2.5
 42
0.625
 43
3.75
 44
1.25
 73
     0
 74
     0
 77
     1
 78
     8
140
2.5
141
2.5
143
0.03937007874016
147
0.625
171
     3
172
     1
271
     2
272
     2
274
     3
278
    44
283
     0
284
     8
340
11
  0
DIMSTYLE
105
25C
330
A
100
AcDbSymbolTableRecord
100
AcDbDimStyleTableRecord
  2
STANDARD
 70
     0
340
11
  0
DIMSTYLE
105
25D
102
{ACAD_REACTORS
330
56B
330
56E
330
596
330
597
330
5F0
330
5F5
330
5F6
330
622
330
64D
330
64E
330
64F
330
667
330
668
330
677
330
67C
330
6D9
330
6F7
330
722
330
758
330
75D
330
778
330
7C9
330
7CF
330
7D0
330
7D3
330
7D4
330
7D5
330
7D6
330
7F1
330
80B
330
816
330
817
330
82F
102
}
330
A
100
AcDbSymbolTableRecord
100
AcDbDimStyleTableRecord
  2
1_100
 70
     0
 40
100.0
 41
0.6
 42
3.0
 43
10.0
 44
0.0
 73
     0
 74
     0
 77
     1
 78
     8
140
3.0
141
0.0
147
1.0
172
     1
173
     1
176
   256
177
   256
178
   256
271
     1
272
     1
277
     6
279
     2
284
     8
340
259
341
87
343
87
344
87
  0
DIMSTYLE
105
25E
102
{ACAD_REACTORS
330
5B5
330
5B7
102
}
330
A
100
AcDbSymbolTableRecord
100
AcDbDimStyleTableRecord
  2
1_100_B
 70
     0
 40
100.0
 41
0.8
 42
2.0
 43
10.0
 44
0.0
 73
     0
 74
     0
 77
     1
 78
    12
140
3.0
147
0.5
172
     1
173
     1
176
   256
177
   256
178
   256
271
     1
272
     1
277
     6
279
     2
340
259
341
87
343
87
344
87
  0
DIMSTYLE
105
EE9
330
A
100
AcDbSymbolTableRecord
100
AcDbDimStyleTableRecord
  2
1_50
 70
     0
 40
50.0
 41
1.0
 42
3.0
 43
10.0
 44
0.0
 73
     0
 74
     0
 77
     1
 78
    12
140
3.0
141
0.0
147
1.0
172
     1
173
     1
176
   256
177
   256
178
   256
271
     1
272
     1
277
     6
279
     2
340
259
341
87
343
87
344
87
  0
ENDTAB
  0
TABLE
  2
BLOCK_RECORD
  5
1
330
0
100
AcDbSymbolTable
 70
    37
  0
BLOCK_RECORD
  5
1F
102
{ACAD_XDICTIONARY
360
11E8
102
}
330
1
100
AcDbSymbolTableRecord
100
AcDbBlockTableRecord
  2
*Model_Space
340
22
  0
BLOCK_RECORD
  5
50
330
1
100
AcDbSymbolTableRecord
100
AcDbBlockTableRecord
  2
*Paper_Space
340
51
  0
BLOCK_RECORD
  5
55
330
1
100
AcDbSymbolTableRecord
100
AcDbBlockTableRecord
  2
*Paper_Space0
340
56
  0
BLOCK_RECORD
  5
87
330
1
100
AcDbSymbolTableRecord
100
AcDbBlockTableRecord
  2
_ORIGIN
340
0
102
{BLKREFS
331
A0B
331
A0C
331
A14
331
A15
331
A1D
331
A1E
331
A26
331
A27
331
A31
331
A32
331
A3B
331
A3C
331
A44
331
A45
331
A4E
331
A4F
331
A57
331
A58
331
A60
331
A61
331
A6C
331
A6D
331
A77
331
A78
331
A7F
331
A80
331
A88
331
A89
331
A91
331
A92
331
A9A
331
A9B
331
AA3
331
AA4
331
AAC
331
AAD
331
AB5
331
AB6
331
AC1
331
AC2
331
AC9
331
ACA
331
AD5
331
AD6
331
ADD
331
ADE
331
AE6
331
AE7
331
AEF
331
AF0
331
AF9
331
AFA
331
B04
331
B05
331
B0F
331
B10
331
B17
331
B18
331
B20
331
B21
331
B2B
331
B2C
331
B34
331
B35
331
B40
331
B41
331
B4B
331
B4C
331
B53
331
B54
102
}
  0
BLOCK_RECORD
  5
84E
330
1
100
AcDbSymbolTableRecord
100
AcDbBlockTableRecord
  2
*D2
340
0
  0
BLOCK_RECORD
  5
85A
330
1
100
AcDbSymbolTableRecord
100
AcDbBlockTableRecord
  2
*D3
340
0
  0
BLOCK_RECORD
  5
866
330
1
100
AcDbSymbolTableRecord
100
AcDbBlockTableRecord
  2
*D4
340
0
  0
BLOCK_RECORD
  5
872
330
1
100
AcDbSymbolTableRecord
100
AcDbBlockTableRecord
  2
*D5
340
0
  0
BLOCK_RECORD
  5
87E
330
1
100
AcDbSymbolTableRecord
100
AcDbBlockTableRecord
  2
*D6
340
0
  0
BLOCK_RECORD
  5
88C
330
1
100
AcDbSymbolTableRecord
100
AcDbBlockTableRecord
  2
*D7
340
0
  0
BLOCK_RECORD
  5
898
330
1
100
AcDbSymbolTableRecord
100
AcDbBlockTableRecord
  2
*D8
340
0
  0
BLOCK_RECORD
  5
8A4
330
1
100
AcDbSymbolTableRecord
100
AcDbBlockTableRecord
  2
*D9
340
0
  0
BLOCK_RECORD
  5
8B2
330
1
100
AcDbSymbolTableRecord
100
AcDbBlockTableRecord
  2
*D10
340
0
  0
BLOCK_RECORD
  5
8BE
330
1
100
AcDbSymbolTableRecord
100
AcDbBlockTableRecord
  2
*D11
340
0
  0
BLOCK_RECORD
  5
8CA
330
1
100
AcDbSymbolTableRecord
100
AcDbBlockTableRecord
  2
*D12
340
0
  0
BLOCK_RECORD
  5
8D8
330
1
100
AcDbSymbolTableRecord
100
AcDbBlockTableRecord
  2
*D13
340
0
  0
BLOCK_RECORD
  5
8E6
330
1
100
AcDbSymbolTableRecord
100
AcDbBlockTableRecord
  2
*D14
340
0
  0
BLOCK_RECORD
  5
8F2
330
1
100
AcDbSymbolTableRecord
100
AcDbBlockTableRecord
  2
*D15
340
0
  0
BLOCK_RECORD
  5
8FE
330
1
100
AcDbSymbolTableRecord
100
AcDbBlockTableRecord
  2
*D16
340
0
  0
BLOCK_RECORD
  5
90A
330
1
100
AcDbSymbolTableRecord
100
AcDbBlockTableRecord
  2
*D17
340
0
  0
BLOCK_RECORD
  5
916
330
1
100
AcDbSymbolTableRecord
100
AcDbBlockTableRecord
  2
*D18
340
0
  0
BLOCK_RECORD
  5
922
330
1
100
AcDbSymbolTableRecord
100
AcDbBlockTableRecord
  2
*D19
340
0
  0
BLOCK_RECORD
  5
92E
330
1
100
AcDbSymbolTableRecord
100
AcDbBlockTableRecord
  2
*D20
340
0
  0
BLOCK_RECORD
  5
93A
330
1
100
AcDbSymbolTableRecord
100
AcDbBlockTableRecord
  2
*D21
340
0
  0
BLOCK_RECORD
  5
948
330
1
100
AcDbSymbolTableRecord
100
AcDbBlockTableRecord
  2
*D22
340
0
  0
BLOCK_RECORD
  5
954
330
1
100
AcDbSymbolTableRecord
100
AcDbBlockTableRecord
  2
*D23
340
0
  0
BLOCK_RECORD
  5
962
330
1
100
AcDbSymbolTableRecord
100
AcDbBlockTableRecord
  2
*D24
340
0
  0
BLOCK_RECORD
  5
96E
330
1
100
AcDbSymbolTableRecord
100
AcDbBlockTableRecord
  2
*D25
340
0
  0
BLOCK_RECORD
  5
97A
330
1
100
AcDbSymbolTableRecord
100
AcDbBlockTableRecord
  2
*D26
340
0
  0
BLOCK_RECORD
  5
986
330
1
100
AcDbSymbolTableRecord
100
AcDbBlockTableRecord
  2
*D27
340
0
  0
BLOCK_RECORD
  5
992
330
1
100
AcDbSymbolTableRecord
100
AcDbBlockTableRecord
  2
*D28
340
0
  0
BLOCK_RECORD
  5
9A0
330
1
100
AcDbSymbolTableRecord
100
AcDbBlockTableRecord
  2
*D29
340
0
  0
BLOCK_RECORD
  5
9AE
330
1
100
AcDbSymbolTableRecord
100
AcDbBlockTableRecord
  2
*D30
340
0
  0
BLOCK_RECORD
  5
9BA
330
1
100
AcDbSymbolTableRecord
100
AcDbBlockTableRecord
  2
*D31
340
0
  0
BLOCK_RECORD
  5
9C6
330
1
100
AcDbSymbolTableRecord
100
AcDbBlockTableRecord
  2
*D32
340
0
  0
BLOCK_RECORD
  5
9D4
330
1
100
AcDbSymbolTableRecord
100
AcDbBlockTableRecord
  2
*D33
340
0
  0
BLOCK_RECORD
  5
9E0
330
1
100
AcDbSymbolTableRecord
100
AcDbBlockTableRecord
  2
*D34
340
0
  0
BLOCK_RECORD
  5
9EE
330
1
100
AcDbSymbolTableRecord
100
AcDbBlockTableRecord
  2
*D35
340
0
  0
BLOCK_RECORD
  5
9FC
330
1
100
AcDbSymbolTableRecord
100
AcDbBlockTableRecord
  2
*D36
340
0
  0
ENDTAB
  0
ENDSEC
  0
SECTION
  2
BLOCKS
  0
BLOCK
  5
20
330
1F
100
AcDbEntity
  8
0
100
AcDbBlockBegin
  2
*Model_Space
 70
     0
 10
0.0
 20
0.0
 30
0.0
  3
*Model_Space
  1

  0
ENDBLK
  5
21
330
1F
100
AcDbEntity
  8
0
100
AcDbBlockEnd
  0
BLOCK
  5
52
330
50
100
AcDbEntity
 67
     1
  8
0
100
AcDbBlockBegin
  2
*Paper_Space
 70
     0
 10
0.0
 20
0.0
 30
0.0
  3
*Paper_Space
  1

  0
ENDBLK
  5
53
330
50
100
AcDbEntity
 67
     1
  8
0
100
AcDbBlockEnd
  0
BLOCK
  5
57
330
55
100
AcDbEntity
  8
0
100
AcDbBlockBegin
  2
*Paper_Space0
 70
     0
 10
0.0
 20
0.0
 30
0.0
  3
*Paper_Space0
  1

  0
ENDBLK
  5
58
330
55
100
AcDbEntity
  8
0
100
AcDbBlockEnd
  0
BLOCK
  5
88
330
87
100
AcDbEntity
  8
0
100
AcDbBlockBegin
  2
_ORIGIN
 70
     0
 10
0.0
 20
0.0
 30
0.0
  3
_ORIGIN
  1

  0
CIRCLE
  5
89
330
87
100
AcDbEntity
  8
0
  6
ByBlock
 62
     0
100
AcDbCircle
 10
0.0
 20
0.0
 30
0.0
 40
0.5
  0
LINE
  5
8A
330
87
100
AcDbEntity
  8
0
  6
ByBlock
 62
     0
100
AcDbLine
 10
0.0
 20
0.0
 30
0.0
 11
-1.0
 21
0.0
 31
0.0
  0
ENDBLK
  5
8B
330
87
100
AcDbEntity
  8
0
100
AcDbBlockEnd
  0
BLOCK
  5
858
330
84E
100
AcDbEntity
  8
0
100
AcDbBlockBegin
  2
*D2
 70
     1
 10
0.0
 20
0.0
 30
0.0
  3
*D2
  1

  0
LINE
  5
A08
330
84E
100
AcDbEntity
  8
寸法
  6
Continuous
370
    -2
100
AcDbLine
 10
26928.0554723134
 20
13859.62129392862
 30
0.0
 11
27628.05547231339
 21
13859.62129392862
 31
0.0
  0
LINE
  5
A09
330
84E
100
AcDbEntity
  8
寸法
  6
Continuous
370
    -2
100
AcDbLine
 10
26928.0554723134
 20
15859.62129392862
 30
0.0
 11
27628.05547231339
 21
15859.62129392862
 31
0.0
  0
LINE
  5
A0A
330
84E
100
AcDbEntity
  8
寸法
  6
Continuous
370
    -2
100
AcDbLine
 10
27628.05547231339
 20
13919.62129392862
 30
0.0
 11
27628.05547231339
 21
15799.62129392862
 31
0.0
  0
INSERT
  5
A0B
330
84E
100
AcDbEntity
  8
寸法
  6
Continuous
370
    -2
100
AcDbBlockReference
  2
_ORIGIN
 10
27628.05547231339
 20
13859.62129392862
 30
0.0
 41
60.0
 42
60.0
 43
60.0
 50
270.0
  0
INSERT
  5
A0C
330
84E
100
AcDbEntity
  8
寸法
  6
Continuous
370
    -2
100
AcDbBlockReference
  2
_ORIGIN
 10
27628.05547231339
 20
15859.62129392862
 30
0.0
 41
60.0
 42
60.0
 43
60.0
 50
90.0
  0
MTEXT
  5
A0D
330
84E
100
AcDbEntity
  8
寸法
  6
Continuous
100
AcDbMText
 10
27349.48404374196
 20
14859.62129392861
 30
0.0
 40
300.0
 41
0.0
 71
     5
 72
     1
  1
\A1;2,000
  7
1_100
 11
0.0000000000000001
 21
1.0
 31
0.0
 73
     1
 44
1.0
1001
ACAD
1000
MTEXTBEGIN
1070
    73
1070
     1
1070
    44
1040
1.0
1070
    74
1070
     0
1000
MTEXTEND
  0
POINT
  5
A0E
330
84E
100
AcDbEntity
  8
DEFPOINTS
  6
Continuous
 62
     0
100
AcDbPoint
 10
26628.05547231339
 20
13859.62129392862
 30
0.0
  0
POINT
  5
A0F
330
84E
100
AcDbEntity
  8
DEFPOINTS
  6
Continuous
 62
     0
100
AcDbPoint
 10
26628.05547231339
 20
15859.62129392862
 30
0.0
  0
POINT
  5
A10
330
84E
100
AcDbEntity
  8
DEFPOINTS
  6
Continuous
 62
     0
100
AcDbPoint
 10
27628.05547231339
 20
15859.62129392862
 30
0.0
  0
ENDBLK
  5
859
330
84E
100
AcDbEntity
  8
0
100
AcDbBlockEnd
  0
BLOCK
  5
864
330
85A
100
AcDbEntity
  8
0
100
AcDbBlockBegin
  2
*D3
 70
     1
 10
0.0
 20
0.0
 30
0.0
  3
*D3
  1

  0
LINE
  5
A11
330
85A
100
AcDbEntity
  8
寸法
  6
Continuous
370
    -2
100
AcDbLine
 10
26928.0554723134
 20
20859.6212939278
 30
0.0
 11
28628.0554723134
 21
20859.6212939278
 31
0.0
  0
LINE
  5
A12
330
85A
100
AcDbEntity
  8
寸法
  6
Continuous
370
    -2
100
AcDbLine
 10
26928.0554723134
 20
13859.6212939278
 30
0.0
 11
28628.0554723134
 21
13859.6212939278
 31
0.0
  0
LINE
  5
A13
330
85A
100
AcDbEntity
  8
寸法
  6
Continuous
370
    -2
100
AcDbLine
 10
28628.0554723134
 20
20799.6212939278
 30
0.0
 11
28628.0554723134
 21
13919.6212939278
 31
0.0
  0
INSERT
  5
A14
330
85A
100
AcDbEntity
  8
寸法
  6
Continuous
370
    -2
100
AcDbBlockReference
  2
_ORIGIN
 10
28628.0554723134
 20
20859.6212939278
 30
0.0
 41
60.0
 42
60.0
 43
60.0
 50
90.0
  0
INSERT
  5
A15
330
85A
100
AcDbEntity
  8
寸法
  6
Continuous
370
    -2
100
AcDbBlockReference
  2
_ORIGIN
 10
28628.0554723134
 20
13859.6212939278
 30
0.0
 41
60.0
 42
60.0
 43
60.0
 50
270.0
  0
MTEXT
  5
A16
330
85A
100
AcDbEntity
  8
寸法
  6
Continuous
100
AcDbMText
 10
28349.48404374197
 20
17359.62129392781
 30
0.0
 40
300.0
 41
0.0
 71
     5
 72
     1
  1
\A1;7,000
  7
1_100
 11
0.0000000000000001
 21
1.0
 31
0.0
 73
     1
 44
1.0
1001
ACAD
1000
MTEXTBEGIN
1070
    73
1070
     1
1070
    44
1040
1.0
1070
    74
1070
     0
1000
MTEXTEND
  0
POINT
  5
A17
330
85A
100
AcDbEntity
  8
DEFPOINTS
  6
Continuous
 62
     0
100
AcDbPoint
 10
26628.05547231339
 20
20859.6212939278
 30
0.0
  0
POINT
  5
A18
330
85A
100
AcDbEntity
  8
DEFPOINTS
  6
Continuous
 62
     0
100
AcDbPoint
 10
26628.05547231339
 20
13859.6212939278
 30
0.0
  0
POINT
  5
A19
330
85A
100
AcDbEntity
  8
DEFPOINTS
  6
Continuous
 62
     0
100
AcDbPoint
 10
28628.0554723134
 20
13859.6212939278
 30
0.0
  0
ENDBLK
  5
865
330
85A
100
AcDbEntity
  8
0
100
AcDbBlockEnd
  0
BLOCK
  5
870
330
866
100
AcDbEntity
  8
0
100
AcDbBlockBegin
  2
*D4
 70
     1
 10
0.0
 20
0.0
 30
0.0
  3
*D4
  1

  0
LINE
  5
A1A
330
866
100
AcDbEntity
  8
寸法
  6
Continuous
370
    -2
100
AcDbLine
 10
13228.05547231339
 20
10566.71532818515
 30
0.0
 11
13228.05547231339
 21
9559.621293927337
 31
0.0
  0
LINE
  5
A1B
330
866
100
AcDbEntity
  8
寸法
  6
Continuous
370
    -2
100
AcDbLine
 10
15228.05547231339
 20
10566.71532818515
 30
0.0
 11
15228.05547231339
 21
9559.621293927337
 31
0.0
  0
LINE
  5
A1C
330
866
100
AcDbEntity
  8
寸法
  6
Continuous
370
    -2
100
AcDbLine
 10
13288.05547231339
 20
9559.621293927337
 30
0.0
 11
15168.05547231339
 21
9559.621293927337
 31
0.0
  0
INSERT
  5
A1D
330
866
100
AcDbEntity
  8
寸法
  6
Continuous
370
    -2
100
AcDbBlockReference
  2
_ORIGIN
 10
13228.05547231339
 20
9559.621293927337
 30
0.0
 41
60.0
 42
60.0
 43
60.0
 50
180.0
  0
INSERT
  5
A1E
330
866
100
AcDbEntity
  8
寸法
  6
Continuous
370
    -2
100
AcDbBlockReference
  2
_ORIGIN
 10
15228.05547231339
 20
9559.621293927337
 30
0.0
 41
60.0
 42
60.0
 43
60.0
  0
MTEXT
  5
A1F
330
866
100
AcDbEntity
  8
寸法
  6
Continuous
100
AcDbMText
 10
14228.05547231339
 20
9838.192722498769
 30
0.0
 40
300.0
 41
0.0
 71
     5
 72
     1
  1
\A1;2,000
  7
1_100
 73
     1
 44
1.0
1001
ACAD
1000
MTEXTBEGIN
1070
    73
1070
     1
1070
    44
1040
1.0
1070
    74
1070
     0
1000
MTEXTEND
  0
POINT
  5
A20
330
866
100
AcDbEntity
  8
DEFPOINTS
  6
Continuous
 62
     0
100
AcDbPoint
 10
13228.05547231339
 20
10866.71532818515
 30
0.0
  0
POINT
  5
A21
330
866
100
AcDbEntity
  8
DEFPOINTS
  6
Continuous
 62
     0
100
AcDbPoint
 10
15228.05547231339
 20
10866.71532818515
 30
0.0
  0
POINT
  5
A22
330
866
100
AcDbEntity
  8
DEFPOINTS
  6
Continuous
 62
     0
100
AcDbPoint
 10
15228.05547231339
 20
9559.621293927337
 30
0.0
  0
ENDBLK
  5
871
330
866
100
AcDbEntity
  8
0
100
AcDbBlockEnd
  0
BLOCK
  5
87C
330
872
100
AcDbEntity
  8
0
100
AcDbBlockBegin
  2
*D5
 70
     1
 10
0.0
 20
0.0
 30
0.0
  3
*D5
  1

  0
LINE
  5
A23
330
872
100
AcDbEntity
  8
寸法
  6
Continuous
370
    -2
100
AcDbLine
 10
9228.055472313391
 20
10159.62129392768
 30
0.0
 11
9228.055472313391
 21
8759.621293927336
 31
0.0
  0
LINE
  5
A24
330
872
100
AcDbEntity
  8
寸法
  6
Continuous
370
    -2
100
AcDbLine
 10
19228.05547231339
 20
11317.15382213451
 30
0.0
 11
19228.05547231339
 21
8759.621293927336
 31
0.0
  0
LINE
  5
A25
330
872
100
AcDbEntity
  8
寸法
  6
Continuous
370
    -2
100
AcDbLine
 10
9288.055472313393
 20
8759.621293927336
 30
0.0
 11
19168.05547231339
 21
8759.621293927336
 31
0.0
  0
INSERT
  5
A26
330
872
100
AcDbEntity
  8
寸法
  6
Continuous
370
    -2
100
AcDbBlockReference
  2
_ORIGIN
 10
9228.055472313391
 20
8759.621293927336
 30
0.0
 41
60.0
 42
60.0
 43
60.0
 50
180.0
  0
INSERT
  5
A27
330
872
100
AcDbEntity
  8
寸法
  6
Continuous
370
    -2
100
AcDbBlockReference
  2
_ORIGIN
 10
19228.05547231339
 20
8759.621293927336
 30
0.0
 41
60.0
 42
60.0
 43
60.0
  0
MTEXT
  5
A28
330
872
100
AcDbEntity
  8
寸法
  6
Continuous
100
AcDbMText
 10
14228.05547231339
 20
9038.192722498768
 30
0.0
 40
300.0
 41
0.0
 71
     5
 72
     1
  1
\A1;10,000
  7
1_100
 73
     1
 44
1.0
1001
ACAD
1000
MTEXTBEGIN
1070
    73
1070
     1
1070
    44
1040
1.0
1070
    74
1070
     0
1000
MTEXTEND
  0
POINT
  5
A29
330
872
100
AcDbEntity
  8
DEFPOINTS
  6
Continuous
 62
     0
100
AcDbPoint
 10
9228.055472313391
 20
10459.62129392769
 30
0.0
  0
POINT
  5
A2A
330
872
100
AcDbEntity
  8
DEFPOINTS
  6
Continuous
 62
     0
100
AcDbPoint
 10
19228.05547231339
 20
11617.15382213451
 30
0.0
  0
POINT
  5
A2B
330
872
100
AcDbEntity
  8
DEFPOINTS
  6
Continuous
 62
     0
100
AcDbPoint
 10
19228.05547231339
 20
8759.621293927336
 30
0.0
  0
ENDBLK
  5
87D
330
872
100
AcDbEntity
  8
0
100
AcDbBlockEnd
  0
BLOCK
  5
88A
330
87E
100
AcDbEntity
  8
0
100
AcDbBlockBegin
  2
*D6
 70
     1
 10
0.0
 20
0.0
 30
0.0
  3
*D6
  1

  0
LINE
  5
A2C
330
87E
100
AcDbEntity
  8
画層3-寸法
  6
Continuous
370
    -2
100
AcDbLine
 10
13103.05547231339
 20
13209.6212939278
 30
0.0
 11
13103.05547231339
 21
13029.6212939278
 31
0.0
  0
LINE
  5
A2D
330
87E
100
AcDbEntity
  8
画層3-寸法
  6
Continuous
370
    -2
100
AcDbLine
 10
13353.05547231339
 20
13209.6212939278
 30
0.0
 11
13353.05547231339
 21
13029.6212939278
 31
0.0
  0
LINE
  5
A2E
330
87E
100
AcDbEntity
  8
画層3-寸法
  6
Continuous
370
    -2
100
AcDbLine
 10
13023.05547231339
 20
13029.6212939278
 30
0.0
 11
12943.05547231339
 21
13029.6212939278
 31
0.0
  0
LINE
  5
A2F
330
87E
100
AcDbEntity
  8
画層3-寸法
  6
Continuous
370
    -2
100
AcDbLine
 10
13433.05547231339
 20
13029.6212939278
 30
0.0
 11
13513.05547231339
 21
13029.6212939278
 31
0.0
  0
LINE
  5
A30
330
87E
100
AcDbEntity
  8
画層3-寸法
  6
Continuous
370
    -2
100
AcDbLine
 10
13103.05547231339
 20
13029.6212939278
 30
0.0
 11
13353.05547231339
 21
13029.6212939278
 31
0.0
  0
INSERT
  5
A31
330
87E
100
AcDbEntity
  8
画層3-寸法
  6
Continuous
370
    -2
100
AcDbBlockReference
  2
_ORIGIN
 10
13103.05547231339
 20
13029.6212939278
 30
0.0
 41
80.0
 42
80.0
 43
80.0
  0
INSERT
  5
A32
330
87E
100
AcDbEntity
  8
画層3-寸法
  6
Continuous
370
    -2
100
AcDbBlockReference
  2
_ORIGIN
 10
13353.05547231339
 20
13029.6212939278
 30
0.0
 41
80.0
 42
80.0
 43
80.0
 50
180.0
  0
MTEXT
  5
A33
330
87E
100
AcDbEntity
  8
画層3-寸法
  6
Continuous
100
AcDbMText
 10
13228.05547231339
 20
12829.6212939278
 30
0.0
 40
300.0
 41
0.0
 71
     5
 72
     1
  1
\A1;□250
  7
1_100
 73
     1
 44
1.0
1001
ACAD
1000
MTEXTBEGIN
1070
    73
1070
     1
1070
    44
1040
1.0
1070
    74
1070
     0
1000
MTEXTEND
  0
POINT
  5
A34
330
87E
100
AcDbEntity
  8
DEFPOINTS
  6
Continuous
 62
     0
100
AcDbPoint
 10
13103.05547231339
 20
13409.6212939278
 30
0.0
  0
POINT
  5
A35
330
87E
100
AcDbEntity
  8
DEFPOINTS
  6
Continuous
 62
     0
100
AcDbPoint
 10
13353.05547231339
 20
13409.6212939278
 30
0.0
  0
POINT
  5
A36
330
87E
100
AcDbEntity
  8
DEFPOINTS
  6
Continuous
 62
     0
100
AcDbPoint
 10
13353.05547231339
 20
13029.6212939278
 30
0.0
  0
ENDBLK
  5
88B
330
87E
100
AcDbEntity
  8
0
100
AcDbBlockEnd
  0
BLOCK
  5
896
330
88C
100
AcDbEntity
  8
0
100
AcDbBlockBegin
  2
*D7
 70
     1
 10
0.0
 20
0.0
 30
0.0
  3
*D7
  1

  0
LINE
  5
A37
330
88C
100
AcDbEntity
  8
画層3-寸法
  6
Continuous
370
    -2
100
AcDbLine
 10
12903.05547231339
 20
13859.6212939278
 30
0.0
 11
12723.05547231339
 21
13859.6212939278
 31
0.0
  0
LINE
  5
A38
330
88C
100
AcDbEntity
  8
画層3-寸法
  6
Continuous
370
    -2
100
AcDbLine
 10
12903.05547231339
 20
13409.6212939278
 30
0.0
 11
12723.05547231339
 21
13409.6212939278
 31
0.0
  0
LINE
  5
A39
330
88C
100
AcDbEntity
  8
画層3-寸法
  6
Continuous
370
    -2
100
AcDbLine
 10
12723.05547231339
 20
13779.6212939278
 30
0.0
 11
12723.05547231339
 21
13489.6212939278
 31
0.0
  0
MTEXT
  5
A3A
330
88C
100
AcDbEntity
  8
画層3-寸法
  6
Continuous
100
AcDbMText
 10
12451.64807828885
 20
13494.99518715383
 30
0.0
 40
300.0
 41
0.0
 71
     5
 72
     1
  1
\A1;450
  7
1_100
 11
0.0000000000000001
 21
1.0
 31
0.0
 73
     1
 44
1.0
1001
ACAD
1000
MTEXTBEGIN
1070
    73
1070
     1
1070
    44
1040
1.0
1070
    74
1070
     0
1000
MTEXTEND
  0
INSERT
  5
A3B
330
88C
100
AcDbEntity
  8
画層3-寸法
  6
Continuous
370
    -2
100
AcDbBlockReference
  2
_ORIGIN
 10
12723.05547231339
 20
13859.6212939278
 30
0.0
 41
80.0
 42
80.0
 43
80.0
 50
90.0
  0
INSERT
  5
A3C
330
88C
100
AcDbEntity
  8
画層3-寸法
  6
Continuous
370
    -2
100
AcDbBlockReference
  2
_ORIGIN
 10
12723.05547231339
 20
13409.6212939278
 30
0.0
 41
80.0
 42
80.0
 43
80.0
 50
270.0
  0
POINT
  5
A3D
330
88C
100
AcDbEntity
  8
DEFPOINTS
  6
Continuous
 62
     0
100
AcDbPoint
 10
13103.05547231339
 20
13859.6212939278
 30
0.0
  0
POINT
  5
A3E
330
88C
100
AcDbEntity
  8
DEFPOINTS
  6
Continuous
 62
     0
100
AcDbPoint
 10
13103.05547231339
 20
13409.6212939278
 30
0.0
  0
POINT
  5
A3F
330
88C
100
AcDbEntity
  8
DEFPOINTS
  6
Continuous
 62
     0
100
AcDbPoint
 10
12723.05547231339
 20
13409.6212939278
 30
0.0
  0
ENDBLK
  5
897
330
88C
100
AcDbEntity
  8
0
100
AcDbBlockEnd
  0
BLOCK
  5
8A2
330
898
100
AcDbEntity
  8
0
100
AcDbBlockBegin
  2
*D8
 70
     1
 10
0.0
 20
0.0
 30
0.0
  3
*D8
  1

  0
LINE
  5
A40
330
898
100
AcDbEntity
  8
寸法
  6
Continuous
370
    -2
100
AcDbLine
 10
9003.055472313391
 20
11459.6212939278
 30
0.0
 11
9003.055472313391
 21
11159.6212939278
 31
0.0
  0
LINE
  5
A41
330
898
100
AcDbEntity
  8
寸法
  6
Continuous
370
    -2
100
AcDbLine
 10
9453.055472313392
 20
11459.6212939278
 30
0.0
 11
9453.055472313392
 21
11159.6212939278
 31
0.0
  0
LINE
  5
A42
330
898
100
AcDbEntity
  8
寸法
  6
Continuous
370
    -2
100
AcDbLine
 10
9063.055472313392
 20
11159.6212939278
 30
0.0
 11
9393.055472313392
 21
11159.6212939278
 31
0.0
  0
MTEXT
  5
A43
330
898
100
AcDbEntity
  8
寸法
  6
Continuous
100
AcDbMText
 10
8426.665236119147
 20
11340.95495551664
 30
0.0
 40
300.0
 41
0.0
 71
     5
 72
     1
  1
\A1;φ450
  7
1_100
 73
     1
 44
1.0
1001
ACAD
1000
MTEXTBEGIN
1070
    73
1070
     1
1070
    44
1040
1.0
1070
    74
1070
     0
1000
MTEXTEND
  0
INSERT
  5
A44
330
898
100
AcDbEntity
  8
寸法
  6
Continuous
370
    -2
100
AcDbBlockReference
  2
_ORIGIN
 10
9003.055472313391
 20
11159.6212939278
 30
0.0
 41
60.0
 42
60.0
 43
60.0
 50
180.0
  0
INSERT
  5
A45
330
898
100
AcDbEntity
  8
寸法
  6
Continuous
370
    -2
100
AcDbBlockReference
  2
_ORIGIN
 10
9453.055472313392
 20
11159.6212939278
 30
0.0
 41
60.0
 42
60.0
 43
60.0
  0
POINT
  5
A46
330
898
100
AcDbEntity
  8
DEFPOINTS
  6
Continuous
 62
     0
100
AcDbPoint
 10
9003.055472313391
 20
11759.6212939278
 30
0.0
  0
POINT
  5
A47
330
898
100
AcDbEntity
  8
DEFPOINTS
  6
Continuous
 62
     0
100
AcDbPoint
 10
9453.055472313392
 20
11759.6212939278
 30
0.0
  0
POINT
  5
A48
330
898
100
AcDbEntity
  8
DEFPOINTS
  6
Continuous
 62
     0
100
AcDbPoint
 10
9453.055472313392
 20
11159.6212939278
 30
0.0
  0
ENDBLK
  5
8A3
330
898
100
AcDbEntity
  8
0
100
AcDbBlockEnd
  0
BLOCK
  5
8B0
330
8A4
100
AcDbEntity
  8
0
100
AcDbBlockBegin
  2
*D9
 70
     1
 10
0.0
 20
0.0
 30
0.0
  3
*D9
  1

  0
LINE
  5
A49
330
8A4
100
AcDbEntity
  8
寸法
  6
Continuous
370
    -2
100
AcDbLine
 10
8978.055472313391
 20
11459.6212939278
 30
0.0
 11
8978.055472313391
 21
10759.62129392769
 31
0.0
  0
LINE
  5
A4A
330
8A4
100
AcDbEntity
  8
寸法
  6
Continuous
370
    -2
100
AcDbLine
 10
9478.055472313391
 20
11459.6212939278
 30
0.0
 11
9478.055472313391
 21
10759.62129392769
 31
0.0
  0
LINE
  5
A4B
330
8A4
100
AcDbEntity
  8
寸法
  6
Continuous
370
    -2
100
AcDbLine
 10
8918.055472313392
 20
10759.62129392769
 30
0.0
 11
8858.055472313392
 21
10759.62129392769
 31
0.0
  0
LINE
  5
A4C
330
8A4
100
AcDbEntity
  8
寸法
  6
Continuous
370
    -2
100
AcDbLine
 10
9538.055472313393
 20
10759.62129392769
 30
0.0
 11
9598.055472313392
 21
10759.62129392769
 31
0.0
  0
LINE
  5
A4D
330
8A4
100
AcDbEntity
  8
寸法
  6
Continuous
370
    -2
100
AcDbLine
 10
8978.055472313391
 20
10759.62129392769
 30
0.0
 11
9478.055472313391
 21
10759.62129392769
 31
0.0
  0
INSERT
  5
A4E
330
8A4
100
AcDbEntity
  8
寸法
  6
Continuous
370
    -2
100
AcDbBlockReference
  2
_ORIGIN
 10
8978.055472313391
 20
10759.62129392769
 30
0.0
 41
60.0
 42
60.0
 43
60.0
  0
INSERT
  5
A4F
330
8A4
100
AcDbEntity
  8
寸法
  6
Continuous
370
    -2
100
AcDbBlockReference
  2
_ORIGIN
 10
9478.055472313391
 20
10759.62129392769
 30
0.0
 41
60.0
 42
60.0
 43
60.0
 50
180.0
  0
MTEXT
  5
A50
330
8A4
100
AcDbEntity
  8
寸法
  6
Continuous
100
AcDbMText
 10
9228.055472313391
 20
10509.62129392768
 30
0.0
 40
300.0
 41
0.0
 71
     5
 72
     1
  1
\A1;□500
  7
1_100
 73
     1
 44
1.0
1001
ACAD
1000
MTEXTBEGIN
1070
    73
1070
     1
1070
    44
1040
1.0
1070
    74
1070
     0
1000
MTEXTEND
  0
POINT
  5
A51
330
8A4
100
AcDbEntity
  8
DEFPOINTS
  6
Continuous
 62
     0
100
AcDbPoint
 10
8978.055472313391
 20
11759.6212939278
 30
0.0
  0
POINT
  5
A52
330
8A4
100
AcDbEntity
  8
DEFPOINTS
  6
Continuous
 62
     0
100
AcDbPoint
 10
9478.055472313391
 20
11759.6212939278
 30
0.0
  0
POINT
  5
A53
330
8A4
100
AcDbEntity
  8
DEFPOINTS
  6
Continuous
 62
     0
100
AcDbPoint
 10
9478.055472313391
 20
10759.62129392769
 30
0.0
  0
ENDBLK
  5
8B1
330
8A4
100
AcDbEntity
  8
0
100
AcDbBlockEnd
  0
BLOCK
  5
8BC
330
8B2
100
AcDbEntity
  8
0
100
AcDbBlockBegin
  2
*D10
 70
     1
 10
0.0
 20
0.0
 30
0.0
  3
*D10
  1

  0
LINE
  5
A54
330
8B2
100
AcDbEntity
  8
寸法
  6
Continuous
370
    -2
100
AcDbLine
 10
9228.055472313391
 20
9697.121293927454
 30
0.0
 11
9228.055472313391
 21
9559.621293927337
 31
0.0
  0
LINE
  5
A55
330
8B2
100
AcDbEntity
  8
寸法
  6
Continuous
370
    -2
100
AcDbLine
 10
11228.05547231339
 20
10566.71532818515
 30
0.0
 11
11228.05547231339
 21
9559.621293927337
 31
0.0
  0
LINE
  5
A56
330
8B2
100
AcDbEntity
  8
寸法
  6
Continuous
370
    -2
100
AcDbLine
 10
9288.055472313393
 20
9559.621293927337
 30
0.0
 11
11168.05547231339
 21
9559.621293927337
 31
0.0
  0
INSERT
  5
A57
330
8B2
100
AcDbEntity
  8
寸法
  6
Continuous
370
    -2
100
AcDbBlockReference
  2
_ORIGIN
 10
9228.055472313391
 20
9559.621293927337
 30
0.0
 41
60.0
 42
60.0
 43
60.0
 50
180.0
  0
INSERT
  5
A58
330
8B2
100
AcDbEntity
  8
寸法
  6
Continuous
370
    -2
100
AcDbBlockReference
  2
_ORIGIN
 10
11228.05547231339
 20
9559.621293927337
 30
0.0
 41
60.0
 42
60.0
 43
60.0
  0
MTEXT
  5
A59
330
8B2
100
AcDbEntity
  8
寸法
  6
Continuous
100
AcDbMText
 10
10228.05547231339
 20
9838.192722498769
 30
0.0
 40
300.0
 41
0.0
 71
     5
 72
     1
  1
\A1;2,000
  7
1_100
 73
     1
 44
1.0
1001
ACAD
1000
MTEXTBEGIN
1070
    73
1070
     1
1070
    44
1040
1.0
1070
    74
1070
     0
1000
MTEXTEND
  0
POINT
  5
A5A
330
8B2
100
AcDbEntity
  8
DEFPOINTS
  6
Continuous
 62
     0
100
AcDbPoint
 10
9228.055472313391
 20
9997.121293927454
 30
0.0
  0
POINT
  5
A5B
330
8B2
100
AcDbEntity
  8
DEFPOINTS
  6
Continuous
 62
     0
100
AcDbPoint
 10
11228.05547231339
 20
10866.71532818515
 30
0.0
  0
POINT
  5
A5C
330
8B2
100
AcDbEntity
  8
DEFPOINTS
  6
Continuous
 62
     0
100
AcDbPoint
 10
11228.05547231339
 20
9559.621293927337
 30
0.0
  0
ENDBLK
  5
8BD
330
8B2
100
AcDbEntity
  8
0
100
AcDbBlockEnd
  0
BLOCK
  5
8C8
330
8BE
100
AcDbEntity
  8
0
100
AcDbBlockBegin
  2
*D11
 70
     1
 10
0.0
 20
0.0
 30
0.0
  3
*D11
  1

  0
LINE
  5
A5D
330
8BE
100
AcDbEntity
  8
寸法
  6
Continuous
370
    -2
100
AcDbLine
 10
11228.05547231339
 20
10566.71532818515
 30
0.0
 11
11228.05547231339
 21
9559.621293927337
 31
0.0
  0
LINE
  5
A5E
330
8BE
100
AcDbEntity
  8
寸法
  6
Continuous
370
    -2
100
AcDbLine
 10
13228.05547231339
 20
10566.71532818515
 30
0.0
 11
13228.05547231339
 21
9559.621293927337
 31
0.0
  0
LINE
  5
A5F
330
8BE
100
AcDbEntity
  8
寸法
  6
Continuous
370
    -2
100
AcDbLine
 10
11288.05547231339
 20
9559.621293927337
 30
0.0
 11
13168.05547231339
 21
9559.621293927337
 31
0.0
  0
INSERT
  5
A60
330
8BE
100
AcDbEntity
  8
寸法
  6
Continuous
370
    -2
100
AcDbBlockReference
  2
_ORIGIN
 10
11228.05547231339
 20
9559.621293927337
 30
0.0
 41
60.0
 42
60.0
 43
60.0
 50
180.0
  0
INSERT
  5
A61
330
8BE
100
AcDbEntity
  8
寸法
  6
Continuous
370
    -2
100
AcDbBlockReference
  2
_ORIGIN
 10
13228.05547231339
 20
9559.621293927337
 30
0.0
 41
60.0
 42
60.0
 43
60.0
  0
MTEXT
  5
A62
330
8BE
100
AcDbEntity
  8
寸法
  6
Continuous
100
AcDbMText
 10
12228.05547231339
 20
9838.192722498769
 30
0.0
 40
300.0
 41
0.0
 71
     5
 72
     1
  1
\A1;2,000
  7
1_100
 73
     1
 44
1.0
1001
ACAD
1000
MTEXTBEGIN
1070
    73
1070
     1
1070
    44
1040
1.0
1070
    74
1070
     0
1000
MTEXTEND
  0
POINT
  5
A63
330
8BE
100
AcDbEntity
  8
DEFPOINTS
  6
Continuous
 62
     0
100
AcDbPoint
 10
11228.05547231339
 20
10866.71532818515
 30
0.0
  0
POINT
  5
A64
330
8BE
100
AcDbEntity
  8
DEFPOINTS
  6
Continuous
 62
     0
100
AcDbPoint
 10
13228.05547231339
 20
10866.71532818515
 30
0.0
  0
POINT
  5
A65
330
8BE
100
AcDbEntity
  8
DEFPOINTS
  6
Continuous
 62
     0
100
AcDbPoint
 10
13228.05547231339
 20
9559.621293927337
 30
0.0
  0
ENDBLK
  5
8C9
330
8BE
100
AcDbEntity
  8
0
100
AcDbBlockEnd
  0
BLOCK
  5
8D6
330
8CA
100
AcDbEntity
  8
0
100
AcDbBlockBegin
  2
*D12
 70
     1
 10
0.0
 20
0.0
 30
0.0
  3
*D12
  1

  0
LINE
  5
A66
330
8CA
100
AcDbEntity
  8
寸法
  6
Continuous
370
    -2
100
AcDbLine
 10
26928.0554723134
 20
13559.6212939278
 30
0.0
 11
27628.05547231339
 21
13559.6212939278
 31
0.0
  0
LINE
  5
A67
330
8CA
100
AcDbEntity
  8
寸法
  6
Continuous
370
    -2
100
AcDbLine
 10
26928.0554723134
 20
13859.6212939278
 30
0.0
 11
27628.05547231339
 21
13859.6212939278
 31
0.0
  0
LINE
  5
A68
330
8CA
100
AcDbEntity
  8
寸法
  6
Continuous
370
    -2
100
AcDbLine
 10
27628.05547231339
 20
13499.6212939278
 30
0.0
 11
27628.05547231339
 21
13439.6212939278
 31
0.0
  0
LINE
  5
A69
330
8CA
100
AcDbEntity
  8
寸法
  6
Continuous
370
    -2
100
AcDbLine
 10
27628.05547231339
 20
13919.6212939278
 30
0.0
 11
27628.05547231339
 21
13979.6212939278
 31
0.0
  0
MTEXT
  5
A6A
330
8CA
100
AcDbEntity
  8
寸法
  6
Continuous
100
AcDbMText
 10
27895.72203846319
 20
13502.72450745783
 30
0.0
 40
300.0
 41
0.0
 71
     5
 72
     1
  1
\A1;300
  7
1_100
 11
0.0000000000000001
 21
1.0
 31
0.0
 73
     1
 44
1.0
1001
ACAD
1000
MTEXTBEGIN
1070
    73
1070
     1
1070
    44
1040
1.0
1070
    74
1070
     0
1000
MTEXTEND
  0
LINE
  5
A6B
330
8CA
100
AcDbEntity
  8
寸法
  6
Continuous
370
    -2
100
AcDbLine
 10
27628.05547231339
 20
13559.6212939278
 30
0.0
 11
27628.05547231339
 21
13859.6212939278
 31
0.0
  0
INSERT
  5
A6C
330
8CA
100
AcDbEntity
  8
寸法
  6
Continuous
370
    -2
100
AcDbBlockReference
  2
_ORIGIN
 10
27628.05547231339
 20
13559.6212939278
 30
0.0
 41
60.0
 42
60.0
 43
60.0
 50
90.0
  0
INSERT
  5
A6D
330
8CA
100
AcDbEntity
  8
寸法
  6
Continuous
370
    -2
100
AcDbBlockReference
  2
_ORIGIN
 10
27628.05547231339
 20
13859.6212939278
 30
0.0
 41
60.0
 42
60.0
 43
60.0
 50
270.0
  0
POINT
  5
A6E
330
8CA
100
AcDbEntity
  8
DEFPOINTS
  6
Continuous
 62
     0
100
AcDbPoint
 10
26628.05547231339
 20
13559.6212939278
 30
0.0
  0
POINT
  5
A6F
330
8CA
100
AcDbEntity
  8
DEFPOINTS
  6
Continuous
 62
     0
100
AcDbPoint
 10
26628.05547231339
 20
13859.6212939278
 30
0.0
  0
POINT
  5
A70
330
8CA
100
AcDbEntity
  8
DEFPOINTS
  6
Continuous
 62
     0
100
AcDbPoint
 10
27628.05547231339
 20
13859.6212939278
 30
0.0
  0
ENDBLK
  5
8D7
330
8CA
100
AcDbEntity
  8
0
100
AcDbBlockEnd
  0
BLOCK
  5
8E4
330
8D8
100
AcDbEntity
  8
0
100
AcDbBlockBegin
  2
*D13
 70
     1
 10
0.0
 20
0.0
 30
0.0
  3
*D13
  1

  0
LINE
  5
A71
330
8D8
100
AcDbEntity
  8
寸法
  6
Continuous
370
    -2
100
AcDbLine
 10
26928.0554723134
 20
11759.6212939278
 30
0.0
 11
27628.05547231339
 21
11759.6212939278
 31
0.0
  0
LINE
  5
A72
330
8D8
100
AcDbEntity
  8
寸法
  6
Continuous
370
    -2
100
AcDbLine
 10
26928.0554723134
 20
11859.6212939278
 30
0.0
 11
27628.05547231339
 21
11859.6212939278
 31
0.0
  0
LINE
  5
A73
330
8D8
100
AcDbEntity
  8
寸法
  6
Continuous
370
    -2
100
AcDbLine
 10
27628.05547231339
 20
11699.6212939278
 30
0.0
 11
27628.05547231339
 21
11639.6212939278
 31
0.0
  0
LINE
  5
A74
330
8D8
100
AcDbEntity
  8
寸法
  6
Continuous
370
    -2
100
AcDbLine
 10
27628.05547231339
 20
11919.6212939278
 30
0.0
 11
27628.05547231339
 21
11979.6212939278
 31
0.0
  0
MTEXT
  5
A75
330
8D8
100
AcDbEntity
  8
寸法
  6
Continuous
100
AcDbMText
 10
27312.8464267505
 20
11348.88948793048
 30
0.0
 40
300.0
 41
0.0
 71
     5
 72
     1
  1
\A1;100
  7
1_100
 11
0.0000000000000001
 21
1.0
 31
0.0
 73
     1
 44
1.0
1001
ACAD
1000
MTEXTBEGIN
1070
    73
1070
     1
1070
    44
1040
1.0
1070
    74
1070
     0
1000
MTEXTEND
  0
LINE
  5
A76
330
8D8
100
AcDbEntity
  8
寸法
  6
Continuous
370
    -2
100
AcDbLine
 10
27628.05547231339
 20
11759.6212939278
 30
0.0
 11
27628.05547231339
 21
11859.6212939278
 31
0.0
  0
INSERT
  5
A77
330
8D8
100
AcDbEntity
  8
寸法
  6
Continuous
370
    -2
100
AcDbBlockReference
  2
_ORIGIN
 10
27628.05547231339
 20
11759.6212939278
 30
0.0
 41
60.0
 42
60.0
 43
60.0
 50
90.0
  0
INSERT
  5
A78
330
8D8
100
AcDbEntity
  8
寸法
  6
Continuous
370
    -2
100
AcDbBlockReference
  2
_ORIGIN
 10
27628.05547231339
 20
11859.6212939278
 30
0.0
 41
60.0
 42
60.0
 43
60.0
 50
270.0
  0
POINT
  5
A79
330
8D8
100
AcDbEntity
  8
DEFPOINTS
  6
Continuous
 62
     0
100
AcDbPoint
 10
26628.05547231339
 20
11759.6212939278
 30
0.0
  0
POINT
  5
A7A
330
8D8
100
AcDbEntity
  8
DEFPOINTS
  6
Continuous
 62
     0
100
AcDbPoint
 10
26628.05547231339
 20
11859.6212939278
 30
0.0
  0
POINT
  5
A7B
330
8D8
100
AcDbEntity
  8
DEFPOINTS
  6
Continuous
 62
     0
100
AcDbPoint
 10
27628.05547231339
 20
11859.6212939278
 30
0.0
  0
ENDBLK
  5
8E5
330
8D8
100
AcDbEntity
  8
0
100
AcDbBlockEnd
  0
BLOCK
  5
8F0
330
8E6
100
AcDbEntity
  8
0
100
AcDbBlockBegin
  2
*D14
 70
     1
 10
0.0
 20
0.0
 30
0.0
  3
*D14
  1

  0
LINE
  5
A7C
330
8E6
100
AcDbEntity
  8
寸法
  6
Continuous
370
    -2
100
AcDbLine
 10
26928.0554723134
 20
11859.6212939278
 30
0.0
 11
27628.05547231339
 21
11859.6212939278
 31
0.0
  0
LINE
  5
A7D
330
8E6
100
AcDbEntity
  8
寸法
  6
Continuous
370
    -2
100
AcDbLine
 10
26928.0554723134
 20
13559.6212939278
 30
0.0
 11
27628.05547231339
 21
13559.6212939278
 31
0.0
  0
LINE
  5
A7E
330
8E6
100
AcDbEntity
  8
寸法
  6
Continuous
370
    -2
100
AcDbLine
 10
27628.05547231339
 20
11919.6212939278
 30
0.0
 11
27628.05547231339
 21
13499.6212939278
 31
0.0
  0
INSERT
  5
A7F
330
8E6
100
AcDbEntity
  8
寸法
  6
Continuous
370
    -2
100
AcDbBlockReference
  2
_ORIGIN
 10
27628.05547231339
 20
11859.6212939278
 30
0.0
 41
60.0
 42
60.0
 43
60.0
 50
270.0
  0
INSERT
  5
A80
330
8E6
100
AcDbEntity
  8
寸法
  6
Continuous
370
    -2
100
AcDbBlockReference
  2
_ORIGIN
 10
27628.05547231339
 20
13559.6212939278
 30
0.0
 41
60.0
 42
60.0
 43
60.0
 50
90.0
  0
MTEXT
  5
A81
330
8E6
100
AcDbEntity
  8
寸法
  6
Continuous
100
AcDbMText
 10
27349.48404374196
 20
12709.6212939278
 30
0.0
 40
300.0
 41
0.0
 71
     5
 72
     1
  1
\A1;1,700
  7
1_100
 11
0.0000000000000001
 21
1.0
 31
0.0
 73
     1
 44
1.0
1001
ACAD
1000
MTEXTBEGIN
1070
    73
1070
     1
1070
    44
1040
1.0
1070
    74
1070
     0
1000
MTEXTEND
  0
POINT
  5
A82
330
8E6
100
AcDbEntity
  8
DEFPOINTS
  6
Continuous
 62
     0
100
AcDbPoint
 10
26628.05547231339
 20
11859.6212939278
 30
0.0
  0
POINT
  5
A83
330
8E6
100
AcDbEntity
  8
DEFPOINTS
  6
Continuous
 62
     0
100
AcDbPoint
 10
26628.05547231339
 20
13559.6212939278
 30
0.0
  0
POINT
  5
A84
330
8E6
100
AcDbEntity
  8
DEFPOINTS
  6
Continuous
 62
     0
100
AcDbPoint
 10
27628.05547231339
 20
13559.6212939278
 30
0.0
  0
ENDBLK
  5
8F1
330
8E6
100
AcDbEntity
  8
0
100
AcDbBlockEnd
  0
BLOCK
  5
8FC
330
8F2
100
AcDbEntity
  8
0
100
AcDbBlockBegin
  2
*D15
 70
     1
 10
0.0
 20
0.0
 30
0.0
  3
*D15
  1

  0
LINE
  5
A85
330
8F2
100
AcDbEntity
  8
寸法
  6
Continuous
370
    -2
100
AcDbLine
 10
23228.0554723134
 20
10566.71532818515
 30
0.0
 11
23228.0554723134
 21
9559.621293927337
 31
0.0
  0
LINE
  5
A86
330
8F2
100
AcDbEntity
  8
寸法
  6
Continuous
370
    -2
100
AcDbLine
 10
25228.05547231339
 20
10589.62129392745
 30
0.0
 11
25228.05547231339
 21
9559.621293927337
 31
0.0
  0
LINE
  5
A87
330
8F2
100
AcDbEntity
  8
寸法
  6
Continuous
370
    -2
100
AcDbLine
 10
23288.05547231339
 20
9559.621293927337
 30
0.0
 11
25168.05547231339
 21
9559.621293927337
 31
0.0
  0
INSERT
  5
A88
330
8F2
100
AcDbEntity
  8
寸法
  6
Continuous
370
    -2
100
AcDbBlockReference
  2
_ORIGIN
 10
23228.0554723134
 20
9559.621293927337
 30
0.0
 41
60.0
 42
60.0
 43
60.0
 50
180.0
  0
INSERT
  5
A89
330
8F2
100
AcDbEntity
  8
寸法
  6
Continuous
370
    -2
100
AcDbBlockReference
  2
_ORIGIN
 10
25228.05547231339
 20
9559.621293927337
 30
0.0
 41
60.0
 42
60.0
 43
60.0
  0
MTEXT
  5
A8A
330
8F2
100
AcDbEntity
  8
寸法
  6
Continuous
100
AcDbMText
 10
24228.0554723134
 20
9838.192722498769
 30
0.0
 40
300.0
 41
0.0
 71
     5
 72
     1
  1
\A1;2,000
  7
1_100
 73
     1
 44
1.0
1001
ACAD
1000
MTEXTBEGIN
1070
    73
1070
     1
1070
    44
1040
1.0
1070
    74
1070
     0
1000
MTEXTEND
  0
POINT
  5
A8B
330
8F2
100
AcDbEntity
  8
DEFPOINTS
  6
Continuous
 62
     0
100
AcDbPoint
 10
23228.0554723134
 20
10866.71532818515
 30
0.0
  0
POINT
  5
A8C
330
8F2
100
AcDbEntity
  8
DEFPOINTS
  6
Continuous
 62
     0
100
AcDbPoint
 10
25228.05547231339
 20
10889.62129392745
 30
0.0
  0
POINT
  5
A8D
330
8F2
100
AcDbEntity
  8
DEFPOINTS
  6
Continuous
 62
     0
100
AcDbPoint
 10
25228.05547231339
 20
9559.621293927337
 30
0.0
  0
ENDBLK
  5
8FD
330
8F2
100
AcDbEntity
  8
0
100
AcDbBlockEnd
  0
BLOCK
  5
908
330
8FE
100
AcDbEntity
  8
0
100
AcDbBlockBegin
  2
*D16
 70
     1
 10
0.0
 20
0.0
 30
0.0
  3
*D16
  1

  0
LINE
  5
A8E
330
8FE
100
AcDbEntity
  8
寸法
  6
Continuous
370
    -2
100
AcDbLine
 10
21228.05547231339
 20
10566.71532818515
 30
0.0
 11
21228.05547231339
 21
9559.621293927337
 31
0.0
  0
LINE
  5
A8F
330
8FE
100
AcDbEntity
  8
寸法
  6
Continuous
370
    -2
100
AcDbLine
 10
23228.0554723134
 20
10589.62129392745
 30
0.0
 11
23228.0554723134
 21
9559.621293927337
 31
0.0
  0
LINE
  5
A90
330
8FE
100
AcDbEntity
  8
寸法
  6
Continuous
370
    -2
100
AcDbLine
 10
21288.0554723134
 20
9559.621293927337
 30
0.0
 11
23168.05547231339
 21
9559.621293927337
 31
0.0
  0
INSERT
  5
A91
330
8FE
100
AcDbEntity
  8
寸法
  6
Continuous
370
    -2
100
AcDbBlockReference
  2
_ORIGIN
 10
21228.05547231339
 20
9559.621293927337
 30
0.0
 41
60.0
 42
60.0
 43
60.0
 50
180.0
  0
INSERT
  5
A92
330
8FE
100
AcDbEntity
  8
寸法
  6
Continuous
370
    -2
100
AcDbBlockReference
  2
_ORIGIN
 10
23228.0554723134
 20
9559.621293927337
 30
0.0
 41
60.0
 42
60.0
 43
60.0
  0
MTEXT
  5
A93
330
8FE
100
AcDbEntity
  8
寸法
  6
Continuous
100
AcDbMText
 10
22228.05547231339
 20
9838.192722498769
 30
0.0
 40
300.0
 41
0.0
 71
     5
 72
     1
  1
\A1;2,000
  7
1_100
 73
     1
 44
1.0
1001
ACAD
1000
MTEXTBEGIN
1070
    73
1070
     1
1070
    44
1040
1.0
1070
    74
1070
     0
1000
MTEXTEND
  0
POINT
  5
A94
330
8FE
100
AcDbEntity
  8
DEFPOINTS
  6
Continuous
 62
     0
100
AcDbPoint
 10
21228.05547231339
 20
10866.71532818515
 30
0.0
  0
POINT
  5
A95
330
8FE
100
AcDbEntity
  8
DEFPOINTS
  6
Continuous
 62
     0
100
AcDbPoint
 10
23228.0554723134
 20
10889.62129392745
 30
0.0
  0
POINT
  5
A96
330
8FE
100
AcDbEntity
  8
DEFPOINTS
  6
Continuous
 62
     0
100
AcDbPoint
 10
23228.0554723134
 20
9559.621293927337
 30
0.0
  0
ENDBLK
  5
909
330
8FE
100
AcDbEntity
  8
0
100
AcDbBlockEnd
  0
BLOCK
  5
914
330
90A
100
AcDbEntity
  8
0
100
AcDbBlockBegin
  2
*D17
 70
     1
 10
0.0
 20
0.0
 30
0.0
  3
*D17
  1

  0
LINE
  5
A97
330
90A
100
AcDbEntity
  8
寸法
  6
Continuous
370
    -2
100
AcDbLine
 10
26928.0554723134
 20
13859.6212939278
 30
0.0
 11
28628.0554723134
 21
13859.6212939278
 31
0.0
  0
LINE
  5
A98
330
90A
100
AcDbEntity
  8
寸法
  6
Continuous
370
    -2
100
AcDbLine
 10
26928.0554723134
 20
11859.6212939278
 30
0.0
 11
28628.0554723134
 21
11859.6212939278
 31
0.0
  0
LINE
  5
A99
330
90A
100
AcDbEntity
  8
寸法
  6
Continuous
370
    -2
100
AcDbLine
 10
28628.0554723134
 20
13799.6212939278
 30
0.0
 11
28628.0554723134
 21
11919.6212939278
 31
0.0
  0
INSERT
  5
A9A
330
90A
100
AcDbEntity
  8
寸法
  6
Continuous
370
    -2
100
AcDbBlockReference
  2
_ORIGIN
 10
28628.0554723134
 20
13859.6212939278
 30
0.0
 41
60.0
 42
60.0
 43
60.0
 50
90.0
  0
INSERT
  5
A9B
330
90A
100
AcDbEntity
  8
寸法
  6
Continuous
370
    -2
100
AcDbBlockReference
  2
_ORIGIN
 10
28628.0554723134
 20
11859.6212939278
 30
0.0
 41
60.0
 42
60.0
 43
60.0
 50
270.0
  0
MTEXT
  5
A9C
330
90A
100
AcDbEntity
  8
寸法
  6
Continuous
100
AcDbMText
 10
28349.48404374197
 20
12859.6212939278
 30
0.0
 40
300.0
 41
0.0
 71
     5
 72
     1
  1
\A1;2,000
  7
1_100
 11
0.0000000000000001
 21
1.0
 31
0.0
 73
     1
 44
1.0
1001
ACAD
1000
MTEXTBEGIN
1070
    73
1070
     1
1070
    44
1040
1.0
1070
    74
1070
     0
1000
MTEXTEND
  0
POINT
  5
A9D
330
90A
100
AcDbEntity
  8
DEFPOINTS
  6
Continuous
 62
     0
100
AcDbPoint
 10
26628.05547231339
 20
13859.6212939278
 30
0.0
  0
POINT
  5
A9E
330
90A
100
AcDbEntity
  8
DEFPOINTS
  6
Continuous
 62
     0
100
AcDbPoint
 10
26628.05547231339
 20
11859.6212939278
 30
0.0
  0
POINT
  5
A9F
330
90A
100
AcDbEntity
  8
DEFPOINTS
  6
Continuous
 62
     0
100
AcDbPoint
 10
28628.0554723134
 20
11859.6212939278
 30
0.0
  0
ENDBLK
  5
915
330
90A
100
AcDbEntity
  8
0
100
AcDbBlockEnd
  0
BLOCK
  5
920
330
916
100
AcDbEntity
  8
0
100
AcDbBlockBegin
  2
*D18
 70
     1
 10
0.0
 20
0.0
 30
0.0
  3
*D18
  1

  0
LINE
  5
AA0
330
916
100
AcDbEntity
  8
寸法
  6
Continuous
370
    -2
100
AcDbLine
 10
15228.05547231339
 20
10566.71532818515
 30
0.0
 11
15228.05547231339
 21
9559.621293927337
 31
0.0
  0
LINE
  5
AA1
330
916
100
AcDbEntity
  8
寸法
  6
Continuous
370
    -2
100
AcDbLine
 10
17228.05547231339
 20
10566.71532818515
 30
0.0
 11
17228.05547231339
 21
9559.621293927337
 31
0.0
  0
LINE
  5
AA2
330
916
100
AcDbEntity
  8
寸法
  6
Continuous
370
    -2
100
AcDbLine
 10
15288.05547231339
 20
9559.621293927337
 30
0.0
 11
17168.05547231339
 21
9559.621293927337
 31
0.0
  0
INSERT
  5
AA3
330
916
100
AcDbEntity
  8
寸法
  6
Continuous
370
    -2
100
AcDbBlockReference
  2
_ORIGIN
 10
15228.05547231339
 20
9559.621293927337
 30
0.0
 41
60.0
 42
60.0
 43
60.0
 50
180.0
  0
INSERT
  5
AA4
330
916
100
AcDbEntity
  8
寸法
  6
Continuous
370
    -2
100
AcDbBlockReference
  2
_ORIGIN
 10
17228.05547231339
 20
9559.621293927337
 30
0.0
 41
60.0
 42
60.0
 43
60.0
  0
MTEXT
  5
AA5
330
916
100
AcDbEntity
  8
寸法
  6
Continuous
100
AcDbMText
 10
16228.05547231339
 20
9838.192722498769
 30
0.0
 40
300.0
 41
0.0
 71
     5
 72
     1
  1
\A1;2,000
  7
1_100
 73
     1
 44
1.0
1001
ACAD
1000
MTEXTBEGIN
1070
    73
1070
     1
1070
    44
1040
1.0
1070
    74
1070
     0
1000
MTEXTEND
  0
POINT
  5
AA6
330
916
100
AcDbEntity
  8
DEFPOINTS
  6
Continuous
 62
     0
100
AcDbPoint
 10
15228.05547231339
 20
10866.71532818515
 30
0.0
  0
POINT
  5
AA7
330
916
100
AcDbEntity
  8
DEFPOINTS
  6
Continuous
 62
     0
100
AcDbPoint
 10
17228.05547231339
 20
10866.71532818515
 30
0.0
  0
POINT
  5
AA8
330
916
100
AcDbEntity
  8
DEFPOINTS
  6
Continuous
 62
     0
100
AcDbPoint
 10
17228.05547231339
 20
9559.621293927337
 30
0.0
  0
ENDBLK
  5
921
330
916
100
AcDbEntity
  8
0
100
AcDbBlockEnd
  0
BLOCK
  5
92C
330
922
100
AcDbEntity
  8
0
100
AcDbBlockBegin
  2
*D19
 70
     1
 10
0.0
 20
0.0
 30
0.0
  3
*D19
  1

  0
LINE
  5
AA9
330
922
100
AcDbEntity
  8
寸法
  6
Continuous
370
    -2
100
AcDbLine
 10
17228.05547231339
 20
10566.71532818515
 30
0.0
 11
17228.05547231339
 21
9559.621293927337
 31
0.0
  0
LINE
  5
AAA
330
922
100
AcDbEntity
  8
寸法
  6
Continuous
370
    -2
100
AcDbLine
 10
19228.05547231339
 20
10566.71532818515
 30
0.0
 11
19228.05547231339
 21
9559.621293927337
 31
0.0
  0
LINE
  5
AAB
330
922
100
AcDbEntity
  8
寸法
  6
Continuous
370
    -2
100
AcDbLine
 10
17288.05547231339
 20
9559.621293927337
 30
0.0
 11
19168.05547231339
 21
9559.621293927337
 31
0.0
  0
INSERT
  5
AAC
330
922
100
AcDbEntity
  8
寸法
  6
Continuous
370
    -2
100
AcDbBlockReference
  2
_ORIGIN
 10
17228.05547231339
 20
9559.621293927337
 30
0.0
 41
60.0
 42
60.0
 43
60.0
 50
180.0
  0
INSERT
  5
AAD
330
922
100
AcDbEntity
  8
寸法
  6
Continuous
370
    -2
100
AcDbBlockReference
  2
_ORIGIN
 10
19228.05547231339
 20
9559.621293927337
 30
0.0
 41
60.0
 42
60.0
 43
60.0
  0
MTEXT
  5
AAE
330
922
100
AcDbEntity
  8
寸法
  6
Continuous
100
AcDbMText
 10
18228.05547231339
 20
9838.192722498769
 30
0.0
 40
300.0
 41
0.0
 71
     5
 72
     1
  1
\A1;2,000
  7
1_100
 73
     1
 44
1.0
1001
ACAD
1000
MTEXTBEGIN
1070
    73
1070
     1
1070
    44
1040
1.0
1070
    74
1070
     0
1000
MTEXTEND
  0
POINT
  5
AAF
330
922
100
AcDbEntity
  8
DEFPOINTS
  6
Continuous
 62
     0
100
AcDbPoint
 10
17228.05547231339
 20
10866.71532818515
 30
0.0
  0
POINT
  5
AB0
330
922
100
AcDbEntity
  8
DEFPOINTS
  6
Continuous
 62
     0
100
AcDbPoint
 10
19228.05547231339
 20
10866.71532818515
 30
0.0
  0
POINT
  5
AB1
330
922
100
AcDbEntity
  8
DEFPOINTS
  6
Continuous
 62
     0
100
AcDbPoint
 10
19228.05547231339
 20
9559.621293927337
 30
0.0
  0
ENDBLK
  5
92D
330
922
100
AcDbEntity
  8
0
100
AcDbBlockEnd
  0
BLOCK
  5
938
330
92E
100
AcDbEntity
  8
0
100
AcDbBlockBegin
  2
*D20
 70
     1
 10
0.0
 20
0.0
 30
0.0
  3
*D20
  1

  0
LINE
  5
AB2
330
92E
100
AcDbEntity
  8
寸法
  6
Continuous
370
    -2
100
AcDbLine
 10
19228.05547231339
 20
10566.71532818515
 30
0.0
 11
19228.05547231339
 21
9559.621293927337
 31
0.0
  0
LINE
  5
AB3
330
92E
100
AcDbEntity
  8
寸法
  6
Continuous
370
    -2
100
AcDbLine
 10
21228.05547231339
 20
10589.62129392745
 30
0.0
 11
21228.05547231339
 21
9559.621293927337
 31
0.0
  0
LINE
  5
AB4
330
92E
100
AcDbEntity
  8
寸法
  6
Continuous
370
    -2
100
AcDbLine
 10
19288.05547231339
 20
9559.621293927337
 30
0.0
 11
21168.0554723134
 21
9559.621293927337
 31
0.0
  0
INSERT
  5
AB5
330
92E
100
AcDbEntity
  8
寸法
  6
Continuous
370
    -2
100
AcDbBlockReference
  2
_ORIGIN
 10
19228.05547231339
 20
9559.621293927337
 30
0.0
 41
60.0
 42
60.0
 43
60.0
 50
180.0
  0
INSERT
  5
AB6
330
92E
100
AcDbEntity
  8
寸法
  6
Continuous
370
    -2
100
AcDbBlockReference
  2
_ORIGIN
 10
21228.05547231339
 20
9559.621293927337
 30
0.0
 41
60.0
 42
60.0
 43
60.0
  0
MTEXT
  5
AB7
330
92E
100
AcDbEntity
  8
寸法
  6
Continuous
100
AcDbMText
 10
20228.05547231339
 20
9838.192722498769
 30
0.0
 40
300.0
 41
0.0
 71
     5
 72
     1
  1
\A1;2,000
  7
1_100
 73
     1
 44
1.0
1001
ACAD
1000
MTEXTBEGIN
1070
    73
1070
     1
1070
    44
1040
1.0
1070
    74
1070
     0
1000
MTEXTEND
  0
POINT
  5
AB8
330
92E
100
AcDbEntity
  8
DEFPOINTS
  6
Continuous
 62
     0
100
AcDbPoint
 10
19228.05547231339
 20
10866.71532818515
 30
0.0
  0
POINT
  5
AB9
330
92E
100
AcDbEntity
  8
DEFPOINTS
  6
Continuous
 62
     0
100
AcDbPoint
 10
21228.05547231339
 20
10889.62129392745
 30
0.0
  0
POINT
  5
ABA
330
92E
100
AcDbEntity
  8
DEFPOINTS
  6
Continuous
 62
     0
100
AcDbPoint
 10
21228.05547231339
 20
9559.621293927337
 30
0.0
  0
ENDBLK
  5
939
330
92E
100
AcDbEntity
  8
0
100
AcDbBlockEnd
  0
BLOCK
  5
946
330
93A
100
AcDbEntity
  8
0
100
AcDbBlockBegin
  2
*D21
 70
     1
 10
0.0
 20
0.0
 30
0.0
  3
*D21
  1

  0
LINE
  5
ABB
330
93A
100
AcDbEntity
  8
寸法
  6
Continuous
370
    -2
100
AcDbLine
 10
9132.705472313299
 20
21159.6212939278
 30
0.0
 11
9132.705472313299
 21
21459.6212939278
 31
0.0
  0
LINE
  5
ABC
330
93A
100
AcDbEntity
  8
寸法
  6
Continuous
370
    -2
100
AcDbLine
 10
9323.405472313483
 20
21159.6212939278
 30
0.0
 11
9323.405472313483
 21
21459.6212939278
 31
0.0
  0
LINE
  5
ABD
330
93A
100
AcDbEntity
  8
寸法
  6
Continuous
370
    -2
100
AcDbLine
 10
9072.7054723133
 20
21459.6212939278
 30
0.0
 11
9012.705472313298
 21
21459.6212939278
 31
0.0
  0
LINE
  5
ABE
330
93A
100
AcDbEntity
  8
寸法
  6
Continuous
370
    -2
100
AcDbLine
 10
9383.405472313482
 20
21459.6212939278
 30
0.0
 11
9443.405472313484
 21
21459.6212939278
 31
0.0
  0
MTEXT
  5
ABF
330
93A
100
AcDbEntity
  8
寸法
  6
Continuous
100
AcDbMText
 10
9228.055472313391
 20
21759.6212939278
 30
0.0
 40
300.0
 41
0.0
 71
     5
 72
     1
  1
\A1;φ190.7
  7
1_100
 73
     1
 44
1.0
1001
ACAD
1000
MTEXTBEGIN
1070
    73
1070
     1
1070
    44
1040
1.0
1070
    74
1070
     0
1000
MTEXTEND
  0
LINE
  5
AC0
330
93A
100
AcDbEntity
  8
寸法
  6
Continuous
370
    -2
100
AcDbLine
 10
9132.705472313299
 20
21459.6212939278
 30
0.0
 11
9323.405472313483
 21
21459.6212939278
 31
0.0
  0
INSERT
  5
AC1
330
93A
100
AcDbEntity
  8
寸法
  6
Continuous
370
    -2
100
AcDbBlockReference
  2
_ORIGIN
 10
9132.705472313299
 20
21459.6212939278
 30
0.0
 41
60.0
 42
60.0
 43
60.0
  0
INSERT
  5
AC2
330
93A
100
AcDbEntity
  8
寸法
  6
Continuous
370
    -2
100
AcDbBlockReference
  2
_ORIGIN
 10
9323.405472313483
 20
21459.6212939278
 30
0.0
 41
60.0
 42
60.0
 43
60.0
 50
180.0
  0
POINT
  5
AC3
330
93A
100
AcDbEntity
  8
DEFPOINTS
  6
Continuous
 62
     0
100
AcDbPoint
 10
9132.705472313299
 20
20859.6212939278
 30
0.0
  0
POINT
  5
AC4
330
93A
100
AcDbEntity
  8
DEFPOINTS
  6
Continuous
 62
     0
100
AcDbPoint
 10
9323.405472313483
 20
20859.6212939278
 30
0.0
  0
POINT
  5
AC5
330
93A
100
AcDbEntity
  8
DEFPOINTS
  6
Continuous
 62
     0
100
AcDbPoint
 10
9323.405472313483
 20
21459.6212939278
 30
0.0
  0
ENDBLK
  5
947
330
93A
100
AcDbEntity
  8
0
100
AcDbBlockEnd
  0
BLOCK
  5
952
330
948
100
AcDbEntity
  8
0
100
AcDbBlockBegin
  2
*D22
 70
     1
 10
0.0
 20
0.0
 30
0.0
  3
*D22
  1

  0
LINE
  5
AC6
330
948
100
AcDbEntity
  8
寸法
  6
Continuous
370
    -2
100
AcDbLine
 10
26928.0554723134
 20
18329.62129392861
 30
0.0
 11
27628.05547231339
 21
18329.62129392861
 31
0.0
  0
LINE
  5
AC7
330
948
100
AcDbEntity
  8
寸法
  6
Continuous
370
    -2
100
AcDbLine
 10
26928.0554723134
 20
20799.62129392862
 30
0.0
 11
27628.05547231339
 21
20799.62129392862
 31
0.0
  0
LINE
  5
AC8
330
948
100
AcDbEntity
  8
寸法
  6
Continuous
370
    -2
100
AcDbLine
 10
27628.05547231339
 20
18389.62129392862
 30
0.0
 11
27628.05547231339
 21
20739.62129392862
 31
0.0
  0
INSERT
  5
AC9
330
948
100
AcDbEntity
  8
寸法
  6
Continuous
370
    -2
100
AcDbBlockReference
  2
_ORIGIN
 10
27628.05547231339
 20
18329.62129392861
 30
0.0
 41
60.0
 42
60.0
 43
60.0
 50
270.0
  0
INSERT
  5
ACA
330
948
100
AcDbEntity
  8
寸法
  6
Continuous
370
    -2
100
AcDbBlockReference
  2
_ORIGIN
 10
27628.05547231339
 20
20799.62129392862
 30
0.0
 41
60.0
 42
60.0
 43
60.0
 50
90.0
  0
MTEXT
  5
ACB
330
948
100
AcDbEntity
  8
寸法
  6
Continuous
100
AcDbMText
 10
27349.48404374196
 20
19564.62129392862
 30
0.0
 40
300.0
 41
0.0
 71
     5
 72
     1
  1
\A1;2,470
  7
1_100
 11
0.0000000000000001
 21
1.0
 31
0.0
 73
     1
 44
1.0
1001
ACAD
1000
MTEXTBEGIN
1070
    73
1070
     1
1070
    44
1040
1.0
1070
    74
1070
     0
1000
MTEXTEND
  0
POINT
  5
ACC
330
948
100
AcDbEntity
  8
DEFPOINTS
  6
Continuous
 62
     0
100
AcDbPoint
 10
26628.05547231339
 20
18329.62129392861
 30
0.0
  0
POINT
  5
ACD
330
948
100
AcDbEntity
  8
DEFPOINTS
  6
Continuous
 62
     0
100
AcDbPoint
 10
26628.05547231339
 20
20799.62129392862
 30
0.0
  0
POINT
  5
ACE
330
948
100
AcDbEntity
  8
DEFPOINTS
  6
Continuous
 62
     0
100
AcDbPoint
 10
27628.05547231339
 20
20799.62129392862
 30
0.0
  0
ENDBLK
  5
953
330
948
100
AcDbEntity
  8
0
100
AcDbBlockEnd
  0
BLOCK
  5
960
330
954
100
AcDbEntity
  8
0
100
AcDbBlockBegin
  2
*D23
 70
     1
 10
0.0
 20
0.0
 30
0.0
  3
*D23
  1

  0
LINE
  5
ACF
330
954
100
AcDbEntity
  8
寸法
  6
Continuous
370
    -2
100
AcDbLine
 10
26928.0554723134
 20
20799.6212939278
 30
0.0
 11
27628.05547231339
 21
20799.6212939278
 31
0.0
  0
LINE
  5
AD0
330
954
100
AcDbEntity
  8
寸法
  6
Continuous
370
    -2
100
AcDbLine
 10
26928.0554723134
 20
20859.6212939278
 30
0.0
 11
27628.05547231339
 21
20859.6212939278
 31
0.0
  0
LINE
  5
AD1
330
954
100
AcDbEntity
  8
寸法
  6
Continuous
370
    -2
100
AcDbLine
 10
27628.05547231339
 20
20739.6212939278
 30
0.0
 11
27628.05547231339
 21
20679.6212939278
 31
0.0
  0
LINE
  5
AD2
330
954
100
AcDbEntity
  8
寸法
  6
Continuous
370
    -2
100
AcDbLine
 10
27628.05547231339
 20
20919.6212939278
 30
0.0
 11
27628.05547231339
 21
20979.6212939278
 31
0.0
  0
MTEXT
  5
AD3
330
954
100
AcDbEntity
  8
寸法
  6
Continuous
100
AcDbMText
 10
27344.11864929364
 20
21144.97412380975
 30
0.0
 40
300.0
 41
0.0
 71
     5
 72
     1
  1
\A1;60
  7
1_100
 11
0.0000000000000001
 21
1.0
 31
0.0
 73
     1
 44
1.0
1001
ACAD
1000
MTEXTBEGIN
1070
    73
1070
     1
1070
    44
1040
1.0
1070
    74
1070
     0
1000
MTEXTEND
  0
LINE
  5
AD4
330
954
100
AcDbEntity
  8
寸法
  6
Continuous
370
    -2
100
AcDbLine
 10
27628.05547231339
 20
20799.6212939278
 30
0.0
 11
27628.05547231339
 21
20859.6212939278
 31
0.0
  0
INSERT
  5
AD5
330
954
100
AcDbEntity
  8
寸法
  6
Continuous
370
    -2
100
AcDbBlockReference
  2
_ORIGIN
 10
27628.05547231339
 20
20799.6212939278
 30
0.0
 41
60.0
 42
60.0
 43
60.0
 50
90.0
  0
INSERT
  5
AD6
330
954
100
AcDbEntity
  8
寸法
  6
Continuous
370
    -2
100
AcDbBlockReference
  2
_ORIGIN
 10
27628.05547231339
 20
20859.6212939278
 30
0.0
 41
60.0
 42
60.0
 43
60.0
 50
270.0
  0
POINT
  5
AD7
330
954
100
AcDbEntity
  8
DEFPOINTS
  6
Continuous
 62
     0
100
AcDbPoint
 10
26628.05547231339
 20
20799.6212939278
 30
0.0
  0
POINT
  5
AD8
330
954
100
AcDbEntity
  8
DEFPOINTS
  6
Continuous
 62
     0
100
AcDbPoint
 10
26628.05547231339
 20
20859.6212939278
 30
0.0
  0
POINT
  5
AD9
330
954
100
AcDbEntity
  8
DEFPOINTS
  6
Continuous
 62
     0
100
AcDbPoint
 10
27628.05547231339
 20
20859.6212939278
 30
0.0
  0
ENDBLK
  5
961
330
954
100
AcDbEntity
  8
0
100
AcDbBlockEnd
  0
BLOCK
  5
96C
330
962
100
AcDbEntity
  8
0
100
AcDbBlockBegin
  2
*D24
 70
     1
 10
0.0
 20
0.0
 30
0.0
  3
*D24
  1

  0
LINE
  5
ADA
330
962
100
AcDbEntity
  8
寸法
  6
Continuous
370
    -2
100
AcDbLine
 10
26928.0554723134
 20
15859.62129392862
 30
0.0
 11
27628.05547231339
 21
15859.62129392862
 31
0.0
  0
LINE
  5
ADB
330
962
100
AcDbEntity
  8
寸法
  6
Continuous
370
    -2
100
AcDbLine
 10
26928.0554723134
 20
18329.62129392861
 30
0.0
 11
27628.05547231339
 21
18329.62129392861
 31
0.0
  0
LINE
  5
ADC
330
962
100
AcDbEntity
  8
寸法
  6
Continuous
370
    -2
100
AcDbLine
 10
27628.05547231339
 20
15919.62129392862
 30
0.0
 11
27628.05547231339
 21
18269.62129392861
 31
0.0
  0
INSERT
  5
ADD
330
962
100
AcDbEntity
  8
寸法
  6
Continuous
370
    -2
100
AcDbBlockReference
  2
_ORIGIN
 10
27628.05547231339
 20
15859.62129392862
 30
0.0
 41
60.0
 42
60.0
 43
60.0
 50
270.0
  0
INSERT
  5
ADE
330
962
100
AcDbEntity
  8
寸法
  6
Continuous
370
    -2
100
AcDbBlockReference
  2
_ORIGIN
 10
27628.05547231339
 20
18329.62129392861
 30
0.0
 41
60.0
 42
60.0
 43
60.0
 50
90.0
  0
MTEXT
  5
ADF
330
962
100
AcDbEntity
  8
寸法
  6
Continuous
100
AcDbMText
 10
27349.48404374196
 20
17094.62129392862
 30
0.0
 40
300.0
 41
0.0
 71
     5
 72
     1
  1
\A1;2,470
  7
1_100
 11
0.0000000000000001
 21
1.0
 31
0.0
 73
     1
 44
1.0
1001
ACAD
1000
MTEXTBEGIN
1070
    73
1070
     1
1070
    44
1040
1.0
1070
    74
1070
     0
1000
MTEXTEND
  0
POINT
  5
AE0
330
962
100
AcDbEntity
  8
DEFPOINTS
  6
Continuous
 62
     0
100
AcDbPoint
 10
26628.05547231339
 20
15859.62129392862
 30
0.0
  0
POINT
  5
AE1
330
962
100
AcDbEntity
  8
DEFPOINTS
  6
Continuous
 62
     0
100
AcDbPoint
 10
26628.05547231339
 20
18329.62129392861
 30
0.0
  0
POINT
  5
AE2
330
962
100
AcDbEntity
  8
DEFPOINTS
  6
Continuous
 62
     0
100
AcDbPoint
 10
27628.05547231339
 20
18329.62129392861
 30
0.0
  0
ENDBLK
  5
96D
330
962
100
AcDbEntity
  8
0
100
AcDbBlockEnd
  0
BLOCK
  5
978
330
96E
100
AcDbEntity
  8
0
100
AcDbBlockBegin
  2
*D25
 70
     1
 10
0.0
 20
0.0
 30
0.0
  3
*D25
  1

  0
LINE
  5
AE3
330
96E
100
AcDbEntity
  8
寸法
  6
Continuous
370
    -2
100
AcDbLine
 10
33028.05547231339
 20
13859.62129392862
 30
0.0
 11
33828.05547231339
 21
13859.62129392862
 31
0.0
  0
LINE
  5
AE4
330
96E
100
AcDbEntity
  8
寸法
  6
Continuous
370
    -2
100
AcDbLine
 10
33028.05547231339
 20
15859.62129392862
 30
0.0
 11
33828.05547231339
 21
15859.62129392862
 31
0.0
  0
LINE
  5
AE5
330
96E
100
AcDbEntity
  8
寸法
  6
Continuous
370
    -2
100
AcDbLine
 10
33828.05547231339
 20
13919.62129392862
 30
0.0
 11
33828.05547231339
 21
15799.62129392862
 31
0.0
  0
INSERT
  5
AE6
330
96E
100
AcDbEntity
  8
寸法
  6
Continuous
370
    -2
100
AcDbBlockReference
  2
_ORIGIN
 10
33828.05547231339
 20
13859.62129392862
 30
0.0
 41
60.0
 42
60.0
 43
60.0
 50
270.0
  0
INSERT
  5
AE7
330
96E
100
AcDbEntity
  8
寸法
  6
Continuous
370
    -2
100
AcDbBlockReference
  2
_ORIGIN
 10
33828.05547231339
 20
15859.62129392862
 30
0.0
 41
60.0
 42
60.0
 43
60.0
 50
90.0
  0
MTEXT
  5
AE8
330
96E
100
AcDbEntity
  8
寸法
  6
Continuous
100
AcDbMText
 10
33549.48404374197
 20
14859.62129392861
 30
0.0
 40
300.0
 41
0.0
 71
     5
 72
     1
  1
\A1;2,000
  7
1_100
 11
0.0000000000000001
 21
1.0
 31
0.0
 73
     1
 44
1.0
1001
ACAD
1000
MTEXTBEGIN
1070
    73
1070
     1
1070
    44
1040
1.0
1070
    74
1070
     0
1000
MTEXTEND
  0
POINT
  5
AE9
330
96E
100
AcDbEntity
  8
DEFPOINTS
  6
Continuous
 62
     0
100
AcDbPoint
 10
32728.05547231339
 20
13859.62129392862
 30
0.0
  0
POINT
  5
AEA
330
96E
100
AcDbEntity
  8
DEFPOINTS
  6
Continuous
 62
     0
100
AcDbPoint
 10
32728.05547231339
 20
15859.62129392862
 30
0.0
  0
POINT
  5
AEB
330
96E
100
AcDbEntity
  8
DEFPOINTS
  6
Continuous
 62
     0
100
AcDbPoint
 10
33828.05547231339
 20
15859.62129392862
 30
0.0
  0
ENDBLK
  5
979
330
96E
100
AcDbEntity
  8
0
100
AcDbBlockEnd
  0
BLOCK
  5
984
330
97A
100
AcDbEntity
  8
0
100
AcDbBlockBegin
  2
*D26
 70
     1
 10
0.0
 20
0.0
 30
0.0
  3
*D26
  1

  0
LINE
  5
AEC
330
97A
100
AcDbEntity
  8
寸法
  6
Continuous
370
    -2
100
AcDbLine
 10
33028.0554723134
 20
20859.62129392862
 30
0.0
 11
34828.0554723134
 21
20859.62129392862
 31
0.0
  0
LINE
  5
AED
330
97A
100
AcDbEntity
  8
寸法
  6
Continuous
370
    -2
100
AcDbLine
 10
33028.05547231339
 20
13859.62129392862
 30
0.0
 11
34828.05547231339
 21
13859.62129392862
 31
0.0
  0
LINE
  5
AEE
330
97A
100
AcDbEntity
  8
寸法
  6
Continuous
370
    -2
100
AcDbLine
 10
34828.0554723134
 20
20799.62129392862
 30
0.0
 11
34828.05547231339
 21
13919.62129392862
 31
0.0
  0
INSERT
  5
AEF
330
97A
100
AcDbEntity
  8
寸法
  6
Continuous
370
    -2
100
AcDbBlockReference
  2
_ORIGIN
 10
34828.0554723134
 20
20859.62129392862
 30
0.0
 41
60.0
 42
60.0
 43
60.0
 50
90.0
  0
INSERT
  5
AF0
330
97A
100
AcDbEntity
  8
寸法
  6
Continuous
370
    -2
100
AcDbBlockReference
  2
_ORIGIN
 10
34828.05547231339
 20
13859.62129392862
 30
0.0
 41
60.0
 42
60.0
 43
60.0
 50
270.0
  0
MTEXT
  5
AF1
330
97A
100
AcDbEntity
  8
寸法
  6
Continuous
100
AcDbMText
 10
34549.48404374196
 20
17359.62129392862
 30
0.0
 40
300.0
 41
0.0
 71
     5
 72
     1
  1
\A1;7,000
  7
1_100
 11
0.0000000000000001
 21
1.0
 31
0.0
 73
     1
 44
1.0
1001
ACAD
1000
MTEXTBEGIN
1070
    73
1070
     1
1070
    44
1040
1.0
1070
    74
1070
     0
1000
MTEXTEND
  0
POINT
  5
AF2
330
97A
100
AcDbEntity
  8
DEFPOINTS
  6
Continuous
 62
     0
100
AcDbPoint
 10
32728.05547231339
 20
20859.62129392862
 30
0.0
  0
POINT
  5
AF3
330
97A
100
AcDbEntity
  8
DEFPOINTS
  6
Continuous
 62
     0
100
AcDbPoint
 10
32728.05547231339
 20
13859.62129392862
 30
0.0
  0
POINT
  5
AF4
330
97A
100
AcDbEntity
  8
DEFPOINTS
  6
Continuous
 62
     0
100
AcDbPoint
 10
34828.05547231339
 20
13859.62129392862
 30
0.0
  0
ENDBLK
  5
985
330
97A
100
AcDbEntity
  8
0
100
AcDbBlockEnd
  0
BLOCK
  5
990
330
986
100
AcDbEntity
  8
0
100
AcDbBlockBegin
  2
*D27
 70
     1
 10
0.0
 20
0.0
 30
0.0
  3
*D27
  1

  0
LINE
  5
AF5
330
986
100
AcDbEntity
  8
寸法
  6
Continuous
370
    -2
100
AcDbLine
 10
31003.05547231339
 20
11459.62129392815
 30
0.0
 11
31003.05547231339
 21
11159.62129392815
 31
0.0
  0
LINE
  5
AF6
330
986
100
AcDbEntity
  8
寸法
  6
Continuous
370
    -2
100
AcDbLine
 10
31453.05547231339
 20
11459.62129392815
 30
0.0
 11
31453.05547231339
 21
11159.62129392815
 31
0.0
  0
LINE
  5
AF7
330
986
100
AcDbEntity
  8
寸法
  6
Continuous
370
    -2
100
AcDbLine
 10
31063.0554723134
 20
11159.62129392815
 30
0.0
 11
31393.0554723134
 21
11159.62129392815
 31
0.0
  0
MTEXT
  5
AF8
330
986
100
AcDbEntity
  8
寸法
  6
Continuous
100
AcDbMText
 10
30428.52873853824
 20
11333.67673241024
 30
0.0
 40
300.0
 41
0.0
 71
     5
 72
     1
  1
\A1;φ450
  7
1_100
 73
     1
 44
1.0
1001
ACAD
1000
MTEXTBEGIN
1070
    73
1070
     1
1070
    44
1040
1.0
1070
    74
1070
     0
1000
MTEXTEND
  0
INSERT
  5
AF9
330
986
100
AcDbEntity
  8
寸法
  6
Continuous
370
    -2
100
AcDbBlockReference
  2
_ORIGIN
 10
31003.05547231339
 20
11159.62129392815
 30
0.0
 41
60.0
 42
60.0
 43
60.0
 50
180.0
  0
INSERT
  5
AFA
330
986
100
AcDbEntity
  8
寸法
  6
Continuous
370
    -2
100
AcDbBlockReference
  2
_ORIGIN
 10
31453.05547231339
 20
11159.62129392815
 30
0.0
 41
60.0
 42
60.0
 43
60.0
  0
POINT
  5
AFB
330
986
100
AcDbEntity
  8
DEFPOINTS
  6
Continuous
 62
     0
100
AcDbPoint
 10
31003.05547231339
 20
11759.62129392815
 30
0.0
  0
POINT
  5
AFC
330
986
100
AcDbEntity
  8
DEFPOINTS
  6
Continuous
 62
     0
100
AcDbPoint
 10
31453.05547231339
 20
11759.62129392815
 30
0.0
  0
POINT
  5
AFD
330
986
100
AcDbEntity
  8
DEFPOINTS
  6
Continuous
 62
     0
100
AcDbPoint
 10
31453.05547231339
 20
11159.62129392815
 30
0.0
  0
ENDBLK
  5
991
330
986
100
AcDbEntity
  8
0
100
AcDbBlockEnd
  0
BLOCK
  5
99E
330
992
100
AcDbEntity
  8
0
100
AcDbBlockBegin
  2
*D28
 70
     1
 10
0.0
 20
0.0
 30
0.0
  3
*D28
  1

  0
LINE
  5
AFE
330
992
100
AcDbEntity
  8
寸法
  6
Continuous
370
    -2
100
AcDbLine
 10
33028.05547231339
 20
13559.62129392862
 30
0.0
 11
33828.05547231339
 21
13559.62129392862
 31
0.0
  0
LINE
  5
AFF
330
992
100
AcDbEntity
  8
寸法
  6
Continuous
370
    -2
100
AcDbLine
 10
33028.05547231339
 20
13859.62129392862
 30
0.0
 11
33828.05547231339
 21
13859.62129392862
 31
0.0
  0
LINE
  5
B00
330
992
100
AcDbEntity
  8
寸法
  6
Continuous
370
    -2
100
AcDbLine
 10
33828.05547231339
 20
13499.62129392862
 30
0.0
 11
33828.05547231339
 21
13439.62129392862
 31
0.0
  0
LINE
  5
B01
330
992
100
AcDbEntity
  8
寸法
  6
Continuous
370
    -2
100
AcDbLine
 10
33828.05547231339
 20
13919.62129392862
 30
0.0
 11
33828.05547231339
 21
13979.62129392862
 31
0.0
  0
MTEXT
  5
B02
330
992
100
AcDbEntity
  8
寸法
  6
Continuous
100
AcDbMText
 10
34094.67007715717
 20
13502.72450745877
 30
0.0
 40
300.0
 41
0.0
 71
     5
 72
     1
  1
\A1;300
  7
1_100
 11
0.0000000000000001
 21
1.0
 31
0.0
 73
     1
 44
1.0
1001
ACAD
1000
MTEXTBEGIN
1070
    73
1070
     1
1070
    44
1040
1.0
1070
    74
1070
     0
1000
MTEXTEND
  0
LINE
  5
B03
330
992
100
AcDbEntity
  8
寸法
  6
Continuous
370
    -2
100
AcDbLine
 10
33828.05547231339
 20
13559.62129392862
 30
0.0
 11
33828.05547231339
 21
13859.62129392862
 31
0.0
  0
INSERT
  5
B04
330
992
100
AcDbEntity
  8
寸法
  6
Continuous
370
    -2
100
AcDbBlockReference
  2
_ORIGIN
 10
33828.05547231339
 20
13559.62129392862
 30
0.0
 41
60.0
 42
60.0
 43
60.0
 50
90.0
  0
INSERT
  5
B05
330
992
100
AcDbEntity
  8
寸法
  6
Continuous
370
    -2
100
AcDbBlockReference
  2
_ORIGIN
 10
33828.05547231339
 20
13859.62129392862
 30
0.0
 41
60.0
 42
60.0
 43
60.0
 50
270.0
  0
POINT
  5
B06
330
992
100
AcDbEntity
  8
DEFPOINTS
  6
Continuous
 62
     0
100
AcDbPoint
 10
32728.05547231339
 20
13559.62129392862
 30
0.0
  0
POINT
  5
B07
330
992
100
AcDbEntity
  8
DEFPOINTS
  6
Continuous
 62
     0
100
AcDbPoint
 10
32728.05547231339
 20
13859.62129392862
 30
0.0
  0
POINT
  5
B08
330
992
100
AcDbEntity
  8
DEFPOINTS
  6
Continuous
 62
     0
100
AcDbPoint
 10
33828.05547231339
 20
13859.62129392862
 30
0.0
  0
ENDBLK
  5
99F
330
992
100
AcDbEntity
  8
0
100
AcDbBlockEnd
  0
BLOCK
  5
9AC
330
9A0
100
AcDbEntity
  8
0
100
AcDbBlockBegin
  2
*D29
 70
     1
 10
0.0
 20
0.0
 30
0.0
  3
*D29
  1

  0
LINE
  5
B09
330
9A0
100
AcDbEntity
  8
寸法
  6
Continuous
370
    -2
100
AcDbLine
 10
33028.05547231339
 20
11759.62129392862
 30
0.0
 11
33828.05547231339
 21
11759.62129392862
 31
0.0
  0
LINE
  5
B0A
330
9A0
100
AcDbEntity
  8
寸法
  6
Continuous
370
    -2
100
AcDbLine
 10
33028.05547231339
 20
11859.62129392862
 30
0.0
 11
33828.05547231339
 21
11859.62129392862
 31
0.0
  0
LINE
  5
B0B
330
9A0
100
AcDbEntity
  8
寸法
  6
Continuous
370
    -2
100
AcDbLine
 10
33828.05547231339
 20
11699.62129392862
 30
0.0
 11
33828.05547231339
 21
11639.62129392862
 31
0.0
  0
LINE
  5
B0C
330
9A0
100
AcDbEntity
  8
寸法
  6
Continuous
370
    -2
100
AcDbLine
 10
33828.05547231339
 20
11919.62129392862
 30
0.0
 11
33828.05547231339
 21
11979.62129392862
 31
0.0
  0
MTEXT
  5
B0D
330
9A0
100
AcDbEntity
  8
寸法
  6
Continuous
100
AcDbMText
 10
33524.08617547756
 20
11368.97074168748
 30
0.0
 40
300.0
 41
0.0
 71
     5
 72
     1
  1
\A1;100
  7
1_100
 11
0.0000000000000001
 21
1.0
 31
0.0
 73
     1
 44
1.0
1001
ACAD
1000
MTEXTBEGIN
1070
    73
1070
     1
1070
    44
1040
1.0
1070
    74
1070
     0
1000
MTEXTEND
  0
LINE
  5
B0E
330
9A0
100
AcDbEntity
  8
寸法
  6
Continuous
370
    -2
100
AcDbLine
 10
33828.05547231339
 20
11759.62129392862
 30
0.0
 11
33828.05547231339
 21
11859.62129392862
 31
0.0
  0
INSERT
  5
B0F
330
9A0
100
AcDbEntity
  8
寸法
  6
Continuous
370
    -2
100
AcDbBlockReference
  2
_ORIGIN
 10
33828.05547231339
 20
11759.62129392862
 30
0.0
 41
60.0
 42
60.0
 43
60.0
 50
90.0
  0
INSERT
  5
B10
330
9A0
100
AcDbEntity
  8
寸法
  6
Continuous
370
    -2
100
AcDbBlockReference
  2
_ORIGIN
 10
33828.05547231339
 20
11859.62129392862
 30
0.0
 41
60.0
 42
60.0
 43
60.0
 50
270.0
  0
POINT
  5
B11
330
9A0
100
AcDbEntity
  8
DEFPOINTS
  6
Continuous
 62
     0
100
AcDbPoint
 10
32728.05547231339
 20
11759.62129392862
 30
0.0
  0
POINT
  5
B12
330
9A0
100
AcDbEntity
  8
DEFPOINTS
  6
Continuous
 62
     0
100
AcDbPoint
 10
32728.05547231339
 20
11859.62129392862
 30
0.0
  0
POINT
  5
B13
330
9A0
100
AcDbEntity
  8
DEFPOINTS
  6
Continuous
 62
     0
100
AcDbPoint
 10
33828.05547231339
 20
11859.62129392862
 30
0.0
  0
ENDBLK
  5
9AD
330
9A0
100
AcDbEntity
  8
0
100
AcDbBlockEnd
  0
BLOCK
  5
9B8
330
9AE
100
AcDbEntity
  8
0
100
AcDbBlockBegin
  2
*D30
 70
     1
 10
0.0
 20
0.0
 30
0.0
  3
*D30
  1

  0
LINE
  5
B14
330
9AE
100
AcDbEntity
  8
寸法
  6
Continuous
370
    -2
100
AcDbLine
 10
33028.05547231339
 20
11859.62129392862
 30
0.0
 11
33828.05547231339
 21
11859.62129392862
 31
0.0
  0
LINE
  5
B15
330
9AE
100
AcDbEntity
  8
寸法
  6
Continuous
370
    -2
100
AcDbLine
 10
33028.05547231339
 20
13559.62129392862
 30
0.0
 11
33828.05547231339
 21
13559.62129392862
 31
0.0
  0
LINE
  5
B16
330
9AE
100
AcDbEntity
  8
寸法
  6
Continuous
370
    -2
100
AcDbLine
 10
33828.05547231339
 20
11919.62129392862
 30
0.0
 11
33828.05547231339
 21
13499.62129392862
 31
0.0
  0
INSERT
  5
B17
330
9AE
100
AcDbEntity
  8
寸法
  6
Continuous
370
    -2
100
AcDbBlockReference
  2
_ORIGIN
 10
33828.05547231339
 20
11859.62129392862
 30
0.0
 41
60.0
 42
60.0
 43
60.0
 50
270.0
  0
INSERT
  5
B18
330
9AE
100
AcDbEntity
  8
寸法
  6
Continuous
370
    -2
100
AcDbBlockReference
  2
_ORIGIN
 10
33828.05547231339
 20
13559.62129392862
 30
0.0
 41
60.0
 42
60.0
 43
60.0
 50
90.0
  0
MTEXT
  5
B19
330
9AE
100
AcDbEntity
  8
寸法
  6
Continuous
100
AcDbMText
 10
33549.48404374197
 20
12709.62129392862
 30
0.0
 40
300.0
 41
0.0
 71
     5
 72
     1
  1
\A1;1,700
  7
1_100
 11
0.0000000000000001
 21
1.0
 31
0.0
 73
     1
 44
1.0
1001
ACAD
1000
MTEXTBEGIN
1070
    73
1070
     1
1070
    44
1040
1.0
1070
    74
1070
     0
1000
MTEXTEND
  0
POINT
  5
B1A
330
9AE
100
AcDbEntity
  8
DEFPOINTS
  6
Continuous
 62
     0
100
AcDbPoint
 10
32728.05547231339
 20
11859.62129392862
 30
0.0
  0
POINT
  5
B1B
330
9AE
100
AcDbEntity
  8
DEFPOINTS
  6
Continuous
 62
     0
100
AcDbPoint
 10
32728.05547231339
 20
13559.62129392862
 30
0.0
  0
POINT
  5
B1C
330
9AE
100
AcDbEntity
  8
DEFPOINTS
  6
Continuous
 62
     0
100
AcDbPoint
 10
33828.05547231339
 20
13559.62129392862
 30
0.0
  0
ENDBLK
  5
9B9
330
9AE
100
AcDbEntity
  8
0
100
AcDbBlockEnd
  0
BLOCK
  5
9C4
330
9BA
100
AcDbEntity
  8
0
100
AcDbBlockBegin
  2
*D31
 70
     1
 10
0.0
 20
0.0
 30
0.0
  3
*D31
  1

  0
LINE
  5
B1D
330
9BA
100
AcDbEntity
  8
寸法
  6
Continuous
370
    -2
100
AcDbLine
 10
33028.05547231339
 20
13859.62129392862
 30
0.0
 11
34828.05547231339
 21
13859.62129392862
 31
0.0
  0
LINE
  5
B1E
330
9BA
100
AcDbEntity
  8
寸法
  6
Continuous
370
    -2
100
AcDbLine
 10
33028.05547231339
 20
11859.62129392862
 30
0.0
 11
34828.05547231339
 21
11859.62129392862
 31
0.0
  0
LINE
  5
B1F
330
9BA
100
AcDbEntity
  8
寸法
  6
Continuous
370
    -2
100
AcDbLine
 10
34828.05547231339
 20
13799.62129392862
 30
0.0
 11
34828.05547231339
 21
11919.62129392862
 31
0.0
  0
INSERT
  5
B20
330
9BA
100
AcDbEntity
  8
寸法
  6
Continuous
370
    -2
100
AcDbBlockReference
  2
_ORIGIN
 10
34828.05547231339
 20
13859.62129392862
 30
0.0
 41
60.0
 42
60.0
 43
60.0
 50
90.0
  0
INSERT
  5
B21
330
9BA
100
AcDbEntity
  8
寸法
  6
Continuous
370
    -2
100
AcDbBlockReference
  2
_ORIGIN
 10
34828.05547231339
 20
11859.62129392862
 30
0.0
 41
60.0
 42
60.0
 43
60.0
 50
270.0
  0
MTEXT
  5
B22
330
9BA
100
AcDbEntity
  8
寸法
  6
Continuous
100
AcDbMText
 10
34549.48404374196
 20
12859.62129392862
 30
0.0
 40
300.0
 41
0.0
 71
     5
 72
     1
  1
\A1;2,000
  7
1_100
 11
0.0000000000000001
 21
1.0
 31
0.0
 73
     1
 44
1.0
1001
ACAD
1000
MTEXTBEGIN
1070
    73
1070
     1
1070
    44
1040
1.0
1070
    74
1070
     0
1000
MTEXTEND
  0
POINT
  5
B23
330
9BA
100
AcDbEntity
  8
DEFPOINTS
  6
Continuous
 62
     0
100
AcDbPoint
 10
32728.05547231339
 20
13859.62129392862
 30
0.0
  0
POINT
  5
B24
330
9BA
100
AcDbEntity
  8
DEFPOINTS
  6
Continuous
 62
     0
100
AcDbPoint
 10
32728.05547231339
 20
11859.62129392862
 30
0.0
  0
POINT
  5
B25
330
9BA
100
AcDbEntity
  8
DEFPOINTS
  6
Continuous
 62
     0
100
AcDbPoint
 10
34828.05547231339
 20
11859.62129392862
 30
0.0
  0
ENDBLK
  5
9C5
330
9BA
100
AcDbEntity
  8
0
100
AcDbBlockEnd
  0
BLOCK
  5
9D2
330
9C6
100
AcDbEntity
  8
0
100
AcDbBlockBegin
  2
*D32
 70
     1
 10
0.0
 20
0.0
 30
0.0
  3
*D32
  1

  0
LINE
  5
B26
330
9C6
100
AcDbEntity
  8
寸法
  6
Continuous
370
    -2
100
AcDbLine
 10
30978.05547231339
 20
11459.62129392815
 30
0.0
 11
30978.05547231339
 21
10759.62129392769
 31
0.0
  0
LINE
  5
B27
330
9C6
100
AcDbEntity
  8
寸法
  6
Continuous
370
    -2
100
AcDbLine
 10
31478.05547231339
 20
11459.62129392803
 30
0.0
 11
31478.05547231339
 21
10759.62129392769
 31
0.0
  0
LINE
  5
B28
330
9C6
100
AcDbEntity
  8
寸法
  6
Continuous
370
    -2
100
AcDbLine
 10
30918.0554723134
 20
10759.62129392769
 30
0.0
 11
30858.05547231339
 21
10759.62129392769
 31
0.0
  0
LINE
  5
B29
330
9C6
100
AcDbEntity
  8
寸法
  6
Continuous
370
    -2
100
AcDbLine
 10
31538.05547231339
 20
10759.62129392769
 30
0.0
 11
31598.05547231339
 21
10759.62129392769
 31
0.0
  0
LINE
  5
B2A
330
9C6
100
AcDbEntity
  8
寸法
  6
Continuous
370
    -2
100
AcDbLine
 10
30978.05547231339
 20
10759.62129392769
 30
0.0
 11
31478.05547231339
 21
10759.62129392769
 31
0.0
  0
INSERT
  5
B2B
330
9C6
100
AcDbEntity
  8
寸法
  6
Continuous
370
    -2
100
AcDbBlockReference
  2
_ORIGIN
 10
30978.05547231339
 20
10759.62129392769
 30
0.0
 41
60.0
 42
60.0
 43
60.0
  0
INSERT
  5
B2C
330
9C6
100
AcDbEntity
  8
寸法
  6
Continuous
370
    -2
100
AcDbBlockReference
  2
_ORIGIN
 10
31478.05547231339
 20
10759.62129392769
 30
0.0
 41
60.0
 42
60.0
 43
60.0
 50
180.0
  0
MTEXT
  5
B2D
330
9C6
100
AcDbEntity
  8
寸法
  6
Continuous
100
AcDbMText
 10
31228.05547231339
 20
10509.62129392768
 30
0.0
 40
300.0
 41
0.0
 71
     5
 72
     1
  1
\A1;□500
  7
1_100
 73
     1
 44
1.0
1001
ACAD
1000
MTEXTBEGIN
1070
    73
1070
     1
1070
    44
1040
1.0
1070
    74
1070
     0
1000
MTEXTEND
  0
POINT
  5
B2E
330
9C6
100
AcDbEntity
  8
DEFPOINTS
  6
Continuous
 62
     0
100
AcDbPoint
 10
30978.05547231339
 20
11759.62129392815
 30
0.0
  0
POINT
  5
B2F
330
9C6
100
AcDbEntity
  8
DEFPOINTS
  6
Continuous
 62
     0
100
AcDbPoint
 10
31478.05547231339
 20
11759.62129392803
 30
0.0
  0
POINT
  5
B30
330
9C6
100
AcDbEntity
  8
DEFPOINTS
  6
Continuous
 62
     0
100
AcDbPoint
 10
31478.05547231339
 20
10759.62129392769
 30
0.0
  0
ENDBLK
  5
9D3
330
9C6
100
AcDbEntity
  8
0
100
AcDbBlockEnd
  0
BLOCK
  5
9DE
330
9D4
100
AcDbEntity
  8
0
100
AcDbBlockBegin
  2
*D33
 70
     1
 10
0.0
 20
0.0
 30
0.0
  3
*D33
  1

  0
LINE
  5
B31
330
9D4
100
AcDbEntity
  8
寸法
  6
Continuous
370
    -2
100
AcDbLine
 10
33028.0554723134
 20
18329.62129392861
 30
0.0
 11
33828.05547231339
 21
18329.62129392861
 31
0.0
  0
LINE
  5
B32
330
9D4
100
AcDbEntity
  8
寸法
  6
Continuous
370
    -2
100
AcDbLine
 10
33028.0554723134
 20
20799.62129392862
 30
0.0
 11
33828.05547231339
 21
20799.62129392862
 31
0.0
  0
LINE
  5
B33
330
9D4
100
AcDbEntity
  8
寸法
  6
Continuous
370
    -2
100
AcDbLine
 10
33828.05547231339
 20
18389.62129392862
 30
0.0
 11
33828.05547231339
 21
20739.62129392862
 31
0.0
  0
INSERT
  5
B34
330
9D4
100
AcDbEntity
  8
寸法
  6
Continuous
370
    -2
100
AcDbBlockReference
  2
_ORIGIN
 10
33828.05547231339
 20
18329.62129392861
 30
0.0
 41
60.0
 42
60.0
 43
60.0
 50
270.0
  0
INSERT
  5
B35
330
9D4
100
AcDbEntity
  8
寸法
  6
Continuous
370
    -2
100
AcDbBlockReference
  2
_ORIGIN
 10
33828.05547231339
 20
20799.62129392862
 30
0.0
 41
60.0
 42
60.0
 43
60.0
 50
90.0
  0
MTEXT
  5
B36
330
9D4
100
AcDbEntity
  8
寸法
  6
Continuous
100
AcDbMText
 10
33549.48404374197
 20
19564.62129392862
 30
0.0
 40
300.0
 41
0.0
 71
     5
 72
     1
  1
\A1;2,470
  7
1_100
 11
0.0000000000000001
 21
1.0
 31
0.0
 73
     1
 44
1.0
1001
ACAD
1000
MTEXTBEGIN
1070
    73
1070
     1
1070
    44
1040
1.0
1070
    74
1070
     0
1000
MTEXTEND
  0
POINT
  5
B37
330
9D4
100
AcDbEntity
  8
DEFPOINTS
  6
Continuous
 62
     0
100
AcDbPoint
 10
32728.05547231339
 20
18329.62129392861
 30
0.0
  0
POINT
  5
B38
330
9D4
100
AcDbEntity
  8
DEFPOINTS
  6
Continuous
 62
     0
100
AcDbPoint
 10
32728.05547231339
 20
20799.62129392862
 30
0.0
  0
POINT
  5
B39
330
9D4
100
AcDbEntity
  8
DEFPOINTS
  6
Continuous
 62
     0
100
AcDbPoint
 10
33828.05547231339
 20
20799.62129392862
 30
0.0
  0
ENDBLK
  5
9DF
330
9D4
100
AcDbEntity
  8
0
100
AcDbBlockEnd
  0
BLOCK
  5
9EC
330
9E0
100
AcDbEntity
  8
0
100
AcDbBlockBegin
  2
*D34
 70
     1
 10
0.0
 20
0.0
 30
0.0
  3
*D34
  1

  0
LINE
  5
B3A
330
9E0
100
AcDbEntity
  8
寸法
  6
Continuous
370
    -2
100
AcDbLine
 10
31132.7054723133
 20
21159.62129392827
 30
0.0
 11
31132.7054723133
 21
21459.6212939278
 31
0.0
  0
LINE
  5
B3B
330
9E0
100
AcDbEntity
  8
寸法
  6
Continuous
370
    -2
100
AcDbLine
 10
31323.40547231349
 20
21159.62129392827
 30
0.0
 11
31323.40547231349
 21
21459.6212939278
 31
0.0
  0
LINE
  5
B3C
330
9E0
100
AcDbEntity
  8
寸法
  6
Continuous
370
    -2
100
AcDbLine
 10
31072.7054723133
 20
21459.6212939278
 30
0.0
 11
31012.7054723133
 21
21459.6212939278
 31
0.0
  0
LINE
  5
B3D
330
9E0
100
AcDbEntity
  8
寸法
  6
Continuous
370
    -2
100
AcDbLine
 10
31383.40547231349
 20
21459.6212939278
 30
0.0
 11
31443.40547231349
 21
21459.6212939278
 31
0.0
  0
MTEXT
  5
B3E
330
9E0
100
AcDbEntity
  8
寸法
  6
Continuous
100
AcDbMText
 10
31228.05547231339
 20
21759.6212939278
 30
0.0
 40
300.0
 41
0.0
 71
     5
 72
     1
  1
\A1;φ190.7
  7
1_100
 73
     1
 44
1.0
1001
ACAD
1000
MTEXTBEGIN
1070
    73
1070
     1
1070
    44
1040
1.0
1070
    74
1070
     0
1000
MTEXTEND
  0
LINE
  5
B3F
330
9E0
100
AcDbEntity
  8
寸法
  6
Continuous
370
    -2
100
AcDbLine
 10
31132.7054723133
 20
21459.6212939278
 30
0.0
 11
31323.40547231349
 21
21459.6212939278
 31
0.0
  0
INSERT
  5
B40
330
9E0
100
AcDbEntity
  8
寸法
  6
Continuous
370
    -2
100
AcDbBlockReference
  2
_ORIGIN
 10
31132.7054723133
 20
21459.6212939278
 30
0.0
 41
60.0
 42
60.0
 43
60.0
  0
INSERT
  5
B41
330
9E0
100
AcDbEntity
  8
寸法
  6
Continuous
370
    -2
100
AcDbBlockReference
  2
_ORIGIN
 10
31323.40547231349
 20
21459.6212939278
 30
0.0
 41
60.0
 42
60.0
 43
60.0
 50
180.0
  0
POINT
  5
B42
330
9E0
100
AcDbEntity
  8
DEFPOINTS
  6
Continuous
 62
     0
100
AcDbPoint
 10
31132.7054723133
 20
20859.62129392827
 30
0.0
  0
POINT
  5
B43
330
9E0
100
AcDbEntity
  8
DEFPOINTS
  6
Continuous
 62
     0
100
AcDbPoint
 10
31323.40547231349
 20
20859.62129392827
 30
0.0
  0
POINT
  5
B44
330
9E0
100
AcDbEntity
  8
DEFPOINTS
  6
Continuous
 62
     0
100
AcDbPoint
 10
31323.40547231349
 20
21459.6212939278
 30
0.0
  0
ENDBLK
  5
9ED
330
9E0
100
AcDbEntity
  8
0
100
AcDbBlockEnd
  0
BLOCK
  5
9FA
330
9EE
100
AcDbEntity
  8
0
100
AcDbBlockBegin
  2
*D35
 70
     1
 10
0.0
 20
0.0
 30
0.0
  3
*D35
  1

  0
LINE
  5
B45
330
9EE
100
AcDbEntity
  8
寸法
  6
Continuous
370
    -2
100
AcDbLine
 10
33028.0554723134
 20
20799.62129392862
 30
0.0
 11
33828.05547231339
 21
20799.62129392862
 31
0.0
  0
LINE
  5
B46
330
9EE
100
AcDbEntity
  8
寸法
  6
Continuous
370
    -2
100
AcDbLine
 10
33028.0554723134
 20
20859.62129392862
 30
0.0
 11
33828.05547231339
 21
20859.62129392862
 31
0.0
  0
LINE
  5
B47
330
9EE
100
AcDbEntity
  8
寸法
  6
Continuous
370
    -2
100
AcDbLine
 10
33828.05547231339
 20
20739.62129392862
 30
0.0
 11
33828.05547231339
 21
20679.62129392862
 31
0.0
  0
LINE
  5
B48
330
9EE
100
AcDbEntity
  8
寸法
  6
Continuous
370
    -2
100
AcDbLine
 10
33828.05547231339
 20
20919.62129392862
 30
0.0
 11
33828.05547231339
 21
20979.62129392862
 31
0.0
  0
MTEXT
  5
B49
330
9EE
100
AcDbEntity
  8
寸法
  6
Continuous
100
AcDbMText
 10
33544.09415142374
 20
21163.14664930829
 30
0.0
 40
300.0
 41
0.0
 71
     5
 72
     1
  1
\A1;60
  7
1_100
 11
0.0000000000000001
 21
1.0
 31
0.0
 73
     1
 44
1.0
1001
ACAD
1000
MTEXTBEGIN
1070
    73
1070
     1
1070
    44
1040
1.0
1070
    74
1070
     0
1000
MTEXTEND
  0
LINE
  5
B4A
330
9EE
100
AcDbEntity
  8
寸法
  6
Continuous
370
    -2
100
AcDbLine
 10
33828.05547231339
 20
20799.62129392862
 30
0.0
 11
33828.05547231339
 21
20859.62129392862
 31
0.0
  0
INSERT
  5
B4B
330
9EE
100
AcDbEntity
  8
寸法
  6
Continuous
370
    -2
100
AcDbBlockReference
  2
_ORIGIN
 10
33828.05547231339
 20
20799.62129392862
 30
0.0
 41
60.0
 42
60.0
 43
60.0
 50
90.0
  0
INSERT
  5
B4C
330
9EE
100
AcDbEntity
  8
寸法
  6
Continuous
370
    -2
100
AcDbBlockReference
  2
_ORIGIN
 10
33828.05547231339
 20
20859.62129392862
 30
0.0
 41
60.0
 42
60.0
 43
60.0
 50
270.0
  0
POINT
  5
B4D
330
9EE
100
AcDbEntity
  8
DEFPOINTS
  6
Continuous
 62
     0
100
AcDbPoint
 10
32728.05547231339
 20
20799.62129392862
 30
0.0
  0
POINT
  5
B4E
330
9EE
100
AcDbEntity
  8
DEFPOINTS
  6
Continuous
 62
     0
100
AcDbPoint
 10
32728.05547231339
 20
20859.62129392862
 30
0.0
  0
POINT
  5
B4F
330
9EE
100
AcDbEntity
  8
DEFPOINTS
  6
Continuous
 62
     0
100
AcDbPoint
 10
33828.05547231339
 20
20859.62129392862
 30
0.0
  0
ENDBLK
  5
9FB
330
9EE
100
AcDbEntity
  8
0
100
AcDbBlockEnd
  0
BLOCK
  5
A06
330
9FC
100
AcDbEntity
  8
0
100
AcDbBlockBegin
  2
*D36
 70
     1
 10
0.0
 20
0.0
 30
0.0
  3
*D36
  1

  0
LINE
  5
B50
330
9FC
100
AcDbEntity
  8
寸法
  6
Continuous
370
    -2
100
AcDbLine
 10
33028.05547231339
 20
15859.62129392862
 30
0.0
 11
33828.05547231338
 21
15859.62129392862
 31
0.0
  0
LINE
  5
B51
330
9FC
100
AcDbEntity
  8
寸法
  6
Continuous
370
    -2
100
AcDbLine
 10
33028.0554723134
 20
18329.62129392861
 30
0.0
 11
33828.05547231339
 21
18329.62129392861
 31
0.0
  0
LINE
  5
B52
330
9FC
100
AcDbEntity
  8
寸法
  6
Continuous
370
    -2
100
AcDbLine
 10
33828.05547231338
 20
15919.62129392862
 30
0.0
 11
33828.05547231339
 21
18269.62129392861
 31
0.0
  0
INSERT
  5
B53
330
9FC
100
AcDbEntity
  8
寸法
  6
Continuous
370
    -2
100
AcDbBlockReference
  2
_ORIGIN
 10
33828.05547231338
 20
15859.62129392862
 30
0.0
 41
60.0
 42
60.0
 43
60.0
 50
270.0
  0
INSERT
  5
B54
330
9FC
100
AcDbEntity
  8
寸法
  6
Continuous
370
    -2
100
AcDbBlockReference
  2
_ORIGIN
 10
33828.05547231339
 20
18329.62129392861
 30
0.0
 41
60.0
 42
60.0
 43
60.0
 50
90.0
  0
MTEXT
  5
B55
330
9FC
100
AcDbEntity
  8
寸法
  6
Continuous
100
AcDbMText
 10
33549.48404374197
 20
17094.62129392862
 30
0.0
 40
300.0
 41
0.0
 71
     5
 72
     1
  1
\A1;2,470
  7
1_100
 11
0.0000000000000001
 21
1.0
 31
0.0
 73
     1
 44
1.0
1001
ACAD
1000
MTEXTBEGIN
1070
    73
1070
     1
1070
    44
1040
1.0
1070
    74
1070
     0
1000
MTEXTEND
  0
POINT
  5
B56
330
9FC
100
AcDbEntity
  8
DEFPOINTS
  6
Continuous
 62
     0
100
AcDbPoint
 10
32728.05547231339
 20
15859.62129392862
 30
0.0
  0
POINT
  5
B57
330
9FC
100
AcDbEntity
  8
DEFPOINTS
  6
Continuous
 62
     0
100
AcDbPoint
 10
32728.05547231339
 20
18329.62129392861
 30
0.0
  0
POINT
  5
B58
330
9FC
100
AcDbEntity
  8
DEFPOINTS
  6
Continuous
 62
     0
100
AcDbPoint
 10
33828.05547231339
 20
18329.62129392861
 30
0.0
  0
ENDBLK
  5
A07
330
9FC
100
AcDbEntity
  8
0
100
AcDbBlockEnd
  0
ENDSEC
  0
SECTION
  2
ENTITIES
  0
LINE
  5
55C
330
1F
100
AcDbEntity
  8
画層3-2
  6
Continuous
100
AcDbLine
 10
25293.40547231349
 20
15796.52129392782
 30
0.0
 11
25293.40547231349
 21
15214.6212939278
 31
0.0
  0
LINE
  5
55D
330
1F
100
AcDbEntity
  8
画層3-2
  6
Continuous
100
AcDbLine
 10
25162.70547231377
 20
15214.6212939278
 30
0.0
 11
25162.7054723133
 21
15796.52129392782
 31
0.0
  0
LINE
  5
55E
330
1F
100
AcDbEntity
  8
画層3-1
  6
Continuous
100
AcDbLine
 10
25253.4554723133
 20
15781.52129392771
 30
0.0
 11
25253.4554723133
 21
15214.6212939278
 31
0.0
  0
LINE
  5
55F
330
1F
100
AcDbEntity
  8
画層3-1
  6
Continuous
100
AcDbLine
 10
25202.65547231349
 20
15781.52129392782
 30
0.0
 11
25202.65547231349
 21
15214.6212939278
 31
0.0
  0
LINE
  5
560
330
1F
100
AcDbEntity
  8
画層3-1
  6
Continuous
100
AcDbLine
 10
23202.65547231349
 20
15781.52129392782
 30
0.0
 11
23202.65547231349
 21
15214.6212939278
 31
0.0
  0
LINE
  5
561
330
1F
100
AcDbEntity
  8
画層3-1
  6
Continuous
100
AcDbLine
 10
23253.4554723133
 20
15781.52129392771
 30
0.0
 11
23253.4554723133
 21
15214.6212939278
 31
0.0
  0
LINE
  5
562
330
1F
100
AcDbEntity
  8
画層3-2
  6
Continuous
100
AcDbLine
 10
23162.70547231377
 20
15214.6212939278
 30
0.0
 11
23162.7054723133
 21
15796.52129392782
 31
0.0
  0
LINE
  5
563
330
1F
100
AcDbEntity
  8
画層3-2
  6
Continuous
100
AcDbLine
 10
23293.40547231349
 20
15796.52129392782
 30
0.0
 11
23293.40547231349
 21
15214.6212939278
 31
0.0
  0
LINE
  5
564
330
1F
100
AcDbEntity
  8
画層3-2
  6
Continuous
100
AcDbLine
 10
21293.40547231349
 20
15796.52129392782
 30
0.0
 11
21293.40547231349
 21
15214.6212939278
 31
0.0
  0
LINE
  5
565
330
1F
100
AcDbEntity
  8
画層3-1
  6
Continuous
100
AcDbLine
 10
21253.4554723133
 20
15781.52129392771
 30
0.0
 11
21253.4554723133
 21
15214.6212939278
 31
0.0
  0
LINE
  5
566
330
1F
100
AcDbEntity
  8
画層3-1
  6
Continuous
100
AcDbLine
 10
21202.65547231349
 20
15781.52129392782
 30
0.0
 11
21202.65547231349
 21
15214.6212939278
 31
0.0
  0
LINE
  5
567
330
1F
100
AcDbEntity
  8
画層3-2
  6
Continuous
100
AcDbLine
 10
21162.70547231377
 20
15214.6212939278
 30
0.0
 11
21162.7054723133
 21
15796.52129392782
 31
0.0
  0
HATCH
  5
568
330
1F
100
AcDbEntity
  8
画層3-3
 62
   230
370
    13
100
AcDbHatch
 10
0.0
 20
0.0
 30
0.0
210
0.0
220
0.0
230
1.0
  2
NET
 70
     0
 71
     0
 91
        9
 92
        7
 72
     0
 73
     1
 93
       12
 10
23147.70547231377
 20
15199.6212939278
 10
23147.70547231377
 20
15214.6212939278
 10
23202.65547231349
 20
15214.6212939278
 10
23202.65547231349
 20
15781.52129392771
 10
23192.25547231358
 20
15781.52129392782
 10
23177.25547231358
 20
15796.52129392794
 10
21278.85547231367
 20
15796.52129392782
 10
21263.85547231367
 20
15781.52129392771
 10
21253.4554723133
 20
15781.52129392771
 10
21253.4554723133
 20
15214.6212939278
 10
21308.40547231349
 20
15214.6212939278
 10
21308.40547231349
 20
15199.6212939278
 97
        0
 92
        7
 72
     0
 73
     1
 93
       12
 10
23147.70547231377
 20
14539.62129392792
 10
23147.7054723133
 20
14554.6212939278
 10
23202.65547231349
 20
14554.6212939278
 10
23202.65547231349
 20
15184.6212939278
 10
23147.70547231377
 20
15184.6212939278
 10
23147.70547231377
 20
15199.6212939278
 10
21308.40547231349
 20
15199.6212939278
 10
21308.40547231349
 20
15184.6212939278
 10
21253.4554723133
 20
15184.6212939278
 10
21253.4554723133
 20
14554.6212939278
 10
21308.40547231349
 20
14554.6212939278
 10
21308.40547231349
 20
14539.6212939278
 97
        0
 92
        7
 72
     0
 73
     1
 93
        8
 10
21308.40547231349
 20
14539.6212939278
 10
21308.40547231349
 20
14524.6212939278
 10
21253.4554723133
 20
14524.6212939278
 10
21253.4554723133
 20
13917.72129392789
 10
23202.65547231349
 20
13917.72129392789
 10
23202.65547231349
 20
14524.6212939278
 10
23147.70547231377
 20
14524.6212939278
 10
23147.70547231377
 20
14539.62129392803
 97
        0
 92
        7
 72
     0
 73
     1
 93
        8
 10
25202.65547231349
 20
13917.72129392766
 10
25202.65547231349
 20
14524.6212939278
 10
25147.70547231377
 20
14524.6212939278
 10
25147.70547231377
 20
14539.6212939278
 10
23308.40547231349
 20
14539.6212939278
 10
23308.40547231349
 20
14524.6212939278
 10
23253.4554723133
 20
14524.6212939278
 10
23253.4554723133
 20
13917.72129392789
 97
        0
 92
        7
 72
     0
 73
     1
 93
       12
 10
25147.70547231377
 20
14539.6212939278
 10
25147.70547231377
 20
14554.6212939278
 10
25202.65547231349
 20
14554.6212939278
 10
25202.65547231349
 20
15184.6212939278
 10
25147.70547231377
 20
15184.6212939278
 10
25147.70547231377
 20
15199.6212939278
 10
23308.40547231349
 20
15199.6212939278
 10
23308.40547231349
 20
15184.6212939278
 10
23253.4554723133
 20
15184.6212939278
 10
23253.4554723133
 20
14554.6212939278
 10
23308.40547231349
 20
14554.6212939278
 10
23308.40547231349
 20
14539.6212939278
 97
        0
 92
        7
 72
     0
 73
     1
 93
       12
 10
23278.85547231367
 20
15796.52129392782
 10
23263.85547231367
 20
15781.52129392771
 10
23253.4554723133
 20
15781.52129392771
 10
23253.4554723133
 20
15214.6212939278
 10
23308.40547231349
 20
15214.6212939278
 10
23308.40547231349
 20
15199.6212939278
 10
25147.70547231377
 20
15199.6212939278
 10
25147.70547231377
 20
15214.6212939278
 10
25202.65547231349
 20
15214.6212939278
 10
25202.65547231349
 20
15781.52129392771
 10
25192.25547231358
 20
15781.52129392794
 10
25177.25547231358
 20
15796.52129392771
 97
        0
 92
        7
 72
     0
 73
     1
 93
        8
 10
25253.4554723133
 20
15214.6212939278
 10
25308.40547231349
 20
15214.6212939278
 10
25308.40547231349
 20
15199.6212939278
 10
26128.0554723134
 20
15199.6212939278
 10
26128.0554723134
 20
15796.52129392782
 10
25278.85547231367
 20
15796.52129392782
 10
25263.85547231367
 20
15781.52129392771
 10
25253.4554723133
 20
15781.52129392771
 97
        0
 92
        7
 72
     0
 73
     1
 93
        8
 10
25253.45547231377
 20
14554.6212939278
 10
25308.40547231349
 20
14554.6212939278
 10
25308.40547231349
 20
14539.6212939278
 10
26128.0554723134
 20
14539.6212939278
 10
26128.0554723134
 20
15199.6212939278
 10
25308.40547231349
 20
15199.6212939278
 10
25308.40547231349
 20
15184.6212939278
 10
25253.4554723133
 20
15184.6212939278
 97
        0
 92
        7
 72
     0
 73
     1
 93
        6
 10
25308.40547231349
 20
14539.6212939278
 10
25308.40547231349
 20
14524.6212939278
 10
25253.4554723133
 20
14524.6212939278
 10
25253.4554723133
 20
13917.72129392789
 10
26128.0554723134
 20
13917.72129392789
 10
26128.0554723134
 20
14539.6212939278
 97
        0
 75
     0
 76
     1
 52
45.0
 41
1200.0
 77
     0
 78
     2
 53
45.0
 43
-39998.01929271504
 44
36975.08925437348
 45
-106.0660171779821
 46
106.0660171779821
 79
     0
 53
135.0
 43
-39998.01929271504
 44
36975.08925437348
 45
-106.0660171779821
 46
-106.0660171779821
 79
     0
 47
10.47656177152982
 98
        9
 10
22834.31753959924
 20
15434.59554136919
 10
22781.89383894435
 20
14837.43150898747
 10
22729.470138289
 20
14261.22060202367
 10
23840.85220128062
 20
14177.40814237718
 10
23851.33698484485
 20
14858.38463440528
 10
23977.15380850617
 20
15602.22054471125
 10
25434.5321365669
 20
15581.26741929355
 10
25413.5627142158
 20
14963.15026149412
 10
25560.34903261714
 20
14303.12685285907
  0
LINE
  5
569
330
1F
100
AcDbEntity
  8
画層3-通り芯
  6
DASHDOT
 48
100.0
100
AcDbLine
 10
23228.0554723134
 20
13313.25173879604
 30
0.0
 11
23228.0554723134
 21
15859.62129392792
 31
0.0
  0
LINE
  5
56A
330
1F
100
AcDbEntity
  8
画層3-通り芯
  6
DASHDOT
 48
100.0
100
AcDbLine
 10
21228.05547231339
 20
13313.25173879604
 30
0.0
 11
21228.05547231339
 21
15859.62129392792
 31
0.0
  0
DIMENSION
  5
56B
330
1F
100
AcDbEntity
  8
寸法
  6
Continuous
100
AcDbDimension
  2
*D2
 10
27628.05547231339
 20
15859.62129392862
 30
0.0
 11
27349.48404374196
 21
14859.62129392861
 31
0.0
 70
    32
 71
     5
 42
2000.0
  3
1_100
100
AcDbAlignedDimension
 13
26628.05547231339
 23
13859.62129392862
 33
0.0
 14
26628.05547231339
 24
15859.62129392862
 34
0.0
 50
90.0
100
AcDbRotatedDimension
  0
LINE
  5
56C
330
1F
100
AcDbEntity
  8
画層3-通り芯
  6
DASHDOT
 48
100.0
100
AcDbLine
 10
25228.05547231339
 20
13313.25173879604
 30
0.0
 11
25228.05547231339
 21
15859.62129392792
 31
0.0
  0
LINE
  5
56D
330
1F
100
AcDbEntity
  8
DEFPOINTS
100
AcDbLine
 10
26128.0554723134
 20
20799.6212939278
 30
0.0
 11
26128.0554723134
 21
13859.6212939278
 31
0.0
  0
DIMENSION
  5
56E
330
1F
100
AcDbEntity
  8
寸法
  6
Continuous
100
AcDbDimension
  2
*D3
 10
28628.0554723134
 20
13859.6212939278
 30
0.0
 11
28349.48404374197
 21
17359.62129392781
 31
0.0
 70
    32
 71
     5
 42
7000.0
  3
1_100
100
AcDbAlignedDimension
 13
26628.05547231339
 23
20859.6212939278
 33
0.0
 14
26628.05547231339
 24
13859.6212939278
 34
0.0
 50
90.0
100
AcDbRotatedDimension
  0
LINE
  5
56F
330
1F
100
AcDbEntity
  8
画層3-1
  6
Continuous
100
AcDbLine
 10
15253.4554723133
 20
15781.52129392771
 30
0.0
 11
15253.4554723133
 21
15214.6212939278
 31
0.0
  0
LINE
  5
570
330
1F
100
AcDbEntity
  8
画層3-2
  6
Continuous
100
AcDbLine
 10
15293.40547231348
 20
15796.52129392782
 30
0.0
 11
15293.40547231348
 21
15214.6212939278
 31
0.0
  0
LINE
  5
571
330
1F
100
AcDbEntity
  8
画層3-2
  6
Continuous
100
AcDbLine
 10
15162.70547231376
 20
15214.6212939278
 30
0.0
 11
15162.7054723133
 21
15796.52129392782
 31
0.0
  0
LINE
  5
572
330
1F
100
AcDbEntity
  8
画層3-1
  6
Continuous
100
AcDbLine
 10
15202.65547231348
 20
15781.52129392782
 30
0.0
 11
15202.65547231348
 21
15214.6212939278
 31
0.0
  0
LINE
  5
573
330
1F
100
AcDbEntity
  8
画層3-2
  6
Continuous
100
AcDbLine
 10
13162.70547231376
 20
15214.6212939278
 30
0.0
 11
13162.70547231376
 21
15256.33829720833
 31
0.0
  0
LINE
  5
574
330
1F
100
AcDbEntity
  8
画層3-2
  6
Continuous
100
AcDbLine
 10
13293.40547231348
 20
15256.33829720833
 30
0.0
 11
13293.40547231348
 21
15214.6212939278
 31
0.0
  0
LINE
  5
575
330
1F
100
AcDbEntity
  8
画層3-1
  6
Continuous
100
AcDbLine
 10
13253.4554723133
 20
15256.33829720833
 30
0.0
 11
13253.4554723133
 21
15214.6212939278
 31
0.0
  0
LINE
  5
576
330
1F
100
AcDbEntity
  8
画層3-1
  6
Continuous
100
AcDbLine
 10
13202.65547231348
 20
15256.33829720833
 30
0.0
 11
13202.65547231348
 21
15214.6212939278
 31
0.0
  0
LINE
  5
577
330
1F
100
AcDbEntity
  8
画層3-通り芯
  6
DASHDOT
 48
100.0
100
AcDbLine
 10
13228.05547231339
 20
14458.85495041523
 30
0.0
 11
13228.05547231339
 21
15256.33829720833
 31
0.0
  0
LINE
  5
578
330
1F
100
AcDbEntity
  8
画層3-通り芯
  6
DASHDOT
 48
100.0
100
AcDbLine
 10
15228.05547231339
 20
13313.25173879604
 30
0.0
 11
15228.05547231339
 21
15859.62129392792
 31
0.0
  0
LINE
  5
579
330
1F
100
AcDbEntity
  8
画層3-1
  6
Continuous
100
AcDbLine
 10
19202.65547231348
 20
15781.52129392782
 30
0.0
 11
19202.65547231348
 21
15214.6212939278
 31
0.0
  0
LINE
  5
57A
330
1F
100
AcDbEntity
  8
画層3-2
  6
Continuous
100
AcDbLine
 10
19162.70547231377
 20
15214.6212939278
 30
0.0
 11
19162.7054723133
 21
15796.52129392782
 31
0.0
  0
LINE
  5
57B
330
1F
100
AcDbEntity
  8
画層3-2
  6
Continuous
100
AcDbLine
 10
19293.40547231348
 20
15796.52129392782
 30
0.0
 11
19293.40547231348
 21
15214.6212939278
 31
0.0
  0
LINE
  5
57C
330
1F
100
AcDbEntity
  8
画層3-1
  6
Continuous
100
AcDbLine
 10
19253.4554723133
 20
15781.52129392771
 30
0.0
 11
19253.4554723133
 21
15214.6212939278
 31
0.0
  0
LINE
  5
57D
330
1F
100
AcDbEntity
  8
画層3-2
  6
Continuous
100
AcDbLine
 10
17162.70547231376
 20
15214.6212939278
 30
0.0
 11
17162.70547231376
 21
15243.8926882467
 31
0.0
  0
LINE
  5
57E
330
1F
100
AcDbEntity
  8
画層3-通り芯
  6
DASHDOT
 48
100.0
100
AcDbLine
 10
17228.05547231339
 20
15008.71322918919
 30
0.0
 11
17228.05547231339
 21
15243.8926882467
 31
0.0
  0
LINE
  5
57F
330
1F
100
AcDbEntity
  8
画層3-1
  6
Continuous
100
AcDbLine
 10
17202.65547231349
 20
15243.8926882467
 30
0.0
 11
17202.65547231349
 21
15214.6212939278
 31
0.0
  0
LINE
  5
580
330
1F
100
AcDbEntity
  8
画層3-1
  6
Continuous
100
AcDbLine
 10
17253.4554723133
 20
15243.8926882467
 30
0.0
 11
17253.4554723133
 21
15214.6212939278
 31
0.0
  0
LINE
  5
581
330
1F
100
AcDbEntity
  8
画層3-2
  6
Continuous
100
AcDbLine
 10
17293.40547231348
 20
15243.8926882467
 30
0.0
 11
17293.40547231348
 21
15214.6212939278
 31
0.0
  0
LINE
  5
582
330
1F
100
AcDbEntity
  8
画層3-1
  6
Continuous
100
AcDbLine
 10
11202.65547231348
 20
15781.52129392782
 30
0.0
 11
11202.65547231348
 21
15214.6212939278
 31
0.0
  0
LINE
  5
583
330
1F
100
AcDbEntity
  8
画層3-2
  6
Continuous
100
AcDbLine
 10
11162.70547231376
 20
15214.6212939278
 30
0.0
 11
11162.7054723133
 21
15796.52129392782
 31
0.0
  0
LINE
  5
584
330
1F
100
AcDbEntity
  8
画層3-2
  6
Continuous
100
AcDbLine
 10
11293.40547231348
 20
15796.52129392782
 30
0.0
 11
11293.40547231348
 21
15214.6212939278
 31
0.0
  0
LINE
  5
585
330
1F
100
AcDbEntity
  8
画層3-1
  6
Continuous
100
AcDbLine
 10
11253.4554723133
 20
15781.52129392771
 30
0.0
 11
11253.4554723133
 21
15214.6212939278
 31
0.0
  0
LINE
  5
586
330
1F
100
AcDbEntity
  8
画層3-1
  6
Continuous
100
AcDbLine
 10
9253.455472313298
 20
15781.52129392771
 30
0.0
 11
9253.455472313298
 21
15214.6212939278
 31
0.0
  0
LINE
  5
587
330
1F
100
AcDbEntity
  8
画層3-2
  6
Continuous
100
AcDbLine
 10
9293.405472313486
 20
15796.52129392782
 30
0.0
 11
9293.405472313486
 21
15214.6212939278
 31
0.0
  0
LINE
  5
588
330
1F
100
AcDbEntity
  8
画層3-1
  6
Continuous
100
AcDbLine
 10
9202.655472313486
 20
15796.52129392794
 30
0.0
 11
9202.655472313486
 21
13659.6212939278
 31
0.0
  0
HATCH
  5
589
330
1F
100
AcDbEntity
  8
画層3-3
 62
   230
370
    13
100
AcDbHatch
 10
0.0
 20
0.0
 30
0.0
210
0.0
220
0.0
230
1.0
  2
NET
 70
     0
 71
     0
 91
        3
 92
        7
 72
     0
 73
     1
 93
       12
 10
11147.70547231376
 20
15199.6212939278
 10
11147.70547231376
 20
15214.6212939278
 10
11202.65547231348
 20
15214.6212939278
 10
11202.65547231348
 20
15781.52129392771
 10
11192.25547231358
 20
15781.52129392782
 10
11177.25547231358
 20
15796.52129392771
 10
9278.85547231367
 20
15796.52129392771
 10
9263.855472313672
 20
15781.52129392771
 10
9253.455472313298
 20
15781.52129392771
 10
9253.455472313298
 20
15214.6212939278
 10
9308.405472313486
 20
15214.6212939278
 10
9308.405472313486
 20
15199.6212939278
 97
        0
 92
        7
 72
     0
 73
     1
 93
       12
 10
11147.70547231376
 20
14539.6212939278
 10
11147.70547231376
 20
14554.6212939278
 10
11202.65547231348
 20
14554.6212939278
 10
11202.65547231348
 20
15184.6212939278
 10
11147.70547231376
 20
15184.6212939278
 10
11147.70547231376
 20
15199.6212939278
 10
9308.405472313486
 20
15199.6212939278
 10
9308.405472313486
 20
15184.6212939278
 10
9253.455472313298
 20
15184.6212939278
 10
9253.455472313298
 20
14554.6212939278
 10
9308.405472313486
 20
14554.6212939278
 10
9308.405472313486
 20
14539.6212939278
 97
        0
 92
        7
 72
     0
 73
     1
 93
        8
 10
9308.405472313486
 20
14539.6212939278
 10
9308.405472313486
 20
14524.6212939278
 10
9253.455472313298
 20
14524.6212939278
 10
9253.455472313298
 20
13917.72129392778
 10
11202.65547231348
 20
13917.72129392766
 10
11202.65547231348
 20
14524.6212939278
 10
11147.70547231376
 20
14524.6212939278
 10
11147.70547231376
 20
14539.6212939278
 97
        0
 75
     0
 76
     1
 52
45.0
 41
1200.0
 77
     0
 78
     2
 53
45.0
 43
-39998.01929271504
 44
36975.08925437348
 45
-106.0660171779821
 46
106.0660171779821
 79
     0
 53
135.0
 43
-39998.01929271504
 44
36975.08925437348
 45
-106.0660171779821
 46
-106.0660171779821
 79
     0
 47
9.915053194529395
 98
        3
 10
10876.34861513689
 20
15418.5591044964
 10
10677.89375187313
 20
14803.82550951655
 10
10667.97030316755
 20
14268.41320420315
  0
LINE
  5
58A
330
1F
100
AcDbEntity
  8
画層3-通り芯
  6
DASHDOT
 48
100.0
100
AcDbLine
 10
11228.05547231339
 20
13313.25173879604
 30
0.0
 11
11228.05547231339
 21
15859.62129392792
 31
0.0
  0
LINE
  5
58B
330
1F
100
AcDbEntity
  8
画層1
  6
Continuous
100
AcDbLine
 10
9132.705472313299
 20
20859.6212939278
 30
0.0
 11
9132.705472313299
 21
11859.6212939278
 31
0.0
  0
LINE
  5
58C
330
1F
100
AcDbEntity
  8
通り芯
  6
DASHDOT
 48
100.0
100
AcDbLine
 10
9228.055472313391
 20
11617.15382213439
 30
0.0
 11
9228.055472313391
 21
20920.08395363044
 31
0.0
  0
LINE
  5
58D
330
1F
100
AcDbEntity
  8
画層1
  6
Continuous
100
AcDbLine
 10
9323.405472313483
 20
11859.6212939278
 30
0.0
 11
9323.405472313483
 21
20859.6212939278
 31
0.0
  0
LINE
  5
58E
330
1F
100
AcDbEntity
  8
画層1
  6
Continuous
100
AcDbLine
 10
19132.7054723133
 20
18633.5077772774
 30
0.0
 11
19132.7054723133
 21
11859.6212939278
 31
0.0
  0
LINE
  5
58F
330
1F
100
AcDbEntity
  8
通り芯
  6
DASHDOT
 48
100.0
100
AcDbLine
 10
19228.05547231339
 20
11617.15382213439
 30
0.0
 11
19228.05547231339
 21
18633.5077772774
 31
0.0
  0
LINE
  5
590
330
1F
100
AcDbEntity
  8
画層1
  6
Continuous
100
AcDbLine
 10
19323.40547231349
 20
11859.6212939278
 30
0.0
 11
19323.40547231349
 21
18633.5077772774
 31
0.0
  0
HATCH
  5
591
330
1F
100
AcDbEntity
  8
画層3-3
 62
   230
370
    13
100
AcDbHatch
 10
0.0
 20
0.0
 30
0.0
210
0.0
220
0.0
230
1.0
  2
NET
 70
     0
 71
     0
 91
        6
 92
        7
 72
     0
 73
     1
 93
        8
 10
19323.40547231349
 20
15796.52129392771
 10
19278.85547231367
 20
15796.52129392771
 10
19263.85547231367
 20
15781.52129392771
 10
19253.45547231376
 20
15781.52129392782
 10
19253.4554723133
 20
15214.6212939278
 10
19308.40547231349
 20
15214.6212939278
 10
19308.40547231349
 20
15199.6212939278
 10
19323.40547231349
 20
15199.6212939278
 97
        0
 92
        7
 72
     0
 73
     1
 93
        8
 10
19323.40547231349
 20
15199.6212939278
 10
19308.40547231349
 20
15199.6212939278
 10
19308.40547231349
 20
15184.6212939278
 10
19253.45547231376
 20
15184.6212939278
 10
19253.45547231376
 20
14554.6212939278
 10
19308.40547231349
 20
14554.6212939278
 10
19308.40547231349
 20
14539.6212939278
 10
19323.40547231349
 20
14539.6212939278
 97
        0
 92
        7
 72
     0
 73
     1
 93
        6
 10
19323.40547231349
 20
14539.6212939278
 10
19308.40547231349
 20
14539.6212939278
 10
19308.40547231349
 20
14524.6212939278
 10
19253.4554723133
 20
14524.6212939278
 10
19253.4554723133
 20
13959.6212939278
 10
19323.40547231349
 20
13959.6212939278
 97
        0
 92
        7
 72
     0
 73
     1
 93
        6
 10
19323.40547231349
 20
14539.6212939278
 10
19323.40547231349
 20
13917.72129392789
 10
21202.65547231349
 20
13917.72129392778
 10
21202.65547231349
 20
14524.6212939278
 10
21147.7054723133
 20
14524.6212939278
 10
21147.70547231377
 20
14539.6212939278
 97
        0
 92
        7
 72
     0
 73
     1
 93
        8
 10
19323.40547231349
 20
15199.6212939278
 10
19323.40547231349
 20
14539.6212939278
 10
21147.7054723133
 20
14539.6212939278
 10
21147.70547231377
 20
14554.6212939278
 10
21202.65547231349
 20
14554.6212939278
 10
21202.65547231349
 20
15184.6212939278
 10
21147.7054723133
 20
15184.6212939278
 10
21147.70547231377
 20
15199.6212939278
 97
        0
 92
        7
 72
     0
 73
     1
 93
        8
 10
21147.7054723133
 20
15199.6212939278
 10
21147.70547231377
 20
15214.6212939278
 10
21202.65547231349
 20
15214.6212939278
 10
21202.65547231349
 20
15781.52129392771
 10
21192.25547231358
 20
15781.52129392782
 10
21177.25547231358
 20
15796.52129392782
 10
19323.40547231349
 20
15796.52129392771
 10
19323.40547231349
 20
15199.6212939278
 97
        0
 75
     0
 76
     1
 52
45.0
 41
1200.0
 77
     0
 78
     2
 53
45.0
 43
-39998.01929271504
 44
36975.08925437348
 45
-106.0660171779821
 46
106.0660171779821
 79
     0
 53
135.0
 43
-39998.01929271504
 44
36975.08925437348
 45
-106.0660171779821
 46
-106.0660171779821
 79
     0
 47
10.47656177152982
 98
        6
 10
19291.37069358953
 20
15438.38464669001
 10
19291.37069358953
 20
14939.2891603776
 10
19291.37069358953
 20
14345.42868117991
 10
19986.85605230971
 20
14275.93437827882
 10
19961.56567431284
 20
14888.74782243397
 10
20012.14643030657
 20
15488.92594260923
  0
LINE
  5
592
330
1F
100
AcDbEntity
  8
画層3-2
  6
Continuous
100
AcDbLine
 10
15147.70547231376
 20
14539.6212939278
 30
0.0
 11
13308.40547231348
 21
14539.6212939278
 31
0.0
  0
LINE
  5
593
330
1F
100
AcDbEntity
  8
画層3-2
  6
Continuous
100
AcDbLine
 10
13308.40547231348
 20
15199.6212939278
 30
0.0
 11
15147.70547231376
 21
15199.6212939278
 31
0.0
  0
LINE
  5
594
330
1F
100
AcDbEntity
  8
画層3-1
  6
Continuous
100
AcDbLine
 10
13253.4554723133
 20
13917.72129392789
 30
0.0
 11
15202.65547231348
 21
13917.72129392789
 31
0.0
  0
LINE
  5
595
330
1F
100
AcDbEntity
  8
画層3-1
  6
Continuous
100
AcDbLine
 10
13253.4554723133
 20
13879.6212939278
 30
0.0
 11
15202.65547231348
 21
13879.6212939278
 31
0.0
  0
DIMENSION
  5
596
330
1F
100
AcDbEntity
  8
寸法
  6
Continuous
100
AcDbDimension
  2
*D4
 10
15228.05547231339
 20
9559.621293927337
 30
0.0
 11
14228.05547231339
 21
9838.192722498769
 31
0.0
 70
    32
 71
     5
 42
2000.0
  3
1_100
100
AcDbAlignedDimension
 13
13228.05547231339
 23
10866.71532818515
 33
0.0
 14
15228.05547231339
 24
10866.71532818515
 34
0.0
100
AcDbRotatedDimension
  0
DIMENSION
  5
597
330
1F
100
AcDbEntity
  8
寸法
  6
Continuous
100
AcDbDimension
  2
*D5
 10
19228.05547231339
 20
8759.621293927336
 30
0.0
 11
14228.05547231339
 21
9038.192722498768
 31
0.0
 70
    32
 71
     5
 42
10000.0
  3
1_100
100
AcDbAlignedDimension
 13
9228.055472313391
 23
10459.62129392769
 33
0.0
 14
19228.05547231339
 24
11617.15382213451
 34
0.0
100
AcDbRotatedDimension
  0
LEADER
  5
598
330
1F
100
AcDbEntity
  8
寸法引出
  6
Continuous
100
AcDbLeader
  3
1_100_B
 71
     0
 73
     0
 74
     0
 75
     1
 40
300.0
 41
3098.571428571429
 76
     3
 10
11525.34514158262
 20
13917.72129392778
 30
0.0
 10
11586.92767649466
 20
14006.42252095197
 30
0.0
 10
11666.92767649466
 20
14006.42252095197
 30
0.0
213
69.95590756242018
223
0.0
233
0.0
1001
ACAD
1000
DSTYLE
1002
{
1070
    77
1070
     2
1070
   174
1070
     1
1002
}
  0
MTEXT
  5
599
102
{ACAD_REACTORS
330
598
102
}
330
1F
100
AcDbEntity
  8
寸法文字
  6
Continuous
100
AcDbMText
 10
11646.97176893238
 20
14056.42252095198
 30
0.0
 40
300.0
 41
0.0
 71
     7
 72
     1
  1
φ38.1×1.6ｔ（上下）
  7
1_100
 73
     1
 44
1.0
1001
ACAD
1000
MTEXTBEGIN
1070
    73
1070
     1
1070
    44
1040
1.0
1070
    74
1070
     0
1000
MTEXTEND
  0
LINE
  5
59A
330
1F
100
AcDbEntity
  8
画層2
  6
Continuous
100
AcDbLine
 10
26128.0554723134
 20
13859.6212939278
 30
0.0
 11
5681.422656462959
 21
13859.6212939278
 31
0.0
  0
LINE
  5
59B
330
1F
100
AcDbEntity
  8
画層3-1
  6
Continuous
100
AcDbLine
 10
13308.40547231348
 20
15184.6212939278
 30
0.0
 11
13308.40547231348
 21
15214.6212939278
 31
0.0
  0
LINE
  5
59C
330
1F
100
AcDbEntity
  8
画層3-1
  6
Continuous
100
AcDbLine
 10
13147.70547231376
 20
15214.6212939278
 30
0.0
 11
13147.70547231376
 21
15184.6212939278
 31
0.0
  0
LINE
  5
59D
330
1F
100
AcDbEntity
  8
画層3-1
  6
Continuous
100
AcDbLine
 10
13147.70547231376
 20
15184.6212939278
 30
0.0
 11
13308.40547231348
 21
15184.6212939278
 31
0.0
  0
LINE
  5
59E
330
1F
100
AcDbEntity
  8
画層3-1
  6
Continuous
100
AcDbLine
 10
13308.40547231348
 20
15214.6212939278
 30
0.0
 11
13147.70547231376
 21
15214.6212939278
 31
0.0
  0
LINE
  5
59F
330
1F
100
AcDbEntity
  8
画層3-2
  6
Continuous
100
AcDbLine
 10
13293.40547231348
 20
14524.6212939278
 30
0.0
 11
13293.40547231348
 21
14458.85495041523
 31
0.0
  0
LINE
  5
5A0
330
1F
100
AcDbEntity
  8
画層3-1
  6
Continuous
100
AcDbLine
 10
13253.4554723133
 20
14524.6212939278
 30
0.0
 11
13253.4554723133
 21
14458.85495041523
 31
0.0
  0
LINE
  5
5A1
330
1F
100
AcDbEntity
  8
画層3-1
  6
Continuous
100
AcDbLine
 10
13308.40547231348
 20
14524.6212939278
 30
0.0
 11
13308.40547231348
 21
14554.6212939278
 31
0.0
  0
LINE
  5
5A2
330
1F
100
AcDbEntity
  8
画層3-1
  6
Continuous
100
AcDbLine
 10
13202.65547231348
 20
14524.6212939278
 30
0.0
 11
13202.65547231348
 21
14458.85495041523
 31
0.0
  0
LINE
  5
5A3
330
1F
100
AcDbEntity
  8
画層3-1
  6
Continuous
100
AcDbLine
 10
13147.70547231376
 20
14554.6212939278
 30
0.0
 11
13147.70547231376
 21
14524.6212939278
 31
0.0
  0
LINE
  5
5A4
330
1F
100
AcDbEntity
  8
画層3-2
  6
Continuous
100
AcDbLine
 10
13162.70547231376
 20
14458.85495041523
 30
0.0
 11
13162.70547231376
 21
14524.6212939278
 31
0.0
  0
LINE
  5
5A5
330
1F
100
AcDbEntity
  8
画層3-1
  6
Continuous
100
AcDbLine
 10
13147.70547231376
 20
14524.6212939278
 30
0.0
 11
13308.40547231348
 21
14524.6212939278
 31
0.0
  0
LINE
  5
5A6
330
1F
100
AcDbEntity
  8
画層3-1
  6
Continuous
100
AcDbLine
 10
13308.40547231348
 20
14554.6212939278
 30
0.0
 11
13147.70547231376
 21
14554.6212939278
 31
0.0
  0
LINE
  5
5A7
330
1F
100
AcDbEntity
  8
画層3-2
  6
Continuous
100
AcDbLine
 10
13293.40547231348
 20
15184.6212939278
 30
0.0
 11
13293.40547231348
 21
14554.6212939278
 31
0.0
  0
LINE
  5
5A8
330
1F
100
AcDbEntity
  8
画層3-1
  6
Continuous
100
AcDbLine
 10
13253.4554723133
 20
15184.6212939278
 30
0.0
 11
13253.4554723133
 21
14554.6212939278
 31
0.0
  0
LINE
  5
5A9
330
1F
100
AcDbEntity
  8
画層3-2
  6
Continuous
100
AcDbLine
 10
13162.70547231376
 20
14554.6212939278
 30
0.0
 11
13162.70547231376
 21
15184.6212939278
 31
0.0
  0
LINE
  5
5AA
330
1F
100
AcDbEntity
  8
画層3-1
  6
Continuous
100
AcDbLine
 10
13202.65547231348
 20
15184.6212939278
 30
0.0
 11
13202.65547231348
 21
14554.6212939278
 31
0.0
  0
LINE
  5
5AB
330
1F
100
AcDbEntity
  8
画層3-2
  6
Continuous
100
AcDbLine
 10
13293.40547231348
 20
13960.95479177151
 30
0.0
 11
13293.40547231348
 21
13859.6212939278
 31
0.0
  0
LINE
  5
5AC
330
1F
100
AcDbEntity
  8
画層3-1
  6
Continuous
100
AcDbLine
 10
13253.4554723133
 20
13960.95479177151
 30
0.0
 11
13253.4554723133
 21
13917.72129392789
 31
0.0
  0
LINE
  5
5AD
330
1F
100
AcDbEntity
  8
画層3-1
  6
Continuous
100
AcDbLine
 10
13202.65547231348
 20
13960.95479177151
 30
0.0
 11
13202.65547231348
 21
13917.72129392778
 31
0.0
  0
LINE
  5
5AE
330
1F
100
AcDbEntity
  8
画層3-2
  6
Continuous
100
AcDbLine
 10
13162.70547231376
 20
13859.6212939278
 30
0.0
 11
13162.70547231376
 21
13960.95479177151
 31
0.0
  0
LINE
  5
5AF
330
1F
100
AcDbEntity
  8
画層3-1
  6
Continuous
100
AcDbLine
 10
13162.70547231376
 20
13937.72129392789
 30
0.0
 11
13293.40547231348
 21
13937.72129392789
 31
0.0
  0
LINE
  5
5B0
330
1F
100
AcDbEntity
  8
画層3-1
  6
Continuous
100
AcDbLine
 10
13202.65547231348
 20
13659.6212939278
 30
0.0
 11
13253.4554723133
 21
13659.6212939278
 31
0.0
  0
LINE
  5
5B1
330
1F
100
AcDbEntity
  8
画層3-1
  6
Continuous
100
AcDbLine
 10
13253.4554723133
 20
13879.62129392768
 30
0.0
 11
13253.4554723133
 21
13659.6212939278
 31
0.0
  0
LINE
  5
5B2
330
1F
100
AcDbEntity
  8
画層3-1
  6
Continuous
100
AcDbLine
 10
13202.65547231348
 20
13879.62129392803
 30
0.0
 11
13202.65547231348
 21
13659.6212939278
 31
0.0
  0
HATCH
  5
5B3
330
1F
100
AcDbEntity
  8
画層3-3
100
AcDbHatch
 10
0.0
 20
0.0
 30
0.0
210
0.0
220
0.0
230
1.0
  2
PLAST
 70
     0
 71
     0
 91
        1
 92
        7
 72
     0
 73
     1
 93
        4
 10
13353.05547231339
 20
13859.6212939278
 10
13103.05547231339
 20
13859.6212939278
 10
13103.05547231339
 20
13409.6212939278
 10
13353.05547231339
 20
13409.6212939278
 97
        0
 75
     0
 76
     1
 52
45.0
 41
1800.0
 77
     0
 78
     3
 53
45.0
 43
7085.712816547102
 44
7417.954277416601
 45
-318.1980515339463
 46
318.1980515339464
 79
     0
 53
45.0
 43
7045.938060105743
 44
7457.72903385831
 45
-318.1980515339463
 46
318.1980515339464
 79
     0
 53
45.0
 43
7006.163303663919
 44
7497.503790300133
 45
-318.1980515339463
 46
318.1980515339464
 79
     0
 47
2.4753793195157
 98
        1
 10
13341.94867007663
 20
13618.82874193557
  0
LWPOLYLINE
  5
5B4
330
1F
100
AcDbEntity
  8
画層3-2
100
AcDbPolyline
 90
        4
 70
     0
 43
0.0
 10
13353.05547231339
 20
13859.6212939278
 10
13353.05547231339
 20
13409.6212939278
 10
13103.05547231339
 20
13409.6212939278
 10
13103.05547231339
 20
13859.6212939278
  0
DIMENSION
  5
5B5
330
1F
100
AcDbEntity
  8
画層3-寸法
  6
Continuous
100
AcDbDimension
  2
*D6
 10
13353.05547231339
 20
13029.6212939278
 30
0.0
 11
13228.05547231339
 21
12829.6212939278
 31
0.0
 70
    32
  1
□<>
 71
     5
 42
250.0
  3
1_100_B
100
AcDbAlignedDimension
 13
13103.05547231339
 23
13409.6212939278
 33
0.0
 14
13353.05547231339
 24
13409.6212939278
 34
0.0
100
AcDbRotatedDimension
1001
ACAD
1000
DSTYLE
1002
{
1070
    77
1070
     2
1070
   174
1070
     1
1002
}
  0
LINE
  5
5B6
330
1F
100
AcDbEntity
  8
画層3-通り芯
  6
DASHDOT
 48
100.0
100
AcDbLine
 10
13228.05547231339
 20
13313.25173879604
 30
0.0
 11
13228.05547231339
 21
13960.95479177151
 31
0.0
  0
DIMENSION
  5
5B7
330
1F
100
AcDbEntity
  8
画層3-寸法
  6
Continuous
100
AcDbDimension
  2
*D7
 10
12723.05547231339
 20
13409.6212939278
 30
0.0
 11
12451.64807828885
 21
13494.99518715383
 31
0.0
 70
   160
 71
     5
 42
450.0
  3
1_100_B
100
AcDbAlignedDimension
 13
13103.05547231339
 23
13859.6212939278
 33
0.0
 14
13103.05547231339
 24
13409.6212939278
 34
0.0
 50
90.0
100
AcDbRotatedDimension
1001
ACAD
1000
DSTYLE
1002
{
1070
    77
1070
     2
1070
   174
1070
     1
1002
}
  0
LINE
  5
5B8
330
1F
100
AcDbEntity
  8
画層3-1
  6
Continuous
100
AcDbLine
 10
11147.70547231376
 20
15184.6212939278
 30
0.0
 11
11308.40547231348
 21
15184.6212939278
 31
0.0
  0
LINE
  5
5B9
330
1F
100
AcDbEntity
  8
画層3-1
  6
Continuous
100
AcDbLine
 10
11147.70547231376
 20
15214.6212939278
 30
0.0
 11
11147.70547231376
 21
15184.6212939278
 31
0.0
  0
LINE
  5
5BA
330
1F
100
AcDbEntity
  8
画層3-1
  6
Continuous
100
AcDbLine
 10
11308.40547231348
 20
15214.6212939278
 30
0.0
 11
11147.70547231376
 21
15214.6212939278
 31
0.0
  0
LINE
  5
5BB
330
1F
100
AcDbEntity
  8
画層3-1
  6
Continuous
100
AcDbLine
 10
11308.40547231348
 20
15184.6212939278
 30
0.0
 11
11308.40547231348
 21
15214.6212939278
 31
0.0
  0
LINE
  5
5BC
330
1F
100
AcDbEntity
  8
画層3-1
  6
Continuous
100
AcDbLine
 10
11147.70547231376
 20
14524.6212939278
 30
0.0
 11
11308.40547231348
 21
14524.6212939278
 31
0.0
  0
LINE
  5
5BD
330
1F
100
AcDbEntity
  8
画層3-1
  6
Continuous
100
AcDbLine
 10
11147.70547231376
 20
14554.6212939278
 30
0.0
 11
11147.70547231376
 21
14524.6212939278
 31
0.0
  0
LINE
  5
5BE
330
1F
100
AcDbEntity
  8
画層3-1
  6
Continuous
100
AcDbLine
 10
11308.40547231348
 20
14554.6212939278
 30
0.0
 11
11147.70547231376
 21
14554.6212939278
 31
0.0
  0
LINE
  5
5BF
330
1F
100
AcDbEntity
  8
画層3-1
  6
Continuous
100
AcDbLine
 10
11308.40547231348
 20
14524.6212939278
 30
0.0
 11
11308.40547231348
 21
14554.6212939278
 31
0.0
  0
LINE
  5
5C0
330
1F
100
AcDbEntity
  8
寸法引出
  6
Continuous
100
AcDbLine
 10
11591.55009635162
 20
14703.14139319225
 30
0.0
 11
11440.59246026162
 21
15199.6212939278
 31
0.0
  0
LINE
  5
5C1
330
1F
100
AcDbEntity
  8
画層3-1
  6
Continuous
100
AcDbLine
 10
11202.65547231348
 20
15184.6212939278
 30
0.0
 11
11202.65547231348
 21
14554.6212939278
 31
0.0
  0
LINE
  5
5C2
330
1F
100
AcDbEntity
  8
画層3-2
  6
Continuous
100
AcDbLine
 10
11293.40547231348
 20
15184.6212939278
 30
0.0
 11
11293.40547231348
 21
14554.6212939278
 31
0.0
  0
LINE
  5
5C3
330
1F
100
AcDbEntity
  8
画層3-2
  6
Continuous
100
AcDbLine
 10
11162.70547231376
 20
14554.6212939278
 30
0.0
 11
11162.70547231376
 21
15184.6212939278
 31
0.0
  0
LINE
  5
5C4
330
1F
100
AcDbEntity
  8
画層3-1
  6
Continuous
100
AcDbLine
 10
11253.4554723133
 20
15184.6212939278
 30
0.0
 11
11253.4554723133
 21
14554.6212939278
 31
0.0
  0
LINE
  5
5C5
330
1F
100
AcDbEntity
  8
画層3-1
  6
Continuous
100
AcDbLine
 10
9308.405472313486
 20
15184.6212939278
 30
0.0
 11
9308.405472313486
 21
15214.6212939278
 31
0.0
  0
LINE
  5
5C6
330
1F
100
AcDbEntity
  8
画層3-1
  6
Continuous
100
AcDbLine
 10
9202.655472313486
 20
15184.6212939278
 30
0.0
 11
9308.405472313486
 21
15184.6212939278
 31
0.0
  0
LINE
  5
5C7
330
1F
100
AcDbEntity
  8
画層3-1
  6
Continuous
100
AcDbLine
 10
9308.405472313486
 20
15214.6212939278
 30
0.0
 11
9202.655472313486
 21
15214.6212939278
 31
0.0
  0
LINE
  5
5C8
330
1F
100
AcDbEntity
  8
画層3-1
  6
Continuous
100
AcDbLine
 10
9308.405472313486
 20
14524.6212939278
 30
0.0
 11
9308.405472313486
 21
14554.6212939278
 31
0.0
  0
LINE
  5
5C9
330
1F
100
AcDbEntity
  8
画層3-1
  6
Continuous
100
AcDbLine
 10
9202.655472313486
 20
14524.6212939278
 30
0.0
 11
9308.405472313486
 21
14524.6212939278
 31
0.0
  0
LINE
  5
5CA
330
1F
100
AcDbEntity
  8
画層3-1
  6
Continuous
100
AcDbLine
 10
9308.405472313486
 20
14554.6212939278
 30
0.0
 11
9202.655472313486
 21
14554.6212939278
 31
0.0
  0
LINE
  5
5CB
330
1F
100
AcDbEntity
  8
画層3-1
  6
Continuous
100
AcDbLine
 10
9253.455472313298
 20
15184.6212939278
 30
0.0
 11
9253.455472313298
 21
14554.6212939278
 31
0.0
  0
LINE
  5
5CC
330
1F
100
AcDbEntity
  8
画層3-2
  6
Continuous
100
AcDbLine
 10
9293.405472313486
 20
15184.6212939278
 30
0.0
 11
9293.405472313486
 21
14554.6212939278
 31
0.0
  0
LINE
  5
5CD
330
1F
100
AcDbEntity
  8
画層3-2
  6
Continuous
100
AcDbLine
 10
11147.70547231376
 20
14539.6212939278
 30
0.0
 11
9308.405472313486
 21
14539.6212939278
 31
0.0
  0
LINE
  5
5CE
330
1F
100
AcDbEntity
  8
画層3-2
  6
Continuous
100
AcDbLine
 10
9308.405472313486
 20
15199.6212939278
 30
0.0
 11
11147.70547231376
 21
15199.6212939278
 31
0.0
  0
LINE
  5
5CF
330
1F
100
AcDbEntity
  8
画層3-1
  6
Continuous
100
AcDbLine
 10
11162.70547231376
 20
13937.72129392789
 30
0.0
 11
11293.40547231348
 21
13937.72129392789
 31
0.0
  0
LINE
  5
5D0
330
1F
100
AcDbEntity
  8
画層3-1
  6
Continuous
100
AcDbLine
 10
11202.65547231348
 20
13659.6212939278
 30
0.0
 11
11253.4554723133
 21
13659.6212939278
 31
0.0
  0
HATCH
  5
5D1
330
1F
100
AcDbEntity
  8
画層3-3
100
AcDbHatch
 10
0.0
 20
0.0
 30
0.0
210
0.0
220
0.0
230
1.0
  2
PLAST
 70
     0
 71
     0
 91
        1
 92
        7
 72
     0
 73
     1
 93
        4
 10
11353.05547231339
 20
13859.6212939278
 10
11103.05547231339
 20
13859.6212939278
 10
11103.05547231339
 20
13409.6212939278
 10
11353.05547231339
 20
13409.6212939278
 97
        0
 75
     0
 76
     1
 52
45.0
 41
1800.0
 77
     0
 78
     3
 53
45.0
 43
5085.712816547102
 44
7417.954277416601
 45
-318.1980515339463
 46
318.1980515339464
 79
     0
 53
45.0
 43
5045.938060105743
 44
7457.72903385831
 45
-318.1980515339463
 46
318.1980515339464
 79
     0
 53
45.0
 43
5006.163303663917
 44
7497.503790300133
 45
-318.1980515339463
 46
318.1980515339464
 79
     0
 47
2.4753793195157
 98
        1
 10
11341.94867007664
 20
13618.82874193557
  0
LWPOLYLINE
  5
5D2
330
1F
100
AcDbEntity
  8
画層3-2
100
AcDbPolyline
 90
        4
 70
     0
 43
0.0
 10
11353.05547231339
 20
13859.6212939278
 10
11353.05547231339
 20
13409.6212939278
 10
11103.05547231339
 20
13409.6212939278
 10
11103.05547231339
 20
13859.6212939278
  0
LINE
  5
5D3
330
1F
100
AcDbEntity
  8
画層3-1
  6
Continuous
100
AcDbLine
 10
11202.65547231348
 20
13879.62129392803
 30
0.0
 11
11202.65547231348
 21
13659.6212939278
 31
0.0
  0
LINE
  5
5D4
330
1F
100
AcDbEntity
  8
画層3-1
  6
Continuous
100
AcDbLine
 10
11253.4554723133
 20
13879.62129392768
 30
0.0
 11
11253.4554723133
 21
13659.6212939278
 31
0.0
  0
LWPOLYLINE
  5
5D5
330
1F
100
AcDbEntity
  8
画層2
100
AcDbPolyline
 90
        3
 70
     0
 43
0.0
 10
9478.055472313391
 20
13859.62129392827
 10
9478.055472313391
 20
13559.62129392827
 10
9453.055472313392
 20
13559.62129392815
  0
LEADER
  5
5D6
330
1F
100
AcDbEntity
  8
寸法引出
  6
Continuous
100
AcDbLeader
  3
1_100
 71
     0
 73
     0
 74
     0
 75
     1
 40
300.0
 41
1547.142857142856
 76
     3
 10
9453.055472313392
 20
12437.86600633154
 30
0.0
 10
9976.808538612409
 20
12754.13988622024
 30
0.0
 10
10036.80853861241
 20
12754.13988622024
 30
0.0
340
5D7
  0
MTEXT
  5
5D7
102
{ACAD_REACTORS
330
5D6
102
}
330
1F
100
AcDbEntity
  8
寸法文字
  6
Continuous
100
AcDbMText
 10
10136.80853861241
 20
12854.13988622024
 30
0.0
 40
300.0
 41
0.0
 71
     7
 72
     1
  1
コンクリート
  7
1_100
 73
     1
 44
1.0
1001
ACAD
1000
MTEXTBEGIN
1070
    73
1070
     1
1070
    44
1040
1.0
1070
    74
1070
     0
1000
MTEXTEND
  0
LINE
  5
5D8
330
1F
100
AcDbEntity
  8
ﾊｯﾁﾝｸﾞ
  6
Continuous
100
AcDbLine
 10
9378.482421844696
 20
11859.6212939278
 30
0.0
 11
9394.589555152192
 21
11837.77821829953
 31
0.0
  0
LINE
  5
5D9
330
1F
100
AcDbEntity
  8
ﾊｯﾁﾝｸﾞ
  6
Continuous
100
AcDbLine
 10
9362.303917686885
 20
11781.85785385457
 30
0.0
 11
9375.142201546081
 21
11759.6212939278
 31
0.0
  0
LINE
  5
5DA
330
1F
100
AcDbEntity
  8
ﾊｯﾁﾝｸﾞ
  6
Continuous
100
AcDbLine
 10
9436.068174205685
 20
11759.6212939278
 30
0.0
 11
9453.055472313392
 21
11789.04415733381
 31
0.0
  0
LINE
  5
5DB
330
1F
100
AcDbEntity
  8
ﾊｯﾁﾝｸﾞ
  6
Continuous
100
AcDbLine
 10
9448.906458065344
 20
11781.85785385457
 30
0.0
 11
9453.055472313392
 21
11774.6715503752
 31
0.0
  0
LINE
  5
5DC
330
1F
100
AcDbEntity
  8
ﾊｯﾁﾝｸﾞ
  6
Continuous
100
AcDbLine
 10
9349.465633827227
 20
11759.6212939278
 30
0.0
 11
9407.200660746045
 21
11859.6212939278
 31
0.0
  0
LEADER
  5
5DD
330
1F
100
AcDbEntity
  8
寸法引出
  6
Continuous
100
AcDbLeader
  3
1_100
 71
     0
 73
     0
 74
     0
 75
     1
 40
300.0
 41
495.0
 76
     3
 10
9453.055472313392
 20
11809.6212939278
 30
0.0
 10
9969.491517009641
 20
12129.60373216847
 30
0.0
 10
10029.49151700964
 20
12129.60373216847
 30
0.0
340
5DE
  0
MTEXT
  5
5DE
102
{ACAD_REACTORS
330
5DD
102
}
330
1F
100
AcDbEntity
  8
寸法文字
  6
Continuous
100
AcDbMText
 10
10129.49151700964
 20
12229.60373216847
 30
0.0
 40
300.0
 41
0.0
 71
     7
 72
     1
  1
砕石
  7
1_100
 73
     1
 44
1.0
1001
ACAD
1000
MTEXTBEGIN
1070
    73
1070
     1
1070
    44
1040
1.0
1070
    74
1070
     0
1000
MTEXTEND
  0
LINE
  5
5DF
330
1F
100
AcDbEntity
  8
画層2-1
  6
Continuous
100
AcDbLine
 10
9132.705472313299
 20
13959.6212939278
 30
0.0
 11
9323.405472313483
 21
13959.6212939278
 31
0.0
  0
LINE
  5
5E0
330
1F
100
AcDbEntity
  8
画層2-1
  6
Continuous
100
AcDbLine
 10
9132.705472313299
 20
13709.6212939278
 30
0.0
 11
9323.405472313483
 21
13709.6212939278
 31
0.0
  0
LINE
  5
5E1
330
1F
100
AcDbEntity
  8
画層3-1
  6
Continuous
100
AcDbLine
 10
9202.655472313486
 20
13659.6212939278
 30
0.0
 11
9253.455472313298
 21
13659.6212939278
 31
0.0
  0
LWPOLYLINE
  5
5E2
330
1F
100
AcDbEntity
  8
画層2
100
AcDbPolyline
 90
        3
 70
     0
 43
0.0
 10
9003.055472313391
 20
13559.62129392827
 10
8978.055472313391
 20
13559.62129392827
 10
8978.055472313391
 20
13859.62129392827
  0
LINE
  5
5E3
330
1F
100
AcDbEntity
  8
画層3-1
  6
Continuous
100
AcDbLine
 10
9253.455472313298
 20
13879.62129392768
 30
0.0
 11
9253.455472313298
 21
13659.6212939278
 31
0.0
  0
LINE
  5
5E4
330
1F
100
AcDbEntity
  8
ﾊｯﾁﾝｸﾞ
  6
Continuous
100
AcDbLine
 10
9032.072260331329
 20
11859.6212939278
 30
0.0
 11
9048.179393638356
 21
11837.77821829953
 31
0.0
  0
LINE
  5
5E5
330
1F
100
AcDbEntity
  8
ﾊｯﾁﾝｸﾞ
  6
Continuous
100
AcDbLine
 10
9118.674800709788
 20
11859.6212939278
 30
0.0
 11
9134.781934016817
 21
11837.77821829953
 31
0.0
  0
LINE
  5
5E6
330
1F
100
AcDbEntity
  8
ﾊｯﾁﾝｸﾞ
  6
Continuous
100
AcDbLine
 10
9205.277341088246
 20
11859.6212939278
 30
0.0
 11
9221.384474395277
 21
11837.77821829953
 31
0.0
  0
LINE
  5
5E7
330
1F
100
AcDbEntity
  8
ﾊｯﾁﾝｸﾞ
  6
Continuous
100
AcDbLine
 10
9291.879881466703
 20
11859.6212939278
 30
0.0
 11
9307.987014773731
 21
11837.77821829953
 31
0.0
  0
LINE
  5
5E8
330
1F
100
AcDbEntity
  8
ﾊｯﾁﾝｸﾞ
  6
Continuous
100
AcDbLine
 10
9015.893756173051
 20
11781.85785385457
 30
0.0
 11
9028.732040032243
 21
11759.6212939278
 31
0.0
  0
LINE
  5
5E9
330
1F
100
AcDbEntity
  8
ﾊｯﾁﾝｸﾞ
  6
Continuous
100
AcDbLine
 10
9102.49629655151
 20
11781.85785385457
 30
0.0
 11
9115.334580410705
 21
11759.6212939278
 31
0.0
  0
LINE
  5
5EA
330
1F
100
AcDbEntity
  8
ﾊｯﾁﾝｸﾞ
  6
Continuous
100
AcDbLine
 10
9189.09883692997
 20
11781.85785385457
 30
0.0
 11
9201.937120789162
 21
11759.6212939278
 31
0.0
  0
LINE
  5
5EB
330
1F
100
AcDbEntity
  8
ﾊｯﾁﾝｸﾞ
  6
Continuous
100
AcDbLine
 10
9275.701377308427
 20
11781.85785385457
 30
0.0
 11
9288.539661167623
 21
11759.6212939278
 31
0.0
  0
LINE
  5
5EC
330
1F
100
AcDbEntity
  8
ﾊｯﾁﾝｸﾞ
  6
Continuous
100
AcDbLine
 10
9003.055472313391
 20
11759.6212939278
 30
0.0
 11
9060.79049923221
 21
11859.6212939278
 31
0.0
  0
LINE
  5
5ED
330
1F
100
AcDbEntity
  8
ﾊｯﾁﾝｸﾞ
  6
Continuous
100
AcDbLine
 10
9089.658012691852
 20
11759.6212939278
 30
0.0
 11
9147.393039610667
 21
11859.6212939278
 31
0.0
  0
LINE
  5
5EE
330
1F
100
AcDbEntity
  8
ﾊｯﾁﾝｸﾞ
  6
Continuous
100
AcDbLine
 10
9262.863093448769
 20
11759.6212939278
 30
0.0
 11
9320.598120367586
 21
11859.6212939278
 31
0.0
  0
LINE
  5
5EF
330
1F
100
AcDbEntity
  8
ﾊｯﾁﾝｸﾞ
  6
Continuous
100
AcDbLine
 10
9176.26055307031
 20
11759.6212939278
 30
0.0
 11
9233.995579989128
 21
11859.6212939278
 31
0.0
  0
DIMENSION
  5
5F0
330
1F
100
AcDbEntity
  8
寸法
  6
Continuous
100
AcDbDimension
  2
*D8
 10
9453.055472313392
 20
11159.6212939278
 30
0.0
 11
8426.665236119147
 21
11340.95495551664
 31
0.0
 70
   160
  1
φ<>
 71
     5
 42
450.0
  3
1_100
100
AcDbAlignedDimension
 13
9003.055472313391
 23
11759.6212939278
 33
0.0
 14
9453.055472313392
 24
11759.6212939278
 34
0.0
100
AcDbRotatedDimension
  0
LINE
  5
5F1
330
1F
100
AcDbEntity
  8
画層2
  6
Continuous
100
AcDbLine
 10
9453.055472313392
 20
11859.6212939278
 30
0.0
 11
9003.055472313391
 21
11859.6212939278
 31
0.0
  0
LWPOLYLINE
  5
5F2
330
1F
100
AcDbEntity
  8
画層2
100
AcDbPolyline
 90
        4
 70
     0
 43
0.0
 10
9453.055472313392
 20
13559.62129392815
 10
9453.055472313392
 20
11759.62129392768
 10
9003.055472313391
 20
11759.62129392768
 10
9003.055472313391
 20
13559.62129392827
  0
LINE
  5
5F3
330
1F
100
AcDbEntity
  8
画層3-1
  6
Continuous
100
AcDbLine
 10
9202.655472313486
 20
13917.72129392778
 30
0.0
 11
11202.65547231348
 21
13917.72129392778
 31
0.0
  0
LINE
  5
5F4
330
1F
100
AcDbEntity
  8
画層3-1
  6
Continuous
100
AcDbLine
 10
9202.655472313486
 20
13879.6212939278
 30
0.0
 11
11202.65547231348
 21
13879.6212939278
 31
0.0
  0
DIMENSION
  5
5F5
330
1F
100
AcDbEntity
  8
寸法
  6
Continuous
100
AcDbDimension
  2
*D9
 10
9478.055472313391
 20
10759.62129392769
 30
0.0
 11
9228.055472313391
 21
10509.62129392768
 31
0.0
 70
    32
  1
□<>
 71
     5
 42
500.0
  3
1_100
100
AcDbAlignedDimension
 13
8978.055472313391
 23
11759.6212939278
 33
0.0
 14
9478.055472313391
 24
11759.6212939278
 34
0.0
100
AcDbRotatedDimension
1001
ACAD
1000
DSTYLE
1002
{
1070
   174
1070
     1
1070
    77
1070
     2
1002
}
  0
DIMENSION
  5
5F6
330
1F
100
AcDbEntity
  8
寸法
  6
Continuous
100
AcDbDimension
  2
*D10
 10
11228.05547231339
 20
9559.621293927337
 30
0.0
 11
10228.05547231339
 21
9838.192722498769
 31
0.0
 70
    32
 71
     5
 42
2000.0
  3
1_100
100
AcDbAlignedDimension
 13
9228.055472313391
 23
9997.121293927454
 33
0.0
 14
11228.05547231339
 24
10866.71532818515
 34
0.0
100
AcDbRotatedDimension
  0
TEXT
  5
5F7
330
1F
100
AcDbEntity
  8
寸法
  6
Continuous
100
AcDbText
 10
6020.525328944002
 20
13890.7670287262
 30
0.0
 40
300.0
  1
▽GL
 41
0.75
  7
1_100
 72
     2
 11
6686.953900372575
 21
13890.7670287262
 31
0.0
100
AcDbText
 73
     1
  0
MTEXT
  5
5F8
330
1F
100
AcDbEntity
  8
寸法文字
  6
Continuous
100
AcDbMText
 10
7938.381798623094
 20
14496.03482684193
 30
0.0
 40
300.0
 41
0.0
 71
     3
 72
     1
  1
（250）
  7
1_100
 73
     1
 44
1.0
1001
ACAD
1000
MTEXTBEGIN
1070
    73
1070
     1
1070
    44
1040
1.0
1070
    74
1070
     0
1000
MTEXTEND
  0
LEADER
  5
5F9
330
1F
100
AcDbEntity
  8
寸法引出
  6
Continuous
100
AcDbLeader
  3
1_100
 71
     0
 73
     0
 75
     1
 40
300.0
 41
1095.0
 76
     3
 10
9161.910966596996
 20
13930.86787664904
 30
0.0
 10
8152.236435209365
 20
14580.71412635993
 30
0.0
 10
8092.236435209366
 20
14580.71412635993
 30
0.0
340
5FA
  0
MTEXT
  5
5FA
102
{ACAD_REACTORS
330
5F9
102
}
330
1F
100
AcDbEntity
  8
寸法文字
  6
Continuous
100
AcDbMText
 10
7992.236435209367
 20
14680.71412635993
 30
0.0
 40
300.0
 41
0.0
 71
     9
 72
     1
  1
FRP被覆
  7
1_100
 73
     1
 44
1.0
1001
ACAD
1000
MTEXTBEGIN
1070
    73
1070
     1
1070
    44
1040
1.0
1070
    74
1070
     0
1000
MTEXTEND
  0
LINE
  5
5FB
330
1F
100
AcDbEntity
  8
画層3-1
  6
Continuous
100
AcDbLine
 10
9253.455472313298
 20
14524.6212939278
 30
0.0
 11
9253.455472313298
 21
13917.72129392789
 31
0.0
  0
LINE
  5
5FC
330
1F
100
AcDbEntity
  8
画層3-2
  6
Continuous
100
AcDbLine
 10
9293.405472313486
 20
14524.6212939278
 30
0.0
 11
9293.405472313486
 21
13859.6212939278
 31
0.0
  0
LINE
  5
5FD
330
1F
100
AcDbEntity
  8
画層3-1
  6
Continuous
100
AcDbLine
 10
11202.65547231348
 20
14524.6212939278
 30
0.0
 11
11202.65547231348
 21
13917.72129392778
 31
0.0
  0
LINE
  5
5FE
330
1F
100
AcDbEntity
  8
画層3-2
  6
Continuous
100
AcDbLine
 10
11293.40547231348
 20
14524.6212939278
 30
0.0
 11
11293.40547231348
 21
13859.6212939278
 31
0.0
  0
LINE
  5
5FF
330
1F
100
AcDbEntity
  8
画層3-2
  6
Continuous
100
AcDbLine
 10
11162.70547231376
 20
13859.6212939278
 30
0.0
 11
11162.70547231376
 21
14524.6212939278
 31
0.0
  0
LINE
  5
600
330
1F
100
AcDbEntity
  8
画層3-1
  6
Continuous
100
AcDbLine
 10
11253.4554723133
 20
14524.6212939278
 30
0.0
 11
11253.4554723133
 21
13917.72129392789
 31
0.0
  0
LINE
  5
601
330
1F
100
AcDbEntity
  8
ﾊｯﾁﾝｸﾞ
  6
Continuous
100
AcDbLine
 10
8855.478114638442
 20
13767.95103240086
 30
0.0
 11
8827.148376165855
 21
13739.6212939278
 31
0.0
  0
LINE
  5
602
330
1F
100
AcDbEntity
  8
ﾊｯﾁﾝｸﾞ
  6
Continuous
100
AcDbLine
 10
8843.003812604084
 20
13859.6212939278
 30
0.0
 11
8963.003812605014
 21
13739.6212939278
 31
0.0
  0
LINE
  5
603
330
1F
100
AcDbEntity
  8
ﾊｯﾁﾝｸﾞ
  6
Continuous
100
AcDbLine
 10
8922.199772097604
 20
13859.6212939278
 30
0.0
 11
8978.055472313391
 21
13803.76559371224
 31
0.0
  0
LINE
  5
604
330
1F
100
AcDbEntity
  8
ﾊｯﾁﾝｸﾞ
  6
Continuous
100
AcDbLine
 10
8538.694276666234
 20
13847.14699189367
 30
0.0
 11
8484.931427683179
 21
13793.38414291074
 31
0.0
  0
LINE
  5
605
330
1F
100
AcDbEntity
  8
ﾊｯﾁﾝｸﾞ
  6
Continuous
100
AcDbLine
 10
8526.219974631873
 20
13859.6212939278
 30
0.0
 11
8646.219974632806
 21
13739.6212939278
 31
0.0
  0
LINE
  5
606
330
1F
100
AcDbEntity
  8
ﾊｯﾁﾝｸﾞ
  6
Continuous
100
AcDbLine
 10
8605.415934124927
 20
13859.6212939278
 30
0.0
 11
8697.086195652339
 21
13767.95103240074
 31
0.0
  0
LINE
  5
607
330
1F
100
AcDbEntity
  8
ﾊｯﾁﾝｸﾞ
  6
Continuous
100
AcDbLine
 10
8684.611893617979
 20
13859.62129392792
 30
0.0
 11
8736.684175399098
 21
13807.54901214725
 31
0.0
  0
LINE
  5
608
330
1F
100
AcDbEntity
  8
ﾊｯﾁﾝｸﾞ
  6
Continuous
100
AcDbLine
 10
8578.292256412527
 20
13807.54901214725
 30
0.0
 11
8510.364538193178
 21
13739.6212939278
 31
0.0
  0
LINE
  5
609
330
1F
100
AcDbEntity
  8
ﾊｯﾁﾝｸﾞ
  6
Continuous
100
AcDbLine
 10
8617.890236159286
 20
13767.95103240086
 30
0.0
 11
8589.560497686234
 21
13739.6212939278
 31
0.0
  0
LINE
  5
60A
330
1F
100
AcDbEntity
  8
ﾊｯﾁﾝｸﾞ
  6
Continuous
100
AcDbLine
 10
8776.282155145391
 20
13847.14699189367
 30
0.0
 11
8668.756457179751
 21
13739.6212939278
 31
0.0
  0
LINE
  5
60B
330
1F
100
AcDbEntity
  8
ﾊｯﾁﾝｸﾞ
  6
Continuous
100
AcDbLine
 10
8815.880134891683
 20
13807.54901214725
 30
0.0
 11
8747.952416672337
 21
13739.6212939278
 31
0.0
  0
LINE
  5
60C
330
1F
100
AcDbEntity
  8
ﾊｯﾁﾝｸﾞ
  6
Continuous
100
AcDbLine
 10
8763.80785311103
 20
13859.6212939278
 30
0.0
 11
8883.807853111965
 21
13739.6212939278
 31
0.0
  0
LINE
  5
60D
330
1F
100
AcDbEntity
  8
ﾊｯﾁﾝｸﾞ
  6
Continuous
100
AcDbLine
 10
9838.220708467495
 20
13767.95103240086
 30
0.0
 11
9866.550446940086
 21
13739.6212939278
 31
0.0
  0
LINE
  5
60E
330
1F
100
AcDbEntity
  8
ﾊｯﾁﾝｸﾞ
  6
Continuous
100
AcDbLine
 10
9877.818688213791
 20
13807.54901214725
 30
0.0
 11
9945.746406433604
 21
13739.6212939278
 31
0.0
  0
LINE
  5
60F
330
1F
100
AcDbEntity
  8
ﾊｯﾁﾝｸﾞ
  6
Continuous
100
AcDbLine
 10
9850.695010501858
 20
13859.6212939278
 30
0.0
 11
9759.024748973979
 21
13767.95103240086
 31
0.0
  0
LINE
  5
610
330
1F
100
AcDbEntity
  8
ﾊｯﾁﾝｸﾞ
  6
Continuous
100
AcDbLine
 10
9929.890969994909
 20
13859.6212939278
 30
0.0
 11
9809.890969993979
 21
13739.6212939278
 31
0.0
  0
LINE
  5
611
330
1F
100
AcDbEntity
  8
ﾊｯﾁﾝｸﾞ
  6
Continuous
100
AcDbLine
 10
9917.416667960551
 20
13847.14699189367
 30
0.0
 11
9971.179516943603
 21
13793.38414291074
 31
0.0
  0
LINE
  5
612
330
1F
100
AcDbEntity
  8
ﾊｯﾁﾝｸﾞ
  6
Continuous
100
AcDbLine
 10
9533.911172529185
 20
13859.6212939278
 30
0.0
 11
9478.055472313391
 21
13803.76559371224
 31
0.0
  0
LINE
  5
613
330
1F
100
AcDbEntity
  8
ﾊｯﾁﾝｸﾞ
  6
Continuous
100
AcDbLine
 10
9613.107132022236
 20
13859.6212939278
 30
0.0
 11
9493.107132021767
 21
13739.6212939278
 31
0.0
  0
LINE
  5
614
330
1F
100
AcDbEntity
  8
ﾊｯﾁﾝｸﾞ
  6
Continuous
100
AcDbLine
 10
9692.303091515285
 20
13859.6212939278
 30
0.0
 11
9572.303091514822
 21
13739.6212939278
 31
0.0
  0
LINE
  5
615
330
1F
100
AcDbEntity
  8
ﾊｯﾁﾝｸﾞ
  6
Continuous
100
AcDbLine
 10
9600.632829988342
 20
13767.95103240086
 30
0.0
 11
9628.962568460927
 21
13739.6212939278
 31
0.0
  0
LINE
  5
616
330
1F
100
AcDbEntity
  8
ﾊｯﾁﾝｸﾞ
  6
Continuous
100
AcDbLine
 10
9640.230809734637
 20
13807.54901214725
 30
0.0
 11
9708.15852795398
 21
13739.6212939278
 31
0.0
  0
LINE
  5
617
330
1F
100
AcDbEntity
  8
ﾊｯﾁﾝｸﾞ
  6
Continuous
100
AcDbLine
 10
9679.828789481398
 20
13847.14699189367
 30
0.0
 11
9787.354487447034
 21
13739.6212939278
 31
0.0
  0
LINE
  5
618
330
1F
100
AcDbEntity
  8
ﾊｯﾁﾝｸﾞ
  6
Continuous
100
AcDbLine
 10
9771.499051008341
 20
13859.62129392792
 30
0.0
 11
9719.426769227688
 21
13807.54901214725
 31
0.0
  0
HATCH
  5
619
330
1F
100
AcDbEntity
  8
ﾊｯﾁﾝｸﾞ
100
AcDbHatch
 10
0.0
 20
0.0
 30
0.0
210
0.0
220
0.0
230
1.0
  2
PLAST
 70
     0
 71
     0
 91
        1
 92
        7
 72
     0
 73
     1
 93
        8
 10
9453.055472313392
 20
13559.62129392815
 10
9478.055472313391
 20
13559.62129392827
 10
9478.055472313391
 20
13859.6212939278
 10
8978.055472313391
 20
13859.6212939278
 10
8978.055472313391
 20
13559.62129392827
 10
9003.055472313391
 20
13559.62129392827
 10
9003.055472313391
 20
11859.6212939278
 10
9453.055472313392
 20
11859.6212939278
 97
        0
 75
     0
 76
     1
 52
45.0
 41
2000.0
 77
     0
 78
     3
 53
45.0
 43
-409251.7116657711
 44
-239960.1880535334
 45
-353.5533905932737
 46
353.5533905932738
 79
     0
 53
45.0
 43
-409295.905839595
 44
-239915.9938797093
 45
-353.5533905932737
 46
353.5533905932738
 79
     0
 53
45.0
 43
-409340.1000134194
 44
-239871.7997058851
 45
-353.5533905932737
 46
353.5533905932738
 79
     0
 47
27.24516084834219
 98
        1
 10
9342.848127868455
 20
13225.03256821984
  0
LINE
  5
61A
330
1F
100
AcDbEntity
  8
画層3-2
  6
Continuous
100
AcDbLine
 10
11308.40547231348
 20
15199.6212939278
 30
0.0
 11
13147.70547231376
 21
15199.6212939278
 31
0.0
  0
LINE
  5
61B
330
1F
100
AcDbEntity
  8
画層3-2
  6
Continuous
100
AcDbLine
 10
13147.70547231376
 20
14539.6212939278
 30
0.0
 11
11308.40547231348
 21
14539.6212939278
 31
0.0
  0
LEADER
  5
61C
330
1F
100
AcDbEntity
  8
寸法引出
  6
Continuous
100
AcDbLeader
  3
1_100_B
 71
     0
 73
     0
 74
     0
 75
     1
 40
300.0
 41
1095.0
 76
     3
 10
11435.09190738244
 20
14539.6212939278
 30
0.0
 10
11591.55009635162
 20
14703.14139319225
 30
0.0
 10
11671.55009635162
 20
14703.14139319225
 30
0.0
1001
ACAD
1000
DSTYLE
1002
{
1070
    77
1070
     2
1070
   174
1070
     1
1002
}
  0
MTEXT
  5
61D
102
{ACAD_REACTORS
330
61C
102
}
330
1F
100
AcDbEntity
  8
寸法文字
  6
Continuous
100
AcDbMText
 10
11721.55009635162
 20
14753.14139319225
 30
0.0
 40
300.0
 41
0.0
 71
     7
 72
     1
  1
4mm線
  7
1_100
 73
     1
 44
1.0
1001
ACAD
1000
MTEXTBEGIN
1070
    73
1070
     1
1070
    44
1040
1.0
1070
    74
1070
     0
1000
MTEXTEND
  0
LINE
  5
61E
330
1F
100
AcDbEntity
  8
画層3-2
  6
Continuous
100
AcDbLine
 10
11308.40547231348
 20
15199.6212939278
 30
0.0
 11
13147.70547231376
 21
15199.6212939278
 31
0.0
  0
LINE
  5
61F
330
1F
100
AcDbEntity
  8
画層3-2
  6
Continuous
100
AcDbLine
 10
13147.70547231376
 20
14539.6212939278
 30
0.0
 11
11308.40547231348
 21
14539.6212939278
 31
0.0
  0
LINE
  5
620
330
1F
100
AcDbEntity
  8
画層3-1
  6
Continuous
100
AcDbLine
 10
11253.4554723133
 20
13879.6212939278
 30
0.0
 11
13202.65547231348
 21
13879.6212939278
 31
0.0
  0
LINE
  5
621
330
1F
100
AcDbEntity
  8
画層3-1
  6
Continuous
100
AcDbLine
 10
11253.4554723133
 20
13917.72129392778
 30
0.0
 11
13202.65547231348
 21
13917.72129392789
 31
0.0
  0
DIMENSION
  5
622
330
1F
100
AcDbEntity
  8
寸法
  6
Continuous
100
AcDbDimension
  2
*D11
 10
13228.05547231339
 20
9559.621293927337
 30
0.0
 11
12228.05547231339
 21
9838.192722498769
 31
0.0
 70
    32
 71
     5
 42
2000.0
  3
1_100
100
AcDbAlignedDimension
 13
11228.05547231339
 23
10866.71532818515
 33
0.0
 14
13228.05547231339
 24
10866.71532818515
 34
0.0
100
AcDbRotatedDimension
  0
LINE
  5
623
330
1F
100
AcDbEntity
  8
画層3-1
  6
Continuous
100
AcDbLine
 10
25308.40547231349
 20
15184.6212939278
 30
0.0
 11
25308.40547231349
 21
15214.6212939278
 31
0.0
  0
LINE
  5
624
330
1F
100
AcDbEntity
  8
画層3-1
  6
Continuous
100
AcDbLine
 10
25147.70547231377
 20
15184.6212939278
 30
0.0
 11
25308.40547231349
 21
15184.6212939278
 31
0.0
  0
LINE
  5
625
330
1F
100
AcDbEntity
  8
画層3-1
  6
Continuous
100
AcDbLine
 10
25308.40547231349
 20
15214.6212939278
 30
0.0
 11
25147.70547231377
 21
15214.6212939278
 31
0.0
  0
LINE
  5
626
330
1F
100
AcDbEntity
  8
画層3-1
  6
Continuous
100
AcDbLine
 10
25147.70547231377
 20
15214.6212939278
 30
0.0
 11
25147.70547231377
 21
15184.6212939278
 31
0.0
  0
LINE
  5
627
330
1F
100
AcDbEntity
  8
画層3-1
  6
Continuous
100
AcDbLine
 10
25308.40547231349
 20
14524.6212939278
 30
0.0
 11
25308.40547231349
 21
14554.6212939278
 31
0.0
  0
LINE
  5
628
330
1F
100
AcDbEntity
  8
画層3-1
  6
Continuous
100
AcDbLine
 10
25147.70547231377
 20
14524.6212939278
 30
0.0
 11
25308.40547231349
 21
14524.6212939278
 31
0.0
  0
LINE
  5
629
330
1F
100
AcDbEntity
  8
画層3-1
  6
Continuous
100
AcDbLine
 10
25308.40547231349
 20
14554.6212939278
 30
0.0
 11
25147.70547231377
 21
14554.6212939278
 31
0.0
  0
LINE
  5
62A
330
1F
100
AcDbEntity
  8
画層3-1
  6
Continuous
100
AcDbLine
 10
25147.70547231377
 20
14554.6212939278
 30
0.0
 11
25147.70547231377
 21
14524.6212939278
 31
0.0
  0
LINE
  5
62B
330
1F
100
AcDbEntity
  8
画層3-2
  6
Continuous
100
AcDbLine
 10
25162.70547231377
 20
14554.6212939278
 30
0.0
 11
25162.70547231377
 21
15184.6212939278
 31
0.0
  0
LINE
  5
62C
330
1F
100
AcDbEntity
  8
画層3-2
  6
Continuous
100
AcDbLine
 10
25293.40547231349
 20
15184.6212939278
 30
0.0
 11
25293.40547231349
 21
14554.6212939278
 31
0.0
  0
LINE
  5
62D
330
1F
100
AcDbEntity
  8
画層3-1
  6
Continuous
100
AcDbLine
 10
25253.4554723133
 20
15184.6212939278
 30
0.0
 11
25253.4554723133
 21
14554.6212939278
 31
0.0
  0
LINE
  5
62E
330
1F
100
AcDbEntity
  8
画層3-1
  6
Continuous
100
AcDbLine
 10
25202.65547231349
 20
15184.6212939278
 30
0.0
 11
25202.65547231349
 21
14554.6212939278
 31
0.0
  0
LINE
  5
62F
330
1F
100
AcDbEntity
  8
画層3-1
  6
Continuous
100
AcDbLine
 10
23147.70547231377
 20
15214.6212939278
 30
0.0
 11
23147.70547231377
 21
15184.6212939278
 31
0.0
  0
LINE
  5
630
330
1F
100
AcDbEntity
  8
画層3-1
  6
Continuous
100
AcDbLine
 10
23308.40547231349
 20
15214.6212939278
 30
0.0
 11
23147.70547231377
 21
15214.6212939278
 31
0.0
  0
LINE
  5
631
330
1F
100
AcDbEntity
  8
画層3-1
  6
Continuous
100
AcDbLine
 10
23147.70547231377
 20
15184.6212939278
 30
0.0
 11
23308.40547231349
 21
15184.6212939278
 31
0.0
  0
LINE
  5
632
330
1F
100
AcDbEntity
  8
画層3-1
  6
Continuous
100
AcDbLine
 10
23308.40547231349
 20
15184.6212939278
 30
0.0
 11
23308.40547231349
 21
15214.6212939278
 31
0.0
  0
LINE
  5
633
330
1F
100
AcDbEntity
  8
画層3-1
  6
Continuous
100
AcDbLine
 10
23147.70547231377
 20
14554.6212939278
 30
0.0
 11
23147.70547231377
 21
14524.6212939278
 31
0.0
  0
LINE
  5
634
330
1F
100
AcDbEntity
  8
画層3-1
  6
Continuous
100
AcDbLine
 10
23308.40547231349
 20
14554.6212939278
 30
0.0
 11
23147.70547231377
 21
14554.6212939278
 31
0.0
  0
LINE
  5
635
330
1F
100
AcDbEntity
  8
画層3-1
  6
Continuous
100
AcDbLine
 10
23147.70547231377
 20
14524.6212939278
 30
0.0
 11
23308.40547231349
 21
14524.6212939278
 31
0.0
  0
LINE
  5
636
330
1F
100
AcDbEntity
  8
画層3-1
  6
Continuous
100
AcDbLine
 10
23308.40547231349
 20
14524.6212939278
 30
0.0
 11
23308.40547231349
 21
14554.6212939278
 31
0.0
  0
LINE
  5
637
330
1F
100
AcDbEntity
  8
画層3-1
  6
Continuous
100
AcDbLine
 10
23202.65547231349
 20
15184.6212939278
 30
0.0
 11
23202.65547231349
 21
14554.6212939278
 31
0.0
  0
LINE
  5
638
330
1F
100
AcDbEntity
  8
画層3-1
  6
Continuous
100
AcDbLine
 10
23253.4554723133
 20
15184.6212939278
 30
0.0
 11
23253.4554723133
 21
14554.6212939278
 31
0.0
  0
LINE
  5
639
330
1F
100
AcDbEntity
  8
画層3-2
  6
Continuous
100
AcDbLine
 10
23293.40547231349
 20
15184.6212939278
 30
0.0
 11
23293.40547231349
 21
14554.6212939278
 31
0.0
  0
LINE
  5
63A
330
1F
100
AcDbEntity
  8
画層3-2
  6
Continuous
100
AcDbLine
 10
23162.70547231377
 20
14554.6212939278
 30
0.0
 11
23162.70547231377
 21
15184.6212939278
 31
0.0
  0
LINE
  5
63B
330
1F
100
AcDbEntity
  8
画層3-2
  6
Continuous
100
AcDbLine
 10
25147.70547231377
 20
14539.6212939278
 30
0.0
 11
23308.40547231349
 21
14539.6212939278
 31
0.0
  0
LINE
  5
63C
330
1F
100
AcDbEntity
  8
画層3-2
  6
Continuous
100
AcDbLine
 10
23308.40547231349
 20
15199.6212939278
 30
0.0
 11
25147.70547231377
 21
15199.6212939278
 31
0.0
  0
LINE
  5
63D
330
1F
100
AcDbEntity
  8
画層3-1
  6
Continuous
100
AcDbLine
 10
21308.40547231349
 20
15184.6212939278
 30
0.0
 11
21308.40547231349
 21
15214.6212939278
 31
0.0
  0
LINE
  5
63E
330
1F
100
AcDbEntity
  8
画層3-1
  6
Continuous
100
AcDbLine
 10
21147.70547231377
 20
15214.6212939278
 30
0.0
 11
21147.70547231377
 21
15184.6212939278
 31
0.0
  0
LINE
  5
63F
330
1F
100
AcDbEntity
  8
画層3-1
  6
Continuous
100
AcDbLine
 10
21147.70547231377
 20
15184.6212939278
 30
0.0
 11
21308.40547231349
 21
15184.6212939278
 31
0.0
  0
LINE
  5
640
330
1F
100
AcDbEntity
  8
画層3-1
  6
Continuous
100
AcDbLine
 10
21308.40547231349
 20
15214.6212939278
 30
0.0
 11
21147.70547231377
 21
15214.6212939278
 31
0.0
  0
LINE
  5
641
330
1F
100
AcDbEntity
  8
画層3-1
  6
Continuous
100
AcDbLine
 10
21308.40547231349
 20
14524.6212939278
 30
0.0
 11
21308.40547231349
 21
14554.6212939278
 31
0.0
  0
LINE
  5
642
330
1F
100
AcDbEntity
  8
画層3-1
  6
Continuous
100
AcDbLine
 10
21147.70547231377
 20
14554.6212939278
 30
0.0
 11
21147.70547231377
 21
14524.6212939278
 31
0.0
  0
LINE
  5
643
330
1F
100
AcDbEntity
  8
画層3-1
  6
Continuous
100
AcDbLine
 10
21147.70547231377
 20
14524.6212939278
 30
0.0
 11
21308.40547231349
 21
14524.6212939278
 31
0.0
  0
LINE
  5
644
330
1F
100
AcDbEntity
  8
画層3-1
  6
Continuous
100
AcDbLine
 10
21308.40547231349
 20
14554.6212939278
 30
0.0
 11
21147.70547231377
 21
14554.6212939278
 31
0.0
  0
LINE
  5
645
330
1F
100
AcDbEntity
  8
画層3-2
  6
Continuous
100
AcDbLine
 10
21293.40547231349
 20
15184.6212939278
 30
0.0
 11
21293.40547231349
 21
14554.6212939278
 31
0.0
  0
LINE
  5
646
330
1F
100
AcDbEntity
  8
画層3-1
  6
Continuous
100
AcDbLine
 10
21253.4554723133
 20
15184.6212939278
 30
0.0
 11
21253.4554723133
 21
14554.6212939278
 31
0.0
  0
LINE
  5
647
330
1F
100
AcDbEntity
  8
画層3-1
  6
Continuous
100
AcDbLine
 10
21202.65547231349
 20
15184.6212939278
 30
0.0
 11
21202.65547231349
 21
14554.6212939278
 31
0.0
  0
LINE
  5
648
330
1F
100
AcDbEntity
  8
画層3-2
  6
Continuous
100
AcDbLine
 10
21162.70547231377
 20
14554.6212939278
 30
0.0
 11
21162.70547231377
 21
15184.6212939278
 31
0.0
  0
LINE
  5
649
330
1F
100
AcDbEntity
  8
画層3-2
  6
Continuous
100
AcDbLine
 10
23147.70547231377
 20
14539.62129392792
 30
0.0
 11
21308.40547231349
 21
14539.6212939278
 31
0.0
  0
LINE
  5
64A
330
1F
100
AcDbEntity
  8
画層3-2
  6
Continuous
100
AcDbLine
 10
21308.40547231349
 20
15199.6212939278
 30
0.0
 11
23147.70547231377
 21
15199.6212939278
 31
0.0
  0
LINE
  5
64B
330
1F
100
AcDbEntity
  8
画層3-2
  6
Continuous
100
AcDbLine
 10
26128.0554723134
 20
14539.6212939278
 30
0.0
 11
25308.40547231349
 21
14539.6212939278
 31
0.0
  0
LINE
  5
64C
330
1F
100
AcDbEntity
  8
画層3-2
  6
Continuous
100
AcDbLine
 10
25308.40547231349
 20
15199.6212939278
 30
0.0
 11
26128.0554723134
 21
15199.6212939278
 31
0.0
  0
DIMENSION
  5
64D
330
1F
100
AcDbEntity
  8
寸法
  6
Continuous
100
AcDbDimension
  2
*D12
 10
27628.05547231339
 20
13859.6212939278
 30
0.0
 11
27895.72203846319
 21
13502.72450745783
 31
0.0
 70
   160
 71
     5
 42
300.0
  3
1_100
100
AcDbAlignedDimension
 13
26628.05547231339
 23
13559.6212939278
 33
0.0
 14
26628.05547231339
 24
13859.6212939278
 34
0.0
 50
90.0
100
AcDbRotatedDimension
  0
DIMENSION
  5
64E
330
1F
100
AcDbEntity
  8
寸法
  6
Continuous
100
AcDbDimension
  2
*D13
 10
27628.05547231339
 20
11859.6212939278
 30
0.0
 11
27312.8464267505
 21
11348.88948793048
 31
0.0
 70
   160
 71
     5
 42
100.0
  3
1_100
100
AcDbAlignedDimension
 13
26628.05547231339
 23
11759.6212939278
 33
0.0
 14
26628.05547231339
 24
11859.6212939278
 34
0.0
 50
90.0
100
AcDbRotatedDimension
  0
DIMENSION
  5
64F
330
1F
100
AcDbEntity
  8
寸法
  6
Continuous
100
AcDbDimension
  2
*D14
 10
27628.05547231339
 20
13559.6212939278
 30
0.0
 11
27349.48404374196
 21
12709.6212939278
 31
0.0
 70
    32
 71
     5
 42
1700.0
  3
1_100
100
AcDbAlignedDimension
 13
26628.05547231339
 23
11859.6212939278
 33
0.0
 14
26628.05547231339
 24
13559.6212939278
 34
0.0
 50
90.0
100
AcDbRotatedDimension
  0
LINE
  5
650
330
1F
100
AcDbEntity
  8
画層3-1
  6
Continuous
100
AcDbLine
 10
25162.70547231377
 20
13937.72129392789
 30
0.0
 11
25293.40547231349
 21
13937.72129392789
 31
0.0
  0
LINE
  5
651
330
1F
100
AcDbEntity
  8
画層3-1
  6
Continuous
100
AcDbLine
 10
25202.65547231349
 20
13659.6212939278
 30
0.0
 11
25253.4554723133
 21
13659.6212939278
 31
0.0
  0
HATCH
  5
652
330
1F
100
AcDbEntity
  8
画層3-3
100
AcDbHatch
 10
0.0
 20
0.0
 30
0.0
210
0.0
220
0.0
230
1.0
  2
PLAST
 70
     0
 71
     0
 91
        1
 92
        7
 72
     0
 73
     1
 93
        4
 10
25353.05547231339
 20
13859.6212939278
 10
25103.0554723134
 20
13859.6212939278
 10
25103.0554723134
 20
13409.6212939278
 10
25353.05547231339
 20
13409.6212939278
 97
        0
 75
     0
 76
     1
 52
45.0
 41
1800.0
 77
     0
 78
     3
 53
45.0
 43
19085.7128165471
 44
7417.954277416601
 45
-318.1980515339463
 46
318.1980515339464
 79
     0
 53
45.0
 43
19045.93806010574
 44
7457.72903385831
 45
-318.1980515339463
 46
318.1980515339464
 79
     0
 53
45.0
 43
19006.16330366392
 44
7497.503790300133
 45
-318.1980515339463
 46
318.1980515339464
 79
     0
 47
2.4753793195157
 98
        1
 10
25341.94867007664
 20
13618.82874193557
  0
LWPOLYLINE
  5
653
330
1F
100
AcDbEntity
  8
画層3-2
100
AcDbPolyline
 90
        4
 70
     0
 43
0.0
 10
25353.05547231339
 20
13859.6212939278
 10
25353.05547231339
 20
13409.6212939278
 10
25103.0554723134
 20
13409.6212939278
 10
25103.0554723134
 20
13859.6212939278
  0
LINE
  5
654
330
1F
100
AcDbEntity
  8
画層3-1
  6
Continuous
100
AcDbLine
 10
25202.65547231349
 20
13879.62129392803
 30
0.0
 11
25202.65547231349
 21
13659.6212939278
 31
0.0
  0
LINE
  5
655
330
1F
100
AcDbEntity
  8
画層3-1
  6
Continuous
100
AcDbLine
 10
25253.4554723133
 20
13879.62129392768
 30
0.0
 11
25253.4554723133
 21
13659.6212939278
 31
0.0
  0
LINE
  5
656
330
1F
100
AcDbEntity
  8
画層3-1
  6
Continuous
100
AcDbLine
 10
23162.70547231377
 20
13937.72129392789
 30
0.0
 11
23293.40547231349
 21
13937.72129392789
 31
0.0
  0
LINE
  5
657
330
1F
100
AcDbEntity
  8
画層3-1
  6
Continuous
100
AcDbLine
 10
23202.65547231349
 20
13659.6212939278
 30
0.0
 11
23253.4554723133
 21
13659.6212939278
 31
0.0
  0
LINE
  5
658
330
1F
100
AcDbEntity
  8
画層3-1
  6
Continuous
100
AcDbLine
 10
23253.4554723133
 20
13879.62129392768
 30
0.0
 11
23253.4554723133
 21
13659.6212939278
 31
0.0
  0
LINE
  5
659
330
1F
100
AcDbEntity
  8
画層3-1
  6
Continuous
100
AcDbLine
 10
23202.65547231349
 20
13879.62129392803
 30
0.0
 11
23202.65547231349
 21
13659.6212939278
 31
0.0
  0
HATCH
  5
65A
330
1F
100
AcDbEntity
  8
画層3-3
100
AcDbHatch
 10
0.0
 20
0.0
 30
0.0
210
0.0
220
0.0
230
1.0
  2
PLAST
 70
     0
 71
     0
 91
        1
 92
        7
 72
     0
 73
     1
 93
        4
 10
23353.05547231339
 20
13859.6212939278
 10
23103.05547231339
 20
13859.6212939278
 10
23103.05547231339
 20
13409.6212939278
 10
23353.05547231339
 20
13409.6212939278
 97
        0
 75
     0
 76
     1
 52
45.0
 41
1800.0
 77
     0
 78
     3
 53
45.0
 43
17085.7128165471
 44
7417.954277416601
 45
-318.1980515339463
 46
318.1980515339464
 79
     0
 53
45.0
 43
17045.93806010574
 44
7457.72903385831
 45
-318.1980515339463
 46
318.1980515339464
 79
     0
 53
45.0
 43
17006.16330366392
 44
7497.503790300133
 45
-318.1980515339463
 46
318.1980515339464
 79
     0
 47
2.4753793195157
 98
        1
 10
23341.94867007664
 20
13618.82874193557
  0
LWPOLYLINE
  5
65B
330
1F
100
AcDbEntity
  8
画層3-2
100
AcDbPolyline
 90
        4
 70
     0
 43
0.0
 10
23353.05547231339
 20
13859.6212939278
 10
23353.05547231339
 20
13409.6212939278
 10
23103.05547231339
 20
13409.6212939278
 10
23103.05547231339
 20
13859.6212939278
  0
LINE
  5
65C
330
1F
100
AcDbEntity
  8
画層3-1
  6
Continuous
100
AcDbLine
 10
23253.4554723133
 20
13879.6212939278
 30
0.0
 11
25202.65547231349
 21
13879.6212939278
 31
0.0
  0
LINE
  5
65D
330
1F
100
AcDbEntity
  8
画層3-1
  6
Continuous
100
AcDbLine
 10
23253.4554723133
 20
13917.72129392789
 30
0.0
 11
25202.65547231349
 21
13917.72129392766
 31
0.0
  0
LINE
  5
65E
330
1F
100
AcDbEntity
  8
画層3-1
  6
Continuous
100
AcDbLine
 10
21162.70547231377
 20
13937.72129392789
 30
0.0
 11
21293.40547231349
 21
13937.72129392789
 31
0.0
  0
LINE
  5
65F
330
1F
100
AcDbEntity
  8
画層3-1
  6
Continuous
100
AcDbLine
 10
21202.65547231349
 20
13659.6212939278
 30
0.0
 11
21253.4554723133
 21
13659.6212939278
 31
0.0
  0
LINE
  5
660
330
1F
100
AcDbEntity
  8
画層3-1
  6
Continuous
100
AcDbLine
 10
21202.65547231349
 20
13879.62129392803
 30
0.0
 11
21202.65547231349
 21
13659.6212939278
 31
0.0
  0
LINE
  5
661
330
1F
100
AcDbEntity
  8
画層3-1
  6
Continuous
100
AcDbLine
 10
21253.4554723133
 20
13879.62129392768
 30
0.0
 11
21253.4554723133
 21
13659.6212939278
 31
0.0
  0
HATCH
  5
662
330
1F
100
AcDbEntity
  8
画層3-3
100
AcDbHatch
 10
0.0
 20
0.0
 30
0.0
210
0.0
220
0.0
230
1.0
  2
PLAST
 70
     0
 71
     0
 91
        1
 92
        7
 72
     0
 73
     1
 93
        4
 10
21353.0554723134
 20
13859.6212939278
 10
21103.0554723134
 20
13859.6212939278
 10
21103.0554723134
 20
13409.6212939278
 10
21353.0554723134
 20
13409.6212939278
 97
        0
 75
     0
 76
     1
 52
45.0
 41
1800.0
 77
     0
 78
     3
 53
45.0
 43
15085.7128165471
 44
7417.954277416601
 45
-318.1980515339463
 46
318.1980515339464
 79
     0
 53
45.0
 43
15045.93806010574
 44
7457.72903385831
 45
-318.1980515339463
 46
318.1980515339464
 79
     0
 53
45.0
 43
15006.16330366391
 44
7497.503790300133
 45
-318.1980515339463
 46
318.1980515339464
 79
     0
 47
2.4753793195157
 98
        1
 10
21341.94867007664
 20
13618.82874193557
  0
LWPOLYLINE
  5
663
330
1F
100
AcDbEntity
  8
画層3-2
100
AcDbPolyline
 90
        4
 70
     0
 43
0.0
 10
21353.0554723134
 20
13859.6212939278
 10
21353.0554723134
 20
13409.6212939278
 10
21103.0554723134
 20
13409.6212939278
 10
21103.0554723134
 20
13859.6212939278
  0
LINE
  5
664
330
1F
100
AcDbEntity
  8
画層3-1
  6
Continuous
100
AcDbLine
 10
21253.4554723133
 20
13879.6212939278
 30
0.0
 11
23202.65547231349
 21
13879.6212939278
 31
0.0
  0
LINE
  5
665
330
1F
100
AcDbEntity
  8
画層3-1
  6
Continuous
100
AcDbLine
 10
21253.4554723133
 20
13917.72129392778
 30
0.0
 11
23202.65547231349
 21
13917.72129392789
 31
0.0
  0
TEXT
  5
666
330
1F
100
AcDbEntity
  8
寸法
  6
Continuous
100
AcDbText
 10
22050.24945245913
 20
8903.982793679954
 30
0.0
 40
300.0
  1
10,000
 41
0.75
  7
1_100
 11
22050.24945245913
 21
8903.982793679954
 31
0.0
100
AcDbText
 73
     1
  0
DIMENSION
  5
667
330
1F
100
AcDbEntity
  8
寸法
  6
Continuous
100
AcDbDimension
  2
*D15
 10
25228.05547231339
 20
9559.621293927337
 30
0.0
 11
24228.0554723134
 21
9838.192722498769
 31
0.0
 70
    32
 71
     5
 42
2000.0
  3
1_100
100
AcDbAlignedDimension
 13
23228.0554723134
 23
10866.71532818515
 33
0.0
 14
25228.05547231339
 24
10889.62129392745
 34
0.0
100
AcDbRotatedDimension
  0
DIMENSION
  5
668
330
1F
100
AcDbEntity
  8
寸法
  6
Continuous
100
AcDbDimension
  2
*D16
 10
23228.0554723134
 20
9559.621293927337
 30
0.0
 11
22228.05547231339
 21
9838.192722498769
 31
0.0
 70
    32
 71
     5
 42
2000.0
  3
1_100
100
AcDbAlignedDimension
 13
21228.05547231339
 23
10866.71532818515
 33
0.0
 14
23228.0554723134
 24
10889.62129392745
 34
0.0
100
AcDbRotatedDimension
  0
LINE
  5
669
330
1F
100
AcDbEntity
  8
画層3-1
  6
Continuous
100
AcDbLine
 10
25253.45547231377
 20
13879.6212939278
 30
0.0
 11
26128.0554723134
 21
13879.6212939278
 31
0.0
  0
LINE
  5
66A
330
1F
100
AcDbEntity
  8
画層3-1
  6
Continuous
100
AcDbLine
 10
25253.4554723133
 20
13917.72129392778
 30
0.0
 11
26128.0554723134
 21
13917.72129392789
 31
0.0
  0
LINE
  5
66B
330
1F
100
AcDbEntity
  8
画層3-1
  6
Continuous
100
AcDbLine
 10
23202.65547231349
 20
14524.6212939278
 30
0.0
 11
23202.65547231349
 21
13917.72129392778
 31
0.0
  0
LINE
  5
66C
330
1F
100
AcDbEntity
  8
画層3-1
  6
Continuous
100
AcDbLine
 10
23253.4554723133
 20
14524.6212939278
 30
0.0
 11
23253.4554723133
 21
13917.72129392789
 31
0.0
  0
LINE
  5
66D
330
1F
100
AcDbEntity
  8
画層3-2
  6
Continuous
100
AcDbLine
 10
23293.40547231349
 20
14524.6212939278
 30
0.0
 11
23293.40547231349
 21
13859.6212939278
 31
0.0
  0
LINE
  5
66E
330
1F
100
AcDbEntity
  8
画層3-2
  6
Continuous
100
AcDbLine
 10
23162.70547231377
 20
13859.6212939278
 30
0.0
 11
23162.70547231377
 21
14524.6212939278
 31
0.0
  0
LINE
  5
66F
330
1F
100
AcDbEntity
  8
画層3-2
  6
Continuous
100
AcDbLine
 10
21293.40547231349
 20
14524.6212939278
 30
0.0
 11
21293.40547231349
 21
13859.6212939278
 31
0.0
  0
LINE
  5
670
330
1F
100
AcDbEntity
  8
画層3-1
  6
Continuous
100
AcDbLine
 10
21253.4554723133
 20
14524.6212939278
 30
0.0
 11
21253.4554723133
 21
13917.72129392789
 31
0.0
  0
LINE
  5
671
330
1F
100
AcDbEntity
  8
画層3-1
  6
Continuous
100
AcDbLine
 10
21202.65547231349
 20
14524.6212939278
 30
0.0
 11
21202.65547231349
 21
13917.72129392778
 31
0.0
  0
LINE
  5
672
330
1F
100
AcDbEntity
  8
画層3-2
  6
Continuous
100
AcDbLine
 10
21162.70547231377
 20
13859.6212939278
 30
0.0
 11
21162.70547231377
 21
14524.6212939278
 31
0.0
  0
LINE
  5
673
330
1F
100
AcDbEntity
  8
画層3-2
  6
Continuous
100
AcDbLine
 10
25162.70547231377
 20
13859.6212939278
 30
0.0
 11
25162.70547231377
 21
14524.6212939278
 31
0.0
  0
LINE
  5
674
330
1F
100
AcDbEntity
  8
画層3-2
  6
Continuous
100
AcDbLine
 10
25293.40547231349
 20
14524.6212939278
 30
0.0
 11
25293.40547231349
 21
13859.6212939278
 31
0.0
  0
LINE
  5
675
330
1F
100
AcDbEntity
  8
画層3-1
  6
Continuous
100
AcDbLine
 10
25253.4554723133
 20
14524.6212939278
 30
0.0
 11
25253.4554723133
 21
13917.72129392789
 31
0.0
  0
LINE
  5
676
330
1F
100
AcDbEntity
  8
画層3-1
  6
Continuous
100
AcDbLine
 10
25202.65547231349
 20
14524.6212939278
 30
0.0
 11
25202.65547231349
 21
13917.72129392778
 31
0.0
  0
DIMENSION
  5
677
330
1F
100
AcDbEntity
  8
寸法
  6
Continuous
100
AcDbDimension
  2
*D17
 10
28628.0554723134
 20
11859.6212939278
 30
0.0
 11
28349.48404374197
 21
12859.6212939278
 31
0.0
 70
    32
 71
     5
 42
2000.0
  3
1_100
100
AcDbAlignedDimension
 13
26628.05547231339
 23
13859.6212939278
 33
0.0
 14
26628.05547231339
 24
11859.6212939278
 34
0.0
 50
90.0
100
AcDbRotatedDimension
  0
MTEXT
  5
678
330
1F
100
AcDbEntity
  8
寸法文字
  6
Continuous
100
AcDbMText
 10
17204.51447870206
 20
14574.19754178301
 30
0.0
 40
300.0
 41
0.0
 71
     8
 72
     1
  1
カラーハガネ線
  7
1_100
 73
     1
 44
1.0
1001
ACAD
1000
MTEXTBEGIN
1070
    73
1070
     1
1070
    44
1040
1.0
1070
    74
1070
     0
1000
MTEXTEND
  0
LINE
  5
679
330
1F
100
AcDbEntity
  8
画層3-2
  6
Continuous
100
AcDbLine
 10
15308.40547231348
 20
15199.6212939278
 30
0.0
 11
17147.70547231377
 21
15199.6212939278
 31
0.0
  0
LINE
  5
67A
330
1F
100
AcDbEntity
  8
画層3-1
  6
Continuous
100
AcDbLine
 10
15253.4554723133
 20
13917.72129392789
 30
0.0
 11
17202.65547231349
 21
13917.72129392766
 31
0.0
  0
LINE
  5
67B
330
1F
100
AcDbEntity
  8
画層3-1
  6
Continuous
100
AcDbLine
 10
15253.4554723133
 20
13879.6212939278
 30
0.0
 11
17202.65547231349
 21
13879.6212939278
 31
0.0
  0
DIMENSION
  5
67C
330
1F
100
AcDbEntity
  8
寸法
  6
Continuous
100
AcDbDimension
  2
*D18
 10
17228.05547231339
 20
9559.621293927337
 30
0.0
 11
16228.05547231339
 21
9838.192722498769
 31
0.0
 70
    32
 71
     5
 42
2000.000000000002
  3
1_100
100
AcDbAlignedDimension
 13
15228.05547231339
 23
10866.71532818515
 33
0.0
 14
17228.05547231339
 24
10866.71532818515
 34
0.0
100
AcDbRotatedDimension
  0
LINE
  5
67D
330
1F
100
AcDbEntity
  8
画層3-1
  6
Continuous
100
AcDbLine
 10
15308.40547231348
 20
15214.6212939278
 30
0.0
 11
15147.70547231376
 21
15214.6212939278
 31
0.0
  0
LINE
  5
67E
330
1F
100
AcDbEntity
  8
画層3-1
  6
Continuous
100
AcDbLine
 10
15308.40547231348
 20
15184.6212939278
 30
0.0
 11
15308.40547231348
 21
15214.6212939278
 31
0.0
  0
LINE
  5
67F
330
1F
100
AcDbEntity
  8
画層3-1
  6
Continuous
100
AcDbLine
 10
15147.70547231376
 20
15184.6212939278
 30
0.0
 11
15308.40547231348
 21
15184.6212939278
 31
0.0
  0
LINE
  5
680
330
1F
100
AcDbEntity
  8
画層3-1
  6
Continuous
100
AcDbLine
 10
15147.70547231376
 20
15214.6212939278
 30
0.0
 11
15147.70547231376
 21
15184.6212939278
 31
0.0
  0
LINE
  5
681
330
1F
100
AcDbEntity
  8
画層3-1
  6
Continuous
100
AcDbLine
 10
15308.40547231348
 20
14554.6212939278
 30
0.0
 11
15147.70547231376
 21
14554.6212939278
 31
0.0
  0
LINE
  5
682
330
1F
100
AcDbEntity
  8
画層3-1
  6
Continuous
100
AcDbLine
 10
15308.40547231348
 20
14524.6212939278
 30
0.0
 11
15308.40547231348
 21
14554.6212939278
 31
0.0
  0
LINE
  5
683
330
1F
100
AcDbEntity
  8
画層3-1
  6
Continuous
100
AcDbLine
 10
15147.70547231376
 20
14524.6212939278
 30
0.0
 11
15308.40547231348
 21
14524.6212939278
 31
0.0
  0
LINE
  5
684
330
1F
100
AcDbEntity
  8
画層3-1
  6
Continuous
100
AcDbLine
 10
15147.70547231376
 20
14554.6212939278
 30
0.0
 11
15147.70547231376
 21
14524.6212939278
 31
0.0
  0
LINE
  5
685
330
1F
100
AcDbEntity
  8
画層3-1
  6
Continuous
100
AcDbLine
 10
15253.4554723133
 20
15184.6212939278
 30
0.0
 11
15253.4554723133
 21
14554.6212939278
 31
0.0
  0
LINE
  5
686
330
1F
100
AcDbEntity
  8
画層3-2
  6
Continuous
100
AcDbLine
 10
15162.70547231376
 20
14554.6212939278
 30
0.0
 11
15162.70547231376
 21
15184.6212939278
 31
0.0
  0
LINE
  5
687
330
1F
100
AcDbEntity
  8
画層3-2
  6
Continuous
100
AcDbLine
 10
15293.40547231348
 20
15184.6212939278
 30
0.0
 11
15293.40547231348
 21
14554.6212939278
 31
0.0
  0
LINE
  5
688
330
1F
100
AcDbEntity
  8
画層3-1
  6
Continuous
100
AcDbLine
 10
15202.65547231348
 20
15184.6212939278
 30
0.0
 11
15202.65547231348
 21
14554.6212939278
 31
0.0
  0
LINE
  5
689
330
1F
100
AcDbEntity
  8
画層3-2
  6
Continuous
100
AcDbLine
 10
15964.91277416885
 20
14539.6212939278
 30
0.0
 11
15308.40547231348
 21
14539.6212939278
 31
0.0
  0
LINE
  5
68A
330
1F
100
AcDbEntity
  8
画層3-1
  6
Continuous
100
AcDbLine
 10
15162.70547231376
 20
13937.72129392789
 30
0.0
 11
15293.40547231348
 21
13937.72129392789
 31
0.0
  0
LINE
  5
68B
330
1F
100
AcDbEntity
  8
画層3-1
  6
Continuous
100
AcDbLine
 10
15202.65547231348
 20
13659.6212939278
 30
0.0
 11
15253.4554723133
 21
13659.6212939278
 31
0.0
  0
LINE
  5
68C
330
1F
100
AcDbEntity
  8
画層3-1
  6
Continuous
100
AcDbLine
 10
15253.4554723133
 20
13879.62129392768
 30
0.0
 11
15253.4554723133
 21
13659.6212939278
 31
0.0
  0
LINE
  5
68D
330
1F
100
AcDbEntity
  8
画層3-1
  6
Continuous
100
AcDbLine
 10
15202.65547231348
 20
13879.62129392803
 30
0.0
 11
15202.65547231348
 21
13659.6212939278
 31
0.0
  0
HATCH
  5
68E
330
1F
100
AcDbEntity
  8
画層3-3
100
AcDbHatch
 10
0.0
 20
0.0
 30
0.0
210
0.0
220
0.0
230
1.0
  2
PLAST
 70
     0
 71
     0
 91
        1
 92
        7
 72
     0
 73
     1
 93
        4
 10
15353.05547231339
 20
13859.6212939278
 10
15103.05547231339
 20
13859.6212939278
 10
15103.05547231339
 20
13409.6212939278
 10
15353.05547231339
 20
13409.6212939278
 97
        0
 75
     0
 76
     1
 52
45.0
 41
1800.0
 77
     0
 78
     3
 53
45.0
 43
9085.712816547102
 44
7417.954277416601
 45
-318.1980515339463
 46
318.1980515339464
 79
     0
 53
45.0
 43
9045.938060105743
 44
7457.72903385831
 45
-318.1980515339463
 46
318.1980515339464
 79
     0
 53
45.0
 43
9006.163303663917
 44
7497.503790300133
 45
-318.1980515339463
 46
318.1980515339464
 79
     0
 47
2.4753793195157
 98
        1
 10
15341.94867007663
 20
13618.82874193557
  0
LWPOLYLINE
  5
68F
330
1F
100
AcDbEntity
  8
画層3-2
100
AcDbPolyline
 90
        4
 70
     0
 43
0.0
 10
15353.05547231339
 20
13859.6212939278
 10
15353.05547231339
 20
13409.6212939278
 10
15103.05547231339
 20
13409.6212939278
 10
15103.05547231339
 20
13859.6212939278
  0
LINE
  5
690
330
1F
100
AcDbEntity
  8
画層3-1
  6
Continuous
100
AcDbLine
 10
15253.4554723133
 20
14524.6212939278
 30
0.0
 11
15253.4554723133
 21
13917.72129392789
 31
0.0
  0
LINE
  5
691
330
1F
100
AcDbEntity
  8
画層3-2
  6
Continuous
100
AcDbLine
 10
15162.70547231376
 20
13859.6212939278
 30
0.0
 11
15162.70547231376
 21
14524.6212939278
 31
0.0
  0
LINE
  5
692
330
1F
100
AcDbEntity
  8
画層3-2
  6
Continuous
100
AcDbLine
 10
15293.40547231348
 20
14524.6212939278
 30
0.0
 11
15293.40547231348
 21
13859.6212939278
 31
0.0
  0
LINE
  5
693
330
1F
100
AcDbEntity
  8
画層3-1
  6
Continuous
100
AcDbLine
 10
15202.65547231348
 20
14524.6212939278
 30
0.0
 11
15202.65547231348
 21
13917.72129392778
 31
0.0
  0
LINE
  5
694
330
1F
100
AcDbEntity
  8
画層3-1
  6
Continuous
100
AcDbLine
 10
19147.70547231377
 20
15214.6212939278
 30
0.0
 11
19147.70547231377
 21
15184.6212939278
 31
0.0
  0
LINE
  5
695
330
1F
100
AcDbEntity
  8
画層3-1
  6
Continuous
100
AcDbLine
 10
19147.70547231377
 20
15184.6212939278
 30
0.0
 11
19308.40547231349
 21
15184.6212939278
 31
0.0
  0
LINE
  5
696
330
1F
100
AcDbEntity
  8
画層3-1
  6
Continuous
100
AcDbLine
 10
19308.40547231349
 20
15184.6212939278
 30
0.0
 11
19308.40547231349
 21
15214.6212939278
 31
0.0
  0
LINE
  5
697
330
1F
100
AcDbEntity
  8
画層3-1
  6
Continuous
100
AcDbLine
 10
19308.40547231349
 20
15214.6212939278
 30
0.0
 11
19147.70547231377
 21
15214.6212939278
 31
0.0
  0
LINE
  5
698
330
1F
100
AcDbEntity
  8
画層3-1
  6
Continuous
100
AcDbLine
 10
19147.70547231377
 20
14554.6212939278
 30
0.0
 11
19147.70547231377
 21
14524.6212939278
 31
0.0
  0
LINE
  5
699
330
1F
100
AcDbEntity
  8
画層3-1
  6
Continuous
100
AcDbLine
 10
19147.70547231377
 20
14524.6212939278
 30
0.0
 11
19308.40547231349
 21
14524.6212939278
 31
0.0
  0
LINE
  5
69A
330
1F
100
AcDbEntity
  8
画層3-1
  6
Continuous
100
AcDbLine
 10
19308.40547231349
 20
14524.6212939278
 30
0.0
 11
19308.40547231349
 21
14554.6212939278
 31
0.0
  0
LINE
  5
69B
330
1F
100
AcDbEntity
  8
画層3-1
  6
Continuous
100
AcDbLine
 10
19308.40547231349
 20
14554.6212939278
 30
0.0
 11
19147.70547231377
 21
14554.6212939278
 31
0.0
  0
LINE
  5
69C
330
1F
100
AcDbEntity
  8
画層3-1
  6
Continuous
100
AcDbLine
 10
19202.65547231348
 20
15184.6212939278
 30
0.0
 11
19202.65547231348
 21
14554.6212939278
 31
0.0
  0
LINE
  5
69D
330
1F
100
AcDbEntity
  8
画層3-2
  6
Continuous
100
AcDbLine
 10
19293.40547231348
 20
15184.6212939278
 30
0.0
 11
19293.40547231348
 21
14554.6212939278
 31
0.0
  0
LINE
  5
69E
330
1F
100
AcDbEntity
  8
画層3-2
  6
Continuous
100
AcDbLine
 10
19162.70547231377
 20
14554.6212939278
 30
0.0
 11
19162.70547231377
 21
15184.6212939278
 31
0.0
  0
LINE
  5
69F
330
1F
100
AcDbEntity
  8
画層3-1
  6
Continuous
100
AcDbLine
 10
19253.4554723133
 20
15184.6212939278
 30
0.0
 11
19253.4554723133
 21
14554.6212939278
 31
0.0
  0
LINE
  5
6A0
330
1F
100
AcDbEntity
  8
画層2-1
  6
Continuous
100
AcDbLine
 10
19132.7054723133
 20
13959.6212939278
 30
0.0
 11
19323.40547231349
 21
13959.6212939278
 31
0.0
  0
LINE
  5
6A1
330
1F
100
AcDbEntity
  8
画層3-1
  6
Continuous
100
AcDbLine
 10
19162.70547231377
 20
13937.72129392789
 30
0.0
 11
19293.40547231348
 21
13937.72129392789
 31
0.0
  0
LINE
  5
6A2
330
1F
100
AcDbEntity
  8
画層2-1
  6
Continuous
100
AcDbLine
 10
19132.7054723133
 20
13709.6212939278
 30
0.0
 11
19323.40547231349
 21
13709.6212939278
 31
0.0
  0
LINE
  5
6A3
330
1F
100
AcDbEntity
  8
画層3-1
  6
Continuous
100
AcDbLine
 10
19202.65547231348
 20
13659.6212939278
 30
0.0
 11
19253.4554723133
 21
13659.6212939278
 31
0.0
  0
LWPOLYLINE
  5
6A4
330
1F
100
AcDbEntity
  8
画層2
100
AcDbPolyline
 90
        3
 70
     0
 43
0.0
 10
19478.05547231339
 20
13859.62129392827
 10
19478.05547231339
 20
13559.62129392827
 10
19453.05547231339
 20
13559.62129392815
  0
LINE
  5
6A5
330
1F
100
AcDbEntity
  8
画層3-1
  6
Continuous
100
AcDbLine
 10
19202.65547231348
 20
13879.62129392803
 30
0.0
 11
19202.65547231348
 21
13659.6212939278
 31
0.0
  0
LINE
  5
6A6
330
1F
100
AcDbEntity
  8
画層3-1
  6
Continuous
100
AcDbLine
 10
19253.4554723133
 20
13879.62129392768
 30
0.0
 11
19253.4554723133
 21
13659.6212939278
 31
0.0
  0
LINE
  5
6A7
330
1F
100
AcDbEntity
  8
ﾊｯﾁﾝｸﾞ
  6
Continuous
100
AcDbLine
 10
19291.8798814667
 20
11859.6212939278
 30
0.0
 11
19307.98701477373
 21
11837.77821829953
 31
0.0
  0
LINE
  5
6A8
330
1F
100
AcDbEntity
  8
ﾊｯﾁﾝｸﾞ
  6
Continuous
100
AcDbLine
 10
19118.67480070979
 20
11859.6212939278
 30
0.0
 11
19134.78193401681
 21
11837.77821829953
 31
0.0
  0
LINE
  5
6A9
330
1F
100
AcDbEntity
  8
ﾊｯﾁﾝｸﾞ
  6
Continuous
100
AcDbLine
 10
19205.27734108825
 20
11859.6212939278
 30
0.0
 11
19221.38447439527
 21
11837.77821829953
 31
0.0
  0
LINE
  5
6AA
330
1F
100
AcDbEntity
  8
ﾊｯﾁﾝｸﾞ
  6
Continuous
100
AcDbLine
 10
19378.48242184515
 20
11859.6212939278
 30
0.0
 11
19394.58955515219
 21
11837.77821829953
 31
0.0
  0
LINE
  5
6AB
330
1F
100
AcDbEntity
  8
ﾊｯﾁﾝｸﾞ
  6
Continuous
100
AcDbLine
 10
19436.06817420569
 20
11759.6212939278
 30
0.0
 11
19453.05547231339
 21
11789.04415733381
 31
0.0
  0
LINE
  5
6AC
330
1F
100
AcDbEntity
  8
ﾊｯﾁﾝｸﾞ
  6
Continuous
100
AcDbLine
 10
19448.90645806534
 20
11781.85785385457
 30
0.0
 11
19453.05547231339
 21
11774.6715503752
 31
0.0
  0
LINE
  5
6AD
330
1F
100
AcDbEntity
  8
ﾊｯﾁﾝｸﾞ
  6
Continuous
100
AcDbLine
 10
19102.49629655151
 20
11781.85785385457
 30
0.0
 11
19115.3345804107
 21
11759.6212939278
 31
0.0
  0
LINE
  5
6AE
330
1F
100
AcDbEntity
  8
ﾊｯﾁﾝｸﾞ
  6
Continuous
100
AcDbLine
 10
19275.70137730843
 20
11781.85785385457
 30
0.0
 11
19288.53966116762
 21
11759.6212939278
 31
0.0
  0
LINE
  5
6AF
330
1F
100
AcDbEntity
  8
ﾊｯﾁﾝｸﾞ
  6
Continuous
100
AcDbLine
 10
19189.09883692997
 20
11781.85785385457
 30
0.0
 11
19201.93712078916
 21
11759.6212939278
 31
0.0
  0
LINE
  5
6B0
330
1F
100
AcDbEntity
  8
ﾊｯﾁﾝｸﾞ
  6
Continuous
100
AcDbLine
 10
19362.30391768689
 20
11781.85785385457
 30
0.0
 11
19375.14220154608
 21
11759.6212939278
 31
0.0
  0
LINE
  5
6B1
330
1F
100
AcDbEntity
  8
ﾊｯﾁﾝｸﾞ
  6
Continuous
100
AcDbLine
 10
19089.65801269185
 20
11759.6212939278
 30
0.0
 11
19147.39303961067
 21
11859.6212939278
 31
0.0
  0
LINE
  5
6B2
330
1F
100
AcDbEntity
  8
ﾊｯﾁﾝｸﾞ
  6
Continuous
100
AcDbLine
 10
19176.26055307031
 20
11759.6212939278
 30
0.0
 11
19233.99557998913
 21
11859.6212939278
 31
0.0
  0
LINE
  5
6B3
330
1F
100
AcDbEntity
  8
ﾊｯﾁﾝｸﾞ
  6
Continuous
100
AcDbLine
 10
19262.86309344877
 20
11759.6212939278
 30
0.0
 11
19320.59812036759
 21
11859.6212939278
 31
0.0
  0
LINE
  5
6B4
330
1F
100
AcDbEntity
  8
ﾊｯﾁﾝｸﾞ
  6
Continuous
100
AcDbLine
 10
19349.46563382723
 20
11759.6212939278
 30
0.0
 11
19407.20066074604
 21
11859.6212939278
 31
0.0
  0
LINE
  5
6B5
330
1F
100
AcDbEntity
  8
画層3-1
  6
Continuous
100
AcDbLine
 10
19202.65547231348
 20
14524.6212939278
 30
0.0
 11
19202.65547231348
 21
13917.72129392778
 31
0.0
  0
LINE
  5
6B6
330
1F
100
AcDbEntity
  8
画層3-2
  6
Continuous
100
AcDbLine
 10
19293.40547231348
 20
14524.6212939278
 30
0.0
 11
19293.40547231348
 21
13859.6212939278
 31
0.0
  0
LINE
  5
6B7
330
1F
100
AcDbEntity
  8
画層3-2
  6
Continuous
100
AcDbLine
 10
19162.70547231377
 20
13859.6212939278
 30
0.0
 11
19162.70547231377
 21
14524.6212939278
 31
0.0
  0
LINE
  5
6B8
330
1F
100
AcDbEntity
  8
画層3-1
  6
Continuous
100
AcDbLine
 10
19253.4554723133
 20
14524.6212939278
 30
0.0
 11
19253.4554723133
 21
13917.72129392789
 31
0.0
  0
LINE
  5
6B9
330
1F
100
AcDbEntity
  8
画層3-1
  6
Continuous
100
AcDbLine
 10
17147.70547231377
 20
15214.6212939278
 30
0.0
 11
17147.70547231377
 21
15184.6212939278
 31
0.0
  0
LINE
  5
6BA
330
1F
100
AcDbEntity
  8
画層3-1
  6
Continuous
100
AcDbLine
 10
17308.40547231349
 20
15214.6212939278
 30
0.0
 11
17147.70547231377
 21
15214.6212939278
 31
0.0
  0
LINE
  5
6BB
330
1F
100
AcDbEntity
  8
画層3-1
  6
Continuous
100
AcDbLine
 10
17147.70547231377
 20
15184.6212939278
 30
0.0
 11
17308.40547231349
 21
15184.6212939278
 31
0.0
  0
LINE
  5
6BC
330
1F
100
AcDbEntity
  8
画層3-1
  6
Continuous
100
AcDbLine
 10
17202.65547231349
 20
15184.6212939278
 30
0.0
 11
17202.65547231349
 21
15008.71322918919
 31
0.0
  0
LINE
  5
6BD
330
1F
100
AcDbEntity
  8
画層3-1
  6
Continuous
100
AcDbLine
 10
17308.40547231349
 20
15184.6212939278
 30
0.0
 11
17308.40547231349
 21
15214.6212939278
 31
0.0
  0
LINE
  5
6BE
330
1F
100
AcDbEntity
  8
画層3-1
  6
Continuous
100
AcDbLine
 10
17253.4554723133
 20
15184.6212939278
 30
0.0
 11
17253.4554723133
 21
15008.71322918919
 31
0.0
  0
LINE
  5
6BF
330
1F
100
AcDbEntity
  8
画層3-2
  6
Continuous
100
AcDbLine
 10
17293.40547231348
 20
15184.6212939278
 30
0.0
 11
17293.40547231348
 21
15008.71322918919
 31
0.0
  0
LINE
  5
6C0
330
1F
100
AcDbEntity
  8
画層3-2
  6
Continuous
100
AcDbLine
 10
17162.70547231376
 20
15008.71322918919
 30
0.0
 11
17162.70547231376
 21
15184.6212939278
 31
0.0
  0
LWPOLYLINE
  5
6C1
330
1F
100
AcDbEntity
  8
画層2
100
AcDbPolyline
 90
        3
 70
     0
 43
0.0
 10
19003.05547231339
 20
13559.62129392827
 10
18978.05547231339
 20
13559.62129392827
 10
18978.05547231339
 20
13859.62129392827
  0
LINE
  5
6C2
330
1F
100
AcDbEntity
  8
画層3-1
  6
Continuous
100
AcDbLine
 10
17162.70547231376
 20
13937.72129392789
 30
0.0
 11
17293.40547231348
 21
13937.72129392789
 31
0.0
  0
LINE
  5
6C3
330
1F
100
AcDbEntity
  8
画層3-2
  6
Continuous
100
AcDbLine
 10
17162.70547231376
 20
13859.6212939278
 30
0.0
 11
17162.70547231376
 21
14071.38787917085
 31
0.0
  0
LINE
  5
6C4
330
1F
100
AcDbEntity
  8
画層3-1
  6
Continuous
100
AcDbLine
 10
17202.65547231349
 20
14071.38787917085
 30
0.0
 11
17202.65547231349
 21
13917.72129392778
 31
0.0
  0
LINE
  5
6C5
330
1F
100
AcDbEntity
  8
画層3-1
  6
Continuous
100
AcDbLine
 10
17253.4554723133
 20
14071.38787917085
 30
0.0
 11
17253.4554723133
 21
13917.72129392789
 31
0.0
  0
LINE
  5
6C6
330
1F
100
AcDbEntity
  8
画層3-2
  6
Continuous
100
AcDbLine
 10
17293.40547231348
 20
14071.38787917085
 30
0.0
 11
17293.40547231348
 21
13859.6212939278
 31
0.0
  0
LINE
  5
6C7
330
1F
100
AcDbEntity
  8
画層3-1
  6
Continuous
100
AcDbLine
 10
17202.65547231349
 20
13659.6212939278
 30
0.0
 11
17253.4554723133
 21
13659.6212939278
 31
0.0
  0
LINE
  5
6C8
330
1F
100
AcDbEntity
  8
画層3-1
  6
Continuous
100
AcDbLine
 10
17253.4554723133
 20
13879.62129392768
 30
0.0
 11
17253.4554723133
 21
13659.6212939278
 31
0.0
  0
LINE
  5
6C9
330
1F
100
AcDbEntity
  8
画層3-1
  6
Continuous
100
AcDbLine
 10
17202.65547231349
 20
13879.62129392803
 30
0.0
 11
17202.65547231349
 21
13659.6212939278
 31
0.0
  0
HATCH
  5
6CA
330
1F
100
AcDbEntity
  8
画層3-3
100
AcDbHatch
 10
0.0
 20
0.0
 30
0.0
210
0.0
220
0.0
230
1.0
  2
PLAST
 70
     0
 71
     0
 91
        1
 92
        7
 72
     0
 73
     1
 93
        4
 10
17353.05547231339
 20
13859.6212939278
 10
17103.05547231339
 20
13859.6212939278
 10
17103.05547231339
 20
13409.6212939278
 10
17353.05547231339
 20
13409.6212939278
 97
        0
 75
     0
 76
     1
 52
45.0
 41
1800.0
 77
     0
 78
     3
 53
45.0
 43
11085.7128165471
 44
7417.954277416601
 45
-318.1980515339463
 46
318.1980515339464
 79
     0
 53
45.0
 43
11045.93806010574
 44
7457.72903385831
 45
-318.1980515339463
 46
318.1980515339464
 79
     0
 53
45.0
 43
11006.16330366392
 44
7497.503790300133
 45
-318.1980515339463
 46
318.1980515339464
 79
     0
 47
2.4753793195157
 98
        1
 10
17341.94867007664
 20
13618.82874193557
  0
LWPOLYLINE
  5
6CB
330
1F
100
AcDbEntity
  8
画層3-2
100
AcDbPolyline
 90
        4
 70
     0
 43
0.0
 10
17353.05547231339
 20
13859.6212939278
 10
17353.05547231339
 20
13409.6212939278
 10
17103.05547231339
 20
13409.6212939278
 10
17103.05547231339
 20
13859.6212939278
  0
LINE
  5
6CC
330
1F
100
AcDbEntity
  8
画層3-通り芯
  6
DASHDOT
 48
100.0
100
AcDbLine
 10
17228.05547231339
 20
13313.25173879604
 30
0.0
 11
17228.05547231339
 21
14071.38787917085
 31
0.0
  0
LINE
  5
6CD
330
1F
100
AcDbEntity
  8
ﾊｯﾁﾝｸﾞ
  6
Continuous
100
AcDbLine
 10
19015.89375617305
 20
11781.85785385457
 30
0.0
 11
19028.73204003224
 21
11759.6212939278
 31
0.0
  0
MTEXT
  5
6CE
330
1F
100
AcDbEntity
  8
寸法文字
  6
Continuous
100
AcDbMText
 10
17131.45904999595
 20
14171.01612842505
 30
0.0
 40
300.0
 41
0.0
 71
     8
 72
     1
  1
φ2.6×40mm目
  7
1_100
 73
     1
 44
1.0
1001
ACAD
1000
MTEXTBEGIN
1070
    73
1070
     1
1070
    44
1040
1.0
1070
    74
1070
     0
1000
MTEXTEND
  0
LINE
  5
6CF
330
1F
100
AcDbEntity
  8
画層3-2
  6
Continuous
100
AcDbLine
 10
19147.70547231377
 20
14539.6212939278
 30
0.0
 11
18428.4582481505
 21
14539.6212939278
 31
0.0
  0
LINE
  5
6D0
330
1F
100
AcDbEntity
  8
画層3-2
  6
Continuous
100
AcDbLine
 10
17308.40547231349
 20
15199.6212939278
 30
0.0
 11
19147.70547231377
 21
15199.6212939278
 31
0.0
  0
LINE
  5
6D1
330
1F
100
AcDbEntity
  8
画層2
  6
Continuous
100
AcDbLine
 10
19453.05547231339
 20
11859.6212939278
 30
0.0
 11
19003.05547231339
 21
11859.6212939278
 31
0.0
  0
LINE
  5
6D2
330
1F
100
AcDbEntity
  8
ﾊｯﾁﾝｸﾞ
  6
Continuous
100
AcDbLine
 10
19032.07226033133
 20
11859.6212939278
 30
0.0
 11
19048.17939363836
 21
11837.77821829953
 31
0.0
  0
LINE
  5
6D3
330
1F
100
AcDbEntity
  8
ﾊｯﾁﾝｸﾞ
  6
Continuous
100
AcDbLine
 10
19003.05547231339
 20
11759.6212939278
 30
0.0
 11
19060.79049923221
 21
11859.6212939278
 31
0.0
  0
LWPOLYLINE
  5
6D4
330
1F
100
AcDbEntity
  8
画層2
100
AcDbPolyline
 90
        4
 70
     0
 43
0.0
 10
19453.05547231339
 20
13559.62129392815
 10
19453.05547231339
 20
11759.62129392768
 10
19003.05547231339
 20
11759.62129392768
 10
19003.05547231339
 20
13559.62129392827
  0
LINE
  5
6D5
330
1F
100
AcDbEntity
  8
画層3-2
  6
Continuous
100
AcDbLine
 10
19147.70547231377
 20
14539.6212939278
 30
0.0
 11
18428.4582481505
 21
14539.6212939278
 31
0.0
  0
LINE
  5
6D6
330
1F
100
AcDbEntity
  8
画層3-1
  6
Continuous
100
AcDbLine
 10
17253.4554723133
 20
13917.72129392789
 30
0.0
 11
19202.65547231348
 21
13917.72129392778
 31
0.0
  0
LINE
  5
6D7
330
1F
100
AcDbEntity
  8
画層3-2
  6
Continuous
100
AcDbLine
 10
17308.40547231349
 20
15199.6212939278
 30
0.0
 11
19147.70547231377
 21
15199.6212939278
 31
0.0
  0
LINE
  5
6D8
330
1F
100
AcDbEntity
  8
画層3-1
  6
Continuous
100
AcDbLine
 10
17253.4554723133
 20
13879.6212939278
 30
0.0
 11
19202.65547231348
 21
13879.6212939278
 31
0.0
  0
DIMENSION
  5
6D9
330
1F
100
AcDbEntity
  8
寸法
  6
Continuous
100
AcDbDimension
  2
*D19
 10
19228.05547231339
 20
9559.621293927337
 30
0.0
 11
18228.05547231339
 21
9838.192722498769
 31
0.0
 70
    32
 71
     5
 42
2000.0
  3
1_100
100
AcDbAlignedDimension
 13
17228.05547231339
 23
10866.71532818515
 33
0.0
 14
19228.05547231339
 24
10866.71532818515
 34
0.0
100
AcDbRotatedDimension
  0
LINE
  5
6DA
330
1F
100
AcDbEntity
  8
ﾊｯﾁﾝｸﾞ
  6
Continuous
100
AcDbLine
 10
18855.47811463844
 20
13767.95103240074
 30
0.0
 11
18827.14837616585
 21
13739.62129392768
 31
0.0
  0
LINE
  5
6DB
330
1F
100
AcDbEntity
  8
ﾊｯﾁﾝｸﾞ
  6
Continuous
100
AcDbLine
 10
18843.00381260408
 20
13859.6212939278
 30
0.0
 11
18963.00381260502
 21
13739.62129392768
 31
0.0
  0
LINE
  5
6DC
330
1F
100
AcDbEntity
  8
ﾊｯﾁﾝｸﾞ
  6
Continuous
100
AcDbLine
 10
18922.1997720976
 20
13859.62129392768
 30
0.0
 11
18978.05547231339
 21
13803.76559371213
 31
0.0
  0
LINE
  5
6DD
330
1F
100
AcDbEntity
  8
ﾊｯﾁﾝｸﾞ
  6
Continuous
100
AcDbLine
 10
18538.69427666623
 20
13847.14699189367
 30
0.0
 11
18484.93142768318
 21
13793.38414291062
 31
0.0
  0
LINE
  5
6DE
330
1F
100
AcDbEntity
  8
ﾊｯﾁﾝｸﾞ
  6
Continuous
100
AcDbLine
 10
18526.21997463187
 20
13859.6212939278
 30
0.0
 11
18646.21997463281
 21
13739.6212939278
 31
0.0
  0
LINE
  5
6DF
330
1F
100
AcDbEntity
  8
ﾊｯﾁﾝｸﾞ
  6
Continuous
100
AcDbLine
 10
18605.41593412493
 20
13859.6212939278
 30
0.0
 11
18697.08619565234
 21
13767.95103240062
 31
0.0
  0
LINE
  5
6E0
330
1F
100
AcDbEntity
  8
ﾊｯﾁﾝｸﾞ
  6
Continuous
100
AcDbLine
 10
18684.61189361798
 20
13859.6212939278
 30
0.0
 11
18736.6841753991
 21
13807.54901214715
 31
0.0
  0
LINE
  5
6E1
330
1F
100
AcDbEntity
  8
ﾊｯﾁﾝｸﾞ
  6
Continuous
100
AcDbLine
 10
18578.29225641253
 20
13807.54901214715
 30
0.0
 11
18510.36453819318
 21
13739.6212939278
 31
0.0
  0
LINE
  5
6E2
330
1F
100
AcDbEntity
  8
ﾊｯﾁﾝｸﾞ
  6
Continuous
100
AcDbLine
 10
18617.89023615929
 20
13767.95103240074
 30
0.0
 11
18589.56049768623
 21
13739.62129392768
 31
0.0
  0
LINE
  5
6E3
330
1F
100
AcDbEntity
  8
ﾊｯﾁﾝｸﾞ
  6
Continuous
100
AcDbLine
 10
18776.28215514539
 20
13847.14699189367
 30
0.0
 11
18668.75645717975
 21
13739.6212939278
 31
0.0
  0
LINE
  5
6E4
330
1F
100
AcDbEntity
  8
ﾊｯﾁﾝｸﾞ
  6
Continuous
100
AcDbLine
 10
18815.88013489168
 20
13807.54901214715
 30
0.0
 11
18747.95241667234
 21
13739.6212939278
 31
0.0
  0
LINE
  5
6E5
330
1F
100
AcDbEntity
  8
ﾊｯﾁﾝｸﾞ
  6
Continuous
100
AcDbLine
 10
18763.80785311103
 20
13859.6212939278
 30
0.0
 11
18883.80785311196
 21
13739.62129392768
 31
0.0
  0
LINE
  5
6E6
330
1F
100
AcDbEntity
  8
ﾊｯﾁﾝｸﾞ
  6
Continuous
100
AcDbLine
 10
19838.2207084675
 20
13767.95103240074
 30
0.0
 11
19866.55044694009
 21
13739.62129392768
 31
0.0
  0
LINE
  5
6E7
330
1F
100
AcDbEntity
  8
ﾊｯﾁﾝｸﾞ
  6
Continuous
100
AcDbLine
 10
19877.81868821379
 20
13807.54901214715
 30
0.0
 11
19945.7464064336
 21
13739.6212939278
 31
0.0
  0
LINE
  5
6E8
330
1F
100
AcDbEntity
  8
ﾊｯﾁﾝｸﾞ
  6
Continuous
100
AcDbLine
 10
19850.69501050186
 20
13859.6212939278
 30
0.0
 11
19759.02474897398
 21
13767.95103240074
 31
0.0
  0
LINE
  5
6E9
330
1F
100
AcDbEntity
  8
ﾊｯﾁﾝｸﾞ
  6
Continuous
100
AcDbLine
 10
19929.89096999491
 20
13859.6212939278
 30
0.0
 11
19809.89096999398
 21
13739.6212939278
 31
0.0
  0
LINE
  5
6EA
330
1F
100
AcDbEntity
  8
ﾊｯﾁﾝｸﾞ
  6
Continuous
100
AcDbLine
 10
19917.41666796055
 20
13847.14699189367
 30
0.0
 11
19971.1795169436
 21
13793.38414291062
 31
0.0
  0
LINE
  5
6EB
330
1F
100
AcDbEntity
  8
ﾊｯﾁﾝｸﾞ
  6
Continuous
100
AcDbLine
 10
19533.91117252918
 20
13859.62129392768
 30
0.0
 11
19478.05547231339
 21
13803.76559371213
 31
0.0
  0
LINE
  5
6EC
330
1F
100
AcDbEntity
  8
ﾊｯﾁﾝｸﾞ
  6
Continuous
100
AcDbLine
 10
19613.10713202223
 20
13859.6212939278
 30
0.0
 11
19493.10713202176
 21
13739.62129392768
 31
0.0
  0
LINE
  5
6ED
330
1F
100
AcDbEntity
  8
ﾊｯﾁﾝｸﾞ
  6
Continuous
100
AcDbLine
 10
19692.30309151529
 20
13859.6212939278
 30
0.0
 11
19572.30309151482
 21
13739.62129392768
 31
0.0
  0
LINE
  5
6EE
330
1F
100
AcDbEntity
  8
ﾊｯﾁﾝｸﾞ
  6
Continuous
100
AcDbLine
 10
19600.63282998834
 20
13767.95103240074
 30
0.0
 11
19628.96256846093
 21
13739.62129392768
 31
0.0
  0
LINE
  5
6EF
330
1F
100
AcDbEntity
  8
ﾊｯﾁﾝｸﾞ
  6
Continuous
100
AcDbLine
 10
19640.23080973463
 20
13807.54901214715
 30
0.0
 11
19708.15852795398
 21
13739.6212939278
 31
0.0
  0
LINE
  5
6F0
330
1F
100
AcDbEntity
  8
ﾊｯﾁﾝｸﾞ
  6
Continuous
100
AcDbLine
 10
19679.82878948139
 20
13847.14699189367
 30
0.0
 11
19787.35448744703
 21
13739.6212939278
 31
0.0
  0
LINE
  5
6F1
330
1F
100
AcDbEntity
  8
ﾊｯﾁﾝｸﾞ
  6
Continuous
100
AcDbLine
 10
19771.49905100834
 20
13859.6212939278
 30
0.0
 11
19719.42676922768
 21
13807.54901214715
 31
0.0
  0
HATCH
  5
6F2
330
1F
100
AcDbEntity
  8
ﾊｯﾁﾝｸﾞ
100
AcDbHatch
 10
0.0
 20
0.0
 30
0.0
210
0.0
220
0.0
230
1.0
  2
PLAST
 70
     0
 71
     0
 91
        1
 92
        7
 72
     0
 73
     1
 93
        8
 10
19453.05547231339
 20
13559.62129392803
 10
19478.05547231339
 20
13559.62129392827
 10
19478.05547231339
 20
13859.6212939278
 10
18978.05547231339
 20
13859.62129392768
 10
18978.05547231339
 20
13559.62129392827
 10
19003.05547231339
 20
13559.62129392827
 10
19003.05547231339
 20
11859.6212939278
 10
19453.05547231339
 20
11859.6212939278
 97
        0
 75
     0
 76
     1
 52
45.0
 41
2000.0
 77
     0
 78
     3
 53
45.0
 43
-409251.7116657711
 44
-239960.1880535334
 45
-353.5533905932737
 46
353.5533905932738
 79
     0
 53
45.0
 43
-409295.905839595
 44
-239915.9938797093
 45
-353.5533905932737
 46
353.5533905932738
 79
     0
 53
45.0
 43
-409340.1000134194
 44
-239871.7997058851
 45
-353.5533905932737
 46
353.5533905932738
 79
     0
 47
26.60063474119331
 98
        1
 10
19300.88729027376
 20
12805.70154570837
  0
LINE
  5
6F3
330
1F
100
AcDbEntity
  8
画層3-2
  6
Continuous
100
AcDbLine
 10
19308.40547231349
 20
15199.6212939278
 30
0.0
 11
21147.70547231377
 21
15199.6212939278
 31
0.0
  0
LINE
  5
6F4
330
1F
100
AcDbEntity
  8
画層3-2
  6
Continuous
100
AcDbLine
 10
21147.70547231377
 20
14539.6212939278
 30
0.0
 11
19308.40547231349
 21
14539.6212939278
 31
0.0
  0
LINE
  5
6F5
330
1F
100
AcDbEntity
  8
画層3-1
  6
Continuous
100
AcDbLine
 10
19253.4554723133
 20
13879.6212939278
 30
0.0
 11
21202.65547231349
 21
13879.6212939278
 31
0.0
  0
LINE
  5
6F6
330
1F
100
AcDbEntity
  8
画層3-1
  6
Continuous
100
AcDbLine
 10
19253.4554723133
 20
13917.72129392789
 30
0.0
 11
21202.65547231349
 21
13917.72129392789
 31
0.0
  0
DIMENSION
  5
6F7
330
1F
100
AcDbEntity
  8
寸法
  6
Continuous
100
AcDbDimension
  2
*D20
 10
21228.05547231339
 20
9559.621293927337
 30
0.0
 11
20228.05547231339
 21
9838.192722498769
 31
0.0
 70
    32
 71
     5
 42
2000.0
  3
1_100
100
AcDbAlignedDimension
 13
19228.05547231339
 23
10866.71532818515
 33
0.0
 14
21228.05547231339
 24
10889.62129392745
 34
0.0
100
AcDbRotatedDimension
  0
MTEXT
  5
6F8
330
1F
100
AcDbEntity
  8
寸法文字
  6
Continuous
100
AcDbMText
 10
13080.05419483917
 20
21744.92238342998
 30
0.0
 40
300.0
 41
0.0
 71
     1
 72
     1
  1
（STK-540鋼管）
  7
1_100
 73
     1
 44
1.0
1001
ACAD
1000
ACAD_MTEXT_DEFINED_HEIGHT_BEGIN
1070
    46
1040
0.0
1000
ACAD_MTEXT_DEFINED_HEIGHT_END
1000
MTEXTBEGIN
1070
    73
1070
     1
1070
    44
1040
1.0
1070
    74
1070
     0
1000
MTEXTEND
  0
MTEXT
  5
6FA
102
{ACAD_REACTORS
330
6FB
102
}
330
1F
100
AcDbEntity
  8
寸法文字
  6
Continuous
100
AcDbMText
 10
12966.56465361031
 20
22064.16113749242
 30
0.0
 40
300.0
 41
0.0
 71
     7
 72
     1
  1
端末・コーナー補強ポール\Pφ114.3×3.0mm
  7
1_100
 73
     1
 44
1.0
1001
ACAD
1000
ACAD_MTEXT_DEFINED_HEIGHT_BEGIN
1070
    46
1040
0.0
1000
ACAD_MTEXT_DEFINED_HEIGHT_END
1000
MTEXTBEGIN
1070
    73
1070
     1
1070
    44
1040
1.0
1070
    74
1070
     0
1000
MTEXTEND
  0
LEADER
  5
6FB
330
1F
100
AcDbEntity
  8
寸法引出
  6
Continuous
100
AcDbLeader
  3
1_100
 71
     0
 73
     0
 74
     0
 75
     1
 40
800.0
 41
3240.000000000001
 76
     3
 10
12192.84110412417
 20
20768.95811630299
 30
0.0
 10
12806.56465361031
 20
21964.16113749242
 30
0.0
 10
12866.56465361031
 20
21964.16113749242
 30
0.0
340
6FA
  0
LWPOLYLINE
  5
6FC
330
1F
100
AcDbEntity
  8
画層1
100
AcDbPolyline
 90
        4
 70
     1
 43
0.0
 10
9433.405472313486
 20
20806.77129392771
 10
19022.7054723133
 20
20806.77129392771
 10
19022.7054723133
 20
20692.47129392778
 10
9433.405472313486
 20
20692.47129392778
  0
LINE
  5
6FF
330
1F
100
AcDbEntity
  8
画層3-1
  6
Continuous
100
AcDbLine
 10
13268.4554723133
 20
15796.52129392771
 30
0.0
 11
15187.65547231348
 21
15796.52129392782
 31
0.0
  0
MTEXT
  5
700
102
{ACAD_REACTORS
330
701
102
}
330
1F
100
AcDbEntity
  8
寸法文字
  6
Continuous
100
AcDbMText
 10
16854.93451102726
 20
16352.91786768651
 30
0.0
 40
300.0
 41
0.0
 71
     9
 72
     1
  1
タンバックル12mm
  7
1_100
 73
     1
 44
1.0
1001
ACAD
1000
MTEXTBEGIN
1070
    73
1070
     1
1070
    44
1040
1.0
1070
    74
1070
     0
1000
MTEXTEND
  0
LEADER
  5
701
330
1F
100
AcDbEntity
  8
寸法引出
  6
Continuous
100
AcDbLeader
  3
1_100
 71
     0
 73
     0
 40
300.0
 41
2603.571428571428
 76
     2
 10
18886.77423281545
 20
15949.23183986943
 30
0.0
 10
16954.93451102726
 20
16252.91786768651
 30
0.0
340
700
  0
LINE
  5
702
330
1F
100
AcDbEntity
  8
画層1-1
  6
Continuous
100
AcDbLine
 10
19107.7054723133
 20
20749.6212939278
 30
0.0
 11
17382.50242294455
 21
19885.19014503256
 31
0.0
  0
LINE
  5
703
330
1F
100
AcDbEntity
  8
画層1-1
  6
Continuous
100
AcDbLine
 10
19107.7054723133
 20
15859.6212939278
 30
0.0
 11
12682.00576289343
 21
19079.28577591562
 31
0.0
  0
LINE
  5
704
330
1F
100
AcDbEntity
  8
画層1
  6
Continuous
100
AcDbLine
 10
26128.0554723134
 20
20799.6212939278
 30
0.0
 11
9228.055472313391
 21
20799.6212939278
 31
0.0
  0
LINE
  5
705
330
1F
100
AcDbEntity
  8
画層1-1
  6
Continuous
100
AcDbLine
 10
9228.055472313391
 20
18329.6212939278
 30
0.0
 11
26128.0554723134
 21
18329.6212939278
 31
0.0
  0
LINE
  5
706
330
1F
100
AcDbEntity
  8
画層1
  6
Continuous
100
AcDbLine
 10
26128.0554723134
 20
15859.6212939278
 30
0.0
 11
9228.055472313391
 21
15859.6212939278
 31
0.0
  0
LINE
  5
707
330
1F
100
AcDbEntity
  8
画層3-1
  6
Continuous
100
AcDbLine
 10
9228.055472313391
 20
15834.6212939278
 30
0.0
 11
26128.0554723134
 21
15834.6212939278
 31
0.0
  0
CIRCLE
  5
708
330
1F
100
AcDbEntity
  8
画層1
  6
Continuous
100
AcDbCircle
 10
9107.705472313298
 20
18329.6212939278
 30
0.0
 40
10.9509940156
  0
LINE
  5
709
330
1F
100
AcDbEntity
  8
画層1
  6
Continuous
100
AcDbLine
 10
9373.405472313484
 20
18354.6212939278
 30
0.0
 11
9082.705472313298
 21
18354.6212939278
 31
0.0
  0
CIRCLE
  5
70A
330
1F
100
AcDbEntity
  8
画層1
  6
Continuous
100
AcDbCircle
 10
9348.405472313483
 20
18329.6212939278
 30
0.0
 40
10.9509940156
  0
LINE
  5
70B
330
1F
100
AcDbEntity
  8
画層1
  6
Continuous
100
AcDbLine
 10
9082.705472313298
 20
18304.6212939278
 30
0.0
 11
9373.405472313484
 21
18304.6212939278
 31
0.0
  0
LINE
  5
70C
330
1F
100
AcDbEntity
  8
画層1
  6
Continuous
100
AcDbLine
 10
9082.705472313298
 20
18354.6212939278
 30
0.0
 11
9082.705472313298
 21
18304.6212939278
 31
0.0
  0
LINE
  5
70D
330
1F
100
AcDbEntity
  8
画層1
  6
Continuous
100
AcDbLine
 10
9203.055472313392
 20
18304.6212939278
 30
0.0
 11
9203.055472313392
 21
18354.6212939278
 31
0.0
  0
LINE
  5
70E
330
1F
100
AcDbEntity
  8
画層1
  6
Continuous
100
AcDbLine
 10
9253.055472313391
 20
18304.6212939278
 30
0.0
 11
9253.055472313391
 21
18354.6212939278
 31
0.0
  0
LINE
  5
70F
330
1F
100
AcDbEntity
  8
画層1
  6
Continuous
100
AcDbLine
 10
9373.405472313484
 20
18304.6212939278
 30
0.0
 11
9373.405472313484
 21
18354.6212939278
 31
0.0
  0
LWPOLYLINE
  5
710
330
1F
100
AcDbEntity
  8
画層1-1
100
AcDbPolyline
 90
        4
 70
     1
 43
0.0
 10
9448.855472313672
 20
18349.62228824189
 10
9603.405472313488
 20
18349.62228824189
 10
9603.405472313488
 20
18309.62228824189
 10
9448.855472313672
 20
18309.62228824189
  0
LEADER
  5
711
330
1F
100
AcDbEntity
  8
寸法引出
  6
Continuous
100
AcDbLeader
  3
1_100
 71
     0
 73
     0
 75
     1
 40
346.6666666666666
 41
3117.142857142858
 76
     3
 10
9228.055472313391
 20
17141.52920482846
 30
0.0
 10
8214.932035775822
 20
17817.24727691154
 30
0.0
 10
8154.93203577582
 20
17817.24727691154
 30
0.0
340
712
  0
MTEXT
  5
712
102
{ACAD_REACTORS
330
711
102
}
330
1F
100
AcDbEntity
  8
寸法文字
  6
Continuous
100
AcDbMText
 10
8054.93203577582
 20
17917.24727691154
 30
0.0
 40
300.0
 41
0.0
 71
     9
 72
     1
  1
メッセンワイヤー22m㎡
  7
1_100
 73
     1
 44
1.0
1001
ACAD
1000
MTEXTBEGIN
1070
    73
1070
     1
1070
    44
1040
1.0
1070
    74
1070
     0
1000
MTEXTEND
  0
LINE
  5
713
330
1F
100
AcDbEntity
  8
画層1
  6
Continuous
100
AcDbLine
 10
9448.855472313672
 20
20799.6212939278
 30
0.0
 11
9373.405472313484
 21
20799.6212939278
 31
0.0
  0
LINE
  5
714
330
1F
100
AcDbEntity
  8
画層1
  6
Continuous
100
AcDbLine
 10
9373.405472313484
 20
20724.6212939278
 30
0.0
 11
9373.405472313484
 21
20774.6212939278
 31
0.0
  0
LINE
  5
715
330
1F
100
AcDbEntity
  8
画層1-1
100
AcDbLine
 10
9373.405472313484
 20
20749.6212939278
 30
0.0
 11
9433.405472313486
 21
20749.6212939278
 31
0.0
  0
LINE
  5
716
330
1F
100
AcDbEntity
  8
画層1
  6
Continuous
100
AcDbLine
 10
9373.405472313484
 20
20774.6212939278
 30
0.0
 11
9373.405472313484
 21
20824.6212939278
 31
0.0
  0
LWPOLYLINE
  5
717
330
1F
100
AcDbEntity
  8
画層1
100
AcDbPolyline
 90
        4
 70
     1
 43
0.0
 10
9458.85547231367
 20
20819.39757326644
 10
9613.405472313488
 20
20819.39757326644
 10
9613.405472313488
 20
20779.39757326644
 10
9458.85547231367
 20
20779.39757326644
  0
LINE
  5
718
330
1F
100
AcDbEntity
  8
画層1
  6
Continuous
100
AcDbLine
 10
9132.705472313299
 20
20859.6212939278
 30
0.0
 11
9323.405472313483
 21
20859.6212939278
 31
0.0
  0
LINE
  5
719
330
1F
100
AcDbEntity
  8
画層1
  6
Continuous
100
AcDbLine
 10
9132.705472313299
 20
20839.6212939278
 30
0.0
 11
9323.405472313483
 21
20839.6212939278
 31
0.0
  0
LINE
  5
71A
330
1F
100
AcDbEntity
  8
画層1
  6
Continuous
100
AcDbLine
 10
9253.055472313391
 20
20724.6212939278
 30
0.0
 11
9253.055472313391
 21
20774.6212939278
 31
0.0
  0
LINE
  5
71B
330
1F
100
AcDbEntity
  8
画層1
  6
Continuous
100
AcDbLine
 10
9203.055472313392
 20
20724.6212939278
 30
0.0
 11
9203.055472313392
 21
20774.6212939278
 31
0.0
  0
CIRCLE
  5
71C
330
1F
100
AcDbEntity
  8
画層1
  6
Continuous
100
AcDbCircle
 10
9107.705472313298
 20
20749.6212939278
 30
0.0
 40
10.9509940156
  0
LINE
  5
71D
330
1F
100
AcDbEntity
  8
画層1
  6
Continuous
100
AcDbLine
 10
9082.705472313298
 20
20774.6212939278
 30
0.0
 11
9082.705472313298
 21
20724.6212939278
 31
0.0
  0
LINE
  5
71E
330
1F
100
AcDbEntity
  8
画層1
  6
Continuous
100
AcDbLine
 10
9082.705472313298
 20
20824.6212939278
 30
0.0
 11
9082.705472313298
 21
20774.6212939278
 31
0.0
  0
CIRCLE
  5
71F
330
1F
100
AcDbEntity
  8
画層1
  6
Continuous
100
AcDbCircle
 10
9107.705472313298
 20
20799.6212939278
 30
0.0
 40
10.9509940156
  0
LINE
  5
720
330
1F
100
AcDbEntity
  8
画層1
  6
Continuous
100
AcDbLine
 10
9203.055472313392
 20
20774.6212939278
 30
0.0
 11
9203.055472313392
 21
20824.6212939278
 31
0.0
  0
LINE
  5
721
330
1F
100
AcDbEntity
  8
画層1
  6
Continuous
100
AcDbLine
 10
9253.055472313391
 20
20774.6212939278
 30
0.0
 11
9253.055472313391
 21
20824.6212939278
 31
0.0
  0
DIMENSION
  5
722
330
1F
100
AcDbEntity
  8
寸法
  6
Continuous
100
AcDbDimension
  2
*D21
 10
9323.405472313483
 20
21459.6212939278
 30
0.0
 11
9228.055472313391
 21
21759.6212939278
 31
0.0
 70
    32
  1
φ<>
 71
     5
 42
190.7000000001863
  3
1_100
100
AcDbAlignedDimension
 13
9132.705472313299
 23
20859.6212939278
 33
0.0
 14
9323.405472313483
 24
20859.6212939278
 34
0.0
100
AcDbRotatedDimension
  0
LINE
  5
723
330
1F
100
AcDbEntity
  8
画層1
  6
Continuous
100
AcDbLine
 10
9373.405472313484
 20
20824.6212939278
 30
0.0
 11
9082.705472313298
 21
20824.6212939278
 31
0.0
  0
LINE
  5
724
330
1F
100
AcDbEntity
  8
画層1
  6
Continuous
100
AcDbLine
 10
9082.705472313298
 20
20774.6212939278
 30
0.0
 11
9373.405472313484
 21
20774.6212939278
 31
0.0
  0
CIRCLE
  5
725
330
1F
100
AcDbEntity
  8
画層1
  6
Continuous
100
AcDbCircle
 10
9348.405472313483
 20
20799.6212939278
 30
0.0
 40
10.9509940156
  0
CIRCLE
  5
726
330
1F
100
AcDbEntity
  8
画層1
  6
Continuous
100
AcDbCircle
 10
9348.405472313483
 20
20749.6212939278
 30
0.0
 40
10.9509940156
  0
LINE
  5
727
330
1F
100
AcDbEntity
  8
画層1
  6
Continuous
100
AcDbLine
 10
9082.705472313298
 20
20724.6212939278
 30
0.0
 11
9373.405472313484
 21
20724.6212939278
 31
0.0
  0
LINE
  5
728
330
1F
100
AcDbEntity
  8
画層1
  6
Continuous
100
AcDbLine
 10
9373.405472313484
 20
20774.6212939278
 30
0.0
 11
9082.705472313298
 21
20774.6212939278
 31
0.0
  0
MTEXT
  5
729
330
1F
100
AcDbEntity
  8
寸法文字
  6
Continuous
100
AcDbMText
 10
6842.388007811702
 20
19348.40133530148
 30
0.0
 40
300.0
 41
0.0
 71
     3
 72
     1
  1
（STKT-590鋼管）
  7
1_100
 73
     1
 44
1.0
1001
ACAD
1000
MTEXTBEGIN
1070
    73
1070
     1
1070
    44
1040
1.0
1070
    74
1070
     0
1000
MTEXTEND
  0
LEADER
  5
72A
330
1F
100
AcDbEntity
  8
寸法引出
  6
Continuous
100
AcDbLeader
  3
1_100
 71
     0
 73
     0
 75
     1
 40
300.0
 41
2940.000000000001
 76
     3
 10
9228.055472313391
 20
20859.6212939278
 30
0.0
 10
7999.862716047525
 20
21680.57216578306
 30
0.0
 10
7939.862716047525
 20
21680.57216578306
 30
0.0
340
72B
  0
MTEXT
  5
72B
102
{ACAD_REACTORS
330
72A
102
}
330
1F
100
AcDbEntity
  8
寸法文字
  6
Continuous
100
AcDbMText
 10
7839.862716047524
 20
21780.57216578305
 30
0.0
 40
300.0
 41
0.0
 71
     9
 72
     1
  1
上部ネット下り防止付き
  7
1_100
 73
     1
 44
1.0
1001
ACAD
1000
MTEXTBEGIN
1070
    73
1070
     1
1070
    44
1040
1.0
1070
    74
1070
     0
1000
MTEXTEND
  0
ARC
  5
72C
330
1F
100
AcDbEntity
  8
画層3-1
  6
Continuous
100
AcDbCircle
 10
13268.4554723133
 20
15781.52129392771
 30
0.0
 40
15.0
100
AcDbArc
 50
90.0
 51
180.0
  0
LINE
  5
72D
330
1F
100
AcDbEntity
  8
画層3-1
  6
Continuous
100
AcDbLine
 10
13263.85547231367
 20
15781.52129392771
 30
0.0
 11
13278.85547231367
 21
15796.52129392771
 31
0.0
  0
LINE
  5
72E
330
1F
100
AcDbEntity
  8
画層3-1
  6
Continuous
100
AcDbLine
 10
13177.25547231358
 20
15796.52129392782
 30
0.0
 11
13192.25547231358
 21
15781.52129392782
 31
0.0
  0
LINE
  5
72F
330
1F
100
AcDbEntity
  8
画層3-1
  6
Continuous
100
AcDbLine
 10
13263.85547231367
 20
15781.52129392771
 30
0.0
 11
13192.25547231358
 21
15781.52129392782
 31
0.0
  0
ARC
  5
730
330
1F
100
AcDbEntity
  8
画層3-1
  6
Continuous
100
AcDbCircle
 10
13187.65547231348
 20
15781.52129392782
 30
0.0
 40
15.0
100
AcDbArc
 50
0.0
 51
90.0
  0
LINE
  5
731
330
1F
100
AcDbEntity
  8
画層3-2
  6
Continuous
100
AcDbLine
 10
13293.40547231348
 20
15796.52129392782
 30
0.0
 11
13293.40547231348
 21
15722.15217684608
 31
0.0
  0
LINE
  5
732
330
1F
100
AcDbEntity
  8
画層3-1
  6
Continuous
100
AcDbLine
 10
13253.4554723133
 20
15781.52129392771
 30
0.0
 11
13253.4554723133
 21
15722.15217684608
 31
0.0
  0
LINE
  5
733
330
1F
100
AcDbEntity
  8
画層3-1
  6
Continuous
100
AcDbLine
 10
13202.65547231348
 20
15781.52129392782
 30
0.0
 11
13202.65547231348
 21
15722.15217684608
 31
0.0
  0
LINE
  5
734
330
1F
100
AcDbEntity
  8
画層3-2
  6
Continuous
100
AcDbLine
 10
13162.7054723133
 20
15722.15217684608
 30
0.0
 11
13162.7054723133
 21
15796.52129392782
 31
0.0
  0
LINE
  5
735
330
1F
100
AcDbEntity
  8
画層3-1
  6
Continuous
100
AcDbLine
 10
13278.85547231367
 20
15796.52129392771
 30
0.0
 11
13278.85547231367
 21
15834.6212939278
 31
0.0
  0
LINE
  5
736
330
1F
100
AcDbEntity
  8
画層3-1
  6
Continuous
100
AcDbLine
 10
13177.25547231358
 20
15834.6212939278
 30
0.0
 11
13177.25547231358
 21
15796.52129392782
 31
0.0
  0
LINE
  5
737
330
1F
100
AcDbEntity
  8
画層3-通り芯
  6
DASHDOT
 48
100.0
100
AcDbLine
 10
13228.05547231339
 20
15722.15217684608
 30
0.0
 11
13228.05547231339
 21
15859.62129392792
 31
0.0
  0
LINE
  5
738
330
1F
100
AcDbEntity
  8
画層3-1
  6
Continuous
100
AcDbLine
 10
11263.85547231367
 20
15781.52129392771
 30
0.0
 11
11192.25547231358
 21
15781.52129392782
 31
0.0
  0
LINE
  5
739
330
1F
100
AcDbEntity
  8
画層3-1
  6
Continuous
100
AcDbLine
 10
11177.25547231358
 20
15796.52129392782
 30
0.0
 11
11192.25547231358
 21
15781.52129392782
 31
0.0
  0
ARC
  5
73A
330
1F
100
AcDbEntity
  8
画層3-1
  6
Continuous
100
AcDbCircle
 10
11187.65547231348
 20
15781.52129392782
 30
0.0
 40
15.0
100
AcDbArc
 50
0.0
 51
90.0
  0
LINE
  5
73B
330
1F
100
AcDbEntity
  8
画層3-1
  6
Continuous
100
AcDbLine
 10
11263.85547231367
 20
15781.52129392771
 30
0.0
 11
11278.85547231367
 21
15796.52129392771
 31
0.0
  0
ARC
  5
73C
330
1F
100
AcDbEntity
  8
画層3-1
  6
Continuous
100
AcDbCircle
 10
11268.4554723133
 20
15781.52129392771
 30
0.0
 40
15.0
100
AcDbArc
 50
90.0
 51
180.0
  0
LINE
  5
73D
330
1F
100
AcDbEntity
  8
画層3-1
  6
Continuous
100
AcDbLine
 10
11177.25547231358
 20
15834.6212939278
 30
0.0
 11
11177.25547231358
 21
15796.52129392782
 31
0.0
  0
LINE
  5
73E
330
1F
100
AcDbEntity
  8
画層3-1
  6
Continuous
100
AcDbLine
 10
11278.85547231367
 20
15796.52129392771
 30
0.0
 11
11278.85547231367
 21
15834.6212939278
 31
0.0
  0
LWPOLYLINE
  5
73F
330
1F
100
AcDbEntity
  8
画層1-1
100
AcDbPolyline
 90
        4
 70
     1
 43
0.0
 10
9470.914277886471
 20
15944.05431576076
 10
9631.511634831747
 20
16025.3469286822
 10
9649.576513946488
 20
15989.65855322781
 10
9488.979157001208
 20
15908.36594030636
  0
LINE
  5
740
330
1F
100
AcDbEntity
  8
画層1
  6
Continuous
100
AcDbLine
 10
9373.405472313484
 20
15834.6212939278
 30
0.0
 11
9373.405472313484
 21
15884.6212939278
 31
0.0
  0
LWPOLYLINE
  5
741
330
1F
100
AcDbEntity
  8
画層1
100
AcDbPolyline
 90
        4
 70
     1
 43
0.0
 10
9448.855472313672
 20
15879.39757326644
 10
9603.405472313488
 20
15879.39757326644
 10
9603.405472313488
 20
15839.39757326644
 10
9448.855472313672
 20
15839.39757326644
  0
CIRCLE
  5
742
330
1F
100
AcDbEntity
  8
画層1
  6
Continuous
100
AcDbCircle
 10
9107.705472313298
 20
15859.6212939278
 30
0.0
 40
10.9509940156
  0
LINE
  5
743
330
1F
100
AcDbEntity
  8
画層1
  6
Continuous
100
AcDbLine
 10
9082.705472313298
 20
15884.6212939278
 30
0.0
 11
9082.705472313298
 21
15834.6212939278
 31
0.0
  0
LINE
  5
744
330
1F
100
AcDbEntity
  8
画層1
  6
Continuous
100
AcDbLine
 10
9203.055472313392
 20
15834.6212939278
 30
0.0
 11
9203.055472313392
 21
15884.6212939278
 31
0.0
  0
LINE
  5
745
330
1F
100
AcDbEntity
  8
画層1
  6
Continuous
100
AcDbLine
 10
9253.055472313391
 20
15834.6212939278
 30
0.0
 11
9253.055472313391
 21
15884.6212939278
 31
0.0
  0
LINE
  5
746
330
1F
100
AcDbEntity
  8
画層3-1
  6
Continuous
100
AcDbLine
 10
9263.855472313672
 20
15781.52129392771
 30
0.0
 11
9278.85547231367
 21
15796.52129392771
 31
0.0
  0
LINE
  5
747
330
1F
100
AcDbEntity
  8
画層3-1
  6
Continuous
100
AcDbLine
 10
9263.855472313672
 20
15781.52129392771
 30
0.0
 11
9202.655472313486
 21
15781.52129392782
 31
0.0
  0
ARC
  5
748
330
1F
100
AcDbEntity
  8
画層3-1
  6
Continuous
100
AcDbCircle
 10
9268.455472313299
 20
15781.52129392771
 30
0.0
 40
15.0
100
AcDbArc
 50
90.0
 51
180.0
  0
ARC
  5
749
330
1F
100
AcDbEntity
  8
画層3-1
  6
Continuous
100
AcDbCircle
 10
9240.262513343212
 20
15798.96659990798
 30
0.0
 40
37.68645720078001
100
AcDbArc
 50
108.8995839705432
 51
183.7202809734299
  0
LINE
  5
74A
330
1F
100
AcDbEntity
  8
画層3-1
  6
Continuous
100
AcDbLine
 10
9278.85547231367
 20
15796.52129392771
 30
0.0
 11
9278.85547231367
 21
15834.6212939278
 31
0.0
  0
LINE
  5
74B
330
1F
100
AcDbEntity
  8
画層1
  6
Continuous
100
AcDbLine
 10
9373.405472313484
 20
15834.6212939278
 30
0.0
 11
9082.705472313298
 21
15834.6212939278
 31
0.0
  0
LINE
  5
74C
330
1F
100
AcDbEntity
  8
画層1
  6
Continuous
100
AcDbLine
 10
9373.405472313484
 20
15884.6212939278
 30
0.0
 11
9082.705472313298
 21
15884.6212939278
 31
0.0
  0
CIRCLE
  5
74D
330
1F
100
AcDbEntity
  8
画層1
  6
Continuous
100
AcDbCircle
 10
9348.405472313483
 20
15859.6212939278
 30
0.0
 40
10.9509940156
  0
LINE
  5
74E
330
1F
100
AcDbEntity
  8
画層3-1
  6
Continuous
100
AcDbLine
 10
9268.455472313299
 20
15796.52129392771
 30
0.0
 11
11187.65547231348
 21
15796.52129392771
 31
0.0
  0
LEADER
  5
74F
330
1F
100
AcDbEntity
  8
寸法引出
  6
Continuous
100
AcDbLeader
  3
1_100_B
 71
     0
 73
     0
 74
     0
 75
     1
 40
300.0
 41
2635.714285714287
 76
     3
 10
11253.4554723133
 20
15261.44487212892
 30
0.0
 10
11415.21252941243
 20
15349.75347109211
 30
0.0
 10
11495.21252941243
 20
15349.75347109211
 30
0.0
1001
ACAD
1000
DSTYLE
1002
{
1070
    77
1070
     2
1070
   174
1070
     1
1002
}
  0
MTEXT
  5
750
102
{ACAD_REACTORS
330
74F
102
}
330
1F
100
AcDbEntity
  8
寸法文字
  6
Continuous
100
AcDbMText
 10
11545.21252941243
 20
15399.75347109211
 30
0.0
 40
300.0
 41
0.0
 71
     7
 72
     1
  1
主柱φ50.8×2.3ｔ
  7
1_100
 73
     1
 44
1.0
1001
ACAD
1000
MTEXTBEGIN
1070
    73
1070
     1
1070
    44
1040
1.0
1070
    74
1070
     0
1000
MTEXTEND
  0
LINE
  5
751
330
1F
100
AcDbEntity
  8
画層3-1
  6
Continuous
100
AcDbLine
 10
11268.4554723133
 20
15796.52129392771
 30
0.0
 11
13187.65547231348
 21
15796.52129392771
 31
0.0
  0
LINE
  5
752
330
1F
100
AcDbEntity
  8
DEFPOINTS
100
AcDbLine
 10
11233.48863545382
 20
20907.33803203635
 30
0.0
 11
12333.47060518569
 21
15834.6212939278
 31
0.0
  0
LINE
  5
753
330
1F
100
AcDbEntity
  8
画層1
  6
Continuous
100
AcDbLine
 10
9228.055472313391
 20
20824.6212939278
 30
0.0
 11
9228.055472313391
 21
15859.39314894369
 31
0.0
  0
HATCH
  5
754
330
1F
100
AcDbEntity
  8
ﾈｯﾄ
 62
   230
370
    13
100
AcDbHatch
 10
0.0
 20
0.0
 30
0.0
210
0.0
220
0.0
230
1.0
  2
NET
 70
     0
 71
     0
 91
        5
 92
        7
 72
     0
 73
     1
 93
       12
 10
12036.03495207891
 20
17206.28633712281
 10
9641.150675605018
 20
16006.30435973141
 10
9649.576513946488
 20
15989.65855322781
 10
9488.979157001208
 20
15908.36594030636
 10
9480.220762919136
 20
15925.66873288995
 10
9373.405472313484
 20
15872.14780709988
 10
9373.405472313484
 20
15859.6212939278
 10
9448.855472313672
 20
15859.6212939278
 10
9448.855472313203
 20
15879.39757326644
 10
9603.405472313488
 20
15879.39757326644
 10
9603.405472313488
 20
15859.6212939278
 10
12328.04953583326
 20
15859.6212939278
 97
        0
 92
        7
 72
     0
 73
     1
 93
       16
 10
12036.03495207891
 20
17206.28633712281
 10
11792.44788379824
 20
18329.6212939278
 10
9603.405472313488
 20
18329.6212939278
 10
9603.405472313488
 20
18309.62228824189
 10
9448.855472313672
 20
18309.62228824201
 10
9448.855472313672
 20
18329.6212939278
 10
9373.405472313484
 20
18329.6212939278
 10
9373.405472313484
 20
18304.6212939278
 10
9323.405472313483
 20
18304.6212939278
 10
9323.405472313483
 20
15884.6212939278
 10
9373.405472313484
 20
15884.6212939278
 10
9373.405472313484
 20
15872.14780709988
 10
9480.220762919136
 20
15925.66873288995
 10
9470.914277886471
 20
15944.05431576064
 10
9631.511634831747
 20
16025.3469286822
 10
9641.150675605018
 20
16006.30435973129
 97
        0
 92
        7
 72
     0
 73
     1
 93
       15
 10
9462.463549000643
 20
20692.47129392778
 10
9433.405472313486
 20
20692.47129392778
 10
9433.405472313486
 20
20707.03114914291
 10
9373.405472313484
 20
20737.09478075572
 10
9373.405472313484
 20
20724.6212939278
 10
9323.405472313483
 20
20724.6212939278
 10
9323.405472313483
 20
18354.6212939278
 10
9373.405472313484
 20
18354.6212939278
 10
9373.405472313484
 20
18329.6212939278
 10
9448.855472313672
 20
18329.6212939278
 10
9448.855472313672
 20
18349.62228824189
 10
9603.405472313488
 20
18349.62228824201
 10
9603.405472313488
 20
18329.6212939278
 10
11792.44788379777
 20
18329.6212939278
 10
11501.64024543107
 20
19670.72034400878
 97
        0
 92
       23
 72
     0
 73
     1
 93
        3
 10
11280.08093500786
 20
20692.47129392778
 10
9462.463549000643
 20
20692.4712939279
 10
11501.64024543107
 20
19670.7203440089
 97
        0
 92
        7
 72
     0
 73
     1
 93
        9
 10
9613.405472313488
 20
20799.6212939278
 10
9613.405472313488
 20
20779.39757326644
 10
9458.85547231367
 20
20779.39757326644
 10
9458.855472313208
 20
20799.6212939278
 10
9433.405472313486
 20
20799.6212939278
 10
9433.405472313486
 20
20707.03114914291
 10
9462.463549000643
 20
20692.47129392778
 10
11280.08093500786
 20
20692.47129392778
 10
11256.84623176275
 20
20799.6212939278
 97
        0
 75
     0
 76
     1
 52
0.0
 41
1000.0
 77
     0
 78
     2
 53
0.0
 43
694.7221389803694
 44
1576.287960594546
 45
0.0
 46
125.0
 79
     0
 53
90.0
 43
694.7221389803694
 44
1576.287960594546
 45
-125.0
 46
0.0000000000000077
 79
     0
 47
14.25228422974404
 98
        5
 10
11724.5886616483
 20
16386.33994481785
 10
11169.3443438592
 20
17379.05109111583
 10
11110.89763301933
 20
19422.86827696525
 10
11140.12092568256
 20
20415.57948903765
 10
10176.65922786478
 20
20769.24671413938
  0
LWPOLYLINE
  5
755
330
1F
100
AcDbEntity
  8
画層1
100
AcDbPolyline
 90
        4
 70
     1
 43
0.0
 10
9209.174333854077
 20
16214.6212939278
 10
9249.174333854078
 20
16214.6212939278
 10
9249.174333854078
 20
16034.6212939278
 10
9209.174333854077
 20
16034.6212939278
  0
LEADER
  5
756
330
1F
100
AcDbEntity
  8
寸法引出
  6
Continuous
100
AcDbLeader
  3
1_100
 71
     0
 73
     0
 75
     1
 40
300.0
 41
4699.285714285712
 76
     3
 10
9132.705472313299
 20
18773.15155626277
 30
0.0
 10
8027.70952299746
 20
19548.70474556394
 30
0.0
 10
7967.709522997458
 20
19548.70474556394
 30
0.0
340
757
  0
MTEXT
  5
757
102
{ACAD_REACTORS
330
756
102
}
330
1F
100
AcDbEntity
  8
寸法文字
  6
Continuous
100
AcDbMText
 10
7867.70952299746
 20
19648.70474556393
 30
0.0
 40
300.0
 41
0.0
 71
     9
 72
     1
  1
主柱KSポールφ190.7厚さ3.0mm
  7
1_100
 73
     1
 44
1.0
1001
ACAD
1000
ACAD_MTEXT_DEFINED_HEIGHT_BEGIN
1070
    46
1040
0.0
1000
ACAD_MTEXT_DEFINED_HEIGHT_END
1000
MTEXTBEGIN
1070
    73
1070
     1
1070
    44
1040
1.0
1070
    74
1070
     0
1000
MTEXTEND
  0
DIMENSION
  5
758
330
1F
100
AcDbEntity
  8
寸法
  6
Continuous
100
AcDbDimension
  2
*D22
 10
27628.05547231339
 20
20799.62129392862
 30
0.0
 11
27349.48404374196
 21
19564.62129392862
 31
0.0
 70
    32
 71
     5
 42
2470.0
  3
1_100
100
AcDbAlignedDimension
 13
26628.05547231339
 23
18329.62129392861
 33
0.0
 14
26628.05547231339
 24
20799.62129392862
 34
0.0
 50
90.0
100
AcDbRotatedDimension
  0
LEADER
  5
759
330
1F
100
AcDbEntity
  8
寸法引出
  6
Continuous
100
AcDbLeader
  3
1_100
 71
     0
 73
     0
 74
     0
 75
     1
 40
346.6666666666666
 41
3117.142857142858
 76
     3
 10
20317.68123225166
 20
18329.6212939278
 30
0.0
 10
20982.22357498153
 20
16354.84621637748
 30
0.0
 10
21042.22357498153
 20
16354.84621637748
 30
0.0
340
75A
  0
MTEXT
  5
75A
102
{ACAD_REACTORS
330
759
102
}
330
1F
100
AcDbEntity
  8
寸法文字
  6
Continuous
100
AcDbMText
 10
21142.22357498153
 20
16454.84621637748
 30
0.0
 40
300.0
 41
0.0
 71
     7
 72
     1
  1
メッセンワイヤー22m㎡
  7
1_100
 73
     1
 44
1.0
1001
ACAD
1000
MTEXTBEGIN
1070
    73
1070
     1
1070
    44
1040
1.0
1070
    74
1070
     0
1000
MTEXTEND
  0
MTEXT
  5
75B
102
{ACAD_REACTORS
330
75C
102
}
330
1F
100
AcDbEntity
  8
寸法文字
  6
Continuous
100
AcDbMText
 10
22241.78578625383
 20
21957.8770830791
 30
0.0
 40
300.0
 41
0.0
 71
     7
 72
     1
  1
ネット上下6mm合繊ロープに4mm合繊\Pロープにて38m㎡ワイヤーに巻付
  7
1_100
 73
     1
 44
1.0
1001
ACAD
1000
MTEXTBEGIN
1070
    73
1070
     1
1070
    44
1040
1.0
1070
    74
1070
     0
1000
MTEXTEND
  0
LEADER
  5
75C
330
1F
100
AcDbEntity
  8
寸法引出
  6
Continuous
100
AcDbLeader
  3
1_100
 71
     0
 73
     0
 74
     0
 75
     1
 40
846.6666666666665
 41
5162.142857142854
 76
     3
 10
21543.66351632445
 20
20799.6212939278
 30
0.0
 10
22081.78578625385
 20
21857.8770830791
 30
0.0
 10
22141.78578625384
 20
21857.8770830791
 30
0.0
340
75B
  0
DIMENSION
  5
75D
330
1F
100
AcDbEntity
  8
寸法
  6
Continuous
100
AcDbDimension
  2
*D23
 10
27628.05547231339
 20
20859.6212939278
 30
0.0
 11
27344.11864929364
 21
21144.97412380975
 31
0.0
 70
   160
 71
     5
 42
60.0
  3
1_100
100
AcDbAlignedDimension
 13
26628.05547231339
 23
20799.6212939278
 33
0.0
 14
26628.05547231339
 24
20859.6212939278
 34
0.0
 50
90.0
100
AcDbRotatedDimension
  0
ARC
  5
75E
330
1F
100
AcDbEntity
  8
画層3-1
  6
Continuous
100
AcDbCircle
 10
25268.4554723133
 20
15781.52129392771
 30
0.0
 40
15.0
100
AcDbArc
 50
90.0
 51
180.0
  0
ARC
  5
75F
330
1F
100
AcDbEntity
  8
画層3-1
  6
Continuous
100
AcDbCircle
 10
25187.65547231349
 20
15781.52129392782
 30
0.0
 40
15.0
100
AcDbArc
 50
0.0
 51
90.0
  0
LINE
  5
760
330
1F
100
AcDbEntity
  8
画層3-1
  6
Continuous
100
AcDbLine
 10
25263.85547231367
 20
15781.52129392771
 30
0.0
 11
25278.85547231367
 21
15796.52129392771
 31
0.0
  0
LINE
  5
761
330
1F
100
AcDbEntity
  8
画層3-1
  6
Continuous
100
AcDbLine
 10
25177.25547231358
 20
15796.52129392782
 30
0.0
 11
25192.25547231358
 21
15781.52129392782
 31
0.0
  0
LINE
  5
762
330
1F
100
AcDbEntity
  8
画層3-1
  6
Continuous
100
AcDbLine
 10
25263.85547231367
 20
15781.52129392771
 30
0.0
 11
25192.25547231358
 21
15781.52129392782
 31
0.0
  0
LINE
  5
763
330
1F
100
AcDbEntity
  8
画層3-1
  6
Continuous
100
AcDbLine
 10
25278.85547231367
 20
15796.52129392771
 30
0.0
 11
25278.85547231367
 21
15834.6212939278
 31
0.0
  0
LINE
  5
764
330
1F
100
AcDbEntity
  8
画層3-1
  6
Continuous
100
AcDbLine
 10
25177.25547231358
 20
15834.6212939278
 30
0.0
 11
25177.25547231358
 21
15796.52129392782
 31
0.0
  0
LINE
  5
765
330
1F
100
AcDbEntity
  8
画層3-1
  6
Continuous
100
AcDbLine
 10
23263.85547231367
 20
15781.52129392771
 30
0.0
 11
23192.25547231358
 21
15781.52129392782
 31
0.0
  0
LINE
  5
766
330
1F
100
AcDbEntity
  8
画層3-1
  6
Continuous
100
AcDbLine
 10
23177.25547231358
 20
15796.52129392782
 30
0.0
 11
23192.25547231358
 21
15781.52129392782
 31
0.0
  0
LINE
  5
767
330
1F
100
AcDbEntity
  8
画層3-1
  6
Continuous
100
AcDbLine
 10
23263.85547231367
 20
15781.52129392771
 30
0.0
 11
23278.85547231367
 21
15796.52129392771
 31
0.0
  0
ARC
  5
768
330
1F
100
AcDbEntity
  8
画層3-1
  6
Continuous
100
AcDbCircle
 10
23187.65547231349
 20
15781.52129392782
 30
0.0
 40
15.0
100
AcDbArc
 50
0.0
 51
90.0
  0
ARC
  5
769
330
1F
100
AcDbEntity
  8
画層3-1
  6
Continuous
100
AcDbCircle
 10
23268.4554723133
 20
15781.52129392771
 30
0.0
 40
15.0
100
AcDbArc
 50
90.0
 51
180.0
  0
LINE
  5
76A
330
1F
100
AcDbEntity
  8
画層3-1
  6
Continuous
100
AcDbLine
 10
23177.25547231358
 20
15834.6212939278
 30
0.0
 11
23177.25547231358
 21
15796.52129392782
 31
0.0
  0
LINE
  5
76B
330
1F
100
AcDbEntity
  8
画層3-1
  6
Continuous
100
AcDbLine
 10
23278.85547231367
 20
15796.52129392771
 30
0.0
 11
23278.85547231367
 21
15834.6212939278
 31
0.0
  0
LINE
  5
76C
330
1F
100
AcDbEntity
  8
画層3-1
  6
Continuous
100
AcDbLine
 10
23268.4554723133
 20
15796.52129392782
 30
0.0
 11
25187.65547231349
 21
15796.52129392782
 31
0.0
  0
ARC
  5
76D
330
1F
100
AcDbEntity
  8
画層3-1
  6
Continuous
100
AcDbCircle
 10
21268.4554723133
 20
15781.52129392771
 30
0.0
 40
15.0
100
AcDbArc
 50
90.0
 51
180.0
  0
LINE
  5
76E
330
1F
100
AcDbEntity
  8
画層3-1
  6
Continuous
100
AcDbLine
 10
21263.85547231367
 20
15781.52129392771
 30
0.0
 11
21278.85547231367
 21
15796.52129392771
 31
0.0
  0
LINE
  5
76F
330
1F
100
AcDbEntity
  8
画層3-1
  6
Continuous
100
AcDbLine
 10
21177.25547231358
 20
15796.52129392782
 30
0.0
 11
21192.25547231358
 21
15781.52129392782
 31
0.0
  0
ARC
  5
770
330
1F
100
AcDbEntity
  8
画層3-1
  6
Continuous
100
AcDbCircle
 10
21187.65547231349
 20
15781.52129392782
 30
0.0
 40
15.0
100
AcDbArc
 50
0.0
 51
90.0
  0
LINE
  5
771
330
1F
100
AcDbEntity
  8
画層3-1
  6
Continuous
100
AcDbLine
 10
21263.85547231367
 20
15781.52129392771
 30
0.0
 11
21192.25547231358
 21
15781.52129392782
 31
0.0
  0
LINE
  5
772
330
1F
100
AcDbEntity
  8
画層3-1
  6
Continuous
100
AcDbLine
 10
21278.85547231367
 20
15796.52129392771
 30
0.0
 11
21278.85547231367
 21
15834.6212939278
 31
0.0
  0
LINE
  5
773
330
1F
100
AcDbEntity
  8
画層3-1
  6
Continuous
100
AcDbLine
 10
21177.25547231358
 20
15834.6212939278
 30
0.0
 11
21177.25547231358
 21
15796.52129392782
 31
0.0
  0
LINE
  5
774
330
1F
100
AcDbEntity
  8
画層3-1
  6
Continuous
100
AcDbLine
 10
21268.4554723133
 20
15796.52129392782
 30
0.0
 11
23187.65547231349
 21
15796.52129392794
 31
0.0
  0
LINE
  5
775
330
1F
100
AcDbEntity
  8
画層3-1
  6
Continuous
100
AcDbLine
 10
25268.4554723133
 20
15796.52129392782
 30
0.0
 11
26128.0554723134
 21
15796.52129392782
 31
0.0
  0
LINE
  5
776
330
1F
100
AcDbEntity
  8
DEFPOINTS
100
AcDbLine
 10
24063.57768441734
 20
20799.6212939278
 30
0.0
 11
25143.37325544047
 21
15834.6212939278
 31
0.0
  0
HATCH
  5
777
330
1F
100
AcDbEntity
  8
ﾈｯﾄ
 62
   230
370
    13
100
AcDbHatch
 10
0.0
 20
0.0
 30
0.0
210
0.0
220
0.0
230
1.0
  2
NET
 70
     0
 71
     0
 91
        1
 92
        7
 72
     0
 73
     1
 93
        4
 10
25137.93621832548
 20
15859.6212939278
 10
26128.0554723134
 20
15859.6212939278
 10
26128.0554723134
 20
20799.6212939278
 10
24063.57768441734
 20
20799.6212939278
 97
        0
 75
     0
 76
     1
 52
0.0
 41
1000.0
 77
     0
 78
     2
 53
0.0
 43
694.7221389803694
 44
2076.287960594546
 45
0.0
 46
125.0
 79
     0
 53
90.0
 43
694.7221389803694
 44
2076.287960594546
 45
-125.0
 46
0.0000000000000077
 79
     0
 47
32.74726336892042
 98
        1
 10
24917.51054900509
 20
18971.55992601919
  0
DIMENSION
  5
778
330
1F
100
AcDbEntity
  8
寸法
  6
Continuous
100
AcDbDimension
  2
*D24
 10
27628.05547231339
 20
18329.62129392861
 30
0.0
 11
27349.48404374196
 21
17094.62129392862
 31
0.0
 70
    32
 71
     5
 42
2470.0
  3
1_100
100
AcDbAlignedDimension
 13
26628.05547231339
 23
15859.62129392862
 33
0.0
 14
26628.05547231339
 24
18329.62129392861
 34
0.0
 50
90.0
100
AcDbRotatedDimension
  0
LINE
  5
779
330
1F
100
AcDbEntity
  8
寸法引出
  6
Continuous
100
AcDbLine
 10
20693.28427047326
 20
15859.6212939278
 30
0.0
 11
20982.22357498153
 21
16354.84621637748
 31
0.0
  0
LINE
  5
77A
330
1F
100
AcDbEntity
  8
寸法引出
  6
Continuous
100
AcDbLine
 10
16560.25443225164
 20
18688.74587251551
 30
0.0
 11
16084.24466802409
 21
19234.68443032333
 31
0.0
  0
CIRCLE
  5
77B
330
1F
100
AcDbEntity
  8
画層1
  6
Continuous
100
AcDbCircle
 10
19107.7054723133
 20
18329.6212939278
 30
0.0
 40
10.9509940156
  0
LINE
  5
77C
330
1F
100
AcDbEntity
  8
画層1
  6
Continuous
100
AcDbLine
 10
19373.40547231348
 20
18354.6212939278
 30
0.0
 11
19082.7054723133
 21
18354.6212939278
 31
0.0
  0
CIRCLE
  5
77D
330
1F
100
AcDbEntity
  8
画層1
  6
Continuous
100
AcDbCircle
 10
19348.40547231349
 20
18329.6212939278
 30
0.0
 40
10.9509940156
  0
LINE
  5
77E
330
1F
100
AcDbEntity
  8
画層1
  6
Continuous
100
AcDbLine
 10
19082.7054723133
 20
18304.6212939278
 30
0.0
 11
19373.40547231348
 21
18304.6212939278
 31
0.0
  0
LINE
  5
77F
330
1F
100
AcDbEntity
  8
画層1
  6
Continuous
100
AcDbLine
 10
19082.7054723133
 20
18354.6212939278
 30
0.0
 11
19082.7054723133
 21
18304.6212939278
 31
0.0
  0
LINE
  5
780
330
1F
100
AcDbEntity
  8
画層1
  6
Continuous
100
AcDbLine
 10
19253.05547231339
 20
18304.6212939278
 30
0.0
 11
19253.05547231339
 21
18354.6212939278
 31
0.0
  0
LINE
  5
781
330
1F
100
AcDbEntity
  8
画層1
  6
Continuous
100
AcDbLine
 10
19203.05547231339
 20
18304.6212939278
 30
0.0
 11
19203.05547231339
 21
18354.6212939278
 31
0.0
  0
LINE
  5
782
330
1F
100
AcDbEntity
  8
画層1
  6
Continuous
100
AcDbLine
 10
19373.40547231348
 20
18304.6212939278
 30
0.0
 11
19373.40547231348
 21
18354.6212939278
 31
0.0
  0
LINE
  5
783
330
1F
100
AcDbEntity
  8
画層1
  6
Continuous
100
AcDbLine
 10
19373.40547231348
 20
20824.6212939278
 30
0.0
 11
19082.7054723133
 21
20824.6212939278
 31
0.0
  0
LINE
  5
784
330
1F
100
AcDbEntity
  8
画層1
  6
Continuous
100
AcDbLine
 10
19132.7054723133
 20
20839.6212939278
 30
0.0
 11
19323.40547231349
 21
20839.6212939278
 31
0.0
  0
LINE
  5
785
330
1F
100
AcDbEntity
  8
画層1
  6
Continuous
100
AcDbLine
 10
19132.7054723133
 20
20859.6212939278
 30
0.0
 11
19323.40547231349
 21
20859.6212939278
 31
0.0
  0
LINE
  5
786
330
1F
100
AcDbEntity
  8
画層1
  6
Continuous
100
AcDbLine
 10
19082.7054723133
 20
20774.6212939278
 30
0.0
 11
19373.40547231348
 21
20774.6212939278
 31
0.0
  0
CIRCLE
  5
787
330
1F
100
AcDbEntity
  8
画層1
  6
Continuous
100
AcDbCircle
 10
19348.40547231349
 20
20749.6212939278
 30
0.0
 40
10.9509940156
  0
CIRCLE
  5
788
330
1F
100
AcDbEntity
  8
画層1
  6
Continuous
100
AcDbCircle
 10
19107.7054723133
 20
20749.6212939278
 30
0.0
 40
10.9509940156
  0
LINE
  5
789
330
1F
100
AcDbEntity
  8
画層1
  6
Continuous
100
AcDbLine
 10
19082.7054723133
 20
20724.6212939278
 30
0.0
 11
19373.40547231348
 21
20724.6212939278
 31
0.0
  0
LINE
  5
78A
330
1F
100
AcDbEntity
  8
画層1
  6
Continuous
100
AcDbLine
 10
19373.40547231348
 20
20724.6212939278
 30
0.0
 11
19373.40547231348
 21
20774.6212939278
 31
0.0
  0
LINE
  5
78B
330
1F
100
AcDbEntity
  8
画層1
  6
Continuous
100
AcDbLine
 10
19373.40547231348
 20
20774.6212939278
 30
0.0
 11
19082.7054723133
 21
20774.6212939278
 31
0.0
  0
LINE
  5
78C
330
1F
100
AcDbEntity
  8
画層1
  6
Continuous
100
AcDbLine
 10
19203.05547231339
 20
20724.6212939278
 30
0.0
 11
19203.05547231339
 21
20774.6212939278
 31
0.0
  0
LINE
  5
78D
330
1F
100
AcDbEntity
  8
画層1
  6
Continuous
100
AcDbLine
 10
19253.05547231339
 20
20724.6212939278
 30
0.0
 11
19253.05547231339
 21
20774.6212939278
 31
0.0
  0
LINE
  5
78E
330
1F
100
AcDbEntity
  8
画層1
  6
Continuous
100
AcDbLine
 10
19082.7054723133
 20
20774.6212939278
 30
0.0
 11
19082.7054723133
 21
20724.6212939278
 31
0.0
  0
CIRCLE
  5
78F
330
1F
100
AcDbEntity
  8
画層1
  6
Continuous
100
AcDbCircle
 10
19107.7054723133
 20
20799.6212939278
 30
0.0
 40
10.9509940156
  0
LINE
  5
790
330
1F
100
AcDbEntity
  8
画層1
  6
Continuous
100
AcDbLine
 10
19082.7054723133
 20
20824.6212939278
 30
0.0
 11
19082.7054723133
 21
20774.6212939278
 31
0.0
  0
CIRCLE
  5
791
330
1F
100
AcDbEntity
  8
画層1
  6
Continuous
100
AcDbCircle
 10
19348.40547231349
 20
20799.6212939278
 30
0.0
 40
10.9509940156
  0
LINE
  5
792
330
1F
100
AcDbEntity
  8
画層1
  6
Continuous
100
AcDbLine
 10
19253.05547231339
 20
20774.6212939278
 30
0.0
 11
19253.05547231339
 21
20824.6212939278
 31
0.0
  0
LINE
  5
793
330
1F
100
AcDbEntity
  8
画層1
  6
Continuous
100
AcDbLine
 10
19203.05547231339
 20
20774.6212939278
 30
0.0
 11
19203.05547231339
 21
20824.6212939278
 31
0.0
  0
LINE
  5
794
330
1F
100
AcDbEntity
  8
画層1
  6
Continuous
100
AcDbLine
 10
19373.40547231348
 20
20774.6212939278
 30
0.0
 11
19373.40547231348
 21
20824.6212939278
 31
0.0
  0
LINE
  5
795
330
1F
100
AcDbEntity
  8
通り芯
  6
DASHDOT
 48
100.0
100
AcDbLine
 10
19228.05547231339
 20
19290.65063442024
 30
0.0
 11
19228.05547231339
 21
20920.08395363044
 31
0.0
  0
LINE
  5
796
330
1F
100
AcDbEntity
  8
画層1
  6
Continuous
100
AcDbLine
 10
19323.40547231349
 20
19290.65063442024
 30
0.0
 11
19323.40547231349
 21
20859.6212939278
 31
0.0
  0
LINE
  5
797
330
1F
100
AcDbEntity
  8
画層1
  6
Continuous
100
AcDbLine
 10
19132.7054723133
 20
20859.6212939278
 30
0.0
 11
19132.7054723133
 21
19290.65063442024
 31
0.0
  0
LINE
  5
798
330
1F
100
AcDbEntity
  8
画層3-1
  6
Continuous
100
AcDbLine
 10
15268.4554723133
 20
15796.52129392782
 30
0.0
 11
17187.65547231349
 21
15796.52129392782
 31
0.0
  0
LEADER
  5
799
330
1F
100
AcDbEntity
  8
寸法引出
  6
Continuous
100
AcDbLeader
  3
1_100_B
 71
     0
 73
     0
 74
     0
 75
     1
 40
300.0
 41
1845.0
 76
     3
 10
15293.40547231348
 20
15560.46483725824
 30
0.0
 10
15505.14463753156
 20
15298.9102505029
 30
0.0
 10
15585.14463753156
 20
15298.9102505029
 30
0.0
1001
ACAD
1000
DSTYLE
1002
{
1070
    77
1070
     2
1070
   174
1070
     1
1002
}
  0
MTEXT
  5
79A
102
{ACAD_REACTORS
330
799
102
}
330
1F
100
AcDbEntity
  8
寸法文字
  6
Continuous
100
AcDbMText
 10
15635.14463753156
 20
15348.9102505029
 30
0.0
 40
300.0
 41
0.0
 71
     7
 72
     1
  1
FB-4.5×19
  7
1_100
 73
     1
 44
1.0
1001
ACAD
1000
MTEXTBEGIN
1070
    73
1070
     1
1070
    44
1040
1.0
1070
    74
1070
     0
1000
MTEXTEND
  0
LINE
  5
79B
330
1F
100
AcDbEntity
  8
画層3-1
  6
Continuous
100
AcDbLine
 10
15263.85547231367
 20
15781.52129392771
 30
0.0
 11
15278.85547231367
 21
15796.52129392771
 31
0.0
  0
LINE
  5
79C
330
1F
100
AcDbEntity
  8
画層3-1
  6
Continuous
100
AcDbLine
 10
15263.85547231367
 20
15781.52129392771
 30
0.0
 11
15192.25547231358
 21
15781.52129392782
 31
0.0
  0
ARC
  5
79D
330
1F
100
AcDbEntity
  8
画層3-1
  6
Continuous
100
AcDbCircle
 10
15268.4554723133
 20
15781.52129392771
 30
0.0
 40
15.0
100
AcDbArc
 50
90.0
 51
180.0
  0
LINE
  5
79E
330
1F
100
AcDbEntity
  8
画層3-1
  6
Continuous
100
AcDbLine
 10
15177.25547231358
 20
15796.52129392782
 30
0.0
 11
15192.25547231358
 21
15781.52129392782
 31
0.0
  0
ARC
  5
79F
330
1F
100
AcDbEntity
  8
画層3-1
  6
Continuous
100
AcDbCircle
 10
15187.65547231348
 20
15781.52129392782
 30
0.0
 40
15.0
100
AcDbArc
 50
0.0
 51
90.0
  0
LINE
  5
7A0
330
1F
100
AcDbEntity
  8
画層3-1
  6
Continuous
100
AcDbLine
 10
15278.85547231367
 20
15796.52129392771
 30
0.0
 11
15278.85547231367
 21
15834.6212939278
 31
0.0
  0
LINE
  5
7A1
330
1F
100
AcDbEntity
  8
画層3-1
  6
Continuous
100
AcDbLine
 10
15177.25547231358
 20
15834.6212939278
 30
0.0
 11
15177.25547231358
 21
15796.52129392782
 31
0.0
  0
LWPOLYLINE
  5
7A2
330
1F
100
AcDbEntity
  8
画層1-1
100
AcDbPolyline
 90
        4
 70
     1
 43
0.0
 10
19470.91427788647
 20
15944.05431576076
 10
19631.51163483175
 20
16025.3469286822
 10
19649.57651394649
 20
15989.65855322781
 10
19488.97915700121
 20
15908.36594030636
  0
CIRCLE
  5
7A3
330
1F
100
AcDbEntity
  8
画層1
  6
Continuous
100
AcDbCircle
 10
19107.7054723133
 20
15859.6212939278
 30
0.0
 40
10.9509940156
  0
LINE
  5
7A4
330
1F
100
AcDbEntity
  8
画層1
  6
Continuous
100
AcDbLine
 10
19373.40547231348
 20
15834.6212939278
 30
0.0
 11
19082.7054723133
 21
15834.6212939278
 31
0.0
  0
LINE
  5
7A5
330
1F
100
AcDbEntity
  8
画層1
  6
Continuous
100
AcDbLine
 10
19373.40547231348
 20
15884.6212939278
 30
0.0
 11
19082.7054723133
 21
15884.6212939278
 31
0.0
  0
LINE
  5
7A6
330
1F
100
AcDbEntity
  8
画層1
  6
Continuous
100
AcDbLine
 10
19082.7054723133
 20
15884.6212939278
 30
0.0
 11
19082.7054723133
 21
15834.6212939278
 31
0.0
  0
CIRCLE
  5
7A7
330
1F
100
AcDbEntity
  8
画層1
  6
Continuous
100
AcDbCircle
 10
19348.40547231349
 20
15859.6212939278
 30
0.0
 40
10.9509940156
  0
LINE
  5
7A8
330
1F
100
AcDbEntity
  8
画層1
  6
Continuous
100
AcDbLine
 10
19253.05547231339
 20
15834.6212939278
 30
0.0
 11
19253.05547231339
 21
15884.6212939278
 31
0.0
  0
LINE
  5
7A9
330
1F
100
AcDbEntity
  8
画層1
  6
Continuous
100
AcDbLine
 10
19203.05547231339
 20
15834.6212939278
 30
0.0
 11
19203.05547231339
 21
15884.6212939278
 31
0.0
  0
LINE
  5
7AA
330
1F
100
AcDbEntity
  8
画層1
  6
Continuous
100
AcDbLine
 10
19373.40547231348
 20
15834.6212939278
 30
0.0
 11
19373.40547231348
 21
15884.6212939278
 31
0.0
  0
ARC
  5
7AB
330
1F
100
AcDbEntity
  8
画層3-1
  6
Continuous
100
AcDbCircle
 10
19187.65547231348
 20
15781.52129392782
 30
0.0
 40
15.0
100
AcDbArc
 50
0.0
 51
90.0
  0
LINE
  5
7AC
330
1F
100
AcDbEntity
  8
画層3-1
  6
Continuous
100
AcDbLine
 10
19177.25547231358
 20
15796.52129392782
 30
0.0
 11
19192.25547231358
 21
15781.52129392782
 31
0.0
  0
ARC
  5
7AD
330
1F
100
AcDbEntity
  8
画層3-1
  6
Continuous
100
AcDbCircle
 10
19268.4554723133
 20
15781.52129392771
 30
0.0
 40
15.0
100
AcDbArc
 50
90.0
 51
180.0
  0
LINE
  5
7AE
330
1F
100
AcDbEntity
  8
画層3-1
  6
Continuous
100
AcDbLine
 10
19263.85547231367
 20
15781.52129392771
 30
0.0
 11
19192.25547231358
 21
15781.52129392782
 31
0.0
  0
LINE
  5
7AF
330
1F
100
AcDbEntity
  8
画層3-1
  6
Continuous
100
AcDbLine
 10
19263.85547231367
 20
15781.52129392771
 30
0.0
 11
19278.85547231367
 21
15796.52129392771
 31
0.0
  0
LINE
  5
7B0
330
1F
100
AcDbEntity
  8
画層3-1
  6
Continuous
100
AcDbLine
 10
19177.25547231358
 20
15834.6212939278
 30
0.0
 11
19177.25547231358
 21
15796.52129392782
 31
0.0
  0
LINE
  5
7B1
330
1F
100
AcDbEntity
  8
画層3-1
  6
Continuous
100
AcDbLine
 10
19278.85547231367
 20
15796.52129392771
 30
0.0
 11
19278.85547231367
 21
15834.6212939278
 31
0.0
  0
LWPOLYLINE
  5
7B2
330
1F
100
AcDbEntity
  8
画層1-1
100
AcDbPolyline
 90
        4
 70
     1
 43
0.0
 10
18985.13781068284
 20
15944.27431122798
 10
18824.54012120419
 20
16025.56626721101
 10
18806.47538807611
 20
15989.87781786106
 10
18967.07307755478
 20
15908.58586187803
  0
LINE
  5
7B3
330
1F
100
AcDbEntity
  8
画層3-1
  6
Continuous
100
AcDbLine
 10
17202.65547231349
 20
15781.52129392782
 30
0.0
 11
17202.65547231349
 21
15737.91564877485
 31
0.0
  0
LINE
  5
7B4
330
1F
100
AcDbEntity
  8
画層3-1
  6
Continuous
100
AcDbLine
 10
17253.4554723133
 20
15781.52129392771
 30
0.0
 11
17253.4554723133
 21
15737.91564877485
 31
0.0
  0
LINE
  5
7B5
330
1F
100
AcDbEntity
  8
画層3-2
  6
Continuous
100
AcDbLine
 10
17293.40547231348
 20
15796.52129392782
 30
0.0
 11
17293.40547231348
 21
15737.91564877485
 31
0.0
  0
LINE
  5
7B6
330
1F
100
AcDbEntity
  8
画層3-1
  6
Continuous
100
AcDbLine
 10
17263.85547231367
 20
15781.52129392771
 30
0.0
 11
17192.25547231358
 21
15781.52129392782
 31
0.0
  0
LINE
  5
7B7
330
1F
100
AcDbEntity
  8
画層3-1
  6
Continuous
100
AcDbLine
 10
17177.25547231358
 20
15796.52129392782
 30
0.0
 11
17192.25547231358
 21
15781.52129392782
 31
0.0
  0
LINE
  5
7B8
330
1F
100
AcDbEntity
  8
画層3-1
  6
Continuous
100
AcDbLine
 10
17263.85547231367
 20
15781.52129392771
 30
0.0
 11
17278.85547231367
 21
15796.52129392771
 31
0.0
  0
ARC
  5
7B9
330
1F
100
AcDbEntity
  8
画層3-1
  6
Continuous
100
AcDbCircle
 10
17187.65547231349
 20
15781.52129392782
 30
0.0
 40
15.0
100
AcDbArc
 50
0.0
 51
90.0
  0
ARC
  5
7BA
330
1F
100
AcDbEntity
  8
画層3-1
  6
Continuous
100
AcDbCircle
 10
17268.4554723133
 20
15781.52129392771
 30
0.0
 40
15.0
100
AcDbArc
 50
90.0
 51
180.0
  0
LINE
  5
7BB
330
1F
100
AcDbEntity
  8
画層3-2
  6
Continuous
100
AcDbLine
 10
17162.7054723133
 20
15737.91564877485
 30
0.0
 11
17162.7054723133
 21
15796.52129392782
 31
0.0
  0
LINE
  5
7BC
330
1F
100
AcDbEntity
  8
画層3-1
  6
Continuous
100
AcDbLine
 10
17177.25547231358
 20
15834.6212939278
 30
0.0
 11
17177.25547231358
 21
15796.52129392782
 31
0.0
  0
LINE
  5
7BD
330
1F
100
AcDbEntity
  8
画層3-1
  6
Continuous
100
AcDbLine
 10
17278.85547231367
 20
15796.52129392771
 30
0.0
 11
17278.85547231367
 21
15834.6212939278
 31
0.0
  0
LINE
  5
7BE
330
1F
100
AcDbEntity
  8
画層3-通り芯
  6
DASHDOT
 48
100.0
100
AcDbLine
 10
17228.05547231339
 20
15737.91564877485
 30
0.0
 11
17228.05547231339
 21
15859.62129392792
 31
0.0
  0
LINE
  5
7BF
330
1F
100
AcDbEntity
  8
画層3-1
  6
Continuous
100
AcDbLine
 10
17268.4554723133
 20
15796.52129392771
 30
0.0
 11
19162.7054723133
 21
15796.52129392782
 31
0.0
  0
MTEXT
  5
7C0
102
{ACAD_REACTORS
330
7C1
102
}
330
1F
100
AcDbEntity
  8
寸法文字
  6
Continuous
100
AcDbMText
 10
18749.02021722678
 20
17002.8020589154
 30
0.0
 40
300.0
 41
0.0
 71
     9
 72
     1
  1
バンド金具
  7
1_100
 73
     1
 44
1.0
1001
ACAD
1000
MTEXTBEGIN
1070
    73
1070
     1
1070
    44
1040
1.0
1070
    74
1070
     0
1000
MTEXTEND
  0
LEADER
  5
7C1
330
1F
100
AcDbEntity
  8
寸法引出
  6
Continuous
100
AcDbLeader
  3
1_100
 71
     0
 73
     0
 75
     1
 40
300.0
 41
1319.999999999999
 76
     3
 10
19109.26816924984
 20
15884.62129392792
 30
0.0
 10
18909.02021722678
 20
16902.8020589154
 30
0.0
 10
18849.02021722678
 20
16902.8020589154
 30
0.0
340
7C0
  0
LEADER
  5
7C2
330
1F
100
AcDbEntity
  8
寸法引出
  6
Continuous
100
AcDbLeader
  3
1_100
 71
     0
 73
     0
 74
     0
 75
     1
 40
346.6666666666666
 41
3687.142857142858
 76
     3
 10
15423.03236319913
 20
17724.74329643047
 30
0.0
 10
16560.25443225164
 20
18688.74587251551
 30
0.0
 10
16620.25443225164
 20
18688.74587251551
 30
0.0
340
7C3
  0
MTEXT
  5
7C3
102
{ACAD_REACTORS
330
7C2
102
}
330
1F
100
AcDbEntity
  8
寸法文字
  6
Continuous
100
AcDbMText
 10
16720.25443225164
 20
18788.74587251551
 30
0.0
 40
300.0
 41
0.0
 71
     7
 72
     1
  1
筋違メッセンワイヤー38m㎡
  7
1_100
 73
     1
 44
1.0
1001
ACAD
1000
MTEXTBEGIN
1070
    73
1070
     1
1070
    44
1040
1.0
1070
    74
1070
     0
1000
MTEXTEND
  0
LINE
  5
7C4
330
1F
100
AcDbEntity
  8
画層1-1
  6
Continuous
100
AcDbLine
 10
26128.0554723134
 20
19291.37059971809
 30
0.0
 11
19348.40547231349
 21
15859.6212939278
 31
0.0
  0
LINE
  5
7C5
330
1F
100
AcDbEntity
  8
画層1-1
  6
Continuous
100
AcDbLine
 10
26128.0554723134
 20
17367.87198813751
 30
0.0
 11
19348.40547231349
 21
20749.6212939278
 31
0.0
  0
LINE
  5
7C6
330
1F
100
AcDbEntity
  8
画層3-1
  6
Continuous
100
AcDbLine
 10
19268.4554723133
 20
15796.52129392771
 30
0.0
 11
21187.65547231349
 21
15796.52129392782
 31
0.0
  0
LEADER
  5
7C7
330
1F
100
AcDbEntity
  8
寸法引出
  6
Continuous
100
AcDbLeader
  3
1_100
 71
     0
 73
     0
 74
     0
 75
     1
 40
346.6666666666666
 41
3117.142857142857
 76
     3
 10
16714.97078384409
 20
20799.6212939278
 30
0.0
 10
17316.94695832623
 20
21944.53384047517
 30
0.0
 10
17376.94695832623
 20
21944.53384047517
 30
0.0
340
7C8
  0
MTEXT
  5
7C8
102
{ACAD_REACTORS
330
7C7
102
}
330
1F
100
AcDbEntity
  8
寸法文字
  6
Continuous
100
AcDbMText
 10
17476.94695832623
 20
22044.53384047516
 30
0.0
 40
300.0
 41
0.0
 71
     7
 72
     1
  1
メッセンワイヤー38m㎡
  7
1_100
 73
     1
 44
1.0
1001
ACAD
1000
MTEXTBEGIN
1070
    73
1070
     1
1070
    44
1040
1.0
1070
    74
1070
     0
1000
MTEXTEND
  0
DIMENSION
  5
7C9
330
1F
100
AcDbEntity
  8
寸法
  6
Continuous
100
AcDbDimension
  2
*D25
 10
33828.05547231339
 20
15859.62129392862
 30
0.0
 11
33549.48404374197
 21
14859.62129392861
 31
0.0
 70
    32
 71
     5
 42
2000.0
  3
1_100
100
AcDbAlignedDimension
 13
32728.05547231339
 23
13859.62129392862
 33
0.0
 14
32728.05547231339
 24
15859.62129392862
 34
0.0
 50
90.0
100
AcDbRotatedDimension
  0
LWPOLYLINE
  5
7CA
330
1F
100
AcDbEntity
  8
画層3-1
100
AcDbPolyline
 90
        4
 70
     0
 43
0.0
 10
31110.4554723133
 20
15859.6212939271
 10
31110.4554723133
 20
13659.6212939271
 10
31059.65547231349
 20
13659.6212939271
 10
31059.65547231349
 20
15859.6212939271
  0
LINE
  5
7CB
330
1F
100
AcDbEntity
  8
画層3-1
100
AcDbLine
 10
31085.05547231339
 20
13988.29587983098
 30
0.0
 11
31085.05547231339
 21
15834.22129392708
 31
0.0
  0
LINE
  5
7CC
330
1F
100
AcDbEntity
  8
画層1
  6
Continuous
100
AcDbLine
 10
31323.40547231349
 20
11859.62129392687
 30
0.0
 11
31323.40547231349
 21
20859.62129392687
 31
0.0
  0
LINE
  5
7CD
330
1F
100
AcDbEntity
  8
画層1
  6
Continuous
100
AcDbLine
 10
31132.7054723133
 20
20859.62129392687
 30
0.0
 11
31132.7054723133
 21
11859.62129392687
 31
0.0
  0
LINE
  5
7CE
330
1F
100
AcDbEntity
  8
通り芯
  6
DASHDOT
 48
100.0
100
AcDbLine
 10
31228.05547231339
 20
11617.15382213404
 30
0.0
 11
31228.05547231339
 21
20920.08395362997
 31
0.0
  0
DIMENSION
  5
7CF
330
1F
100
AcDbEntity
  8
寸法
  6
Continuous
100
AcDbDimension
  2
*D26
 10
34828.05547231339
 20
13859.62129392862
 30
0.0
 11
34549.48404374196
 21
17359.62129392862
 31
0.0
 70
    32
 71
     5
 42
6999.999999999999
  3
1_100
100
AcDbAlignedDimension
 13
32728.05547231339
 23
20859.62129392862
 33
0.0
 14
32728.05547231339
 24
13859.62129392862
 34
0.0
 50
90.0
100
AcDbRotatedDimension
  0
DIMENSION
  5
7D0
330
1F
100
AcDbEntity
  8
寸法
  6
Continuous
100
AcDbDimension
  2
*D27
 10
31453.05547231339
 20
11159.62129392815
 30
0.0
 11
30428.52873853824
 21
11333.67673241024
 31
0.0
 70
   160
  1
φ<>
 71
     5
 42
450.0
  3
1_100
100
AcDbAlignedDimension
 13
31003.05547231339
 23
11759.62129392815
 33
0.0
 14
31453.05547231339
 24
11759.62129392815
 34
0.0
100
AcDbRotatedDimension
  0
LINE
  5
7D1
330
1F
100
AcDbEntity
  8
画層2
  6
Continuous
100
AcDbLine
 10
29885.19763534699
 20
13859.6212939278
 30
0.0
 11
32162.2365191979
 21
13859.6212939278
 31
0.0
  0
TEXT
  5
7D2
330
1F
100
AcDbEntity
  8
寸法
  6
Continuous
100
AcDbText
 10
30006.54905196749
 20
13898.94309308313
 30
0.0
 40
300.0
  1
▽GL
 41
0.75
  7
1_100
 72
     2
 11
30672.97762339606
 21
13898.94309308313
 31
0.0
100
AcDbText
 73
     1
  0
DIMENSION
  5
7D3
330
1F
100
AcDbEntity
  8
寸法
  6
Continuous
100
AcDbDimension
  2
*D28
 10
33828.05547231339
 20
13859.62129392862
 30
0.0
 11
34094.67007715717
 21
13502.72450745877
 31
0.0
 70
   160
 71
     5
 42
300.0
  3
1_100
100
AcDbAlignedDimension
 13
32728.05547231339
 23
13559.62129392862
 33
0.0
 14
32728.05547231339
 24
13859.62129392862
 34
0.0
 50
90.0
100
AcDbRotatedDimension
  0
DIMENSION
  5
7D4
330
1F
100
AcDbEntity
  8
寸法
  6
Continuous
100
AcDbDimension
  2
*D29
 10
33828.05547231339
 20
11859.62129392862
 30
0.0
 11
33524.08617547756
 21
11368.97074168748
 31
0.0
 70
   160
 71
     5
 42
100.0
  3
1_100
100
AcDbAlignedDimension
 13
32728.05547231339
 23
11759.62129392862
 33
0.0
 14
32728.05547231339
 24
11859.62129392862
 34
0.0
 50
90.0
100
AcDbRotatedDimension
  0
DIMENSION
  5
7D5
330
1F
100
AcDbEntity
  8
寸法
  6
Continuous
100
AcDbDimension
  2
*D30
 10
33828.05547231339
 20
13559.62129392862
 30
0.0
 11
33549.48404374197
 21
12709.62129392862
 31
0.0
 70
    32
 71
     5
 42
1700.0
  3
1_100
100
AcDbAlignedDimension
 13
32728.05547231339
 23
11859.62129392862
 33
0.0
 14
32728.05547231339
 24
13559.62129392862
 34
0.0
 50
90.0
100
AcDbRotatedDimension
  0
DIMENSION
  5
7D6
330
1F
100
AcDbEntity
  8
寸法
  6
Continuous
100
AcDbDimension
  2
*D31
 10
34828.05547231339
 20
11859.62129392862
 30
0.0
 11
34549.48404374196
 21
12859.62129392862
 31
0.0
 70
    32
 71
     5
 42
2000.0
  3
1_100
100
AcDbAlignedDimension
 13
32728.05547231339
 23
13859.62129392862
 33
0.0
 14
32728.05547231339
 24
11859.62129392862
 34
0.0
 50
90.0
100
AcDbRotatedDimension
  0
LWPOLYLINE
  5
7D7
330
1F
100
AcDbEntity
  8
画層2
100
AcDbPolyline
 90
        3
 70
     0
 43
0.0
 10
31478.05547231339
 20
13859.62129392733
 10
31478.05547231339
 20
13559.62129392733
 10
31453.05547231339
 20
13559.62129392733
  0
LINE
  5
7D8
330
1F
100
AcDbEntity
  8
画層3-1
100
AcDbLine
 10
31110.4554723133
 20
13988.29587983098
 30
0.0
 11
31059.65547231349
 21
13988.29587983098
 31
0.0
  0
LINE
  5
7D9
330
1F
100
AcDbEntity
  8
画層3-1
100
AcDbLine
 10
31110.4554723133
 20
13963.29587983098
 30
0.0
 11
31059.65547231349
 21
13963.29587983098
 31
0.0
  0
LWPOLYLINE
  5
7DA
330
1F
100
AcDbEntity
  8
画層2
100
AcDbPolyline
 90
        3
 70
     0
 43
0.0
 10
31003.05547231339
 20
13559.62129392733
 10
30978.05547231339
 20
13559.62129392733
 10
30978.05547231339
 20
13859.62129392733
  0
LINE
  5
7DB
330
1F
100
AcDbEntity
  8
画層2-1
  6
Continuous
100
AcDbLine
 10
31132.7054723133
 20
13959.62129392687
 30
0.0
 11
31323.40547231349
 21
13959.62129392687
 31
0.0
  0
LINE
  5
7DC
330
1F
100
AcDbEntity
  8
画層2-1
  6
Continuous
100
AcDbLine
 10
31132.7054723133
 20
13709.62129392687
 30
0.0
 11
31323.40547231349
 21
13709.62129392687
 31
0.0
  0
LINE
  5
7DD
330
1F
100
AcDbEntity
  8
ﾊｯﾁﾝｸﾞ
  6
Continuous
100
AcDbLine
 10
31205.27734108825
 20
11859.62129392687
 30
0.0
 11
31221.38447439529
 21
11837.77821829859
 31
0.0
  0
LINE
  5
7DE
330
1F
100
AcDbEntity
  8
ﾊｯﾁﾝｸﾞ
  6
Continuous
100
AcDbLine
 10
31291.87988146671
 20
11859.62129392687
 30
0.0
 11
31307.98701477373
 21
11837.77821829859
 31
0.0
  0
LINE
  5
7DF
330
1F
100
AcDbEntity
  8
ﾊｯﾁﾝｸﾞ
  6
Continuous
100
AcDbLine
 10
31378.4824218447
 20
11859.62129392687
 30
0.0
 11
31394.5895551522
 21
11837.77821829859
 31
0.0
  0
LINE
  5
7E0
330
1F
100
AcDbEntity
  8
ﾊｯﾁﾝｸﾞ
  6
Continuous
100
AcDbLine
 10
31448.90645806535
 20
11781.85785385363
 30
0.0
 11
31453.05547231339
 21
11774.67155037427
 31
0.0
  0
LINE
  5
7E1
330
1F
100
AcDbEntity
  8
ﾊｯﾁﾝｸﾞ
  6
Continuous
100
AcDbLine
 10
31436.06817420569
 20
11759.62129392687
 30
0.0
 11
31453.05547231339
 21
11789.04415733288
 31
0.0
  0
LINE
  5
7E2
330
1F
100
AcDbEntity
  8
ﾊｯﾁﾝｸﾞ
  6
Continuous
100
AcDbLine
 10
31189.09883692997
 20
11781.85785385363
 30
0.0
 11
31201.93712078917
 21
11759.62129392687
 31
0.0
  0
LINE
  5
7E3
330
1F
100
AcDbEntity
  8
ﾊｯﾁﾝｸﾞ
  6
Continuous
100
AcDbLine
 10
31362.30391768689
 20
11781.85785385363
 30
0.0
 11
31375.14220154608
 21
11759.62129392687
 31
0.0
  0
LINE
  5
7E4
330
1F
100
AcDbEntity
  8
ﾊｯﾁﾝｸﾞ
  6
Continuous
100
AcDbLine
 10
31275.70137730844
 20
11781.85785385363
 30
0.0
 11
31288.53966116762
 21
11759.62129392687
 31
0.0
  0
LINE
  5
7E5
330
1F
100
AcDbEntity
  8
ﾊｯﾁﾝｸﾞ
  6
Continuous
100
AcDbLine
 10
31176.26055307031
 20
11759.62129392687
 30
0.0
 11
31233.99557998913
 21
11859.62129392687
 31
0.0
  0
LINE
  5
7E6
330
1F
100
AcDbEntity
  8
ﾊｯﾁﾝｸﾞ
  6
Continuous
100
AcDbLine
 10
31262.86309344877
 20
11759.62129392687
 30
0.0
 11
31320.59812036759
 21
11859.62129392687
 31
0.0
  0
LINE
  5
7E7
330
1F
100
AcDbEntity
  8
ﾊｯﾁﾝｸﾞ
  6
Continuous
100
AcDbLine
 10
31349.46563382723
 20
11759.62129392687
 30
0.0
 11
31407.20066074605
 21
11859.62129392687
 31
0.0
  0
LINE
  5
7E8
330
1F
100
AcDbEntity
  8
ﾊｯﾁﾝｸﾞ
  6
Continuous
100
AcDbLine
 10
31032.07226033133
 20
11859.62129392687
 30
0.0
 11
31048.17939363837
 21
11837.77821829859
 31
0.0
  0
LINE
  5
7E9
330
1F
100
AcDbEntity
  8
ﾊｯﾁﾝｸﾞ
  6
Continuous
100
AcDbLine
 10
31118.67480070979
 20
11859.62129392687
 30
0.0
 11
31134.78193401682
 21
11837.77821829859
 31
0.0
  0
LINE
  5
7EA
330
1F
100
AcDbEntity
  8
ﾊｯﾁﾝｸﾞ
  6
Continuous
100
AcDbLine
 10
31102.49629655152
 20
11781.85785385363
 30
0.0
 11
31115.3345804107
 21
11759.62129392687
 31
0.0
  0
LINE
  5
7EB
330
1F
100
AcDbEntity
  8
ﾊｯﾁﾝｸﾞ
  6
Continuous
100
AcDbLine
 10
31015.89375617305
 20
11781.85785385363
 30
0.0
 11
31028.73204003225
 21
11759.62129392687
 31
0.0
  0
LINE
  5
7EC
330
1F
100
AcDbEntity
  8
ﾊｯﾁﾝｸﾞ
  6
Continuous
100
AcDbLine
 10
31003.05547231339
 20
11759.62129392687
 30
0.0
 11
31060.79049923221
 21
11859.62129392687
 31
0.0
  0
LINE
  5
7ED
330
1F
100
AcDbEntity
  8
ﾊｯﾁﾝｸﾞ
  6
Continuous
100
AcDbLine
 10
31089.65801269185
 20
11759.62129392687
 30
0.0
 11
31147.39303961067
 21
11859.62129392687
 31
0.0
  0
LINE
  5
7EE
330
1F
100
AcDbEntity
  8
画層2
  6
Continuous
100
AcDbLine
 10
31453.05547231339
 20
11859.62129392687
 30
0.0
 11
31003.05547231339
 21
11859.62129392687
 31
0.0
  0
LINE
  5
7EF
330
1F
100
AcDbEntity
  8
画層2
  6
Continuous
100
AcDbLine
 10
31003.05547231339
 20
11759.62129392687
 30
0.0
 11
31453.05547231339
 21
11759.62129392687
 31
0.0
  0
LWPOLYLINE
  5
7F0
330
1F
100
AcDbEntity
  8
画層2
100
AcDbPolyline
 90
        4
 70
     0
 43
0.0
 10
31453.05547231339
 20
13559.62129392733
 10
31453.05547231339
 20
11759.62129392687
 10
31003.05547231339
 20
11759.62129392687
 10
31003.05547231339
 20
13559.62129392733
  0
DIMENSION
  5
7F1
330
1F
100
AcDbEntity
  8
寸法
  6
Continuous
100
AcDbDimension
  2
*D32
 10
31478.05547231339
 20
10759.62129392769
 30
0.0
 11
31228.05547231339
 21
10509.62129392768
 31
0.0
 70
    32
  1
□<>
 71
     5
 42
500.0
  3
1_100
100
AcDbAlignedDimension
 13
30978.05547231339
 23
11759.62129392815
 33
0.0
 14
31478.05547231339
 24
11759.62129392803
 34
0.0
100
AcDbRotatedDimension
1001
ACAD
1000
DSTYLE
1002
{
1070
   174
1070
     1
1070
    77
1070
     2
1002
}
  0
LINE
  5
7F2
330
1F
100
AcDbEntity
  8
ﾊｯﾁﾝｸﾞ
  6
Continuous
100
AcDbLine
 10
31838.2207084675
 20
13767.95103240074
 30
0.0
 11
31866.55044694009
 21
13739.62129392768
 31
0.0
  0
LINE
  5
7F3
330
1F
100
AcDbEntity
  8
ﾊｯﾁﾝｸﾞ
  6
Continuous
100
AcDbLine
 10
31877.81868821379
 20
13807.54901214715
 30
0.0
 11
31945.74640643361
 21
13739.6212939278
 31
0.0
  0
LINE
  5
7F4
330
1F
100
AcDbEntity
  8
ﾊｯﾁﾝｸﾞ
  6
Continuous
100
AcDbLine
 10
31850.69501050186
 20
13859.6212939278
 30
0.0
 11
31759.02474897398
 21
13767.95103240074
 31
0.0
  0
LINE
  5
7F5
330
1F
100
AcDbEntity
  8
ﾊｯﾁﾝｸﾞ
  6
Continuous
100
AcDbLine
 10
31929.89096999491
 20
13859.6212939278
 30
0.0
 11
31809.89096999398
 21
13739.6212939278
 31
0.0
  0
LINE
  5
7F6
330
1F
100
AcDbEntity
  8
ﾊｯﾁﾝｸﾞ
  6
Continuous
100
AcDbLine
 10
31917.41666796055
 20
13847.14699189367
 30
0.0
 11
31971.17951694361
 21
13793.38414291062
 31
0.0
  0
LINE
  5
7F7
330
1F
100
AcDbEntity
  8
ﾊｯﾁﾝｸﾞ
  6
Continuous
100
AcDbLine
 10
31533.91117252918
 20
13859.62129392768
 30
0.0
 11
31478.05547231339
 21
13803.76559371213
 31
0.0
  0
LINE
  5
7F8
330
1F
100
AcDbEntity
  8
ﾊｯﾁﾝｸﾞ
  6
Continuous
100
AcDbLine
 10
31613.10713202224
 20
13859.6212939278
 30
0.0
 11
31493.10713202177
 21
13739.62129392768
 31
0.0
  0
LINE
  5
7F9
330
1F
100
AcDbEntity
  8
ﾊｯﾁﾝｸﾞ
  6
Continuous
100
AcDbLine
 10
31692.30309151529
 20
13859.6212939278
 30
0.0
 11
31572.30309151482
 21
13739.62129392768
 31
0.0
  0
LINE
  5
7FA
330
1F
100
AcDbEntity
  8
ﾊｯﾁﾝｸﾞ
  6
Continuous
100
AcDbLine
 10
31600.63282998834
 20
13767.95103240074
 30
0.0
 11
31628.96256846093
 21
13739.62129392768
 31
0.0
  0
LINE
  5
7FB
330
1F
100
AcDbEntity
  8
ﾊｯﾁﾝｸﾞ
  6
Continuous
100
AcDbLine
 10
31640.23080973464
 20
13807.54901214715
 30
0.0
 11
31708.15852795398
 21
13739.6212939278
 31
0.0
  0
LINE
  5
7FC
330
1F
100
AcDbEntity
  8
ﾊｯﾁﾝｸﾞ
  6
Continuous
100
AcDbLine
 10
31679.82878948139
 20
13847.14699189367
 30
0.0
 11
31787.35448744704
 21
13739.6212939278
 31
0.0
  0
LINE
  5
7FD
330
1F
100
AcDbEntity
  8
ﾊｯﾁﾝｸﾞ
  6
Continuous
100
AcDbLine
 10
31771.49905100834
 20
13859.6212939278
 30
0.0
 11
31719.42676922768
 21
13807.54901214715
 31
0.0
  0
LINE
  5
7FE
330
1F
100
AcDbEntity
  8
ﾊｯﾁﾝｸﾞ
  6
Continuous
100
AcDbLine
 10
30855.47811463845
 20
13767.95103240074
 30
0.0
 11
30827.14837616586
 21
13739.62129392768
 31
0.0
  0
LINE
  5
7FF
330
1F
100
AcDbEntity
  8
ﾊｯﾁﾝｸﾞ
  6
Continuous
100
AcDbLine
 10
30843.00381260409
 20
13859.6212939278
 30
0.0
 11
30963.00381260502
 21
13739.62129392768
 31
0.0
  0
LINE
  5
800
330
1F
100
AcDbEntity
  8
ﾊｯﾁﾝｸﾞ
  6
Continuous
100
AcDbLine
 10
30922.1997720976
 20
13859.62129392768
 30
0.0
 11
30978.05547231339
 21
13803.76559371213
 31
0.0
  0
LINE
  5
801
330
1F
100
AcDbEntity
  8
ﾊｯﾁﾝｸﾞ
  6
Continuous
100
AcDbLine
 10
30538.69427666624
 20
13847.14699189367
 30
0.0
 11
30484.93142768319
 21
13793.38414291062
 31
0.0
  0
LINE
  5
802
330
1F
100
AcDbEntity
  8
ﾊｯﾁﾝｸﾞ
  6
Continuous
100
AcDbLine
 10
30526.21997463188
 20
13859.6212939278
 30
0.0
 11
30646.21997463281
 21
13739.6212939278
 31
0.0
  0
LINE
  5
803
330
1F
100
AcDbEntity
  8
ﾊｯﾁﾝｸﾞ
  6
Continuous
100
AcDbLine
 10
30605.41593412493
 20
13859.6212939278
 30
0.0
 11
30697.08619565234
 21
13767.95103240062
 31
0.0
  0
LINE
  5
804
330
1F
100
AcDbEntity
  8
ﾊｯﾁﾝｸﾞ
  6
Continuous
100
AcDbLine
 10
30684.61189361799
 20
13859.6212939278
 30
0.0
 11
30736.6841753991
 21
13807.54901214715
 31
0.0
  0
LINE
  5
805
330
1F
100
AcDbEntity
  8
ﾊｯﾁﾝｸﾞ
  6
Continuous
100
AcDbLine
 10
30578.29225641253
 20
13807.54901214715
 30
0.0
 11
30510.36453819318
 21
13739.6212939278
 31
0.0
  0
LINE
  5
806
330
1F
100
AcDbEntity
  8
ﾊｯﾁﾝｸﾞ
  6
Continuous
100
AcDbLine
 10
30617.89023615929
 20
13767.95103240074
 30
0.0
 11
30589.56049768624
 21
13739.62129392768
 31
0.0
  0
LINE
  5
807
330
1F
100
AcDbEntity
  8
ﾊｯﾁﾝｸﾞ
  6
Continuous
100
AcDbLine
 10
30776.28215514538
 20
13847.14699189367
 30
0.0
 11
30668.75645717975
 21
13739.6212939278
 31
0.0
  0
LINE
  5
808
330
1F
100
AcDbEntity
  8
ﾊｯﾁﾝｸﾞ
  6
Continuous
100
AcDbLine
 10
30815.88013489169
 20
13807.54901214715
 30
0.0
 11
30747.95241667234
 21
13739.6212939278
 31
0.0
  0
LINE
  5
809
330
1F
100
AcDbEntity
  8
ﾊｯﾁﾝｸﾞ
  6
Continuous
100
AcDbLine
 10
30763.80785311104
 20
13859.6212939278
 30
0.0
 11
30883.80785311196
 21
13739.62129392768
 31
0.0
  0
HATCH
  5
80A
330
1F
100
AcDbEntity
  8
ﾊｯﾁﾝｸﾞ
100
AcDbHatch
 10
0.0
 20
0.0
 30
0.0
210
0.0
220
0.0
230
1.0
  2
PLAST
 70
     0
 71
     0
 91
        1
 92
        7
 72
     0
 73
     1
 93
        8
 10
31453.05547231339
 20
13559.62129392733
 10
31478.05547231339
 20
13559.62129392733
 10
31478.05547231339
 20
13859.6212939278
 10
30978.05547231339
 20
13859.6212939278
 10
30978.05547231339
 20
13559.62129392733
 10
31003.05547231339
 20
13559.62129392733
 10
31003.05547231339
 20
11859.62129392687
 10
31453.05547231339
 20
11859.62129392687
 97
        0
 75
     0
 76
     1
 52
45.0
 41
2000.0
 77
     0
 78
     3
 53
45.0
 43
-409251.7116657711
 44
-239960.1880535334
 45
-353.5533905932737
 46
353.5533905932738
 79
     0
 53
45.0
 43
-409295.905839595
 44
-239915.9938797093
 45
-353.5533905932737
 46
353.5533905932738
 79
     0
 53
45.0
 43
-409340.1000134194
 44
-239871.7997058851
 45
-353.5533905932737
 46
353.5533905932738
 79
     0
 47
19.2904323215646
 98
        1
 10
31213.22015275104
 20
13074.24268911549
  0
DIMENSION
  5
80B
330
1F
100
AcDbEntity
  8
寸法
  6
Continuous
100
AcDbDimension
  2
*D33
 10
33828.05547231339
 20
20799.62129392862
 30
0.0
 11
33549.48404374197
 21
19564.62129392862
 31
0.0
 70
    32
 71
     5
 42
2470.0
  3
1_100
100
AcDbAlignedDimension
 13
32728.05547231339
 23
18329.62129392861
 33
0.0
 14
32728.05547231339
 24
20799.62129392862
 34
0.0
 50
90.0
100
AcDbRotatedDimension
  0
LINE
  5
80C
330
1F
100
AcDbEntity
  8
画層1
  6
Continuous
100
AcDbLine
 10
31228.05547231339
 20
20839.62129392733
 30
0.0
 11
31228.05547231339
 21
16214.84600890267
 31
0.0
  0
LINE
  5
80D
330
1F
100
AcDbEntity
  8
画層1
  6
Continuous
100
AcDbLine
 10
31178.05547231339
 20
18329.62129392733
 30
0.0
 11
31278.05547231339
 21
18329.62129392733
 31
0.0
  0
LINE
  5
80E
330
1F
100
AcDbEntity
  8
画層1
  6
Continuous
100
AcDbLine
 10
31323.40547231349
 20
18354.62129392686
 30
0.0
 11
31253.05547231339
 21
18354.62129392686
 31
0.0
  0
LINE
  5
80F
330
1F
100
AcDbEntity
  8
画層1
  6
Continuous
100
AcDbLine
 10
31082.7054723133
 20
18329.62129392733
 30
0.0
 11
31132.7054723133
 21
18329.62129392733
 31
0.0
  0
LINE
  5
810
330
1F
100
AcDbEntity
  8
画層1
  6
Continuous
100
AcDbLine
 10
31203.05547231339
 20
18354.62129392686
 30
0.0
 11
31132.7054723133
 21
18354.62129392686
 31
0.0
  0
LINE
  5
811
330
1F
100
AcDbEntity
  8
画層1
  6
Continuous
100
AcDbLine
 10
31253.05547231339
 20
18304.62129392686
 30
0.0
 11
31323.40547231349
 21
18304.62129392686
 31
0.0
  0
LINE
  5
812
330
1F
100
AcDbEntity
  8
画層1
  6
Continuous
100
AcDbLine
 10
31132.7054723133
 20
18304.62129392686
 30
0.0
 11
31203.05547231339
 21
18304.62129392686
 31
0.0
  0
LINE
  5
813
330
1F
100
AcDbEntity
  8
画層1
  6
Continuous
100
AcDbLine
 10
31082.7054723133
 20
18354.62129392686
 30
0.0
 11
31082.7054723133
 21
18304.62129392686
 31
0.0
  0
LINE
  5
814
330
1F
100
AcDbEntity
  8
画層1
  6
Continuous
100
AcDbLine
 10
31203.05547231339
 20
18304.62129392686
 30
0.0
 11
31203.05547231339
 21
18354.62129392686
 31
0.0
  0
LINE
  5
815
330
1F
100
AcDbEntity
  8
画層1
  6
Continuous
100
AcDbLine
 10
31253.05547231339
 20
18304.62129392686
 30
0.0
 11
31253.05547231339
 21
18354.62129392686
 31
0.0
  0
DIMENSION
  5
816
330
1F
100
AcDbEntity
  8
寸法
  6
Continuous
100
AcDbDimension
  2
*D34
 10
31323.40547231349
 20
21459.6212939278
 30
0.0
 11
31228.05547231339
 21
21759.6212939278
 31
0.0
 70
    32
  1
φ<>
 71
     5
 42
190.7000000001863
  3
1_100
100
AcDbAlignedDimension
 13
31132.7054723133
 23
20859.62129392827
 33
0.0
 14
31323.40547231349
 24
20859.62129392827
 34
0.0
100
AcDbRotatedDimension
  0
DIMENSION
  5
817
330
1F
100
AcDbEntity
  8
寸法
  6
Continuous
100
AcDbDimension
  2
*D35
 10
33828.05547231339
 20
20859.62129392862
 30
0.0
 11
33544.09415142374
 21
21163.14664930829
 31
0.0
 70
   160
 71
     5
 42
60.0
  3
1_100
100
AcDbAlignedDimension
 13
32728.05547231339
 23
20799.62129392862
 33
0.0
 14
32728.05547231339
 24
20859.62129392862
 34
0.0
 50
90.0
100
AcDbRotatedDimension
  0
LINE
  5
818
330
1F
100
AcDbEntity
  8
画層1
  6
Continuous
100
AcDbLine
 10
31323.40547231349
 20
20824.62129392687
 30
0.0
 11
31253.05547231339
 21
20824.62129392687
 31
0.0
  0
LINE
  5
819
330
1F
100
AcDbEntity
  8
画層1
  6
Continuous
100
AcDbLine
 10
31178.05547231339
 20
20799.62129392733
 30
0.0
 11
31278.05547231339
 21
20799.62129392733
 31
0.0
  0
LINE
  5
81A
330
1F
100
AcDbEntity
  8
画層1
  6
Continuous
100
AcDbLine
 10
31253.05547231339
 20
20774.62129392687
 30
0.0
 11
31323.40547231349
 21
20774.62129392687
 31
0.0
  0
LINE
  5
81B
330
1F
100
AcDbEntity
  8
画層1
  6
Continuous
100
AcDbLine
 10
31203.05547231339
 20
20774.62129392687
 30
0.0
 11
31203.05547231339
 21
20824.62129392687
 31
0.0
  0
LINE
  5
81C
330
1F
100
AcDbEntity
  8
画層1
  6
Continuous
100
AcDbLine
 10
31253.05547231339
 20
20774.62129392687
 30
0.0
 11
31253.05547231339
 21
20824.62129392687
 31
0.0
  0
LINE
  5
81D
330
1F
100
AcDbEntity
  8
画層1
  6
Continuous
100
AcDbLine
 10
31082.7054723133
 20
20799.62129392733
 30
0.0
 11
31132.7054723133
 21
20799.62129392733
 31
0.0
  0
LINE
  5
81E
330
1F
100
AcDbEntity
  8
画層1
  6
Continuous
100
AcDbLine
 10
31082.7054723133
 20
20824.62129392687
 30
0.0
 11
31082.7054723133
 21
20774.62129392687
 31
0.0
  0
LINE
  5
81F
330
1F
100
AcDbEntity
  8
画層1
  6
Continuous
100
AcDbLine
 10
31132.7054723133
 20
20839.62129392687
 30
0.0
 11
31323.40547231349
 21
20839.62129392687
 31
0.0
  0
LINE
  5
820
330
1F
100
AcDbEntity
  8
画層1
  6
Continuous
100
AcDbLine
 10
31132.7054723133
 20
20859.62129392687
 30
0.0
 11
31323.40547231349
 21
20859.62129392687
 31
0.0
  0
LINE
  5
821
330
1F
100
AcDbEntity
  8
画層1
  6
Continuous
100
AcDbLine
 10
31203.05547231339
 20
20824.62129392687
 30
0.0
 11
31132.7054723133
 21
20824.62129392687
 31
0.0
  0
LINE
  5
822
330
1F
100
AcDbEntity
  8
画層1
  6
Continuous
100
AcDbLine
 10
31132.7054723133
 20
20774.62129392687
 30
0.0
 11
31203.05547231339
 21
20774.62129392687
 31
0.0
  0
LINE
  5
823
330
1F
100
AcDbEntity
  8
画層1
  6
Continuous
100
AcDbLine
 10
31203.05547231339
 20
15834.62129392687
 30
0.0
 11
31203.05547231339
 21
15884.62129392687
 31
0.0
  0
LINE
  5
824
330
1F
100
AcDbEntity
  8
画層1
  6
Continuous
100
AcDbLine
 10
31253.05547231339
 20
15834.62129392687
 30
0.0
 11
31253.05547231339
 21
15884.62129392687
 31
0.0
  0
LINE
  5
825
330
1F
100
AcDbEntity
  8
画層1
  6
Continuous
100
AcDbLine
 10
31323.40547231349
 20
15834.62129392687
 30
0.0
 11
31253.05547231339
 21
15834.62129392687
 31
0.0
  0
LINE
  5
826
330
1F
100
AcDbEntity
  8
画層1
  6
Continuous
100
AcDbLine
 10
31178.05547231339
 20
15859.62129392733
 30
0.0
 11
31278.05547231339
 21
15859.62129392733
 31
0.0
  0
LINE
  5
827
330
1F
100
AcDbEntity
  8
画層1
  6
Continuous
100
AcDbLine
 10
31228.05547231339
 20
16034.84600890407
 30
0.0
 11
31228.05547231339
 21
15859.62129392733
 31
0.0
  0
LINE
  5
828
330
1F
100
AcDbEntity
  8
画層1
  6
Continuous
100
AcDbLine
 10
31323.40547231349
 20
15884.62129392687
 30
0.0
 11
31253.05547231339
 21
15884.62129392687
 31
0.0
  0
LINE
  5
829
330
1F
100
AcDbEntity
  8
画層1
  6
Continuous
100
AcDbLine
 10
31082.7054723133
 20
15884.62129392687
 30
0.0
 11
31082.7054723133
 21
15834.62129392687
 31
0.0
  0
CIRCLE
  5
82A
330
1F
100
AcDbEntity
  8
画層3-1
100
AcDbCircle
 10
31085.05547231339
 20
15859.6212939271
 30
0.0
 40
25.40000000002328
  0
LINE
  5
82B
330
1F
100
AcDbEntity
  8
画層1
  6
Continuous
100
AcDbLine
 10
31082.7054723133
 20
15859.62129392733
 30
0.0
 11
31132.7054723133
 21
15859.62129392733
 31
0.0
  0
LINE
  5
82C
330
1F
100
AcDbEntity
  8
画層1
  6
Continuous
100
AcDbLine
 10
31203.05547231339
 20
15834.62129392687
 30
0.0
 11
31132.7054723133
 21
15834.62129392687
 31
0.0
  0
LINE
  5
82D
330
1F
100
AcDbEntity
  8
画層1
  6
Continuous
100
AcDbLine
 10
31203.05547231339
 20
15884.62129392687
 30
0.0
 11
31132.7054723133
 21
15884.62129392687
 31
0.0
  0
LINE
  5
82E
330
1F
100
AcDbEntity
  8
画層1-1
  6
DASHED
 48
100.0
100
AcDbLine
 10
31107.7054723133
 20
20799.62129392687
 30
0.0
 11
31107.7054723133
 21
15859.62129392733
 31
0.0
  0
DIMENSION
  5
82F
330
1F
100
AcDbEntity
  8
寸法
  6
Continuous
100
AcDbDimension
  2
*D36
 10
33828.05547231339
 20
18329.62129392861
 30
0.0
 11
33549.48404374197
 21
17094.62129392862
 31
0.0
 70
    32
 71
     5
 42
2469.999999999998
  3
1_100
100
AcDbAlignedDimension
 13
32728.05547231339
 23
15859.62129392862
 33
0.0
 14
32728.05547231339
 24
18329.62129392861
 34
0.0
 50
90.0
100
AcDbRotatedDimension
  0
LWPOLYLINE
  5
830
330
1F
100
AcDbEntity
  8
画層1
100
AcDbPolyline
 90
        4
 70
     1
 43
0.0
 10
31209.17433385408
 20
16214.62129392687
 10
31249.17433385408
 20
16214.62129392687
 10
31249.17433385408
 20
16034.62129392687
 10
31209.17433385408
 20
16034.62129392687
  0
MTEXT
  5
831
330
1F
100
AcDbEntity
  8
寸法文字
  6
Continuous
100
AcDbMText
 10
32815.98149856549
 20
22050.86168250048
 30
0.0
 40
300.0
 41
0.0
 71
     1
 72
     1
  1
（溶融亜鉛メッキ450g/㎡）
  7
1_100
 73
     1
 44
1.0
1001
ACAD
1000
MTEXTBEGIN
1070
    73
1070
     1
1070
    44
1040
1.0
1070
    74
1070
     0
1000
MTEXTEND
  0
LEADER
  5
832
330
1F
100
AcDbEntity
  8
寸法引出
  6
Continuous
100
AcDbLeader
  3
1_100
 71
     0
 73
     0
 74
     0
 75
     1
 40
300.0
 41
4699.285714285712
 76
     3
 10
31323.40547231349
 20
20443.98340740907
 30
0.0
 10
32548.01725952603
 20
22195.41092180521
 30
0.0
 10
32608.01725952604
 20
22195.41092180521
 30
0.0
340
833
  0
MTEXT
  5
833
102
{ACAD_REACTORS
330
832
102
}
330
1F
100
AcDbEntity
  8
寸法文字
  6
Continuous
100
AcDbMText
 10
32708.01725952603
 20
22295.41092180522
 30
0.0
 40
300.0
 41
0.0
 71
     7
 72
     1
  1
主柱KSポールφ190.7厚さ3.0mm
  7
1_100
 73
     1
 44
1.0
1001
ACAD
1000
ACAD_MTEXT_DEFINED_HEIGHT_BEGIN
1070
    46
1040
0.0
1000
ACAD_MTEXT_DEFINED_HEIGHT_END
1000
MTEXTBEGIN
1070
    73
1070
     1
1070
    44
1040
1.0
1070
    74
1070
     0
1000
MTEXTEND
  0
MTEXT
  5
834
330
1F
100
AcDbEntity
  8
寸法
  6
Continuous
 62
     3
100
AcDbMText
 10
20194.72207287311
 20
25104.66456550365
 30
0.0
 40
500.0
 41
0.0
 71
     8
 72
     1
  1
防球ネット　ＫＳ－Ⅱ型　Ｈ＝７,０００
  7
MSP明朝
 73
     1
 44
1.0
1001
ACAD
1000
ACAD_MTEXT_DEFINED_HEIGHT_BEGIN
1070
    46
1040
0.0
1000
ACAD_MTEXT_DEFINED_HEIGHT_END
1000
MTEXTBEGIN
1070
    73
1070
     1
1070
    44
1040
1.0
1070
    74
1070
     0
1000
MTEXTEND
  0
LINE
  5
835
330
1F
100
AcDbEntity
  8
寸法
  6
Continuous
 62
     3
100
AcDbLine
 10
15867.96220627249
 20
25007.11493863252
 30
0.0
 11
24521.48193947606
 21
25007.11493863252
 31
0.0
  0
LINE
  5
836
330
1F
100
AcDbEntity
  8
寸法
  6
Continuous
 62
     3
100
AcDbLine
 10
15867.96220627249
 20
24947.11493863485
 30
0.0
 11
24521.48193947606
 21
24947.11493863485
 31
0.0
  0
LWPOLYLINE
  5
837
330
1F
100
AcDbEntity
  8
図面枠
100
AcDbPolyline
 90
        4
 70
     1
 43
0.0
 10
694.7220728733467
 20
1076.287954170312
 10
39694.7220728733
 20
1076.287954170312
 10
39694.7220728733
 20
26576.28795417031
 10
694.7220728733467
 20
26576.28795417031
  0
LWPOLYLINE
  5
838
330
1F
100
AcDbEntity
  8
図面枠
100
AcDbPolyline
 90
        4
 70
     1
 43
0.0
 10
694.7220728742783
 20
1076.287954170312
 10
39694.72207287423
 20
1076.287954170312
 10
39694.72207287423
 20
26576.28795417031
 10
694.7220728742783
 20
26576.28795417031
  0
MTEXT
  5
839
330
1F
100
AcDbEntity
  8
画層1-1
100
AcDbMText
 10
3511.320513418681
 20
5543.37823613441
 30
0.0
 40
300.0
 41
0.0
 71
     1
 72
     5
  1
{\F|c128;・※印表記のネットを使用する場合標準柱スパンは変更になる場合があります}
  7
1_100
 73
     1
 44
1.0
1001
AcDbBlockRepETag
1070
     1
1071
        0
1005
839
1001
ACAD
1000
MTEXTBEGIN
1070
    73
1070
     1
1070
    44
1040
1.0
1070
    74
1070
     0
1000
MTEXTEND
  0
MTEXT
  5
83A
330
1F
100
AcDbEntity
  8
画層1-1
100
AcDbMText
 10
3511.320513418681
 20
2152.428271886439
 30
0.0
 40
300.0
 41
0.0
 71
     1
 72
     5
  1
・速度圧　q=0.6EVo （N/㎡）　・地表面粗度区分　　　・基礎　普通土質 [B] を選定
  7
1_100
 73
     1
 44
1.0
1001
AcDbBlockRepETag
1070
     1
1071
        1
1005
83A
1001
ACAD
1000
MTEXTBEGIN
1070
    73
1070
     1
1070
    44
1040
1.0
1070
    74
1070
     0
1000
MTEXTEND
  0
MTEXT
  5
83B
330
1F
100
AcDbEntity
  8
画層1-1
100
AcDbMText
 10
3511.320513418681
 20
7343.37823613441
 30
0.0
 40
300.0
 41
0.0
 71
     1
 72
     5
  1
・主柱．端末ポール．バンド金具．ボルトは溶融亜鉛メッキ仕上げとする
  7
1_100
 73
     1
 44
1.0
1001
AcDbBlockRepETag
1070
     1
1071
        2
1005
83B
1001
ACAD
1000
MTEXTBEGIN
1070
    73
1070
     1
1070
    44
1040
1.0
1070
    74
1070
     0
1000
MTEXTEND
  0
MTEXT
  5
83C
330
1F
100
AcDbEntity
  8
画層1-1
100
AcDbMText
 10
3511.320513418681
 20
6743.37823613441
 30
0.0
 40
300.0
 41
0.0
 71
     1
 72
     5
  1
・主柱ポール基礎部（ＧＬ）はＦＲＰ被覆補強とする
  7
1_100
 73
     1
 44
1.0
1001
AcDbBlockRepETag
1070
     1
1071
        3
1005
83C
1001
ACAD
1000
MTEXTBEGIN
1070
    73
1070
     1
1070
    44
1040
1.0
1070
    74
1070
     0
1000
MTEXTEND
  0
MTEXT
  5
83D
330
1F
100
AcDbEntity
  8
画層1-1
100
AcDbMText
 10
3511.320513418681
 20
4083.020314119033
 30
0.0
 40
300.0
 41
0.0
 71
     1
 72
     5
  1
・構造計算書．材料承認願いを提出後施工のこと
  7
1_100
 73
     1
 44
1.0
1001
AcDbBlockRepETag
1070
     1
1071
        4
1005
83D
1001
ACAD
1000
MTEXTBEGIN
1070
    73
1070
     1
1070
    44
1040
1.0
1070
    74
1070
     0
1000
MTEXTEND
  0
MTEXT
  5
83E
330
1F
100
AcDbEntity
  8
画層1-1
100
AcDbMText
 10
3511.320513418681
 20
6143.37823613441
 30
0.0
 40
300.0
 41
0.0
 71
     1
 72
     5
  1
・上部（補強ポール・ネット）下り防止金具付きとする
  7
1_100
 73
     1
 44
1.0
1001
AcDbBlockRepETag
1070
     1
1071
        5
1005
83E
1001
ACAD
1000
MTEXTBEGIN
1070
    73
1070
     1
1070
    44
1040
1.0
1070
    74
1070
     0
1000
MTEXTEND
  0
POINT
  5
83F
330
1F
100
AcDbEntity
  8
画層1-1
100
AcDbPoint
 10
694.7221109425104
 20
1561.101622285581
 30
0.0
1001
AcDbBlockRepETag
1070
     1
1071
        6
1005
83F
  0
MTEXT
  5
840
330
1F
100
AcDbEntity
  8
画層1-1
100
AcDbMText
 10
3011.320513418681
 20
3345.697798752921
 30
0.0
 40
400.0
 41
0.0
 71
     1
 72
     5
  1
設計条件
  7
1_100
 73
     1
 44
1.0
1001
AcDbBlockRepETag
1070
     1
1071
        7
1005
840
1001
ACAD
1000
MTEXTBEGIN
1070
    73
1070
     1
1070
    44
1040
1.0
1070
    74
1070
     0
1000
MTEXTEND
  0
MTEXT
  5
841
330
1F
100
AcDbEntity
  8
画層1-1
100
AcDbMText
 10
3011.320513418681
 20
4734.043415468081
 30
0.0
 40
400.0
 41
0.0
 71
     1
 72
     5
  1
特記
  7
1_100
 73
     1
 44
1.0
1001
AcDbBlockRepETag
1070
     1
1071
        8
1005
841
1001
ACAD
1000
MTEXTBEGIN
1070
    73
1070
     1
1070
    44
1040
1.0
1070
    74
1070
     0
1000
MTEXTEND
  0
MTEXT
  5
842
330
1F
100
AcDbEntity
  8
画層1-1
100
AcDbMText
 10
3011.320513418681
 20
8014.807204073184
 30
0.0
 40
400.0
 41
0.0
 71
     1
 72
     5
  1
仕様について
  7
1_100
 73
     1
 44
1.0
1001
AcDbBlockRepETag
1070
     1
1071
        9
1005
842
1001
ACAD
1000
MTEXTBEGIN
1070
    73
1070
     1
1070
    44
1040
1.0
1070
    74
1070
     0
1000
MTEXTEND
  0
MTEXT
  5
843
330
1F
100
AcDbEntity
  8
画層1-1
100
AcDbMText
 10
10408.0470241217
 20
2090.251790358602
 30
0.0
 40
300.0
 41
0.0
 71
     1
 72
     5
  1
Ⅲ
  7
STYLE1
 73
     1
 44
1.0
1001
AcDbBlockRepETag
1070
     1
1071
       10
1005
843
1001
ACAD
1000
MTEXTBEGIN
1070
    73
1070
     1
1070
    44
1040
1.0
1070
    74
1070
     0
1000
MTEXTEND
  0
MTEXT
  5
844
330
1F
100
AcDbEntity
  8
画層1-1
100
AcDbMText
 10
6494.798483430708
 20
2116.914697235295
 30
0.0
 40
120.0
 41
0.0
 71
     1
 72
     5
  1
2
  7
1_100
 73
     1
 44
1.0
1001
AcDbBlockRepETag
1070
     1
1071
       11
1005
844
1001
ACAD
1000
MTEXTBEGIN
1070
    73
1070
     1
1070
    44
1040
1.0
1070
    74
1070
     0
1000
MTEXTEND
  0
MTEXT
  5
845
330
1F
100
AcDbEntity
  8
画層1-1
100
AcDbMText
 10
3511.320513418681
 20
2634.35456361035
 30
0.0
 40
300.0
 41
0.0
 71
     1
 72
     5
  1
・設計荷重。建築基準法・同施工令（平成12年6月）に基づく風圧力に依る、基準風速。
  7
1_100
 73
     1
 44
1.0
1001
AcDbBlockRepETag
1070
     1
1071
       12
1005
845
1001
ACAD
1000
ACAD_MTEXT_DEFINED_HEIGHT_BEGIN
1070
    46
1040
0.0
1000
ACAD_MTEXT_DEFINED_HEIGHT_END
1000
MTEXTBEGIN
1070
    73
1070
     1
1070
    44
1040
1.0
1070
    74
1070
     0
1000
MTEXTEND
  0
TEXT
  5
846
330
1F
100
AcDbEntity
  8
図面枠
 62
     3
100
AcDbText
 10
1035.756440980428
 20
534.8434103213777
 30
0.0
 40
300.0
  1
1/100
 41
0.75
  7
1_100
 11
1035.756440980428
 21
534.8434103213777
 31
0.0
100
AcDbText
 73
     1
  0
TEXT
  5
847
330
1F
100
AcDbEntity
  8
図面枠
 62
     3
100
AcDbText
 10
2758.128940079895
 20
535.0626578127968
 30
0.0
 40
300.0
  1
KS2-H07
 41
0.75
  7
1_100
 11
2758.128940079895
 21
535.0626578127968
 31
0.0
100
AcDbText
 73
     1
  0
LWPOLYLINE
  5
848
330
1F
100
AcDbEntity
  8
寸法引出
  6
Continuous
100
AcDbPolyline
 90
        2
 70
     0
 43
0.0
 10
26138.09528751342
 20
8759.621293927454
 10
19228.05547231339
 20
8759.621293927336
1001
ACAD
1000
DSTYLE
1002
{
1070
    41
1040
3.0
1070
   341
1005
0
1002
}
  0
LWPOLYLINE
  5
849
330
1F
100
AcDbEntity
  8
寸法引出
  6
Continuous
100
AcDbPolyline
 90
        2
 70
     0
 43
0.0
 10
26142.93408856631
 20
9559.621293927452
 10
23878.03917283049
 20
9559.621293927337
1001
ACAD
1000
DSTYLE
1002
{
1070
    41
1040
3.0
1070
   341
1005
0
1002
}
  0
LINE
  5
84A
330
1F
100
AcDbEntity
  8
寸法引出
  6
ByBlock
100
AcDbLine
 10
25842.9340885663
 20
9640.006050927441
 30
0.0
 11
26142.93408856631
 21
9559.621293927454
 31
0.0
  0
LINE
  5
84B
330
1F
100
AcDbEntity
  8
寸法引出
  6
ByBlock
100
AcDbLine
 10
26142.93408856631
 20
9559.621293927454
 30
0.0
 11
25842.93408856631
 21
9479.236536927436
 31
0.0
  0
LINE
  5
84C
330
1F
100
AcDbEntity
  8
寸法引出
  6
ByBlock
100
AcDbLine
 10
25838.09528751342
 20
8840.006050927447
 30
0.0
 11
26138.09528751342
 21
8759.621293927454
 31
0.0
  0
LINE
  5
84D
330
1F
100
AcDbEntity
  8
寸法引出
  6
ByBlock
100
AcDbLine
 10
26138.09528751342
 20
8759.621293927454
 30
0.0
 11
25838.09528751342
 21
8679.236536927449
 31
0.0
  0
MTEXT
  5
EF4
330
1F
100
AcDbEntity
  8
寸法文字
  6
Continuous
100
AcDbMText
 10
12174.44883632199
 20
19666.7578247884
 30
0.0
 40
200.0
 41
0.0
 71
     1
 72
     1
  1
※KRP-40　1100D18本40mm目（再生ポリエステル100%）\P※KSP-24　37.5mm目（ｽｰﾊﾟｰﾎﾟﾘｴﾁﾚﾝ）
  7
1_100
 73
     1
 44
1.0
1001
ACAD
1000
MTEXTBEGIN
1070
    73
1070
     1
1070
    44
1040
1.0
1070
    74
1070
     0
1000
MTEXTEND
  0
MTEXT
  5
EF5
330
1F
100
AcDbEntity
  8
寸法文字
  6
Continuous
100
AcDbMText
 10
12149.8799840194
 20
19848.5307429231
 30
0.0
 40
300.0
 41
0.0
 71
     7
 72
     1
  1
ネット\Pクレモナ250D/80本×37.5mm目
  7
1_100
 73
     1
 44
0.6
1001
ACAD
1000
MTEXTBEGIN
1070
    73
1070
     1
1070
    44
1040
0.6
1070
    74
1070
     0
1000
MTEXTEND
  0
LEADER
  5
EF6
330
1F
100
AcDbEntity
  8
寸法引出
100
AcDbLeader
  3
1_50
 71
     0
 76
     3
 10
11623.86858633774
 20
19107.04769495602
 30
0.0
 10
11949.8799840194
 20
19748.5307429231
 30
0.0
 10
17868.98756413378
 20
19748.5307429231
 30
0.0
1001
ACAD
1000
DSTYLE
1002
{
1070
    41
1040
1.0
1070
   341
1005
87
1070
   147
1040
0.625
1070
    77
1070
     0
1002
}
  0
LINE
  5
11E7
330
1F
100
AcDbEntity
  8
画層1-1
  6
Continuous
100
AcDbLine
 10
16485.00755283564
 20
19435.49089254184
 30
0.0
 11
9348.405472313483
 21
15859.6212939278
 31
0.0
  0
LINE
  5
11EA
330
1F
100
AcDbEntity
  8
画層1-1
  6
Continuous
100
AcDbLine
 10
12059.43363027115
 20
19391.23209670943
 30
0.0
 11
9348.405472313483
 21
20749.6212939278
 31
0.0
  0
ENDSEC
  0
SECTION
  2
OBJECTS
  0
DICTIONARY
  5
C
330
0
100
AcDbDictionary
281
     1
  3
ACAD_COLOR
350
6B
  3
ACAD_GROUP
350
D
  3
ACAD_LAYOUT
350
1A
  3
ACAD_MATERIAL
350
6A
  3
ACAD_MLINESTYLE
350
17
  3
ACAD_PLOTSETTINGS
350
19
  3
ACAD_PLOTSTYLENAME
350
E
  3
ACAD_TABLESTYLE
350
BFF
  3
ACDBHEADERROUNDTRIPXREC
350
11ED
  3
AcDbVariableDictionary
350
5E
  3
ADE_QUERY_LIBRARY
350
EFB
  3
AEC_CLASSIFICATION_SYSTEM_DEFS
350
EF2
  3
AEC_VARS
350
C2C
  3
ASE_INDEX_DICTIONARY
350
EF9
  3
Autodesk_MAP
350
C2E
  3
Root
350
F10
1001
ADE
1000
ADE02C004
1000
[Query]
1000
CaseSensitiveMatch=0
1000
SaveCurrQueryInSession=1
1000
MkSelSetWithQryObj=0
1000
ShowBlockAsInsPt=0
1000
CreateAssociativeHatchObjects=0
1000
ReferenceBoundaryForAreaLocation=1
1000
ShowImageAsBoundary=1
1000
DefaultJoinOperator=2
1000
ColorForAdd=red
1000
ColorForRemove=red
1000
BlockLocnForQuery=1
1000
TextLocnForQuery=1
1000
IncludeAllObjectsInGroups=0
1000
AlwaysUseLibraryDefinitions=0
1000
PreviewDefinitionsFrom=2
1000
[Save Back]
1000
RedefineBlockDefinitions=1
1000
RedefineLayerDefinitions=1
1000
RedefineTextStyleDefinitions=1
1000
RemoveUnusedGroups=1
1000
EraseSavedBackObjects=1
1000
RemoveLockAfterSave=1
1000
CreateHistoryFileOfChanges=0
1000
CreateBackupFileOfSourceDwg=1
1000
DontAddObjectsToSaveSet=0
1000
MarkObjectsForEditingWithoutPrompting=0
1000
[Coordinate Transformation]
1000
RestoreLastActiveDwgsOnStartup=1
1000
ActivateDwgsOnAttach=1
1000
AdjustSizesAndScalesForChangesInUnits=1
1000
AdjustRotationsForMapDistortions=1
1000
AdjustSizesAndScalesForMapDistortions=1
1000
AdjustElevations=1
1000
AdjustZeroRotationObjects=1
1000
ReconnectDbOnWSOpen=1
1000
NoOfSQLConditionsInHistory=10
  0
DICTIONARY
  5
11E8
330
1F
100
AcDbDictionary
280
     1
281
     1
  3
ACAD_SORTENTS
360
11E9
  0
DICTIONARY
  5
6B
102
{ACAD_REACTORS
330
C
102
}
330
C
100
AcDbDictionary
281
     1
  0
DICTIONARY
  5
D
102
{ACAD_REACTORS
330
C
102
}
330
C
100
AcDbDictionary
281
     1
  0
DICTIONARY
  5
1A
102
{ACAD_REACTORS
330
C
102
}
330
C
100
AcDbDictionary
281
     1
  3
Model
350
22
  3
レイアウト1
350
51
  3
レイアウト2
350
56
  0
DICTIONARY
  5
6A
102
{ACAD_REACTORS
330
C
102
}
330
C
100
AcDbDictionary
281
     1
  0
DICTIONARY
  5
17
102
{ACAD_REACTORS
330
C
102
}
330
C
100
AcDbDictionary
281
     1
  3
Standard
350
18
  0
DICTIONARY
  5
19
102
{ACAD_REACTORS
330
C
102
}
330
C
100
AcDbDictionary
281
     1
  0
ACDBDICTIONARYWDFLT
  5
E
102
{ACAD_REACTORS
330
C
102
}
330
C
100
AcDbDictionary
281
     1
  3
Normal
350
F
100
AcDbDictionaryWithDefault
340
F
  0
DICTIONARY
  5
BFF
102
{ACAD_REACTORS
330
C
102
}
330
C
100
AcDbDictionary
281
     1
  3
Legend
350
C32
  3
Standard
350
C00
  0
DICTIONARY
  5
11ED
102
{ACAD_REACTORS
330
C
102
}
330
C
100
AcDbDictionary
281
     1
  0
DICTIONARY
  5
5E
102
{ACAD_REACTORS
330
C
102
}
330
C
100
AcDbDictionary
281
     1
  3
CTABLESTYLE
350
EFD
  3
DIMASSOC
350
5F
  3
HIDETEXT
350
63
  3
PROJECTNAME
350
B7E
  0
DICTIONARY
  5
EFB
102
{ACAD_REACTORS
330
C
102
}
330
C
100
AcDbDictionary
281
     1
  3
_CurrQry
350
11EB
  0
DICTIONARY
  5
EF2
102
{ACAD_REACTORS
330
C
102
}
330
C
100
AcDbDictionary
281
     1
  0
DICTIONARY
  5
C2C
102
{ACAD_REACTORS
330
C
102
}
330
C
100
AcDbDictionary
281
     1
  3
AEC_VARS_DWG_SETUP
350
F35
  0
DICTIONARY
  5
EF9
102
{ACAD_REACTORS
330
C
102
}
330
C
100
AcDbDictionary
281
     1
  3
ASEBlockHierarchyIndexRecord
350
EFA
1001
DCO15
1040
1621579467.06
  0
DICTIONARY
  5
C2E
102
{ACAD_REACTORS
330
C
102
}
330
C
100
AcDbDictionary
281
     1
  3
MAP_DISPLAY_MANAGEMENT_DICTIONARY
350
C2F
  3
MAP_DISPLAY_STYLELIBRARY_DICTIONARY
350
C30
  0
SORTENTSTABLE
  5
11E9
102
{ACAD_REACTORS
330
11E8
102
}
330
11E8
100
AcDbSortentsTable
330
1F
331
718
  5
71A
331
620
  5
620
331
7C1
  5
7C3
331
7FB
  5
7FD
331
835
  5
837
331
6DD
  5
6DD
331
77F
  5
781
331
811
  5
813
331
699
  5
699
331
657
  5
657
331
62D
  5
62D
331
603
  5
603
331
5E9
  5
5E9
331
742
  5
744
331
6B3
  5
6B3
331
76C
  5
76E
331
6D5
  5
6D5
331
796
  5
798
331
707
  5
709
331
5AE
  5
5AE
331
584
  5
584
331
7B8
  5
7BA
331
731
  5
733
331
661
  5
661
331
7E2
  5
7E4
331
81C
  5
81E
331
674
  5
674
331
846
  5
848
331
726
  5
728
331
7F0
  5
7F2
331
753
  5
755
331
6C4
  5
6C4
331
688
  5
688
331
63E
  5
63E
331
614
  5
614
331
5FA
  5
5FA
331
5D8
  5
5D8
331
785
  5
787
331
6EE
  5
6EE
331
7A7
  5
7A9
331
5C7
  5
5C7
331
59D
  5
59D
331
56F
  5
56F
331
562
  5
562
331
7F9
  5
7FB
331
833
  5
835
331
6DB
  5
6DB
331
77D
  5
77F
331
80F
  5
811
331
697
  5
697
331
655
  5
655
331
62B
  5
62B
331
601
  5
601
331
740
  5
742
331
6B1
  5
6B1
331
76A
  5
76C
331
6D3
  5
6D3
331
794
  5
796
331
705
  5
707
331
5AC
  5
5AC
331
582
  5
582
331
7B6
  5
7B8
331
72F
  5
731
331
64F
  5
64F
331
7E0
  5
7E2
331
81A
  5
81C
331
672
  5
672
331
844
  5
846
331
724
  5
726
331
7D6
  5
7D8
331
751
  5
753
331
6C2
  5
6C2
331
686
  5
686
331
63C
  5
63C
331
612
  5
612
331
5F8
  5
5F8
331
5D6
  5
5D6
331
783
  5
785
331
6EC
  5
6EC
331
7A5
  5
7A7
331
716
  5
718
331
5F6
  5
5F6
331
5E7
  5
5E7
331
5C5
  5
5C5
331
59B
  5
59B
331
56D
  5
56D
331
560
  5
560
331
831
  5
833
331
6D9
  5
6D9
331
77B
  5
77D
331
80D
  5
80F
331
695
  5
695
331
653
  5
653
331
629
  5
629
331
73E
  5
740
331
6AF
  5
6AF
331
768
  5
76A
331
6D1
  5
6D1
331
792
  5
794
331
703
  5
704
331
5AA
  5
5AA
331
580
  5
580
331
7B4
  5
7B6
331
72D
  5
72F
331
7DE
  5
7E0
331
64D
  5
64D
331
5D4
  5
5D4
331
818
  5
81A
331
670
  5
670
331
842
  5
844
331
722
  5
724
331
7D4
  5
7D6
331
82E
  5
830
331
6A6
  5
6A6
331
684
  5
684
331
63A
  5
63A
331
610
  5
610
331
5B7
  5
5B7
331
74F
  5
751
331
6C0
  5
6C0
331
781
  5
783
331
6EA
  5
6EA
331
7A3
  5
7A5
331
714
  5
716
331
5F4
  5
5F4
331
7EF
  5
7F1
331
5E5
  5
5E5
331
5C3
  5
5C3
331
599
  5
599
331
577
  5
577
331
56B
  5
56B
331
55E
  5
55E
331
779
  5
77B
331
80B
  5
80D
331
693
  5
693
331
651
  5
651
331
73C
  5
73E
331
6AD
  5
6AD
331
766
  5
768
331
6CF
  5
6CF
331
790
  5
792
331
701
  5
701
331
5A8
  5
5A8
331
57E
  5
57E
331
7B2
  5
7B4
331
72B
  5
72D
331
7DC
  5
7DE
331
64B
  5
64B
331
5D2
  5
5D2
331
806
  5
808
331
66E
  5
66E
331
840
  5
842
331
720
  5
722
331
7D2
  5
7D4
331
82C
  5
82E
331
6A4
  5
6A4
331
682
  5
682
331
638
  5
638
331
60E
  5
60E
331
5B5
  5
5B5
331
74D
  5
74F
331
6BE
  5
6BE
331
777
  5
779
331
6E8
  5
6E8
331
7A1
  5
7A3
331
712
  5
714
331
5F2
  5
5F2
331
7ED
  5
7EF
331
827
  5
829
331
67F
  5
67F
331
61F
  5
61F
331
5E3
  5
5E3
331
5C1
  5
5C1
331
58F
  5
58F
331
575
  5
575
331
569
  5
569
331
55C
  5
55C
331
809
  5
80B
331
73A
  5
73C
331
6AB
  5
6AB
331
691
  5
691
331
764
  5
766
331
6CD
  5
6CD
331
78E
  5
790
331
6FF
  5
6FF
331
7B0
  5
7B2
331
729
  5
72B
331
7DA
  5
7DC
331
649
  5
649
331
5D0
  5
5D0
331
804
  5
806
331
66C
  5
66C
331
83E
  5
840
331
6F6
  5
6F6
331
7D0
  5
7D2
331
82A
  5
82C
331
6A2
  5
6A2
331
680
  5
680
331
636
  5
636
331
60C
  5
60C
331
5B3
  5
5B3
331
5A6
  5
5A6
331
57C
  5
57C
331
74B
  5
74D
331
6BC
  5
6BC
331
775
  5
777
331
6E6
  5
6E6
331
79F
  5
7A1
331
710
  5
712
331
5F0
  5
5F0
331
7EB
  5
7ED
331
825
  5
827
331
67D
  5
67D
331
75F
  5
761
331
647
  5
647
331
61D
  5
61D
331
5E1
  5
5E1
331
5BF
  5
5BF
331
58D
  5
58D
331
573
  5
573
331
738
  5
73A
331
6A9
  5
6A9
331
762
  5
764
331
6CB
  5
6CB
331
78C
  5
78E
331
7AE
  5
7B0
331
71F
  5
721
331
7D8
  5
7DA
331
627
  5
627
331
5CE
  5
5CE
331
802
  5
804
331
66A
  5
66A
331
83C
  5
83E
331
6F4
  5
6F4
331
7CE
  5
7D0
331
828
  5
82A
331
6A0
  5
6A0
331
65E
  5
65E
331
634
  5
634
331
60A
  5
60A
331
5B1
  5
5B1
331
5A4
  5
5A4
331
57A
  5
57A
331
749
  5
74B
331
6BA
  5
6BA
331
773
  5
775
331
6E4
  5
6E4
331
79D
  5
79F
331
70E
  5
710
331
5BD
  5
5BD
331
7E9
  5
7EB
331
7BF
  5
7C1
331
823
  5
825
331
67B
  5
67B
331
EF5
  5
11E7
331
75D
  5
75F
331
7F7
  5
7F9
331
68F
  5
68F
331
645
  5
645
331
61B
  5
61B
331
5DF
  5
5DF
331
596
  5
596
331
58B
  5
58B
331
571
  5
571
331
760
  5
762
331
6C9
  5
6C9
331
78A
  5
78C
331
6FB
  5
6FB
331
84C
  5
EF4
331
7AC
  5
7AE
331
71D
  5
71F
331
625
  5
625
331
7C6
  5
7C8
331
800
  5
802
331
668
  5
668
331
83A
  5
83C
331
6F2
  5
6F2
331
7CC
  5
7CE
331
816
  5
818
331
69E
  5
69E
331
65C
  5
65C
331
632
  5
632
331
608
  5
608
331
5EE
  5
5EE
331
5CC
  5
5CC
331
5A2
  5
5A2
331
578
  5
578
331
747
  5
749
331
6B8
  5
6B8
331
771
  5
773
331
6E2
  5
6E2
331
79B
  5
79D
331
70C
  5
70E
331
5BB
  5
5BB
331
7BD
  5
7BF
331
736
  5
738
331
666
  5
666
331
7E7
  5
7E9
331
821
  5
823
331
679
  5
679
331
75B
  5
75D
331
7F5
  5
7F7
331
68D
  5
68D
331
643
  5
643
331
619
  5
619
331
5FF
  5
5FF
331
5DD
  5
5DD
331
594
  5
594
331
589
  5
589
331
567
  5
567
331
788
  5
78A
331
84A
  5
84C
331
7AA
  5
7AC
331
71B
  5
71D
331
623
  5
623
331
7C4
  5
7C6
331
7FE
  5
800
331
11E7
  5
703
331
838
  5
83A
331
6F0
  5
6F0
331
7CA
  5
7CC
331
814
  5
816
331
69C
  5
69C
331
65A
  5
65A
331
630
  5
630
331
606
  5
606
331
5EC
  5
5EC
331
5CA
  5
5CA
331
5A0
  5
5A0
331
745
  5
747
331
6B6
  5
6B6
331
76F
  5
771
331
6E0
  5
6E0
331
799
  5
79B
331
70A
  5
70C
331
5B9
  5
5B9
331
7BB
  5
7BD
331
734
  5
736
331
664
  5
664
331
7E5
  5
7E7
331
81F
  5
821
331
677
  5
677
331
759
  5
75B
331
7F3
  5
7F5
331
756
  5
758
331
6C7
  5
6C7
331
68B
  5
68B
331
641
  5
641
331
617
  5
617
331
5FD
  5
5FD
331
5DB
  5
5DB
331
592
  5
592
331
587
  5
587
331
565
  5
565
331
848
  5
84A
331
7A8
  5
7AA
331
719
  5
71B
331
621
  5
621
331
7C2
  5
7C4
331
7FC
  5
7FE
331
836
  5
838
331
6DE
  5
6DE
331
7C8
  5
7CA
331
812
  5
814
331
69A
  5
69A
331
658
  5
658
331
62E
  5
62E
331
604
  5
604
331
5EA
  5
5EA
331
5C8
  5
5C8
331
743
  5
745
331
6B4
  5
6B4
331
76D
  5
76F
331
6D6
  5
6D6
331
797
  5
799
331
708
  5
70A
331
5AF
  5
5AF
331
7B9
  5
7BB
331
732
  5
734
331
662
  5
662
331
7E3
  5
7E5
331
81D
  5
81F
331
675
  5
675
331
847
  5
849
331
727
  5
729
331
7F1
  5
7F3
331
754
  5
756
331
6C5
  5
6C5
331
689
  5
689
331
63F
  5
63F
331
615
  5
615
331
5FB
  5
5FB
331
5D9
  5
5D9
331
786
  5
788
331
6EF
  5
6EF
331
59E
  5
59E
331
590
  5
590
331
585
  5
585
331
563
  5
563
331
7C0
  5
7C2
331
7FA
  5
7FC
331
834
  5
836
331
6DC
  5
6DC
331
77E
  5
780
331
810
  5
812
331
698
  5
698
331
656
  5
656
331
62C
  5
62C
331
602
  5
602
331
5E8
  5
5E8
331
741
  5
743
331
6B2
  5
6B2
331
76B
  5
76D
331
6D4
  5
6D4
331
795
  5
797
331
706
  5
708
331
5AD
  5
5AD
331
583
  5
583
331
7B7
  5
7B9
331
730
  5
732
331
660
  5
660
331
7E1
  5
7E3
331
81B
  5
81D
331
673
  5
673
331
845
  5
847
331
725
  5
727
331
7D7
  5
7D9
331
752
  5
754
331
6C3
  5
6C3
331
687
  5
687
331
63D
  5
63D
331
613
  5
613
331
5F9
  5
5F9
331
5D7
  5
5D7
331
784
  5
786
331
6ED
  5
6ED
331
7A6
  5
7A8
331
717
  5
719
331
5F7
  5
5F7
331
5C6
  5
5C6
331
59C
  5
59C
331
56E
  5
56E
331
561
  5
561
331
7F8
  5
7FA
331
832
  5
834
331
6DA
  5
6DA
331
77C
  5
77E
331
80E
  5
810
331
696
  5
696
331
654
  5
654
331
62A
  5
62A
331
600
  5
600
331
73F
  5
741
331
6B0
  5
6B0
331
769
  5
76B
331
6D2
  5
6D2
331
793
  5
795
331
704
  5
706
331
5AB
  5
5AB
331
581
  5
581
331
7B5
  5
7B7
331
72E
  5
730
331
7DF
  5
7E1
331
64E
  5
64E
331
819
  5
81B
331
671
  5
671
331
843
  5
845
331
723
  5
725
331
7D5
  5
7D7
331
82F
  5
831
331
750
  5
752
331
6C1
  5
6C1
331
6A7
  5
6A7
331
685
  5
685
331
63B
  5
63B
331
611
  5
611
331
5D5
  5
5D5
331
782
  5
784
331
6EB
  5
6EB
331
7A4
  5
7A6
331
715
  5
717
331
5F5
  5
5F5
331
5E6
  5
5E6
331
5C4
  5
5C4
331
59A
  5
59A
331
56C
  5
56C
331
55F
  5
55F
331
830
  5
832
331
6D8
  5
6D8
331
77A
  5
77C
331
80C
  5
80E
331
694
  5
694
331
652
  5
652
331
628
  5
628
331
73D
  5
73F
331
6AE
  5
6AE
331
767
  5
769
331
6D0
  5
6D0
331
791
  5
793
331
702
  5
702
331
5A9
  5
5A9
331
57F
  5
57F
331
7B3
  5
7B5
331
72C
  5
72E
331
7DD
  5
7DF
331
64C
  5
64C
331
5D3
  5
5D3
331
807
  5
809
331
66F
  5
66F
331
841
  5
843
331
721
  5
723
331
7D3
  5
7D5
331
82D
  5
82F
331
6A5
  5
6A5
331
683
  5
683
331
639
  5
639
331
60F
  5
60F
331
5B6
  5
5B6
331
74E
  5
750
331
6BF
  5
6BF
331
780
  5
782
331
6E9
  5
6E9
331
7A2
  5
7A4
331
713
  5
715
331
5F3
  5
5F3
331
7EE
  5
7F0
331
5E4
  5
5E4
331
5C2
  5
5C2
331
598
  5
598
331
576
  5
576
331
56A
  5
56A
331
55D
  5
55D
331
778
  5
77A
331
80A
  5
80C
331
73B
  5
73D
331
6AC
  5
6AC
331
692
  5
692
331
650
  5
650
331
765
  5
767
331
6CE
  5
6CE
331
78F
  5
791
331
700
  5
700
331
5A7
  5
5A7
331
57D
  5
57D
331
7B1
  5
7B3
331
72A
  5
72C
331
7DB
  5
7DD
331
64A
  5
64A
331
5D1
  5
5D1
331
805
  5
807
331
66D
  5
66D
331
83F
  5
841
331
6F7
  5
6F7
331
7D1
  5
7D3
331
82B
  5
82D
331
6A3
  5
6A3
331
681
  5
681
331
637
  5
637
331
60D
  5
60D
331
5B4
  5
5B4
331
74C
  5
74E
331
6BD
  5
6BD
331
776
  5
778
331
6E7
  5
6E7
331
7A0
  5
7A2
331
711
  5
713
331
5F1
  5
5F1
331
7EC
  5
7EE
331
826
  5
828
331
67E
  5
67E
331
61E
  5
61E
331
5E2
  5
5E2
331
5C0
  5
5C0
331
58E
  5
58E
331
574
  5
574
331
568
  5
568
331
808
  5
80A
331
739
  5
73B
331
6AA
  5
6AA
331
690
  5
690
331
763
  5
765
331
6CC
  5
6CC
331
78D
  5
78F
331
7AF
  5
7B1
331
728
  5
72A
331
7D9
  5
7DB
331
648
  5
648
331
5CF
  5
5CF
331
803
  5
805
331
66B
  5
66B
331
83D
  5
83F
331
6F5
  5
6F5
331
7CF
  5
7D1
331
829
  5
82B
331
6A1
  5
6A1
331
65F
  5
65F
331
635
  5
635
331
60B
  5
60B
331
5B2
  5
5B2
331
5A5
  5
5A5
331
57B
  5
57B
331
74A
  5
74C
331
6BB
  5
6BB
331
774
  5
776
331
6E5
  5
6E5
331
79E
  5
7A0
331
70F
  5
711
331
5BE
  5
5BE
331
7EA
  5
7EC
331
824
  5
826
331
67C
  5
67C
331
EF6
  5
11EA
331
75E
  5
760
331
646
  5
646
331
61C
  5
61C
331
5E0
  5
5E0
331
597
  5
597
331
58C
  5
58C
331
572
  5
572
331
6A8
  5
6A8
331
761
  5
763
331
6CA
  5
6CA
331
78B
  5
78D
331
6FC
  5
6FC
331
84D
  5
EF5
331
7AD
  5
7AF
331
71E
  5
720
331
626
  5
626
331
7C7
  5
7C9
331
5EF
  5
5EF
331
5CD
  5
5CD
331
801
  5
803
331
11EA
  5
705
331
669
  5
669
331
83B
  5
83D
331
6F3
  5
6F3
331
7CD
  5
7CF
331
817
  5
819
331
69F
  5
69F
331
65D
  5
65D
331
633
  5
633
331
609
  5
609
331
5B0
  5
5B0
331
5A3
  5
5A3
331
579
  5
579
331
748
  5
74A
331
6B9
  5
6B9
331
772
  5
774
331
6E3
  5
6E3
331
79C
  5
79E
331
70D
  5
70F
331
5BC
  5
5BC
331
7BE
  5
7C0
331
737
  5
739
331
7E8
  5
7EA
331
667
  5
667
331
822
  5
824
331
67A
  5
67A
331
EF4
  5
EF6
331
75C
  5
75E
331
7F6
  5
7F8
331
68E
  5
68E
331
644
  5
644
331
61A
  5
61A
331
5DE
  5
5DE
331
595
  5
595
331
58A
  5
58A
331
570
  5
570
331
6C8
  5
6C8
331
789
  5
78B
331
6FA
  5
6FA
331
84B
  5
84D
331
7AB
  5
7AD
331
71C
  5
71E
331
624
  5
624
331
7C5
  5
7C7
331
7FF
  5
801
331
839
  5
83B
331
6F1
  5
6F1
331
7CB
  5
7CD
331
815
  5
817
331
69D
  5
69D
331
65B
  5
65B
331
631
  5
631
331
607
  5
607
331
5ED
  5
5ED
331
5CB
  5
5CB
331
5A1
  5
5A1
331
746
  5
748
331
6B7
  5
6B7
331
770
  5
772
331
6E1
  5
6E1
331
79A
  5
79C
331
70B
  5
70D
331
5BA
  5
5BA
331
7BC
  5
7BE
331
735
  5
737
331
665
  5
665
331
7E6
  5
7E8
331
820
  5
822
331
678
  5
678
331
75A
  5
75C
331
7F4
  5
7F6
331
757
  5
759
331
68C
  5
68C
331
642
  5
642
331
618
  5
618
331
5FE
  5
5FE
331
5DC
  5
5DC
331
593
  5
593
331
588
  5
588
331
566
  5
566
331
6F8
  5
6F8
331
849
  5
84B
331
7A9
  5
7AB
331
71A
  5
71C
331
622
  5
622
331
7C3
  5
7C5
331
7FD
  5
7FF
331
837
  5
839
331
6DF
  5
6DF
331
7C9
  5
7CB
331
813
  5
815
331
69B
  5
69B
331
659
  5
659
331
62F
  5
62F
331
605
  5
605
331
5EB
  5
5EB
331
5C9
  5
5C9
331
744
  5
746
331
6B5
  5
6B5
331
76E
  5
770
331
6D7
  5
6D7
331
798
  5
79A
331
709
  5
70B
331
5B8
  5
5B8
331
7BA
  5
7BC
331
733
  5
735
331
663
  5
663
331
7E4
  5
7E6
331
81E
  5
820
331
676
  5
676
331
758
  5
75A
331
7F2
  5
7F4
331
755
  5
757
331
6C6
  5
6C6
331
68A
  5
68A
331
640
  5
640
331
616
  5
616
331
5FC
  5
5FC
331
5DA
  5
5DA
331
787
  5
789
331
59F
  5
59F
331
591
  5
591
331
586
  5
586
331
564
  5
564
  0
LAYOUT
  5
22
102
{ACAD_XDICTIONARY
360
11EE
102
}
102
{ACAD_REACTORS
330
1A
102
}
330
1A
100
AcDbPlotSettings
  1

  2
EPSON PM-3000C
  4
A4
  6

 40
3.757083177566528
 41
14.7637300491333
 42
3.757080078125
 43
3.757080078125
 44
209.9733276367186
 45
296.9683227539062
 46
0.0
 47
0.0
 48
0.0
 49
0.0
140
0.0
141
0.0
142
1.0
143
143.6382213594936
 70
 11952
 72
     1
 73
     1
 74
     0
  7
2.ctb
 75
     0
147
0.0069619352741582
148
-524.0480848374136
149
1034.926666260848
100
AcDbLayout
  1
Model
 70
     1
 71
     0
 10
0.0
 20
0.0
 11
12.0
 21
9.0
 12
0.0
 22
0.0
 32
0.0
 14
0.0
 24
0.0
 34
0.0
 15
0.0
 25
0.0
 35
0.0
146
0.0
 13
0.0
 23
0.0
 33
0.0
 16
1.0
 26
0.0
 36
0.0
 17
0.0
 27
1.0
 37
0.0
 76
     0
330
1F
  0
LAYOUT
  5
51
102
{ACAD_XDICTIONARY
360
11F0
102
}
102
{ACAD_REACTORS
330
1A
102
}
330
1A
100
AcDbPlotSettings
  1

  2
None
  4

  6

 40
0.0
 41
0.0
 42
0.0
 43
0.0
 44
0.0
 45
0.0
 46
0.0
 47
0.0
 48
0.0
 49
0.0
140
0.0
141
0.0
142
1.0
143
1.0
 70
   688
 72
     0
 73
     0
 74
     5
  7

 75
    16
147
1.0
148
0.0
149
0.0
100
AcDbLayout
  1
レイアウト1
 70
     1
 71
     1
 10
0.0
 20
0.0
 11
12.0
 21
9.0
 12
0.0
 22
0.0
 32
0.0
 14
0.0
 24
0.0
 34
0.0
 15
0.0
 25
0.0
 35
0.0
146
0.0
 13
0.0
 23
0.0
 33
0.0
 16
1.0
 26
0.0
 36
0.0
 17
0.0
 27
1.0
 37
0.0
 76
     0
330
50
  0
LAYOUT
  5
56
102
{ACAD_XDICTIONARY
360
11F2
102
}
102
{ACAD_REACTORS
330
1A
102
}
330
1A
100
AcDbPlotSettings
  1

  2
None
  4

  6

 40
0.0
 41
0.0
 42
0.0
 43
0.0
 44
0.0
 45
0.0
 46
0.0
 47
0.0
 48
0.0
 49
0.0
140
0.0
141
0.0
142
1.0
143
1.0
 70
   688
 72
     0
 73
     0
 74
     5
  7

 75
    16
147
1.0
148
0.0
149
0.0
100
AcDbLayout
  1
レイアウト2
 70
     1
 71
     2
 10
0.0
 20
0.0
 11
12.0
 21
9.0
 12
0.0
 22
0.0
 32
0.0
 14
0.0
 24
0.0
 34
0.0
 15
0.0
 25
0.0
 35
0.0
146
0.0
 13
0.0
 23
0.0
 33
0.0
 16
1.0
 26
0.0
 36
0.0
 17
0.0
 27
1.0
 37
0.0
 76
     0
330
55
  0
MLINESTYLE
  5
18
102
{ACAD_REACTORS
330
17
102
}
330
17
100
AcDbMlineStyle
  2
STANDARD
 70
     0
  3

 62
   256
 51
90.0
 52
90.0
 71
     2
 49
0.5
 62
   256
  6
BYLAYER
 49
-0.5
 62
   256
  6
BYLAYER
  0
ACDBPLACEHOLDER
  5
F
102
{ACAD_REACTORS
330
E
102
}
330
E
  0
TABLESTYLE
  5
C32
102
{ACAD_REACTORS
330
BFF
102
}
330
BFF
100
AcDbTableStyle
  3

 70
     0
 71
     1
 40
0.06
 41
0.06
280
     0
281
     0
  7
Standard
140
0.4
170
     4
 62
     0
 63
     7
283
     0
274
    -2
284
     0
 64
     0
275
    -2
285
     0
 65
     0
276
    -2
286
     1
 66
     0
277
    -2
287
     1
 67
     0
278
    -2
288
     0
 68
     0
279
    -2
289
     1
 69
     0
  7
Standard
140
0.5
170
     5
 62
     0
 63
     7
283
     0
274
    -2
284
     1
 64
     0
275
    -2
285
     0
 65
     0
276
    -2
286
     1
 66
     0
277
    -2
287
     1
 67
     0
278
    -2
288
     0
 68
     0
279
    -2
289
     1
 69
     0
  7
Standard
140
0.4
170
     4
 62
     0
 63
     7
283
     0
274
    -2
284
     1
 64
     0
275
    -2
285
     0
 65
     0
276
    -2
286
     1
 66
     0
277
    -2
287
     1
 67
     0
278
    -2
288
     0
 68
     0
279
    -2
289
     1
 69
     0
  0
TABLESTYLE
  5
C00
102
{ACAD_REACTORS
330
BFF
102
}
330
BFF
100
AcDbTableStyle
  3
Standard
 70
     0
 71
     0
 40
1.5
 41
1.5
280
     0
281
     0
  7
Standard
140
4.5
170
     2
 62
     0
 63
     7
283
     0
274
    -2
284
     1
 64
     0
275
    -2
285
     1
 65
     0
276
    -2
286
     1
 66
     0
277
    -2
287
     1
 67
     0
278
    -2
288
     1
 68
     0
279
    -2
289
     1
 69
     0
  7
Standard
140
6.0
170
     5
 62
     0
 63
     7
283
     0
274
    -2
284
     1
 64
     0
275
    -2
285
     1
 65
     0
276
    -2
286
     1
 66
     0
277
    -2
287
     1
 67
     0
278
    -2
288
     1
 68
     0
279
    -2
289
     1
 69
     0
  7
Standard
140
4.5
170
     5
 62
     0
 63
     7
283
     0
274
    -2
284
     1
 64
     0
275
    -2
285
     1
 65
     0
276
    -2
286
     1
 66
     0
277
    -2
287
     1
 67
     0
278
    -2
288
     1
 68
     0
279
    -2
289
     1
 69
     0
  0
DICTIONARYVAR
  5
EFD
102
{ACAD_REACTORS
330
5E
102
}
330
5E
100
DictionaryVariables
280
     0
  1
STANDARD
  0
DICTIONARYVAR
  5
5F
102
{ACAD_REACTORS
330
5E
102
}
330
5E
100
DictionaryVariables
280
     0
  1
2
  0
DICTIONARYVAR
  5
63
102
{ACAD_REACTORS
330
5E
102
}
330
5E
100
DictionaryVariables
280
     0
  1
1
  0
DICTIONARYVAR
  5
B7E
102
{ACAD_REACTORS
330
5E
102
}
330
5E
100
DictionaryVariables
280
     0
  1

  0
XRECORD
  5
11EB
102
{ACAD_REACTORS
330
EFB
102
}
330
EFB
100
AcDbXrecord
280
     1
1000
ADE02C001
1070
     1
1070
     0
1002
{
1002
}
1002
{
1002
}
1002
{
1002
}
1000

  0
XRECORD
  5
EFA
102
{ACAD_REACTORS
330
EF9
102
}
330
EF9
100
AcDbXrecord
280
     1
330
A0B
330
A0C
330
A14
330
A15
330
A1D
330
A1E
330
A26
330
A27
330
A31
330
A32
330
A3B
330
A3C
330
A44
330
A45
330
A4E
330
A4F
330
A57
330
A58
330
A60
330
A61
330
A6C
330
A6D
330
A78
330
A77
330
A7F
330
A80
330
A88
330
A89
330
A91
330
A92
330
A9A
330
A9B
330
AA3
330
AA4
330
AAC
330
AAD
330
AB5
330
AB6
330
AC1
330
AC2
330
AC9
330
ACA
330
AD5
330
AD6
330
ADD
330
ADE
330
AE6
330
AE7
330
AEF
330
AF0
330
AF9
330
AFA
330
B04
330
B05
330
B0F
330
B10
330
B17
330
B18
330
B20
330
B21
330
B2B
330
B2C
330
B34
330
B35
330
B40
330
B41
330
B4B
330
B4C
330
B53
330
B54
  0
DMMAPMANAGER
  5
C2F
102
{ACAD_REACTORS
330
C2E
102
}
330
C2E
100
AcDbDictionary
281
     1
  3
DisplayMap1
350
C31
100
AcDbDictionaryWithDefault
340
C31
100
AcMapDMMapManager
 70
     1
340
C31
  0
DMSTYLELIBRARY
  5
C30
102
{ACAD_REACTORS
330
C2E
102
}
330
C2E
100
AcMapDMStyleLibrary
 70
     1
 70
     1
360
C36
  0
DICTIONARY
  5
11EE
330
22
100
AcDbDictionary
280
     1
281
     1
  3
ACAD_XREC_ROUNDTRIP
360
11EF
  0
DICTIONARY
  5
11F0
330
51
100
AcDbDictionary
280
     1
281
     1
  3
ACAD_XREC_ROUNDTRIP
360
11F1
  0
DICTIONARY
  5
11F2
330
56
100
AcDbDictionary
280
     1
281
     1
  3
ACAD_XREC_ROUNDTRIP
360
11F3
  0
DMMAP
  5
C31
102
{ACAD_REACTORS
330
C2F
330
C33
102
}
330
C2F
100
AcMapDMMap
 70
     1
  1
既定値
 70
     1
330
0
100
AcMapDMMap
 70
     1
 90
        1
360
C33
 90
        1
 40
1.797693134862314E+99
 70
     1
100
AcMapDMMap
 70
     2
 70
     0
 40
1.797693134862314E+99
290
     0
290
     1
 40
1.0
 40
3.0
  1
Legend
 90
        1
 40
1.797693134862314E+99
  1

 70
     0
 40
1.0
 70
     1
 90
        0
 90
        1
360
C34
  0
DMSTYLECATEGORY
  5
C36
102
{ACAD_REACTORS
330
C30
102
}
330
C30
100
AcMapDMStyleCategory
 70
     1
  1
スタイルを表示
 70
     0
  0
XRECORD
  5
11EF
102
{ACAD_REACTORS
330
11EE
102
}
330
11EE
100
AcDbXrecord
280
     1
102
SHADEPLOT
 70
     0
102
SHADEPLOTRESLEVEL
 70
     2
102
SHADEPLOTCUSTOMDPI
 70
   300
  0
XRECORD
  5
11F1
102
{ACAD_REACTORS
330
11F0
102
}
330
11F0
100
AcDbXrecord
280
     1
102
SHADEPLOT
 70
     0
102
SHADEPLOTRESLEVEL
 70
     2
102
SHADEPLOTCUSTOMDPI
 70
   300
  0
XRECORD
  5
11F3
102
{ACAD_REACTORS
330
11F2
102
}
330
11F2
100
AcDbXrecord
280
     1
102
SHADEPLOT
 70
     0
102
SHADEPLOTRESLEVEL
 70
     2
102
SHADEPLOTCUSTOMDPI
 70
   300
  0
DMBASEELEMENT
  5
C33
102
{ACAD_REACTORS
330
C31
102
}
330
C31
100
AcMapDMBaseElement
 70
     1
  1
マップ ベース
 70
     1
330
C31
100
AcMapDMBaseElement
 70
     1
  1

 70
     2
  1

 70
     1
 40
1.797693134862314E+99
 70
     1
 70
     1
 70
     1
 70
     1
360
C35
100
AcMapDMBaseElement
 70
     1
  0
DMDEFAULTSTYLE
  5
C34
102
{ACAD_REACTORS
330
C31
102
}
330
C31
100
AcMapDMDefaultStyle
 70
     1
 90
        1
  1
既定値
100
AcMapDMDefaultStyle
 70
     1
280
   100
 90
     0
  0
DMSTYLEREFERENCE
  5
C35
330
C33
100
AcMapDMStyleReference
 70
     1
 70
     0
340
C34
330
C31
  0
ENDSEC
  0
EOF
