  0
SECTION
  2
HEADER
  9
$ACADVER
  1
AC1015
  9
$ACADMAINTVER
 70
    20
  9
$DWGCODEPAGE
  3
ANSI_932
  9
$INSBASE
 10
0.0
 20
0.0
 30
0.0
  9
$EXTMIN
 10
760.2646952126961
 20
569.824330606003
 30
-0.0000000349181948
  9
$EXTMAX
 10
39765.53997215758
 20
26713.26391030703
 30
0.0000000814935747
  9
$LIMMIN
 10
0.0
 20
0.0
  9
$LIMMAX
 10
420.0
 20
297.0
  9
$ORTHOMODE
 70
     0
  9
$REGENMODE
 70
     1
  9
$FILLMODE
 70
     1
  9
$QTEXTMODE
 70
     0
  9
$MIRRTEXT
 70
     0
  9
$LTSCALE
 40
1.0
  9
$ATTMODE
 70
     1
  9
$TEXTSIZE
 40
2.5
  9
$TRACEWID
 40
1.0
  9
$TEXTSTYLE
  7
Standard
  9
$CLAYER
  8
画層1-1
  9
$CELTYPE
  6
ByLayer
  9
$CECOLOR
 62
   256
  9
$CELTSCALE
 40
1.0
  9
$DISPSILH
 70
     0
  9
$DIMSCALE
 40
500.0
  9
$DIMASZ
 40
2.5
  9
$DIMEXO
 40
0.625
  9
$DIMDLI
 40
3.75
  9
$DIMRND
 40
0.0
  9
$DIMDLE
 40
0.0
  9
$DIMEXE
 40
1.25
  9
$DIMTP
 40
0.0
  9
$DIMTM
 40
0.0
  9
$DIMTXT
 40
2.5
  9
$DIMCEN
 40
2.5
  9
$DIMTSZ
 40
0.0
  9
$DIMTOL
 70
     0
  9
$DIMLIM
 70
     0
  9
$DIMTIH
 70
     0
  9
$DIMTOH
 70
     0
  9
$DIMSE1
 70
     0
  9
$DIMSE2
 70
     0
  9
$DIMTAD
 70
     1
  9
$DIMZIN
 70
     8
  9
$DIMBLK
  1

  9
$DIMASO
 70
     1
  9
$DIMSHO
 70
     1
  9
$DIMPOST
  1

  9
$DIMAPOST
  1

  9
$DIMALT
 70
     0
  9
$DIMALTD
 70
     3
  9
$DIMALTF
 40
0.03937007874016
  9
$DIMLFAC
 40
1.0
  9
$DIMTOFL
 70
     1
  9
$DIMTVP
 40
0.0
  9
$DIMTIX
 70
     0
  9
$DIMSOXD
 70
     0
  9
$DIMSAH
 70
     0
  9
$DIMBLK1
  1

  9
$DIMBLK2
  1

  9
$DIMSTYLE
  2
ISO-25
  9
$DIMCLRD
 70
     0
  9
$DIMCLRE
 70
     0
  9
$DIMCLRT
 70
     0
  9
$DIMTFAC
 40
1.0
  9
$DIMGAP
 40
0.625
  9
$DIMJUST
 70
     0
  9
$DIMSD1
 70
     0
  9
$DIMSD2
 70
     0
  9
$DIMTOLJ
 70
     0
  9
$DIMTZIN
 70
     8
  9
$DIMALTZ
 70
     0
  9
$DIMALTTZ
 70
     0
  9
$DIMUPT
 70
     0
  9
$DIMDEC
 70
     2
  9
$DIMTDEC
 70
     2
  9
$DIMALTU
 70
     2
  9
$DIMALTTD
 70
     3
  9
$DIMTXSTY
  7
Standard
  9
$DIMAUNIT
 70
     0
  9
$DIMADEC
 70
     0
  9
$DIMALTRND
 40
0.0
  9
$DIMAZIN
 70
     0
  9
$DIMDSEP
 70
    44
  9
$DIMATFIT
 70
     3
  9
$DIMFRAC
 70
     0
  9
$DIMLDRBLK
  1

  9
$DIMLUNIT
 70
     2
  9
$DIMLWD
 70
    -2
  9
$DIMLWE
 70
    -2
  9
$DIMTMOVE
 70
     0
  9
$LUNITS
 70
     2
  9
$LUPREC
 70
     4
  9
$SKETCHINC
 40
1.0
  9
$FILLETRAD
 40
0.0
  9
$AUNITS
 70
     0
  9
$AUPREC
 70
     0
  9
$MENU
  1
.
  9
$ELEVATION
 40
0.0
  9
$PELEVATION
 40
0.0
  9
$THICKNESS
 40
0.0
  9
$LIMCHECK
 70
     0
  9
$CHAMFERA
 40
0.0
  9
$CHAMFERB
 40
0.0
  9
$CHAMFERC
 40
0.0
  9
$CHAMFERD
 40
0.0
  9
$SKPOLY
 70
     0
  9
$TDCREATE
 40
2454361.411026111
  9
$TDUCREATE
 40
2454361.036026111
  9
$TDUPDATE
 40
2454571.493231366
  9
$TDUUPDATE
 40
2454571.118231366
  9
$TDINDWG
 40
0.0412695602
  9
$TDUSRTIMER
 40
0.0412679398
  9
$USRTIMER
 70
     1
  9
$ANGBASE
 50
0.0
  9
$ANGDIR
 70
     0
  9
$PDMODE
 70
     0
  9
$PDSIZE
 40
0.0
  9
$PLINEWID
 40
0.0
  9
$SPLFRAME
 70
     0
  9
$SPLINETYPE
 70
     6
  9
$SPLINESEGS
 70
     8
  9
$HANDSEED
  5
1179
  9
$SURFTAB1
 70
     6
  9
$SURFTAB2
 70
     6
  9
$SURFTYPE
 70
     6
  9
$SURFU
 70
     6
  9
$SURFV
 70
     6
  9
$UCSBASE
  2

  9
$UCSNAME
  2

  9
$UCSORG
 10
0.0
 20
0.0
 30
0.0
  9
$UCSXDIR
 10
1.0
 20
0.0
 30
0.0
  9
$UCSYDIR
 10
0.0
 20
1.0
 30
0.0
  9
$UCSORTHOREF
  2

  9
$UCSORTHOVIEW
 70
     0
  9
$UCSORGTOP
 10
0.0
 20
0.0
 30
0.0
  9
$UCSORGBOTTOM
 10
0.0
 20
0.0
 30
0.0
  9
$UCSORGLEFT
 10
0.0
 20
0.0
 30
0.0
  9
$UCSORGRIGHT
 10
0.0
 20
0.0
 30
0.0
  9
$UCSORGFRONT
 10
0.0
 20
0.0
 30
0.0
  9
$UCSORGBACK
 10
0.0
 20
0.0
 30
0.0
  9
$PUCSBASE
  2

  9
$PUCSNAME
  2

  9
$PUCSORG
 10
0.0
 20
0.0
 30
0.0
  9
$PUCSXDIR
 10
1.0
 20
0.0
 30
0.0
  9
$PUCSYDIR
 10
0.0
 20
1.0
 30
0.0
  9
$PUCSORTHOREF
  2

  9
$PUCSORTHOVIEW
 70
     0
  9
$PUCSORGTOP
 10
0.0
 20
0.0
 30
0.0
  9
$PUCSORGBOTTOM
 10
0.0
 20
0.0
 30
0.0
  9
$PUCSORGLEFT
 10
0.0
 20
0.0
 30
0.0
  9
$PUCSORGRIGHT
 10
0.0
 20
0.0
 30
0.0
  9
$PUCSORGFRONT
 10
0.0
 20
0.0
 30
0.0
  9
$PUCSORGBACK
 10
0.0
 20
0.0
 30
0.0
  9
$USERI1
 70
     0
  9
$USERI2
 70
     0
  9
$USERI3
 70
     0
  9
$USERI4
 70
     0
  9
$USERI5
 70
     0
  9
$USERR1
 40
0.0
  9
$USERR2
 40
0.0
  9
$USERR3
 40
0.0
  9
$USERR4
 40
0.0
  9
$USERR5
 40
0.0
  9
$WORLDVIEW
 70
     1
  9
$SHADEDGE
 70
     3
  9
$SHADEDIF
 70
    70
  9
$TILEMODE
 70
     1
  9
$MAXACTVP
 70
    64
  9
$PINSBASE
 10
0.0
 20
0.0
 30
0.0
  9
$PLIMCHECK
 70
     0
  9
$PEXTMIN
 10
0.0
 20
0.0
 30
0.0
  9
$PEXTMAX
 10
0.0
 20
0.0
 30
0.0
  9
$PLIMMIN
 10
0.0
 20
0.0
  9
$PLIMMAX
 10
12.0
 20
9.0
  9
$UNITMODE
 70
     0
  9
$VISRETAIN
 70
     1
  9
$PLINEGEN
 70
     0
  9
$PSLTSCALE
 70
     1
  9
$TREEDEPTH
 70
  3020
  9
$CMLSTYLE
  2
Standard
  9
$CMLJUST
 70
     0
  9
$CMLSCALE
 40
20.0
  9
$PROXYGRAPHICS
 70
     1
  9
$MEASUREMENT
 70
     1
  9
$CELWEIGHT
370
    -1
  9
$ENDCAPS
280
     0
  9
$JOINSTYLE
280
     0
  9
$LWDISPLAY
290
     0
  9
$INSUNITS
 70
     6
  9
$HYPERLINKBASE
  1

  9
$STYLESHEET
  1
2.CTB
  9
$XEDIT
290
     1
  9
$CEPSNTYPE
380
     0
  9
$PSTYLEMODE
290
     1
  9
$FINGERPRINTGUID
  2
{FDEAD578-A652-11D2-9A35-0060089B3A3F}
  9
$VERSIONGUID
  2
{6B1144EA-7715-4684-9049-B4D969637C6C}
  9
$EXTNAMES
290
     1
  9
$PSVPSCALE
 40
0.0
  9
$OLESTARTUP
290
     0
  0
ENDSEC
  0
SECTION
  2
CLASSES
  0
CLASS
  1
ACDBDICTIONARYWDFLT
  2
AcDbDictionaryWithDefault
  3
ObjectDBX Classes
 90
        0
280
     0
281
     0
  0
CLASS
  1
ACDBPLACEHOLDER
  2
AcDbPlaceHolder
  3
ObjectDBX Classes
 90
        0
280
     0
281
     0
  0
CLASS
  1
LAYOUT
  2
AcDbLayout
  3
ObjectDBX Classes
 90
        0
280
     0
281
     0
  0
CLASS
  1
DICTIONARYVAR
  2
AcDbDictionaryVar
  3
ObjectDBX Classes
 90
        0
280
     0
281
     0
  0
CLASS
  1
SORTENTSTABLE
  2
AcDbSortentsTable
  3
ObjectDBX Classes
 90
        0
280
     0
281
     0
  0
CLASS
  1
TABLESTYLE
  2
AcDbTableStyle
  3
ObjectDBX Classes
 90
     2047
280
     0
281
     0
  0
CLASS
  1
AECC_TREE_NODE
  2
AeccDbTreeNode
  3
AeccvBase10|Product Desc: Autodesk Civil 3D |Company: Autodesk,Inc. |WEB Address: www.autodesk.com
 90
     1023
280
     0
281
     0
  0
CLASS
  1
AECC_CLASS_NODE
  2
AeccDbClassNode
  3
AeccLand10|Product Desc: Autodesk Civil 3D |Company: Autodesk,Inc. |WEB Address: www.autodesk.com
 90
     1023
280
     0
281
     0
  0
CLASS
  1
AECC_ROOT_SETTINGS_NODE
  2
AeccDbRootSettingsNode
  3
AeccvBase10|Product Desc: Autodesk Civil 3D |Company: Autodesk,Inc. |WEB Address: www.autodesk.com
 90
     1023
280
     0
281
     0
  0
CLASS
  1
AEC_VARS_DWG_SETUP
  2
AecDbVarsDwgSetup
  3
AecBase40|Product Desc: Autodesk Architectural Desktop 2005 |Company: Autodesk,Inc. |WEB Address: www.autodesk.com
 90
      129
280
     0
281
     0
  0
CLASS
  1
DMMAPMANAGER
  2
AcMapDMMapManager
  3
AcMapDisplayManagement
 90
     1024
280
     0
281
     0
  0
CLASS
  1
DMSTYLELIBRARY
  2
AcMapDMStyleLibrary
  3
AcMapDisplayManagement
 90
     1024
280
     0
281
     0
  0
CLASS
  1
DMMAP
  2
AcMapDMMap
  3
AcMapDisplayManagement
 90
     1024
280
     0
281
     0
  0
CLASS
  1
DMBASEELEMENT
  2
AcMapDMBaseElement
  3
AcMapDisplayManagement
 90
     1024
280
     0
281
     0
  0
CLASS
  1
DMDEFAULTSTYLE
  2
AcMapDMDefaultStyle
  3
AcMapDisplayManagement
 90
     1024
280
     0
281
     0
  0
CLASS
  1
DMSTYLEREFERENCE
  2
AcMapDMStyleReference
  3
AcMapDisplayManagement
 90
     1024
280
     0
281
     0
  0
CLASS
  1
DMSTYLECATEGORY
  2
AcMapDMStyleCategory
  3
AcMapDisplayManagement
 90
     1024
280
     0
281
     0
  0
CLASS
  1
AECC_SETTINGS_NODE
  2
AeccDbSettingsNode
  3
AeccvBase10|Product Desc: Autodesk Civil 3D |Company: Autodesk,Inc. |WEB Address: www.autodesk.com
 90
     1023
280
     0
281
     0
  0
CLASS
  1
AECC_PROFILE_VIEW_STYLE
  2
AeccDbGraphStyleProfile
  3
AeccLand10|Product Desc: Autodesk Civil 3D |Company: Autodesk,Inc. |WEB Address: www.autodesk.com
 90
      129
280
     0
281
     0
  0
CLASS
  1
AECC_PROFILE_VIEW_BAND_STYLE_SET
  2
AeccDbGraphProfileBandStyleSet
  3
AeccLand10|Product Desc: Autodesk Civil 3D |Company: Autodesk,Inc. |WEB Address: www.autodesk.com
 90
      129
280
     0
281
     0
  0
CLASS
  1
AECC_PROFILE_VIEW_DATA_BAND_STYLE
  2
AeccDbGraphStyleProfileDataBands
  3
AeccLand10|Product Desc: Autodesk Civil 3D |Company: Autodesk,Inc. |WEB Address: www.autodesk.com
 90
      129
280
     0
281
     0
  0
CLASS
  1
AECC_LABEL_NODE
  2
AeccDbLabelNode
  3
AeccLand10|Product Desc: Autodesk Civil 3D |Company: Autodesk,Inc. |WEB Address: www.autodesk.com
 90
     1023
280
     0
281
     0
  0
CLASS
  1
AECC_LABEL_COLLECTOR_STYLE
  2
AeccDbLabelStyleCollector
  3
AeccLand10|Product Desc: Autodesk Civil 3D |Company: Autodesk,Inc. |WEB Address: www.autodesk.com
 90
     1023
280
     0
281
     0
  0
CLASS
  1
AECC_LABEL_TEXT_STYLE
  2
AeccDbLabelStyleText
  3
AeccLand10|Product Desc: Autodesk Civil 3D |Company: Autodesk,Inc. |WEB Address: www.autodesk.com
 90
     1023
280
     0
281
     0
  0
CLASS
  1
AECC_PROFILE_VIEW_HORIZONTAL_GEOMETRY_BAND_STYLE
  2
AeccDbGraphStyleHorGeometryBands
  3
AeccLand10|Product Desc: Autodesk Civil 3D |Company: Autodesk,Inc. |WEB Address: www.autodesk.com
 90
      129
280
     0
281
     0
  0
CLASS
  1
AECC_PROFILE_VIEW_VERTICAL_GEOMETRY_BAND_STYLE
  2
AeccDbGraphStyleVertGeometryBands
  3
AeccLand10|Product Desc: Autodesk Civil 3D |Company: Autodesk,Inc. |WEB Address: www.autodesk.com
 90
      129
280
     0
281
     0
  0
CLASS
  1
AECC_LABEL_RADIAL_LINE_STYLE
  2
AeccDbLabelStyleRadialLine
  3
AeccLand10|Product Desc: Autodesk Civil 3D |Company: Autodesk,Inc. |WEB Address: www.autodesk.com
 90
     1023
280
     0
281
     0
  0
CLASS
  1
AECC_POINT_STYLE
  2
AeccDbPointStyle
  3
AeccLand10|Product Desc: Autodesk Civil 3D |Company: Autodesk,Inc. |WEB Address: www.autodesk.com
 90
      895
280
     0
281
     0
  0
CLASS
  1
AECC_PROFILE_LABEL_SET
  2
AeccDbVAlignStnLabelsDlgTemplate
  3
AeccLand10|Product Desc: Autodesk Civil 3D |Company: Autodesk,Inc. |WEB Address: www.autodesk.com
 90
     1023
280
     0
281
     0
  0
CLASS
  1
AECC_SECTION_VIEW_STYLE
  2
AeccDbGraphStyleCrossSection
  3
AeccLand10|Product Desc: Autodesk Civil 3D |Company: Autodesk,Inc. |WEB Address: www.autodesk.com
 90
      129
280
     0
281
     0
  0
CLASS
  1
AECC_SECTION_VIEW_BAND_STYLE_SET
  2
AeccDbGraphSectionBandStyleSet
  3
AeccLand10|Product Desc: Autodesk Civil 3D |Company: Autodesk,Inc. |WEB Address: www.autodesk.com
 90
      129
280
     0
281
     0
  0
CLASS
  1
AECC_SECTION_VIEW_DATA_BAND_STYLE
  2
AeccDbGraphStyleSectionDataBands
  3
AeccLand10|Product Desc: Autodesk Civil 3D |Company: Autodesk,Inc. |WEB Address: www.autodesk.com
 90
      129
280
     0
281
     0
  0
CLASS
  1
AECC_SECTION_LABEL_SET
  2
AeccDbSectionLabelsDlgTemplate
  3
AeccLand10|Product Desc: Autodesk Civil 3D |Company: Autodesk,Inc. |WEB Address: www.autodesk.com
 90
     1023
280
     0
281
     0
  0
CLASS
  1
AECC_ALIGNMENT_STYLE
  2
AeccDbAlignmentStyle
  3
AeccLand10|Product Desc: Autodesk Civil 3D |Company: Autodesk,Inc. |WEB Address: www.autodesk.com
 90
     1023
280
     0
281
     0
  0
CLASS
  1
AECC_LABEL_VECTOR_ARROW_STYLE
  2
AeccDbLabelStyleVectorArrow
  3
AeccLand10|Product Desc: Autodesk Civil 3D |Company: Autodesk,Inc. |WEB Address: www.autodesk.com
 90
     1023
280
     0
281
     0
  0
CLASS
  1
AECC_ALIGNMENT_LABEL_SET
  2
AeccDbAlignStnLabelsDlgTemplate
  3
AeccLand10|Product Desc: Autodesk Civil 3D |Company: Autodesk,Inc. |WEB Address: www.autodesk.com
 90
     1023
280
     0
281
     0
  0
CLASS
  1
AECC_SURFACE_STYLE
  2
AeccDbSurfaceStyle
  3
AeccLand10|Product Desc: Autodesk Civil 3D |Company: Autodesk,Inc. |WEB Address: www.autodesk.com
 90
      129
280
     0
281
     0
  0
CLASS
  1
AECC_LEGEND_TABLE_STYLE
  2
AeccDbLegendScheduleTableStyle
  3
AeccLand10|Product Desc: Autodesk Civil 3D |Company: Autodesk,Inc. |WEB Address: www.autodesk.com
 90
     1023
280
     0
281
     0
  0
CLASS
  1
AECC_SECTION_STYLE
  2
AeccDbSectionStyle
  3
AeccLand10|Product Desc: Autodesk Civil 3D |Company: Autodesk,Inc. |WEB Address: www.autodesk.com
 90
     1023
280
     0
281
     0
  0
CLASS
  1
AECC_GRADING_STYLE
  2
AeccDbGradingStyle
  3
AeccLand10|Product Desc: Autodesk Civil 3D |Company: Autodesk,Inc. |WEB Address: www.autodesk.com
 90
     1023
280
     0
281
     0
  0
CLASS
  1
AECC_GRADING_CRITERIA
  2
AeccDbGradingCriteria
  3
AeccLand10|Product Desc: Autodesk Civil 3D |Company: Autodesk,Inc. |WEB Address: www.autodesk.com
 90
     1023
280
     0
281
     0
  0
CLASS
  1
AECC_PARCEL_STYLE
  2
AeccDbParcelStyle
  3
AeccLand10|Product Desc: Autodesk Civil 3D |Company: Autodesk,Inc. |WEB Address: www.autodesk.com
 90
      129
280
     0
281
     0
  0
CLASS
  1
AECC_SAMPLE_LINE_GROUP_STYLE
  2
AeccDbSampleLineGroupStyle
  3
AeccLand10|Product Desc: Autodesk Civil 3D |Company: Autodesk,Inc. |WEB Address: www.autodesk.com
 90
      129
280
     0
281
     0
  0
CLASS
  1
AECC_SHEET_STYLE
  2
AeccDbSheetStyle
  3
AeccLand10|Product Desc: Autodesk Civil 3D |Company: Autodesk,Inc. |WEB Address: www.autodesk.com
 90
      129
280
     0
281
     0
  0
CLASS
  1
AECC_SAMPLE_LINE_STYLE
  2
AeccDbSampleLineStyle
  3
AeccLand10|Product Desc: Autodesk Civil 3D |Company: Autodesk,Inc. |WEB Address: www.autodesk.com
 90
     1023
280
     0
281
     0
  0
CLASS
  1
AECC_PROFILE_STYLE
  2
AeccDbVAlignmentStyle
  3
AeccLand10|Product Desc: Autodesk Civil 3D |Company: Autodesk,Inc. |WEB Address: www.autodesk.com
 90
     1023
280
     0
281
     0
  0
CLASS
  1
AECC_STATION_FORMAT_STYLE
  2
AeccDbStationFormatStyle
  3
AeccLand10|Product Desc: Autodesk Civil 3D |Company: Autodesk,Inc. |WEB Address: www.autodesk.com
 90
     1023
280
     0
281
     0
  0
CLASS
  1
AECC_TABLE_STYLE
  2
AeccDbScheduleTableStyle
  3
AeccLand10|Product Desc: Autodesk Civil 3D |Company: Autodesk,Inc. |WEB Address: www.autodesk.com
 90
     1023
280
     0
281
     0
  0
CLASS
  1
AECC_GRADING_CRITERIA_SET
  2
AeccDbGradingCriteriaSet
  3
AeccLand10|Product Desc: Autodesk Civil 3D |Company: Autodesk,Inc. |WEB Address: www.autodesk.com
 90
     1023
280
     0
281
     0
  0
CLASS
  1
AECC_FORMAT_MANAGER_OBJECT
  2
AeccDbFormatManagerObject
  3
AeccLand10|Product Desc: Autodesk Civil 3D |Company: Autodesk,Inc. |WEB Address: www.autodesk.com
 90
     1023
280
     0
281
     0
  0
CLASS
  1
AECC_POINT_DESCRIPTION_KEY_SET_NODE
  2
AeccDbPointDescKeySetsNode
  3
AeccvBase10|Product Desc: Autodesk Civil 3D |Company: Autodesk,Inc. |WEB Address: www.autodesk.com
 90
     1023
280
     0
281
     0
  0
ENDSEC
  0
SECTION
  2
TABLES
  0
TABLE
  2
VPORT
  5
8
330
0
100
AcDbSymbolTable
 70
     2
  0
VPORT
  5
1171
330
8
100
AcDbSymbolTableRecord
100
AcDbViewportTableRecord
  2
*Active
 70
     0
 10
0.0
 20
0.0
 11
1.0
 21
1.0
 12
19882.76998607878
 22
13356.63195515352
 13
0.0
 23
0.0
 14
10.0
 24
10.0
 15
10.0
 25
10.0
 16
0.0
 26
0.0
 36
1.0
 17
0.0
 27
0.0
 37
0.0
 40
32592.37573398439
 41
1.227931488801053
 42
50.0
 43
0.0
 44
0.0
 50
0.0
 51
0.0
 71
     0
 72
  1000
 73
     1
 74
     1
 75
     0
 76
     0
 77
     0
 78
     0
281
     0
 65
     1
110
0.0
120
0.0
130
0.0
111
1.0
121
0.0
131
0.0
112
0.0
122
1.0
132
0.0
 79
     0
146
0.0
  0
ENDTAB
  0
TABLE
  2
LTYPE
  5
5
330
0
100
AcDbSymbolTable
 70
     3
  0
LTYPE
  5
14
330
5
100
AcDbSymbolTableRecord
100
AcDbLinetypeTableRecord
  2
ByBlock
 70
     0
  3

 72
    65
 73
     0
 40
0.0
  0
LTYPE
  5
15
330
5
100
AcDbSymbolTableRecord
100
AcDbLinetypeTableRecord
  2
ByLayer
 70
     0
  3

 72
    65
 73
     0
 40
0.0
  0
LTYPE
  5
16
330
5
100
AcDbSymbolTableRecord
100
AcDbLinetypeTableRecord
  2
Continuous
 70
     0
  3
Solid line
 72
    65
 73
     0
 40
0.0
  0
LTYPE
  5
258
330
5
100
AcDbSymbolTableRecord
100
AcDbLinetypeTableRecord
  2
DASHED
 70
     0
  3
__ __ __ __ __ __ __ __ __ __ __ __ __ __ __
 72
    65
 73
     2
 40
3.0
 49
2.0
 74
     0
 49
-1.0
 74
     0
  0
LTYPE
  5
259
330
5
100
AcDbSymbolTableRecord
100
AcDbLinetypeTableRecord
  2
DASHDOT
 70
     0
  3
__ . __ . __ . __ . __ . __ . __ . __ . __ . __
 72
    65
 73
     4
 40
8.5
 49
6.0
 74
     0
 49
-1.0
 74
     0
 49
0.5
 74
     0
 49
-1.0
 74
     0
  0
ENDTAB
  0
TABLE
  2
LAYER
  5
2
330
0
100
AcDbSymbolTable
 70
    18
  0
LAYER
  5
10
330
2
100
AcDbSymbolTableRecord
100
AcDbLayerTableRecord
  2
0
 70
     0
 62
     7
  6
Continuous
370
    -3
390
F
  0
LAYER
  5
25A
330
2
100
AcDbSymbolTableRecord
100
AcDbLayerTableRecord
  2
DEFPOINTS
 70
     0
 62
     4
  6
Continuous
290
     0
370
    -3
390
F
  0
LAYER
  5
25B
330
2
100
AcDbSymbolTableRecord
100
AcDbLayerTableRecord
  2
寸法
 70
     0
 62
     6
  6
Continuous
370
    -3
390
F
  0
LAYER
  5
25C
330
2
100
AcDbSymbolTableRecord
100
AcDbLayerTableRecord
  2
画層1-1
 70
     0
 62
    82
  6
Continuous
370
    -3
390
F
  0
LAYER
  5
25D
330
2
100
AcDbSymbolTableRecord
100
AcDbLayerTableRecord
  2
図面枠
 70
     0
 62
     7
  6
Continuous
370
    -3
390
F
  0
LAYER
  5
25E
330
2
100
AcDbSymbolTableRecord
100
AcDbLayerTableRecord
  2
ﾊｯﾁﾝｸﾞ
 70
     0
 62
     1
  6
Continuous
370
    -3
390
F
  0
LAYER
  5
25F
330
2
100
AcDbSymbolTableRecord
100
AcDbLayerTableRecord
  2
画層1
 70
     0
 62
     7
  6
Continuous
370
    -3
390
F
  0
LAYER
  5
260
330
2
100
AcDbSymbolTableRecord
100
AcDbLayerTableRecord
  2
画層2
 70
     0
 62
    40
  6
Continuous
370
    -3
390
F
  0
LAYER
  5
261
330
2
100
AcDbSymbolTableRecord
100
AcDbLayerTableRecord
  2
通り芯
 70
     0
 62
     4
  6
Continuous
370
    13
390
F
  0
LAYER
  5
262
330
2
100
AcDbSymbolTableRecord
100
AcDbLayerTableRecord
  2
ﾈｯﾄ
 70
     0
 62
   230
  6
Continuous
370
    13
390
F
  0
LAYER
  5
263
330
2
100
AcDbSymbolTableRecord
100
AcDbLayerTableRecord
  2
画層3-3
 70
     0
 62
     1
  6
Continuous
370
    -3
390
F
  0
LAYER
  5
264
330
2
100
AcDbSymbolTableRecord
100
AcDbLayerTableRecord
  2
画層3-1
 70
     0
 62
     3
  6
Continuous
370
    -3
390
F
  0
LAYER
  5
265
330
2
100
AcDbSymbolTableRecord
100
AcDbLayerTableRecord
  2
画層3-2
 70
     0
 62
    60
  6
Continuous
370
    -3
390
F
  0
LAYER
  5
266
330
2
100
AcDbSymbolTableRecord
100
AcDbLayerTableRecord
  2
画層2-1
 70
     0
 62
     7
  6
Continuous
370
    -3
390
F
  0
LAYER
  5
267
330
2
100
AcDbSymbolTableRecord
100
AcDbLayerTableRecord
  2
画層3-通り芯
 70
     0
 62
     4
  6
Continuous
370
    -3
390
F
  0
LAYER
  5
268
330
2
100
AcDbSymbolTableRecord
100
AcDbLayerTableRecord
  2
画層3-寸法
 70
     0
 62
     6
  6
Continuous
370
    -3
390
F
  0
LAYER
  5
269
330
2
100
AcDbSymbolTableRecord
100
AcDbLayerTableRecord
  2
寸法文字
 70
     0
 62
     6
  6
Continuous
370
    -3
390
F
  0
LAYER
  5
26A
330
2
100
AcDbSymbolTableRecord
100
AcDbLayerTableRecord
  2
寸法引出
 70
     0
 62
     3
  6
Continuous
370
    -3
390
F
  0
ENDTAB
  0
TABLE
  2
STYLE
  5
3
330
0
100
AcDbSymbolTable
 70
     4
  0
STYLE
  5
11
330
3
100
AcDbSymbolTableRecord
100
AcDbTextStyleTableRecord
  2
Standard
 70
     0
 40
0.0
 41
1.0
 50
0.0
 71
     0
 42
2.5
  3
txt
  4

  0
STYLE
  5
26B
330
3
100
AcDbSymbolTableRecord
100
AcDbTextStyleTableRecord
  2
1_100
 70
     0
 40
0.0
 41
0.75
 50
0.0
 71
     0
 42
2.5
  3
romans.shx
  4
extfont2.shx
  0
STYLE
  5
26C
330
3
100
AcDbSymbolTableRecord
100
AcDbTextStyleTableRecord
  2
STYLE1
 70
     0
 40
0.0
 41
0.75
 50
0.0
 71
     0
 42
0.2
  3
HGRSKP.TTF
  4

1001
ACAD
1000
HGSeikaishotaiPRO
1071
    32833
  0
STYLE
  5
26D
330
3
100
AcDbSymbolTableRecord
100
AcDbTextStyleTableRecord
  2
MSP明朝
 70
     0
 40
0.0
 41
0.75
 50
0.0
 71
     0
 42
0.2
  3
MS PMincho.ttf
  4

1001
ACAD
1000
MS PMincho
1071
    32786
  0
ENDTAB
  0
TABLE
  2
VIEW
  5
6
330
0
100
AcDbSymbolTable
 70
     0
  0
ENDTAB
  0
TABLE
  2
UCS
  5
7
330
0
100
AcDbSymbolTable
 70
     0
  0
ENDTAB
  0
TABLE
  2
APPID
  5
9
330
0
100
AcDbSymbolTable
 70
     4
  0
APPID
  5
12
330
9
100
AcDbSymbolTableRecord
100
AcDbRegAppTableRecord
  2
ACAD
 70
     0
  0
APPID
  5
271
330
9
100
AcDbSymbolTableRecord
100
AcDbRegAppTableRecord
  2
AcDbBlockRepETag
 70
     0
  0
APPID
  5
E61
330
9
100
AcDbSymbolTableRecord
100
AcDbRegAppTableRecord
  2
ADE
 70
     0
  0
APPID
  5
E62
330
9
100
AcDbSymbolTableRecord
100
AcDbRegAppTableRecord
  2
DCO15
 70
     0
  0
ENDTAB
  0
TABLE
  2
DIMSTYLE
  5
A
330
0
100
AcDbSymbolTable
 70
     5
100
AcDbDimStyleTable
 71
     0
  0
DIMSTYLE
105
27
330
A
100
AcDbSymbolTableRecord
100
AcDbDimStyleTableRecord
  2
ISO-25
 70
     0
 41
2.5
 42
0.625
 43
3.75
 44
1.25
 73
     0
 74
     0
 77
     1
 78
     8
140
2.5
141
2.5
143
0.03937007874016
147
0.625
171
     3
172
     1
271
     2
272
     2
274
     3
278
    44
283
     0
284
     8
340
11
  0
DIMSTYLE
105
26E
330
A
100
AcDbSymbolTableRecord
100
AcDbDimStyleTableRecord
  2
STANDARD
 70
     0
340
11
  0
DIMSTYLE
105
26F
102
{ACAD_REACTORS
330
527
330
555
330
55E
330
5DB
330
5E4
330
5E5
330
60E
330
674
330
678
330
6A4
330
6D0
330
6D1
330
6D6
330
6D7
330
6DA
330
6DB
330
6DD
330
6DF
330
6E0
330
6E1
330
70D
330
713
330
719
330
724
330
725
330
726
330
75F
330
78A
330
791
330
7A6
330
7A7
330
7A8
330
7A9
102
}
330
A
100
AcDbSymbolTableRecord
100
AcDbDimStyleTableRecord
  2
1_100
 70
     0
 40
100.0
 41
0.6
 42
3.0
 43
10.0
 44
0.0
 73
     0
 74
     0
 77
     1
 78
     8
140
3.0
141
0.0
147
1.0
172
     1
173
     1
176
   256
177
   256
178
   256
271
     1
272
     1
277
     6
279
     2
284
     8
340
26B
341
87
343
87
344
87
  0
DIMSTYLE
105
270
102
{ACAD_REACTORS
330
60A
330
60F
102
}
330
A
100
AcDbSymbolTableRecord
100
AcDbDimStyleTableRecord
  2
1_100_B
 70
     0
 40
100.0
 41
0.8
 42
2.0
 43
10.0
 44
0.0
 73
     0
 74
     0
 77
     1
 78
    12
140
3.0
147
0.5
172
     1
173
     1
176
   256
177
   256
178
   256
271
     1
272
     1
277
     6
279
     2
340
26B
341
87
343
87
344
87
  0
DIMSTYLE
105
E60
330
A
100
AcDbSymbolTableRecord
100
AcDbDimStyleTableRecord
  2
1_50
 70
     0
 40
50.0
 41
1.0
 42
3.0
 43
10.0
 44
0.0
 73
     0
 74
     0
 77
     1
 78
    12
140
3.0
141
0.0
147
1.0
172
     1
173
     1
176
   256
177
   256
178
   256
271
     1
272
     1
277
     6
279
     2
340
26B
341
87
343
87
344
87
  0
ENDTAB
  0
TABLE
  2
BLOCK_RECORD
  5
1
330
0
100
AcDbSymbolTable
 70
    38
  0
BLOCK_RECORD
  5
1F
102
{ACAD_XDICTIONARY
360
E72
102
}
330
1
100
AcDbSymbolTableRecord
100
AcDbBlockTableRecord
  2
*Model_Space
340
22
  0
BLOCK_RECORD
  5
50
330
1
100
AcDbSymbolTableRecord
100
AcDbBlockTableRecord
  2
*Paper_Space
340
51
  0
BLOCK_RECORD
  5
55
330
1
100
AcDbSymbolTableRecord
100
AcDbBlockTableRecord
  2
*Paper_Space0
340
56
  0
BLOCK_RECORD
  5
87
330
1
100
AcDbSymbolTableRecord
100
AcDbBlockTableRecord
  2
_ORIGIN
340
0
102
{BLKREFS
331
981
331
982
331
98A
331
98B
331
993
331
994
331
99C
331
99D
331
9A7
331
9A8
331
9B1
331
9B2
331
9BB
331
9BC
331
9C4
331
9C5
331
9CE
331
9CF
331
9D6
331
9D7
331
9DF
331
9E0
331
9EB
331
9EC
331
9F3
331
9F4
331
9FD
331
9FE
331
A05
331
A06
331
A0E
331
A0F
331
A17
331
A18
331
A23
331
A24
331
A2B
331
A2C
331
A36
331
A37
331
A42
331
A43
331
A4A
331
A4B
331
A56
331
A57
331
A5E
331
A5F
331
A67
331
A68
331
A73
331
A74
331
A7B
331
A7C
331
A84
331
A85
331
A8E
331
A8F
331
A96
331
A97
331
AA2
331
AA3
331
AAD
331
AAE
331
AB5
331
AB6
331
AC1
331
AC2
331
AC9
331
ACA
102
}
  0
BLOCK_RECORD
  5
8C
330
1
100
AcDbSymbolTableRecord
100
AcDbBlockTableRecord
  2
sai450
340
0
310
28000000200000002000000001000800000000000004000000000000000000000000000000000000000000004000000080000000FF000000002000004020000080200000FF200000004000004040000080400000FF400000006000004060000080600000FF600000008000004080000080800000FF80000000A0000040A000
310
0080A00000FFA0000000C0000040C0000080C00000FFC0000000FF000040FF000080FF0000FFFF0000000020004000200080002000FF002000002020004020200080202000FF202000004020004040200080402000FF402000006020004060200080602000FF602000008020004080200080802000FF80200000A0200040A0
310
200080A02000FFA0200000C0200040C0200080C02000FFC0200000FF200040FF200080FF2000FFFF2000000040004000400080004000FF004000002040004020400080204000FF204000004040004040400080404000FF404000006040004060400080604000FF604000008040004080400080804000FF80400000A0400040
310
A0400080A04000FFA0400000C0400040C0400080C04000FFC0400000FF400040FF400080FF4000FFFF4000000060004000600080006000FF006000002060004020600080206000FF206000004060004040600080406000FF406000006060004060600080606000FF606000008060004080600080806000FF80600000A06000
310
40A0600080A06000FFA0600000C0600040C0600080C06000FFC0600000FF600040FF600080FF6000FFFF6000000080004000800080008000FF008000002080004020800080208000FF208000004080004040800080408000FF408000006080004060800080608000FF608000008080004080800080808000FF80800000A080
310
0040A0800080A08000FFA0800000C0800040C0800080C08000FFC0800000FF800040FF800080FF8000FFFF80000000A0004000A0008000A000FF00A0000020A0004020A0008020A000FF20A0000040A0004040A0008040A000FF40A0000060A0004060A0008060A000FF60A0000080A0004080A0008080A000FF80A00000A0
310
A00040A0A00080A0A000FFA0A00000C0A00040C0A00080C0A000FFC0A00000FFA00040FFA00080FFA000FFFFA0000000C0004000C0008000C000FF00C0000020C0004020C0008020C000FF20C0000040C0004040C0008040C000FF40C0000060C0004060C0008060C000FF60C0000080C0004080C0008080C000FF80C00000
310
A0C00040A0C00080A0C000FFA0C00000C0C00040C0C00080C0C000FFC0C00000FFC00040FFC00080FFC000FFFFC0000000FF004000FF008000FF00FF00FF000020FF004020FF008020FF00FF20FF000040FF004040FF008040FF00FF40FF000060FF004060FF008060FF00FF60FF000080FF004080FF008080FF00FF80FF00
310
00A0FF0040A0FF0080A0FF00FFA0FF0000C0FF0040C0FF0080C0FF00FFC0FF0000FFFF0040FFFF0080FFFF00FFFFFF00FFFFFFFFFFFFFFFFFFFFFFFFFFFFFFFFFFFFFFFFFFFFFFFFFFFFFFFFFFFFFFFFFFFFFFFFFFFFFFFFFFFFFFFFFFFFFFFFFFFFFFFFFFFFFFFFFFFFFFFFFFFFFFFFFFFFFFFFFFFFFFFFFFFFFFFFFFFFFF
310
FFFFFFFFFFFFFFFFFFFFFFFFFFFFFFFFFFFFFFFFFFFFFFFFFFFFFFFFFFFFFFFFFFFFFFFFFFFFFFFFFFFFFFFFFFFFFFFFFFFFFFFFFFFFFFFFFFFFFFFFFFFFFFFFFFFFFFFFFFFFFFFFFFFFFFFFFFFFFFFFFFFFFFFFFFFFFFFFFFFFFFFFFFFFFFFFFFFFFFFFFFFFFFFFFFFFFFFFFFFFFFFFFFFFFFFFFFFFFFFFFFFFFFFFFFFFFF
310
FFFFFFFFFFFFFFFFFFFFFFFFFFFFFFFFFFFFFFFFFFFFFFFFFFFFFFFFFFFFFFFFFFFFFFFFFFFFFFFFFFFFFFFFFFFFFFFFFFFFFFFFFFFFFFFFFFFFFFFFFFFFFFFFFFFFFFFFFFFFFFFFFFFFFFFFFFFFFFFFFFFFFFFFFFFFFFFFFFFFFFFFFFFFFFFFFFFFFFFFFFFFFFFFFFFFFFFFFFFFFFFFFFFFFFFFFFFFFFFFFFFFFFFFFFFFFF
310
FFFFFFFFFFFFFFFFFFFFFFFFFFFFFFFFFFFFFFFFFFFFFFFFFFFFFFFFFFFFFFFFFFFFFFFFFFFFFFFFFFFFFFFFFFFFFFFFFFFFFFFFE0FFE0FFFFFFE0FFE0FFFFFFFFE0E0FFFFFFFFE0E0FFFFFFFFE0E0FFFFFFFFFFFFE0E0FFFFFFFFE0E0FFFFFFFFE0E0FFFFFFFFFFE0FFFFFFFFFFE0FFFFFFFFFFFFE0FFFFFFFFFFE0FFFFFF
310
FFFFE0E0FFFFFFFFFFE0FFFFFFFFFFE0FFFFFFFFFFFFFFE0FFFFFFFFFFE0FFFFFFFFFFE0FFFFFFFFFFFFE0FFFFFFFFFFE0FFFFFFFFFFFFE0FFFFFFFFFFE0FFFFFFFFFFFFE0FFFFFFFFFFE0FFFFFFFFFFE0FFFFFFFFFFFFFFE0FFFFFFFFFFE0FFFFFFFFFFE0E0FFFFFFFFFFE0FFFFFFFFFFE0FFFFFFFFFFFFE0FFFFFFFFFFE0
310
FFFFFFFFFFFFE0FFFFFFFFFFE0FFFFFFFFFFE0FFFFFFFFFFE0FFE0FFFFFFE0FFE0FFFFFFFFE0E0FFFFFFFFE0FFE0FFFFFFE0FFE0FFFFFFFFFFFFFFFFFFFFFFFFFFFFFFFFFFFFFFFFFFFFFFFFFFFFFFFFFFFFFFFFFFFFFFFFFFFFFFFFFFFFFFFFFFFFFFFFFFFFFFFFFFFFFFFFFFFFFFFFFFFFFFFFFFFFFFFFFFFFFFFFFFFFFF
310
FFFFFFFFFFFFFFFFFFFFFFFFFFFFFFFFFFFFFFFFFFFFFFFFFFFFFFFFFFFFFFFFFFFFFFFFFFFFFFFFFFFFFFFFFFFFFFFFFFFFFFFFFFFFFFFFFFFFFFFFFFFFFFFFFFFFFFFFFFFFFFFFFFFFFFFFFFFFFFFFFFFFFFFFFFFFFFFFFFFFFFFFFFFFFFFFFFFFFFFFFFFFFFFFFFFFFFFFFFFFFFFFFFFFFFFFFFFFFFFFFFFFFFFFFFFFFF
310
FFFFFFFFFFFFFFFFFFFFFFFFFFFFFFFFFFFFFFFFFFFFFFFFFFFFFFFFFFFFFFFFFFFFFFFFFFFFFFFFFFFFFFFFFFFFFFFFFFFFFFFFFFFFFFFFFFFFFFFFFFFFFFFFFFFFFFFFFFFFFFFFFFFFFFFFFFFFFFFFFFFFFFFFFFFFFFFFFFFFFFFFFFFFFFFFFFFFFFFFFFFFFFFFFFFFFFFFFFFFFFFFFFFFFFFFFFFFFFFFFFFFFFFFFFFFFF
310
FFFFFFFFFFFFFFFFFFFFFFFFFFFFFFFFFFFFFFFFFFFFFFFFFFFFFFFFFFFFFFFFFFFFFFFFFFFFFFFFFFFFFFFFFFFFFFFFFFFFFFFFFFFFFFFF
102
{BLKREFS
331
5D2
331
673
331
70C
102
}
  0
BLOCK_RECORD
  5
7C4
330
1
100
AcDbSymbolTableRecord
100
AcDbBlockTableRecord
  2
*D3
340
0
  0
BLOCK_RECORD
  5
7D0
330
1
100
AcDbSymbolTableRecord
100
AcDbBlockTableRecord
  2
*D4
340
0
  0
BLOCK_RECORD
  5
7DC
330
1
100
AcDbSymbolTableRecord
100
AcDbBlockTableRecord
  2
*D5
340
0
  0
BLOCK_RECORD
  5
7E8
330
1
100
AcDbSymbolTableRecord
100
AcDbBlockTableRecord
  2
*D6
340
0
  0
BLOCK_RECORD
  5
7F4
330
1
100
AcDbSymbolTableRecord
100
AcDbBlockTableRecord
  2
*D7
340
0
  0
BLOCK_RECORD
  5
802
330
1
100
AcDbSymbolTableRecord
100
AcDbBlockTableRecord
  2
*D8
340
0
  0
BLOCK_RECORD
  5
80E
330
1
100
AcDbSymbolTableRecord
100
AcDbBlockTableRecord
  2
*D9
340
0
  0
BLOCK_RECORD
  5
81C
330
1
100
AcDbSymbolTableRecord
100
AcDbBlockTableRecord
  2
*D10
340
0
  0
BLOCK_RECORD
  5
828
330
1
100
AcDbSymbolTableRecord
100
AcDbBlockTableRecord
  2
*D11
340
0
  0
BLOCK_RECORD
  5
834
330
1
100
AcDbSymbolTableRecord
100
AcDbBlockTableRecord
  2
*D12
340
0
  0
BLOCK_RECORD
  5
840
330
1
100
AcDbSymbolTableRecord
100
AcDbBlockTableRecord
  2
*D13
340
0
  0
BLOCK_RECORD
  5
84C
330
1
100
AcDbSymbolTableRecord
100
AcDbBlockTableRecord
  2
*D14
340
0
  0
BLOCK_RECORD
  5
85A
330
1
100
AcDbSymbolTableRecord
100
AcDbBlockTableRecord
  2
*D15
340
0
  0
BLOCK_RECORD
  5
866
330
1
100
AcDbSymbolTableRecord
100
AcDbBlockTableRecord
  2
*D16
340
0
  0
BLOCK_RECORD
  5
872
330
1
100
AcDbSymbolTableRecord
100
AcDbBlockTableRecord
  2
*D17
340
0
  0
BLOCK_RECORD
  5
87E
330
1
100
AcDbSymbolTableRecord
100
AcDbBlockTableRecord
  2
*D18
340
0
  0
BLOCK_RECORD
  5
88A
330
1
100
AcDbSymbolTableRecord
100
AcDbBlockTableRecord
  2
*D19
340
0
  0
BLOCK_RECORD
  5
896
330
1
100
AcDbSymbolTableRecord
100
AcDbBlockTableRecord
  2
*D20
340
0
  0
BLOCK_RECORD
  5
8A4
330
1
100
AcDbSymbolTableRecord
100
AcDbBlockTableRecord
  2
*D21
340
0
  0
BLOCK_RECORD
  5
8B0
330
1
100
AcDbSymbolTableRecord
100
AcDbBlockTableRecord
  2
*D22
340
0
  0
BLOCK_RECORD
  5
8BE
330
1
100
AcDbSymbolTableRecord
100
AcDbBlockTableRecord
  2
*D23
340
0
  0
BLOCK_RECORD
  5
8CC
330
1
100
AcDbSymbolTableRecord
100
AcDbBlockTableRecord
  2
*D24
340
0
  0
BLOCK_RECORD
  5
8D8
330
1
100
AcDbSymbolTableRecord
100
AcDbBlockTableRecord
  2
*D25
340
0
  0
BLOCK_RECORD
  5
8E6
330
1
100
AcDbSymbolTableRecord
100
AcDbBlockTableRecord
  2
*D26
340
0
  0
BLOCK_RECORD
  5
8F2
330
1
100
AcDbSymbolTableRecord
100
AcDbBlockTableRecord
  2
*D27
340
0
  0
BLOCK_RECORD
  5
8FE
330
1
100
AcDbSymbolTableRecord
100
AcDbBlockTableRecord
  2
*D28
340
0
  0
BLOCK_RECORD
  5
90C
330
1
100
AcDbSymbolTableRecord
100
AcDbBlockTableRecord
  2
*D29
340
0
  0
BLOCK_RECORD
  5
918
330
1
100
AcDbSymbolTableRecord
100
AcDbBlockTableRecord
  2
*D30
340
0
  0
BLOCK_RECORD
  5
924
330
1
100
AcDbSymbolTableRecord
100
AcDbBlockTableRecord
  2
*D31
340
0
  0
BLOCK_RECORD
  5
930
330
1
100
AcDbSymbolTableRecord
100
AcDbBlockTableRecord
  2
*D32
340
0
  0
BLOCK_RECORD
  5
93C
330
1
100
AcDbSymbolTableRecord
100
AcDbBlockTableRecord
  2
*D33
340
0
  0
BLOCK_RECORD
  5
94A
330
1
100
AcDbSymbolTableRecord
100
AcDbBlockTableRecord
  2
*D34
340
0
  0
BLOCK_RECORD
  5
958
330
1
100
AcDbSymbolTableRecord
100
AcDbBlockTableRecord
  2
*D35
340
0
  0
BLOCK_RECORD
  5
964
330
1
100
AcDbSymbolTableRecord
100
AcDbBlockTableRecord
  2
*D36
340
0
  0
BLOCK_RECORD
  5
972
330
1
100
AcDbSymbolTableRecord
100
AcDbBlockTableRecord
  2
*D37
340
0
  0
ENDTAB
  0
ENDSEC
  0
SECTION
  2
BLOCKS
  0
BLOCK
  5
20
330
1F
100
AcDbEntity
  8
0
100
AcDbBlockBegin
  2
*Model_Space
 70
     0
 10
0.0
 20
0.0
 30
0.0
  3
*Model_Space
  1

  0
ENDBLK
  5
21
330
1F
100
AcDbEntity
  8
0
100
AcDbBlockEnd
  0
BLOCK
  5
52
330
50
100
AcDbEntity
 67
     1
  8
0
100
AcDbBlockBegin
  2
*Paper_Space
 70
     0
 10
0.0
 20
0.0
 30
0.0
  3
*Paper_Space
  1

  0
ENDBLK
  5
53
330
50
100
AcDbEntity
 67
     1
  8
0
100
AcDbBlockEnd
  0
BLOCK
  5
57
330
55
100
AcDbEntity
  8
0
100
AcDbBlockBegin
  2
*Paper_Space0
 70
     0
 10
0.0
 20
0.0
 30
0.0
  3
*Paper_Space0
  1

  0
ENDBLK
  5
58
330
55
100
AcDbEntity
  8
0
100
AcDbBlockEnd
  0
BLOCK
  5
88
330
87
100
AcDbEntity
  8
0
100
AcDbBlockBegin
  2
_ORIGIN
 70
     0
 10
0.0
 20
0.0
 30
0.0
  3
_ORIGIN
  1

  0
CIRCLE
  5
89
330
87
100
AcDbEntity
  8
0
  6
ByBlock
 62
     0
100
AcDbCircle
 10
0.0
 20
0.0
 30
0.0
 40
0.5
  0
LINE
  5
8A
330
87
100
AcDbEntity
  8
0
  6
ByBlock
 62
     0
100
AcDbLine
 10
0.0
 20
0.0
 30
0.0
 11
-1.0
 21
0.0
 31
0.0
  0
ENDBLK
  5
8B
330
87
100
AcDbEntity
  8
0
100
AcDbBlockEnd
  0
BLOCK
  5
8D
330
8C
100
AcDbEntity
  8
0
100
AcDbBlockBegin
  2
sai450
 70
     0
 10
0.0
 20
0.0
 30
0.0
  3
sai450
  1

  0
LINE
  5
8E
330
8C
100
AcDbEntity
  8
ﾊｯﾁﾝｸﾞ
  6
Continuous
100
AcDbLine
 10
184.9591232701205
 20
0.0
 30
0.0
 11
201.0662565772654
 21
-21.8430756283924
 31
0.0
  0
LINE
  5
8F
330
8C
100
AcDbEntity
  8
ﾊｯﾁﾝｸﾞ
  6
Continuous
100
AcDbLine
 10
168.7806191118434
 20
-77.76344007329317
 30
0.0
 11
181.6189029712695
 21
-100.0
 31
0.0
  0
LINE
  5
90
330
8C
100
AcDbEntity
  8
ﾊｯﾁﾝｸﾞ
  6
Continuous
100
AcDbLine
 10
155.9423352523008
 20
-100.0
 30
0.0
 11
213.6773621712346
 21
0.0
 31
0.0
  0
LINE
  5
91
330
8C
100
AcDbEntity
  8
ﾊｯﾁﾝｸﾞ
  6
Continuous
100
AcDbLine
 10
64.33979487384203
 20
-100.0
 30
0.0
 11
122.0748217927758
 21
0.0
 31
0.0
  0
LINE
  5
92
330
8C
100
AcDbEntity
  8
ﾊｯﾁﾝｸﾞ
  6
Continuous
100
AcDbLine
 10
-27.26274550461676
 20
-100.0
 30
0.0
 11
30.47228141431697
 21
0.0
 31
0.0
  0
LINE
  5
93
330
8C
100
AcDbEntity
  8
ﾊｯﾁﾝｸﾞ
  6
Continuous
100
AcDbLine
 10
77.17807873338461
 20
-77.76344007329317
 30
0.0
 11
90.01636259281076
 21
-100.0
 31
0.0
  0
LINE
  5
94
330
8C
100
AcDbEntity
  8
ﾊｯﾁﾝｸﾞ
  6
Continuous
100
AcDbLine
 10
-14.4244616451906
 20
-77.76344007329317
 30
0.0
 11
-1.586177785531615
 21
-100.0
 31
0.0
  0
LINE
  5
95
330
8C
100
AcDbEntity
  8
ﾊｯﾁﾝｸﾞ
  6
Continuous
100
AcDbLine
 10
1.754042513202874
 20
0.0
 30
0.0
 11
17.86117582034785
 21
-21.8430756283924
 31
0.0
  0
LINE
  5
96
330
8C
100
AcDbEntity
  8
ﾊｯﾁﾝｸﾞ
  6
Continuous
100
AcDbLine
 10
93.35658289166168
 20
0.0
 30
0.0
 11
109.4637161988066
 21
-21.8430756283924
 31
0.0
  0
LINE
  5
97
330
8C
100
AcDbEntity
  8
ﾊｯﾁﾝｸﾞ
  6
Continuous
100
AcDbLine
 10
-181.4510382437146
 20
0.0
 30
0.0
 11
-165.3439049364533
 21
-21.8430756283924
 31
0.0
  0
LINE
  5
98
330
8C
100
AcDbEntity
  8
ﾊｯﾁﾝｸﾞ
  6
Continuous
100
AcDbLine
 10
-197.6295424019918
 20
-77.76344007329317
 30
0.0
 11
-184.7912585424492
 21
-100.0
 31
0.0
  0
LINE
  5
99
330
8C
100
AcDbEntity
  8
ﾊｯﾁﾝｸﾞ
  6
Continuous
100
AcDbLine
 10
-210.4678262615343
 20
-100.0
 30
0.0
 11
-152.7327993426006
 21
0.0
 31
0.0
  0
LINE
  5
9A
330
8C
100
AcDbEntity
  8
ﾊｯﾁﾝｸﾞ
  6
Continuous
100
AcDbLine
 10
-118.8652858830755
 20
-100.0
 30
0.0
 11
-61.13025896414182
 21
0.0
 31
0.0
  0
LINE
  5
9B
330
8C
100
AcDbEntity
  8
ﾊｯﾁﾝｸﾞ
  6
Continuous
100
AcDbLine
 10
-106.027002023533
 20
-77.76344007329317
 30
0.0
 11
-93.18871816399042
 21
-100.0
 31
0.0
  0
LINE
  5
9C
330
8C
100
AcDbEntity
  8
ﾊｯﾁﾝｸﾞ
  6
Continuous
100
AcDbLine
 10
-89.84849786525591
 20
0.0
 30
0.0
 11
-73.74136455799453
 21
-21.8430756283924
 31
0.0
  0
ENDBLK
  5
9D
330
8C
100
AcDbEntity
  8
0
100
AcDbBlockEnd
  0
BLOCK
  5
7CE
330
7C4
100
AcDbEntity
  8
0
100
AcDbBlockBegin
  2
*D3
 70
     1
 10
0.0
 20
0.0
 30
0.0
  3
*D3
  1

  0
LINE
  5
97E
330
7C4
100
AcDbEntity
  8
画層3-寸法
  6
Continuous
370
    -2
100
AcDbLine
 10
19296.44603060839
 20
10202.06023288031
 30
0.0
 11
19296.44603060839
 21
9194.966198622497
 31
0.0
  0
LINE
  5
97F
330
7C4
100
AcDbEntity
  8
画層3-寸法
  6
Continuous
370
    -2
100
AcDbLine
 10
21296.44603060839
 20
10224.96619862249
 30
0.0
 11
21296.44603060839
 21
9194.966198622497
 31
0.0
  0
LINE
  5
980
330
7C4
100
AcDbEntity
  8
画層3-寸法
  6
Continuous
370
    -2
100
AcDbLine
 10
19356.44603060839
 20
9194.966198622497
 30
0.0
 11
21236.4460306084
 21
9194.966198622497
 31
0.0
  0
INSERT
  5
981
330
7C4
100
AcDbEntity
  8
画層3-寸法
  6
Continuous
370
    -2
100
AcDbBlockReference
  2
_ORIGIN
 10
19296.44603060839
 20
9194.966198622497
 30
0.0
 41
60.0
 42
60.0
 43
60.0
 50
180.0
  0
INSERT
  5
982
330
7C4
100
AcDbEntity
  8
画層3-寸法
  6
Continuous
370
    -2
100
AcDbBlockReference
  2
_ORIGIN
 10
21296.44603060839
 20
9194.966198622497
 30
0.0
 41
60.0
 42
60.0
 43
60.0
  0
MTEXT
  5
983
330
7C4
100
AcDbEntity
  8
画層3-寸法
  6
Continuous
100
AcDbMText
 10
20296.44603060839
 20
9473.537627193925
 30
0.0
 40
300.0
 41
0.0
 71
     5
 72
     1
  1
\A1;2,000
  7
1_100
 73
     1
 44
1.0
1001
ACAD
1000
MTEXTBEGIN
1070
    73
1070
     1
1070
    44
1040
1.0
1070
    74
1070
     0
1000
MTEXTEND
  0
POINT
  5
984
330
7C4
100
AcDbEntity
  8
DEFPOINTS
  6
Continuous
 62
     0
100
AcDbPoint
 10
19296.44603060839
 20
10502.06023288031
 30
0.0
  0
POINT
  5
985
330
7C4
100
AcDbEntity
  8
DEFPOINTS
  6
Continuous
 62
     0
100
AcDbPoint
 10
21296.44603060839
 20
10524.96619862249
 30
0.0
  0
POINT
  5
986
330
7C4
100
AcDbEntity
  8
DEFPOINTS
  6
Continuous
 62
     0
100
AcDbPoint
 10
21296.44603060839
 20
9194.966198622497
 30
0.0
  0
ENDBLK
  5
7CF
330
7C4
100
AcDbEntity
  8
0
100
AcDbBlockEnd
  0
BLOCK
  5
7DA
330
7D0
100
AcDbEntity
  8
0
100
AcDbBlockBegin
  2
*D4
 70
     1
 10
0.0
 20
0.0
 30
0.0
  3
*D4
  1

  0
LINE
  5
987
330
7D0
100
AcDbEntity
  8
画層3-寸法
  6
Continuous
370
    -2
100
AcDbLine
 10
17296.44603060839
 20
10202.06023288031
 30
0.0
 11
17296.44603060839
 21
9194.966198622497
 31
0.0
  0
LINE
  5
988
330
7D0
100
AcDbEntity
  8
画層3-寸法
  6
Continuous
370
    -2
100
AcDbLine
 10
19296.44603060839
 20
10202.06023288031
 30
0.0
 11
19296.44603060839
 21
9194.966198622497
 31
0.0
  0
LINE
  5
989
330
7D0
100
AcDbEntity
  8
画層3-寸法
  6
Continuous
370
    -2
100
AcDbLine
 10
17356.44603060839
 20
9194.966198622497
 30
0.0
 11
19236.44603060839
 21
9194.966198622497
 31
0.0
  0
INSERT
  5
98A
330
7D0
100
AcDbEntity
  8
画層3-寸法
  6
Continuous
370
    -2
100
AcDbBlockReference
  2
_ORIGIN
 10
17296.44603060839
 20
9194.966198622497
 30
0.0
 41
60.0
 42
60.0
 43
60.0
 50
180.0
  0
INSERT
  5
98B
330
7D0
100
AcDbEntity
  8
画層3-寸法
  6
Continuous
370
    -2
100
AcDbBlockReference
  2
_ORIGIN
 10
19296.44603060839
 20
9194.966198622497
 30
0.0
 41
60.0
 42
60.0
 43
60.0
  0
MTEXT
  5
98C
330
7D0
100
AcDbEntity
  8
画層3-寸法
  6
Continuous
100
AcDbMText
 10
18296.44603060839
 20
9473.537627193925
 30
0.0
 40
300.0
 41
0.0
 71
     5
 72
     1
  1
\A1;2,000
  7
1_100
 73
     1
 44
1.0
1001
ACAD
1000
MTEXTBEGIN
1070
    73
1070
     1
1070
    44
1040
1.0
1070
    74
1070
     0
1000
MTEXTEND
  0
POINT
  5
98D
330
7D0
100
AcDbEntity
  8
DEFPOINTS
  6
Continuous
 62
     0
100
AcDbPoint
 10
17296.44603060839
 20
10502.06023288031
 30
0.0
  0
POINT
  5
98E
330
7D0
100
AcDbEntity
  8
DEFPOINTS
  6
Continuous
 62
     0
100
AcDbPoint
 10
19296.44603060839
 20
10502.06023288031
 30
0.0
  0
POINT
  5
98F
330
7D0
100
AcDbEntity
  8
DEFPOINTS
  6
Continuous
 62
     0
100
AcDbPoint
 10
19296.44603060839
 20
9194.966198622497
 30
0.0
  0
ENDBLK
  5
7DB
330
7D0
100
AcDbEntity
  8
0
100
AcDbBlockEnd
  0
BLOCK
  5
7E6
330
7DC
100
AcDbEntity
  8
0
100
AcDbBlockBegin
  2
*D5
 70
     1
 10
0.0
 20
0.0
 30
0.0
  3
*D5
  1

  0
LINE
  5
990
330
7DC
100
AcDbEntity
  8
画層3-寸法
  6
Continuous
370
    -2
100
AcDbLine
 10
15296.44603060839
 20
10202.06023288031
 30
0.0
 11
15296.44603060839
 21
9194.966198622497
 31
0.0
  0
LINE
  5
991
330
7DC
100
AcDbEntity
  8
画層3-寸法
  6
Continuous
370
    -2
100
AcDbLine
 10
17296.44603060839
 20
10202.06023288031
 30
0.0
 11
17296.44603060839
 21
9194.966198622497
 31
0.0
  0
LINE
  5
992
330
7DC
100
AcDbEntity
  8
画層3-寸法
  6
Continuous
370
    -2
100
AcDbLine
 10
15356.44603060839
 20
9194.966198622497
 30
0.0
 11
17236.44603060839
 21
9194.966198622497
 31
0.0
  0
INSERT
  5
993
330
7DC
100
AcDbEntity
  8
画層3-寸法
  6
Continuous
370
    -2
100
AcDbBlockReference
  2
_ORIGIN
 10
15296.44603060839
 20
9194.966198622497
 30
0.0
 41
60.0
 42
60.0
 43
60.0
 50
180.0
  0
INSERT
  5
994
330
7DC
100
AcDbEntity
  8
画層3-寸法
  6
Continuous
370
    -2
100
AcDbBlockReference
  2
_ORIGIN
 10
17296.44603060839
 20
9194.966198622497
 30
0.0
 41
60.0
 42
60.0
 43
60.0
  0
MTEXT
  5
995
330
7DC
100
AcDbEntity
  8
画層3-寸法
  6
Continuous
100
AcDbMText
 10
16296.44603060839
 20
9473.537627193925
 30
0.0
 40
300.0
 41
0.0
 71
     5
 72
     1
  1
\A1;2,000
  7
1_100
 73
     1
 44
1.0
1001
ACAD
1000
MTEXTBEGIN
1070
    73
1070
     1
1070
    44
1040
1.0
1070
    74
1070
     0
1000
MTEXTEND
  0
POINT
  5
996
330
7DC
100
AcDbEntity
  8
DEFPOINTS
  6
Continuous
 62
     0
100
AcDbPoint
 10
15296.44603060839
 20
10502.06023288031
 30
0.0
  0
POINT
  5
997
330
7DC
100
AcDbEntity
  8
DEFPOINTS
  6
Continuous
 62
     0
100
AcDbPoint
 10
17296.44603060839
 20
10502.06023288031
 30
0.0
  0
POINT
  5
998
330
7DC
100
AcDbEntity
  8
DEFPOINTS
  6
Continuous
 62
     0
100
AcDbPoint
 10
17296.44603060839
 20
9194.966198622497
 30
0.0
  0
ENDBLK
  5
7E7
330
7DC
100
AcDbEntity
  8
0
100
AcDbBlockEnd
  0
BLOCK
  5
7F2
330
7E8
100
AcDbEntity
  8
0
100
AcDbBlockBegin
  2
*D6
 70
     1
 10
0.0
 20
0.0
 30
0.0
  3
*D6
  1

  0
LINE
  5
999
330
7E8
100
AcDbEntity
  8
画層3-寸法
  6
Continuous
370
    -2
100
AcDbLine
 10
9296.446030608393
 20
9332.466198622496
 30
0.0
 11
9296.446030608393
 21
9194.966198622497
 31
0.0
  0
LINE
  5
99A
330
7E8
100
AcDbEntity
  8
画層3-寸法
  6
Continuous
370
    -2
100
AcDbLine
 10
11296.44603060839
 20
10202.06023288031
 30
0.0
 11
11296.44603060839
 21
9194.966198622497
 31
0.0
  0
LINE
  5
99B
330
7E8
100
AcDbEntity
  8
画層3-寸法
  6
Continuous
370
    -2
100
AcDbLine
 10
9356.446030608394
 20
9194.966198622497
 30
0.0
 11
11236.44603060839
 21
9194.966198622497
 31
0.0
  0
INSERT
  5
99C
330
7E8
100
AcDbEntity
  8
画層3-寸法
  6
Continuous
370
    -2
100
AcDbBlockReference
  2
_ORIGIN
 10
9296.446030608393
 20
9194.966198622497
 30
0.0
 41
60.0
 42
60.0
 43
60.0
 50
180.0
  0
INSERT
  5
99D
330
7E8
100
AcDbEntity
  8
画層3-寸法
  6
Continuous
370
    -2
100
AcDbBlockReference
  2
_ORIGIN
 10
11296.44603060839
 20
9194.966198622497
 30
0.0
 41
60.0
 42
60.0
 43
60.0
  0
MTEXT
  5
99E
330
7E8
100
AcDbEntity
  8
画層3-寸法
  6
Continuous
100
AcDbMText
 10
10296.44603060839
 20
9473.537627193925
 30
0.0
 40
300.0
 41
0.0
 71
     5
 72
     1
  1
\A1;2,000
  7
1_100
 73
     1
 44
1.0
1001
ACAD
1000
MTEXTBEGIN
1070
    73
1070
     1
1070
    44
1040
1.0
1070
    74
1070
     0
1000
MTEXTEND
  0
POINT
  5
99F
330
7E8
100
AcDbEntity
  8
DEFPOINTS
  6
Continuous
 62
     0
100
AcDbPoint
 10
9296.446030608393
 20
9632.466198622497
 30
0.0
  0
POINT
  5
9A0
330
7E8
100
AcDbEntity
  8
DEFPOINTS
  6
Continuous
 62
     0
100
AcDbPoint
 10
11296.44603060839
 20
10502.06023288031
 30
0.0
  0
POINT
  5
9A1
330
7E8
100
AcDbEntity
  8
DEFPOINTS
  6
Continuous
 62
     0
100
AcDbPoint
 10
11296.44603060839
 20
9194.966198622497
 30
0.0
  0
ENDBLK
  5
7F3
330
7E8
100
AcDbEntity
  8
0
100
AcDbBlockEnd
  0
BLOCK
  5
800
330
7F4
100
AcDbEntity
  8
0
100
AcDbBlockBegin
  2
*D7
 70
     1
 10
0.0
 20
0.0
 30
0.0
  3
*D7
  1

  0
LINE
  5
9A2
330
7F4
100
AcDbEntity
  8
寸法
  6
Continuous
370
    -2
100
AcDbLine
 10
9046.446030608393
 20
11094.96619862296
 30
0.0
 11
9046.446030608393
 21
10394.96619862273
 31
0.0
  0
LINE
  5
9A3
330
7F4
100
AcDbEntity
  8
寸法
  6
Continuous
370
    -2
100
AcDbLine
 10
9546.446030608393
 20
11094.96619862284
 30
0.0
 11
9546.446030608393
 21
10394.96619862273
 31
0.0
  0
LINE
  5
9A4
330
7F4
100
AcDbEntity
  8
寸法
  6
Continuous
370
    -2
100
AcDbLine
 10
8986.446030608391
 20
10394.96619862273
 30
0.0
 11
8926.446030608394
 21
10394.96619862273
 31
0.0
  0
LINE
  5
9A5
330
7F4
100
AcDbEntity
  8
寸法
  6
Continuous
370
    -2
100
AcDbLine
 10
9606.446030608394
 20
10394.96619862273
 30
0.0
 11
9666.446030608392
 21
10394.96619862273
 31
0.0
  0
LINE
  5
9A6
330
7F4
100
AcDbEntity
  8
寸法
  6
Continuous
370
    -2
100
AcDbLine
 10
9046.446030608393
 20
10394.96619862273
 30
0.0
 11
9546.446030608393
 21
10394.96619862273
 31
0.0
  0
INSERT
  5
9A7
330
7F4
100
AcDbEntity
  8
寸法
  6
Continuous
370
    -2
100
AcDbBlockReference
  2
_ORIGIN
 10
9046.446030608393
 20
10394.96619862273
 30
0.0
 41
60.0
 42
60.0
 43
60.0
  0
INSERT
  5
9A8
330
7F4
100
AcDbEntity
  8
寸法
  6
Continuous
370
    -2
100
AcDbBlockReference
  2
_ORIGIN
 10
9546.446030608393
 20
10394.96619862273
 30
0.0
 41
60.0
 42
60.0
 43
60.0
 50
180.0
  0
MTEXT
  5
9A9
330
7F4
100
AcDbEntity
  8
寸法
  6
Continuous
100
AcDbMText
 10
9296.446030608393
 20
10144.96619862273
 30
0.0
 40
300.0
 41
0.0
 71
     5
 72
     1
  1
\A1;□500
  7
1_100
 73
     1
 44
1.0
1001
ACAD
1000
MTEXTBEGIN
1070
    73
1070
     1
1070
    44
1040
1.0
1070
    74
1070
     0
1000
MTEXTEND
  0
POINT
  5
9AA
330
7F4
100
AcDbEntity
  8
DEFPOINTS
  6
Continuous
 62
     0
100
AcDbPoint
 10
9046.446030608393
 20
11394.96619862296
 30
0.0
  0
POINT
  5
9AB
330
7F4
100
AcDbEntity
  8
DEFPOINTS
  6
Continuous
 62
     0
100
AcDbPoint
 10
9546.446030608393
 20
11394.96619862284
 30
0.0
  0
POINT
  5
9AC
330
7F4
100
AcDbEntity
  8
DEFPOINTS
  6
Continuous
 62
     0
100
AcDbPoint
 10
9546.446030608393
 20
10394.96619862273
 30
0.0
  0
ENDBLK
  5
801
330
7F4
100
AcDbEntity
  8
0
100
AcDbBlockEnd
  0
BLOCK
  5
80C
330
802
100
AcDbEntity
  8
0
100
AcDbBlockBegin
  2
*D8
 70
     1
 10
0.0
 20
0.0
 30
0.0
  3
*D8
  1

  0
LINE
  5
9AD
330
802
100
AcDbEntity
  8
寸法
  6
Continuous
370
    -2
100
AcDbLine
 10
9071.44603060839
 20
11094.96619862296
 30
0.0
 11
9071.44603060839
 21
10794.96619862296
 31
0.0
  0
LINE
  5
9AE
330
802
100
AcDbEntity
  8
寸法
  6
Continuous
370
    -2
100
AcDbLine
 10
9521.446030608393
 20
11094.96619862296
 30
0.0
 11
9521.446030608393
 21
10794.96619862296
 31
0.0
  0
LINE
  5
9AF
330
802
100
AcDbEntity
  8
寸法
  6
Continuous
370
    -2
100
AcDbLine
 10
9131.446030608392
 20
10794.96619862296
 30
0.0
 11
9461.44603060839
 21
10794.96619862296
 31
0.0
  0
MTEXT
  5
9B0
330
802
100
AcDbEntity
  8
寸法
  6
Continuous
100
AcDbMText
 10
8495.055794414145
 20
10976.2998602118
 30
0.0
 40
300.0
 41
0.0
 71
     5
 72
     1
  1
\A1;φ450
  7
1_100
 73
     1
 44
1.0
1001
ACAD
1000
MTEXTBEGIN
1070
    73
1070
     1
1070
    44
1040
1.0
1070
    74
1070
     0
1000
MTEXTEND
  0
INSERT
  5
9B1
330
802
100
AcDbEntity
  8
寸法
  6
Continuous
370
    -2
100
AcDbBlockReference
  2
_ORIGIN
 10
9071.44603060839
 20
10794.96619862296
 30
0.0
 41
60.0
 42
60.0
 43
60.0
 50
180.0
  0
INSERT
  5
9B2
330
802
100
AcDbEntity
  8
寸法
  6
Continuous
370
    -2
100
AcDbBlockReference
  2
_ORIGIN
 10
9521.446030608393
 20
10794.96619862296
 30
0.0
 41
60.0
 42
60.0
 43
60.0
  0
POINT
  5
9B3
330
802
100
AcDbEntity
  8
DEFPOINTS
  6
Continuous
 62
     0
100
AcDbPoint
 10
9071.44603060839
 20
11394.96619862296
 30
0.0
  0
POINT
  5
9B4
330
802
100
AcDbEntity
  8
DEFPOINTS
  6
Continuous
 62
     0
100
AcDbPoint
 10
9521.446030608393
 20
11394.96619862296
 30
0.0
  0
POINT
  5
9B5
330
802
100
AcDbEntity
  8
DEFPOINTS
  6
Continuous
 62
     0
100
AcDbPoint
 10
9521.446030608393
 20
10794.96619862296
 30
0.0
  0
ENDBLK
  5
80D
330
802
100
AcDbEntity
  8
0
100
AcDbBlockEnd
  0
BLOCK
  5
81A
330
80E
100
AcDbEntity
  8
0
100
AcDbBlockBegin
  2
*D9
 70
     1
 10
0.0
 20
0.0
 30
0.0
  3
*D9
  1

  0
LINE
  5
9B6
330
80E
100
AcDbEntity
  8
画層3-寸法
  6
Continuous
370
    -2
100
AcDbLine
 10
13171.44603060839
 20
12844.96619862273
 30
0.0
 11
13171.44603060839
 21
12664.96619862273
 31
0.0
  0
LINE
  5
9B7
330
80E
100
AcDbEntity
  8
画層3-寸法
  6
Continuous
370
    -2
100
AcDbLine
 10
13421.44603060839
 20
12844.96619862273
 30
0.0
 11
13421.44603060839
 21
12664.96619862273
 31
0.0
  0
LINE
  5
9B8
330
80E
100
AcDbEntity
  8
画層3-寸法
  6
Continuous
370
    -2
100
AcDbLine
 10
13091.44603060839
 20
12664.96619862273
 30
0.0
 11
13011.44603060839
 21
12664.96619862273
 31
0.0
  0
LINE
  5
9B9
330
80E
100
AcDbEntity
  8
画層3-寸法
  6
Continuous
370
    -2
100
AcDbLine
 10
13501.44603060839
 20
12664.96619862273
 30
0.0
 11
13581.44603060839
 21
12664.96619862273
 31
0.0
  0
LINE
  5
9BA
330
80E
100
AcDbEntity
  8
画層3-寸法
  6
Continuous
370
    -2
100
AcDbLine
 10
13171.44603060839
 20
12664.96619862273
 30
0.0
 11
13421.44603060839
 21
12664.96619862273
 31
0.0
  0
INSERT
  5
9BB
330
80E
100
AcDbEntity
  8
画層3-寸法
  6
Continuous
370
    -2
100
AcDbBlockReference
  2
_ORIGIN
 10
13171.44603060839
 20
12664.96619862273
 30
0.0
 41
80.0
 42
80.0
 43
80.0
  0
INSERT
  5
9BC
330
80E
100
AcDbEntity
  8
画層3-寸法
  6
Continuous
370
    -2
100
AcDbBlockReference
  2
_ORIGIN
 10
13421.44603060839
 20
12664.96619862273
 30
0.0
 41
80.0
 42
80.0
 43
80.0
 50
180.0
  0
MTEXT
  5
9BD
330
80E
100
AcDbEntity
  8
画層3-寸法
  6
Continuous
100
AcDbMText
 10
13296.44603060839
 20
12464.96619862273
 30
0.0
 40
300.0
 41
0.0
 71
     5
 72
     1
  1
\A1;□250
  7
1_100
 73
     1
 44
1.0
1001
ACAD
1000
MTEXTBEGIN
1070
    73
1070
     1
1070
    44
1040
1.0
1070
    74
1070
     0
1000
MTEXTEND
  0
POINT
  5
9BE
330
80E
100
AcDbEntity
  8
DEFPOINTS
  6
Continuous
 62
     0
100
AcDbPoint
 10
13171.44603060839
 20
13044.96619862273
 30
0.0
  0
POINT
  5
9BF
330
80E
100
AcDbEntity
  8
DEFPOINTS
  6
Continuous
 62
     0
100
AcDbPoint
 10
13421.44603060839
 20
13044.96619862273
 30
0.0
  0
POINT
  5
9C0
330
80E
100
AcDbEntity
  8
DEFPOINTS
  6
Continuous
 62
     0
100
AcDbPoint
 10
13421.44603060839
 20
12664.96619862273
 30
0.0
  0
ENDBLK
  5
81B
330
80E
100
AcDbEntity
  8
0
100
AcDbBlockEnd
  0
BLOCK
  5
826
330
81C
100
AcDbEntity
  8
0
100
AcDbBlockBegin
  2
*D10
 70
     1
 10
0.0
 20
0.0
 30
0.0
  3
*D10
  1

  0
LINE
  5
9C1
330
81C
100
AcDbEntity
  8
画層3-寸法
  6
Continuous
370
    -2
100
AcDbLine
 10
11296.44603060839
 20
10202.06023288031
 30
0.0
 11
11296.44603060839
 21
9194.966198622497
 31
0.0
  0
LINE
  5
9C2
330
81C
100
AcDbEntity
  8
画層3-寸法
  6
Continuous
370
    -2
100
AcDbLine
 10
13296.44603060839
 20
10202.06023288031
 30
0.0
 11
13296.44603060839
 21
9194.966198622497
 31
0.0
  0
LINE
  5
9C3
330
81C
100
AcDbEntity
  8
画層3-寸法
  6
Continuous
370
    -2
100
AcDbLine
 10
11356.44603060839
 20
9194.966198622497
 30
0.0
 11
13236.44603060839
 21
9194.966198622497
 31
0.0
  0
INSERT
  5
9C4
330
81C
100
AcDbEntity
  8
画層3-寸法
  6
Continuous
370
    -2
100
AcDbBlockReference
  2
_ORIGIN
 10
11296.44603060839
 20
9194.966198622497
 30
0.0
 41
60.0
 42
60.0
 43
60.0
 50
180.0
  0
INSERT
  5
9C5
330
81C
100
AcDbEntity
  8
画層3-寸法
  6
Continuous
370
    -2
100
AcDbBlockReference
  2
_ORIGIN
 10
13296.44603060839
 20
9194.966198622497
 30
0.0
 41
60.0
 42
60.0
 43
60.0
  0
MTEXT
  5
9C6
330
81C
100
AcDbEntity
  8
画層3-寸法
  6
Continuous
100
AcDbMText
 10
12296.44603060839
 20
9473.537627193925
 30
0.0
 40
300.0
 41
0.0
 71
     5
 72
     1
  1
\A1;2,000
  7
1_100
 73
     1
 44
1.0
1001
ACAD
1000
MTEXTBEGIN
1070
    73
1070
     1
1070
    44
1040
1.0
1070
    74
1070
     0
1000
MTEXTEND
  0
POINT
  5
9C7
330
81C
100
AcDbEntity
  8
DEFPOINTS
  6
Continuous
 62
     0
100
AcDbPoint
 10
11296.44603060839
 20
10502.06023288031
 30
0.0
  0
POINT
  5
9C8
330
81C
100
AcDbEntity
  8
DEFPOINTS
  6
Continuous
 62
     0
100
AcDbPoint
 10
13296.44603060839
 20
10502.06023288031
 30
0.0
  0
POINT
  5
9C9
330
81C
100
AcDbEntity
  8
DEFPOINTS
  6
Continuous
 62
     0
100
AcDbPoint
 10
13296.44603060839
 20
9194.966198622497
 30
0.0
  0
ENDBLK
  5
827
330
81C
100
AcDbEntity
  8
0
100
AcDbBlockEnd
  0
BLOCK
  5
832
330
828
100
AcDbEntity
  8
0
100
AcDbBlockBegin
  2
*D11
 70
     1
 10
0.0
 20
0.0
 30
0.0
  3
*D11
  1

  0
LINE
  5
9CA
330
828
100
AcDbEntity
  8
画層3-寸法
  6
Continuous
370
    -2
100
AcDbLine
 10
12971.44603060839
 20
13494.96619862273
 30
0.0
 11
12751.44603060839
 21
13494.96619862273
 31
0.0
  0
LINE
  5
9CB
330
828
100
AcDbEntity
  8
画層3-寸法
  6
Continuous
370
    -2
100
AcDbLine
 10
12971.44603060839
 20
13044.96619862273
 30
0.0
 11
12751.44603060839
 21
13044.96619862273
 31
0.0
  0
LINE
  5
9CC
330
828
100
AcDbEntity
  8
画層3-寸法
  6
Continuous
370
    -2
100
AcDbLine
 10
12751.44603060839
 20
13414.96619862273
 30
0.0
 11
12751.44603060839
 21
13124.96619862273
 31
0.0
  0
MTEXT
  5
9CD
330
828
100
AcDbEntity
  8
画層3-寸法
  6
Continuous
100
AcDbMText
 10
12489.25290173386
 20
13130.34009184887
 30
0.0
 40
300.0
 41
0.0
 71
     5
 72
     1
  1
\A1;450
  7
1_100
 11
0.0000000000000001
 21
1.0
 31
0.0
 73
     1
 44
1.0
1001
ACAD
1000
MTEXTBEGIN
1070
    73
1070
     1
1070
    44
1040
1.0
1070
    74
1070
     0
1000
MTEXTEND
  0
INSERT
  5
9CE
330
828
100
AcDbEntity
  8
画層3-寸法
  6
Continuous
370
    -2
100
AcDbBlockReference
  2
_ORIGIN
 10
12751.44603060839
 20
13494.96619862273
 30
0.0
 41
80.0
 42
80.0
 43
80.0
 50
90.0
  0
INSERT
  5
9CF
330
828
100
AcDbEntity
  8
画層3-寸法
  6
Continuous
370
    -2
100
AcDbBlockReference
  2
_ORIGIN
 10
12751.44603060839
 20
13044.96619862273
 30
0.0
 41
80.0
 42
80.0
 43
80.0
 50
270.0
  0
POINT
  5
9D0
330
828
100
AcDbEntity
  8
DEFPOINTS
  6
Continuous
 62
     0
100
AcDbPoint
 10
13171.44603060839
 20
13494.96619862273
 30
0.0
  0
POINT
  5
9D1
330
828
100
AcDbEntity
  8
DEFPOINTS
  6
Continuous
 62
     0
100
AcDbPoint
 10
13171.44603060839
 20
13044.96619862273
 30
0.0
  0
POINT
  5
9D2
330
828
100
AcDbEntity
  8
DEFPOINTS
  6
Continuous
 62
     0
100
AcDbPoint
 10
12751.44603060839
 20
13044.96619862273
 30
0.0
  0
ENDBLK
  5
833
330
828
100
AcDbEntity
  8
0
100
AcDbBlockEnd
  0
BLOCK
  5
83E
330
834
100
AcDbEntity
  8
0
100
AcDbBlockBegin
  2
*D12
 70
     1
 10
0.0
 20
0.0
 30
0.0
  3
*D12
  1

  0
LINE
  5
9D3
330
834
100
AcDbEntity
  8
寸法
  6
Continuous
370
    -2
100
AcDbLine
 10
9296.446030608393
 20
9694.966198622729
 30
0.0
 11
9296.446030608393
 21
8394.966198622496
 31
0.0
  0
LINE
  5
9D4
330
834
100
AcDbEntity
  8
寸法
  6
Continuous
370
    -2
100
AcDbLine
 10
19296.44603060839
 20
10952.49872682955
 30
0.0
 11
19296.44603060839
 21
8394.966198622496
 31
0.0
  0
LINE
  5
9D5
330
834
100
AcDbEntity
  8
寸法
  6
Continuous
370
    -2
100
AcDbLine
 10
9356.446030608394
 20
8394.966198622496
 30
0.0
 11
19236.44603060839
 21
8394.966198622496
 31
0.0
  0
INSERT
  5
9D6
330
834
100
AcDbEntity
  8
寸法
  6
Continuous
370
    -2
100
AcDbBlockReference
  2
_ORIGIN
 10
9296.446030608393
 20
8394.966198622496
 30
0.0
 41
60.0
 42
60.0
 43
60.0
 50
180.0
  0
INSERT
  5
9D7
330
834
100
AcDbEntity
  8
寸法
  6
Continuous
370
    -2
100
AcDbBlockReference
  2
_ORIGIN
 10
19296.44603060839
 20
8394.966198622496
 30
0.0
 41
60.0
 42
60.0
 43
60.0
  0
MTEXT
  5
9D8
330
834
100
AcDbEntity
  8
寸法
  6
Continuous
100
AcDbMText
 10
14296.44603060839
 20
8673.537627193926
 30
0.0
 40
300.0
 41
0.0
 71
     5
 72
     1
  1
\A1;10,000
  7
1_100
 73
     1
 44
1.0
1001
ACAD
1000
MTEXTBEGIN
1070
    73
1070
     1
1070
    44
1040
1.0
1070
    74
1070
     0
1000
MTEXTEND
  0
POINT
  5
9D9
330
834
100
AcDbEntity
  8
DEFPOINTS
  6
Continuous
 62
     0
100
AcDbPoint
 10
9296.446030608393
 20
9994.96619862273
 30
0.0
  0
POINT
  5
9DA
330
834
100
AcDbEntity
  8
DEFPOINTS
  6
Continuous
 62
     0
100
AcDbPoint
 10
19296.44603060839
 20
11252.49872682955
 30
0.0
  0
POINT
  5
9DB
330
834
100
AcDbEntity
  8
DEFPOINTS
  6
Continuous
 62
     0
100
AcDbPoint
 10
19296.44603060839
 20
8394.966198622496
 30
0.0
  0
ENDBLK
  5
83F
330
834
100
AcDbEntity
  8
0
100
AcDbBlockEnd
  0
BLOCK
  5
84A
330
840
100
AcDbEntity
  8
0
100
AcDbBlockBegin
  2
*D13
 70
     1
 10
0.0
 20
0.0
 30
0.0
  3
*D13
  1

  0
LINE
  5
9DC
330
840
100
AcDbEntity
  8
画層3-寸法
  6
Continuous
370
    -2
100
AcDbLine
 10
13296.44603060839
 20
10202.06023288031
 30
0.0
 11
13296.44603060839
 21
9194.966198622497
 31
0.0
  0
LINE
  5
9DD
330
840
100
AcDbEntity
  8
画層3-寸法
  6
Continuous
370
    -2
100
AcDbLine
 10
15296.44603060839
 20
10202.06023288031
 30
0.0
 11
15296.44603060839
 21
9194.966198622497
 31
0.0
  0
LINE
  5
9DE
330
840
100
AcDbEntity
  8
画層3-寸法
  6
Continuous
370
    -2
100
AcDbLine
 10
13356.44603060839
 20
9194.966198622497
 30
0.0
 11
15236.44603060839
 21
9194.966198622497
 31
0.0
  0
INSERT
  5
9DF
330
840
100
AcDbEntity
  8
画層3-寸法
  6
Continuous
370
    -2
100
AcDbBlockReference
  2
_ORIGIN
 10
13296.44603060839
 20
9194.966198622497
 30
0.0
 41
60.0
 42
60.0
 43
60.0
 50
180.0
  0
INSERT
  5
9E0
330
840
100
AcDbEntity
  8
画層3-寸法
  6
Continuous
370
    -2
100
AcDbBlockReference
  2
_ORIGIN
 10
15296.44603060839
 20
9194.966198622497
 30
0.0
 41
60.0
 42
60.0
 43
60.0
  0
MTEXT
  5
9E1
330
840
100
AcDbEntity
  8
画層3-寸法
  6
Continuous
100
AcDbMText
 10
14296.44603060839
 20
9473.537627193925
 30
0.0
 40
300.0
 41
0.0
 71
     5
 72
     1
  1
\A1;2,000
  7
1_100
 73
     1
 44
1.0
1001
ACAD
1000
MTEXTBEGIN
1070
    73
1070
     1
1070
    44
1040
1.0
1070
    74
1070
     0
1000
MTEXTEND
  0
POINT
  5
9E2
330
840
100
AcDbEntity
  8
DEFPOINTS
  6
Continuous
 62
     0
100
AcDbPoint
 10
13296.44603060839
 20
10502.06023288031
 30
0.0
  0
POINT
  5
9E3
330
840
100
AcDbEntity
  8
DEFPOINTS
  6
Continuous
 62
     0
100
AcDbPoint
 10
15296.44603060839
 20
10502.06023288031
 30
0.0
  0
POINT
  5
9E4
330
840
100
AcDbEntity
  8
DEFPOINTS
  6
Continuous
 62
     0
100
AcDbPoint
 10
15296.44603060839
 20
9194.966198622497
 30
0.0
  0
ENDBLK
  5
84B
330
840
100
AcDbEntity
  8
0
100
AcDbBlockEnd
  0
BLOCK
  5
858
330
84C
100
AcDbEntity
  8
0
100
AcDbBlockBegin
  2
*D14
 70
     1
 10
0.0
 20
0.0
 30
0.0
  3
*D14
  1

  0
LINE
  5
9E5
330
84C
100
AcDbEntity
  8
寸法
  6
Continuous
370
    -2
100
AcDbLine
 10
9188.296030608483
 20
21794.96619862296
 30
0.0
 11
9188.296030608483
 21
22094.96619862296
 31
0.0
  0
LINE
  5
9E6
330
84C
100
AcDbEntity
  8
寸法
  6
Continuous
370
    -2
100
AcDbLine
 10
9404.596030608296
 20
21794.96619862296
 30
0.0
 11
9404.596030608296
 21
22094.96619862296
 31
0.0
  0
LINE
  5
9E7
330
84C
100
AcDbEntity
  8
寸法
  6
Continuous
370
    -2
100
AcDbLine
 10
9128.296030608485
 20
22094.96619862296
 30
0.0
 11
9068.296030608484
 21
22094.96619862296
 31
0.0
  0
LINE
  5
9E8
330
84C
100
AcDbEntity
  8
寸法
  6
Continuous
370
    -2
100
AcDbLine
 10
9464.596030608298
 20
22094.96619862296
 30
0.0
 11
9524.596030608298
 21
22094.96619862296
 31
0.0
  0
MTEXT
  5
9E9
330
84C
100
AcDbEntity
  8
寸法
  6
Continuous
100
AcDbMText
 10
9296.446030608393
 20
22394.96619862296
 30
0.0
 40
300.0
 41
0.0
 71
     5
 72
     1
  1
\A1;φ216.3
  7
1_100
 73
     1
 44
1.0
1001
ACAD
1000
MTEXTBEGIN
1070
    73
1070
     1
1070
    44
1040
1.0
1070
    74
1070
     0
1000
MTEXTEND
  0
LINE
  5
9EA
330
84C
100
AcDbEntity
  8
寸法
  6
Continuous
370
    -2
100
AcDbLine
 10
9188.296030608483
 20
22094.96619862296
 30
0.0
 11
9404.596030608296
 21
22094.96619862296
 31
0.0
  0
INSERT
  5
9EB
330
84C
100
AcDbEntity
  8
寸法
  6
Continuous
370
    -2
100
AcDbBlockReference
  2
_ORIGIN
 10
9188.296030608483
 20
22094.96619862296
 30
0.0
 41
60.0
 42
60.0
 43
60.0
  0
INSERT
  5
9EC
330
84C
100
AcDbEntity
  8
寸法
  6
Continuous
370
    -2
100
AcDbBlockReference
  2
_ORIGIN
 10
9404.596030608296
 20
22094.96619862296
 30
0.0
 41
60.0
 42
60.0
 43
60.0
 50
180.0
  0
POINT
  5
9ED
330
84C
100
AcDbEntity
  8
DEFPOINTS
  6
Continuous
 62
     0
100
AcDbPoint
 10
9188.296030608483
 20
21494.96619862296
 30
0.0
  0
POINT
  5
9EE
330
84C
100
AcDbEntity
  8
DEFPOINTS
  6
Continuous
 62
     0
100
AcDbPoint
 10
9404.596030608296
 20
21494.96619862296
 30
0.0
  0
POINT
  5
9EF
330
84C
100
AcDbEntity
  8
DEFPOINTS
  6
Continuous
 62
     0
100
AcDbPoint
 10
9404.596030608296
 20
22094.96619862296
 30
0.0
  0
ENDBLK
  5
859
330
84C
100
AcDbEntity
  8
0
100
AcDbBlockEnd
  0
BLOCK
  5
864
330
85A
100
AcDbEntity
  8
0
100
AcDbBlockBegin
  2
*D15
 70
     1
 10
0.0
 20
0.0
 30
0.0
  3
*D15
  1

  0
LINE
  5
9F0
330
85A
100
AcDbEntity
  8
寸法
  6
Continuous
370
    -2
100
AcDbLine
 10
33096.44603060839
 20
21494.96619862413
 30
0.0
 11
34896.4460306084
 21
21494.96619862413
 31
0.0
  0
LINE
  5
9F1
330
85A
100
AcDbEntity
  8
寸法
  6
Continuous
370
    -2
100
AcDbLine
 10
33096.44603060839
 20
13494.96619862412
 30
0.0
 11
34896.4460306084
 21
13494.96619862412
 31
0.0
  0
LINE
  5
9F2
330
85A
100
AcDbEntity
  8
寸法
  6
Continuous
370
    -2
100
AcDbLine
 10
34896.4460306084
 20
21434.96619862413
 30
0.0
 11
34896.4460306084
 21
13554.96619862412
 31
0.0
  0
INSERT
  5
9F3
330
85A
100
AcDbEntity
  8
寸法
  6
Continuous
370
    -2
100
AcDbBlockReference
  2
_ORIGIN
 10
34896.4460306084
 20
21494.96619862413
 30
0.0
 41
60.0
 42
60.0
 43
60.0
 50
90.0
  0
INSERT
  5
9F4
330
85A
100
AcDbEntity
  8
寸法
  6
Continuous
370
    -2
100
AcDbBlockReference
  2
_ORIGIN
 10
34896.4460306084
 20
13494.96619862412
 30
0.0
 41
60.0
 42
60.0
 43
60.0
 50
270.0
  0
MTEXT
  5
9F5
330
85A
100
AcDbEntity
  8
寸法
  6
Continuous
100
AcDbMText
 10
34617.87460203697
 20
17494.96619862413
 30
0.0
 40
300.0
 41
0.0
 71
     5
 72
     1
  1
\A1;8,000
  7
1_100
 11
0.0000000000000001
 21
1.0
 31
0.0
 73
     1
 44
1.0
1001
ACAD
1000
MTEXTBEGIN
1070
    73
1070
     1
1070
    44
1040
1.0
1070
    74
1070
     0
1000
MTEXTEND
  0
POINT
  5
9F6
330
85A
100
AcDbEntity
  8
DEFPOINTS
  6
Continuous
 62
     0
100
AcDbPoint
 10
32796.44603060839
 20
21494.96619862413
 30
0.0
  0
POINT
  5
9F7
330
85A
100
AcDbEntity
  8
DEFPOINTS
  6
Continuous
 62
     0
100
AcDbPoint
 10
32796.44603060839
 20
13494.96619862412
 30
0.0
  0
POINT
  5
9F8
330
85A
100
AcDbEntity
  8
DEFPOINTS
  6
Continuous
 62
     0
100
AcDbPoint
 10
34896.4460306084
 20
13494.96619862412
 30
0.0
  0
ENDBLK
  5
865
330
85A
100
AcDbEntity
  8
0
100
AcDbBlockEnd
  0
BLOCK
  5
870
330
866
100
AcDbEntity
  8
0
100
AcDbBlockBegin
  2
*D16
 70
     1
 10
0.0
 20
0.0
 30
0.0
  3
*D16
  1

  0
LINE
  5
9F9
330
866
100
AcDbEntity
  8
寸法
  6
Continuous
370
    -2
100
AcDbLine
 10
26996.44603060839
 20
21494.96619862274
 30
0.0
 11
28696.44603060839
 21
21494.96619862274
 31
0.0
  0
LINE
  5
9FA
330
866
100
AcDbEntity
  8
寸法
  6
Continuous
370
    -2
100
AcDbLine
 10
26996.44603060839
 20
13494.96619862273
 30
0.0
 11
28696.44603060839
 21
13494.96619862273
 31
0.0
  0
LINE
  5
9FB
330
866
100
AcDbEntity
  8
寸法
  6
Continuous
370
    -2
100
AcDbLine
 10
28696.44603060839
 20
21434.96619862273
 30
0.0
 11
28696.44603060839
 21
13554.96619862273
 31
0.0
  0
MTEXT
  5
9FC
330
866
100
AcDbEntity
  8
寸法
  6
Continuous
100
AcDbMText
 10
28417.87460203703
 20
17994.96619862273
 30
0.0
 40
300.0
 41
0.0
 71
     5
 72
     1
  1
\A1;8,000
  7
1_100
 11
0.0000000000000001
 21
1.0
 31
0.0
 73
     1
 44
1.0
1001
ACAD
1000
MTEXTBEGIN
1070
    73
1070
     1
1070
    44
1040
1.0
1070
    74
1070
     0
1000
MTEXTEND
  0
INSERT
  5
9FD
330
866
100
AcDbEntity
  8
寸法
  6
Continuous
370
    -2
100
AcDbBlockReference
  2
_ORIGIN
 10
28696.44603060839
 20
21494.96619862274
 30
0.0
 41
60.0
 42
60.0
 43
60.0
 50
90.0
  0
INSERT
  5
9FE
330
866
100
AcDbEntity
  8
寸法
  6
Continuous
370
    -2
100
AcDbBlockReference
  2
_ORIGIN
 10
28696.44603060839
 20
13494.96619862273
 30
0.0
 41
60.0
 42
60.0
 43
60.0
 50
270.0
  0
POINT
  5
9FF
330
866
100
AcDbEntity
  8
DEFPOINTS
  6
Continuous
 62
     0
100
AcDbPoint
 10
26696.44603060839
 20
21494.96619862274
 30
0.0
  0
POINT
  5
A00
330
866
100
AcDbEntity
  8
DEFPOINTS
  6
Continuous
 62
     0
100
AcDbPoint
 10
26696.44603060839
 20
13494.96619862273
 30
0.0
  0
POINT
  5
A01
330
866
100
AcDbEntity
  8
DEFPOINTS
  6
Continuous
 62
     0
100
AcDbPoint
 10
28696.44603060839
 20
13494.96619862273
 30
0.0
  0
ENDBLK
  5
871
330
866
100
AcDbEntity
  8
0
100
AcDbBlockEnd
  0
BLOCK
  5
87C
330
872
100
AcDbEntity
  8
0
100
AcDbBlockBegin
  2
*D17
 70
     1
 10
0.0
 20
0.0
 30
0.0
  3
*D17
  1

  0
LINE
  5
A02
330
872
100
AcDbEntity
  8
寸法
  6
Continuous
370
    -2
100
AcDbLine
 10
26996.44603060839
 20
15494.96619862354
 30
0.0
 11
27696.44603060839
 21
15494.96619862354
 31
0.0
  0
LINE
  5
A03
330
872
100
AcDbEntity
  8
寸法
  6
Continuous
370
    -2
100
AcDbLine
 10
26996.44603060839
 20
18464.96619862354
 30
0.0
 11
27696.44603060839
 21
18464.96619862354
 31
0.0
  0
LINE
  5
A04
330
872
100
AcDbEntity
  8
寸法
  6
Continuous
370
    -2
100
AcDbLine
 10
27696.44603060839
 20
15554.96619862354
 30
0.0
 11
27696.44603060839
 21
18404.96619862354
 31
0.0
  0
INSERT
  5
A05
330
872
100
AcDbEntity
  8
寸法
  6
Continuous
370
    -2
100
AcDbBlockReference
  2
_ORIGIN
 10
27696.44603060839
 20
15494.96619862354
 30
0.0
 41
60.0
 42
60.0
 43
60.0
 50
270.0
  0
INSERT
  5
A06
330
872
100
AcDbEntity
  8
寸法
  6
Continuous
370
    -2
100
AcDbBlockReference
  2
_ORIGIN
 10
27696.44603060839
 20
18464.96619862354
 30
0.0
 41
60.0
 42
60.0
 43
60.0
 50
90.0
  0
MTEXT
  5
A07
330
872
100
AcDbEntity
  8
寸法
  6
Continuous
100
AcDbMText
 10
27417.87460203696
 20
16979.96619862355
 30
0.0
 40
300.0
 41
0.0
 71
     5
 72
     1
  1
\A1;2,970
  7
1_100
 11
0.0000000000000001
 21
1.0
 31
0.0
 73
     1
 44
1.0
1001
ACAD
1000
MTEXTBEGIN
1070
    73
1070
     1
1070
    44
1040
1.0
1070
    74
1070
     0
1000
MTEXTEND
  0
POINT
  5
A08
330
872
100
AcDbEntity
  8
DEFPOINTS
  6
Continuous
 62
     0
100
AcDbPoint
 10
26696.44603060839
 20
15494.96619862354
 30
0.0
  0
POINT
  5
A09
330
872
100
AcDbEntity
  8
DEFPOINTS
  6
Continuous
 62
     0
100
AcDbPoint
 10
26696.44603060839
 20
18464.96619862354
 30
0.0
  0
POINT
  5
A0A
330
872
100
AcDbEntity
  8
DEFPOINTS
  6
Continuous
 62
     0
100
AcDbPoint
 10
27696.44603060839
 20
18464.96619862354
 30
0.0
  0
ENDBLK
  5
87D
330
872
100
AcDbEntity
  8
0
100
AcDbBlockEnd
  0
BLOCK
  5
888
330
87E
100
AcDbEntity
  8
0
100
AcDbBlockBegin
  2
*D18
 70
     1
 10
0.0
 20
0.0
 30
0.0
  3
*D18
  1

  0
LINE
  5
A0B
330
87E
100
AcDbEntity
  8
寸法
  6
Continuous
370
    -2
100
AcDbLine
 10
33096.44603060839
 20
15494.96619862412
 30
0.0
 11
33896.44603060839
 21
15494.96619862412
 31
0.0
  0
LINE
  5
A0C
330
87E
100
AcDbEntity
  8
寸法
  6
Continuous
370
    -2
100
AcDbLine
 10
33136.44603060839
 20
18464.96619862343
 30
0.0
 11
33896.4460306084
 21
18464.96619862343
 31
0.0
  0
LINE
  5
A0D
330
87E
100
AcDbEntity
  8
寸法
  6
Continuous
370
    -2
100
AcDbLine
 10
33896.44603060839
 20
15554.96619862412
 30
0.0
 11
33896.4460306084
 21
18404.96619862343
 31
0.0
  0
INSERT
  5
A0E
330
87E
100
AcDbEntity
  8
寸法
  6
Continuous
370
    -2
100
AcDbBlockReference
  2
_ORIGIN
 10
33896.44603060839
 20
15494.96619862412
 30
0.0
 41
60.0
 42
60.0
 43
60.0
 50
270.0
  0
INSERT
  5
A0F
330
87E
100
AcDbEntity
  8
寸法
  6
Continuous
370
    -2
100
AcDbBlockReference
  2
_ORIGIN
 10
33896.4460306084
 20
18464.96619862343
 30
0.0
 41
60.0
 42
60.0
 43
60.0
 50
90.0
  0
MTEXT
  5
A10
330
87E
100
AcDbEntity
  8
寸法
  6
Continuous
100
AcDbMText
 10
33617.87460203697
 20
16979.96619862378
 30
0.0
 40
300.0
 41
0.0
 71
     5
 72
     1
  1
\A1;2,970
  7
1_100
 11
0.0000000000000001
 21
1.0
 31
0.0
 73
     1
 44
1.0
1001
ACAD
1000
MTEXTBEGIN
1070
    73
1070
     1
1070
    44
1040
1.0
1070
    74
1070
     0
1000
MTEXTEND
  0
POINT
  5
A11
330
87E
100
AcDbEntity
  8
DEFPOINTS
  6
Continuous
 62
     0
100
AcDbPoint
 10
32796.44603060839
 20
15494.96619862412
 30
0.0
  0
POINT
  5
A12
330
87E
100
AcDbEntity
  8
DEFPOINTS
  6
Continuous
 62
     0
100
AcDbPoint
 10
32836.44603060839
 20
18464.96619862343
 30
0.0
  0
POINT
  5
A13
330
87E
100
AcDbEntity
  8
DEFPOINTS
  6
Continuous
 62
     0
100
AcDbPoint
 10
33896.4460306084
 20
18464.96619862343
 30
0.0
  0
ENDBLK
  5
889
330
87E
100
AcDbEntity
  8
0
100
AcDbBlockEnd
  0
BLOCK
  5
894
330
88A
100
AcDbEntity
  8
0
100
AcDbBlockBegin
  2
*D19
 70
     1
 10
0.0
 20
0.0
 30
0.0
  3
*D19
  1

  0
LINE
  5
A14
330
88A
100
AcDbEntity
  8
寸法
  6
Continuous
370
    -2
100
AcDbLine
 10
33096.44603060839
 20
13494.96619862412
 30
0.0
 11
34896.4460306084
 21
13494.96619862412
 31
0.0
  0
LINE
  5
A15
330
88A
100
AcDbEntity
  8
寸法
  6
Continuous
370
    -2
100
AcDbLine
 10
33096.44603060839
 20
11494.96619862412
 30
0.0
 11
34896.4460306084
 21
11494.96619862412
 31
0.0
  0
LINE
  5
A16
330
88A
100
AcDbEntity
  8
寸法
  6
Continuous
370
    -2
100
AcDbLine
 10
34896.4460306084
 20
13434.96619862412
 30
0.0
 11
34896.4460306084
 21
11554.96619862412
 31
0.0
  0
INSERT
  5
A17
330
88A
100
AcDbEntity
  8
寸法
  6
Continuous
370
    -2
100
AcDbBlockReference
  2
_ORIGIN
 10
34896.4460306084
 20
13494.96619862412
 30
0.0
 41
60.0
 42
60.0
 43
60.0
 50
90.0
  0
INSERT
  5
A18
330
88A
100
AcDbEntity
  8
寸法
  6
Continuous
370
    -2
100
AcDbBlockReference
  2
_ORIGIN
 10
34896.4460306084
 20
11494.96619862412
 30
0.0
 41
60.0
 42
60.0
 43
60.0
 50
270.0
  0
MTEXT
  5
A19
330
88A
100
AcDbEntity
  8
寸法
  6
Continuous
100
AcDbMText
 10
34617.87460203697
 20
12494.96619862413
 30
0.0
 40
300.0
 41
0.0
 71
     5
 72
     1
  1
\A1;2,000
  7
1_100
 11
0.0000000000000001
 21
1.0
 31
0.0
 73
     1
 44
1.0
1001
ACAD
1000
MTEXTBEGIN
1070
    73
1070
     1
1070
    44
1040
1.0
1070
    74
1070
     0
1000
MTEXTEND
  0
POINT
  5
A1A
330
88A
100
AcDbEntity
  8
DEFPOINTS
  6
Continuous
 62
     0
100
AcDbPoint
 10
32796.44603060839
 20
13494.96619862412
 30
0.0
  0
POINT
  5
A1B
330
88A
100
AcDbEntity
  8
DEFPOINTS
  6
Continuous
 62
     0
100
AcDbPoint
 10
32796.44603060839
 20
11494.96619862412
 30
0.0
  0
POINT
  5
A1C
330
88A
100
AcDbEntity
  8
DEFPOINTS
  6
Continuous
 62
     0
100
AcDbPoint
 10
34896.4460306084
 20
11494.96619862412
 30
0.0
  0
ENDBLK
  5
895
330
88A
100
AcDbEntity
  8
0
100
AcDbBlockEnd
  0
BLOCK
  5
8A2
330
896
100
AcDbEntity
  8
0
100
AcDbBlockBegin
  2
*D20
 70
     1
 10
0.0
 20
0.0
 30
0.0
  3
*D20
  1

  0
LINE
  5
A1D
330
896
100
AcDbEntity
  8
寸法
  6
Continuous
370
    -2
100
AcDbLine
 10
33096.44603060839
 20
13194.96619862412
 30
0.0
 11
33896.4460306084
 21
13194.96619862412
 31
0.0
  0
LINE
  5
A1E
330
896
100
AcDbEntity
  8
寸法
  6
Continuous
370
    -2
100
AcDbLine
 10
33096.44603060839
 20
13494.96619862412
 30
0.0
 11
33896.4460306084
 21
13494.96619862412
 31
0.0
  0
LINE
  5
A1F
330
896
100
AcDbEntity
  8
寸法
  6
Continuous
370
    -2
100
AcDbLine
 10
33896.4460306084
 20
13134.96619862412
 30
0.0
 11
33896.4460306084
 21
13074.96619862412
 31
0.0
  0
LINE
  5
A20
330
896
100
AcDbEntity
  8
寸法
  6
Continuous
370
    -2
100
AcDbLine
 10
33896.4460306084
 20
13554.96619862412
 30
0.0
 11
33896.4460306084
 21
13614.96619862412
 31
0.0
  0
MTEXT
  5
A21
330
896
100
AcDbEntity
  8
寸法
  6
Continuous
100
AcDbMText
 10
34115.94211923846
 20
13138.06941215439
 30
0.0
 40
300.0
 41
0.0
 71
     5
 72
     1
  1
\A1;300
  7
1_100
 11
0.0000000000000001
 21
1.0
 31
0.0
 73
     1
 44
1.0
1001
ACAD
1000
MTEXTBEGIN
1070
    73
1070
     1
1070
    44
1040
1.0
1070
    74
1070
     0
1000
MTEXTEND
  0
LINE
  5
A22
330
896
100
AcDbEntity
  8
寸法
  6
Continuous
370
    -2
100
AcDbLine
 10
33896.4460306084
 20
13194.96619862412
 30
0.0
 11
33896.4460306084
 21
13494.96619862412
 31
0.0
  0
INSERT
  5
A23
330
896
100
AcDbEntity
  8
寸法
  6
Continuous
370
    -2
100
AcDbBlockReference
  2
_ORIGIN
 10
33896.4460306084
 20
13194.96619862412
 30
0.0
 41
60.0
 42
60.0
 43
60.0
 50
90.0
  0
INSERT
  5
A24
330
896
100
AcDbEntity
  8
寸法
  6
Continuous
370
    -2
100
AcDbBlockReference
  2
_ORIGIN
 10
33896.4460306084
 20
13494.96619862412
 30
0.0
 41
60.0
 42
60.0
 43
60.0
 50
270.0
  0
POINT
  5
A25
330
896
100
AcDbEntity
  8
DEFPOINTS
  6
Continuous
 62
     0
100
AcDbPoint
 10
32796.44603060839
 20
13194.96619862412
 30
0.0
  0
POINT
  5
A26
330
896
100
AcDbEntity
  8
DEFPOINTS
  6
Continuous
 62
     0
100
AcDbPoint
 10
32796.44603060839
 20
13494.96619862412
 30
0.0
  0
POINT
  5
A27
330
896
100
AcDbEntity
  8
DEFPOINTS
  6
Continuous
 62
     0
100
AcDbPoint
 10
33896.4460306084
 20
13494.96619862412
 30
0.0
  0
ENDBLK
  5
8A3
330
896
100
AcDbEntity
  8
0
100
AcDbBlockEnd
  0
BLOCK
  5
8AE
330
8A4
100
AcDbEntity
  8
0
100
AcDbBlockBegin
  2
*D21
 70
     1
 10
0.0
 20
0.0
 30
0.0
  3
*D21
  1

  0
LINE
  5
A28
330
8A4
100
AcDbEntity
  8
寸法
  6
Continuous
370
    -2
100
AcDbLine
 10
33096.44603060839
 20
13494.96619862412
 30
0.0
 11
33896.4460306084
 21
13494.96619862412
 31
0.0
  0
LINE
  5
A29
330
8A4
100
AcDbEntity
  8
寸法
  6
Continuous
370
    -2
100
AcDbLine
 10
33096.44603060839
 20
15494.96619862412
 30
0.0
 11
33896.4460306084
 21
15494.96619862412
 31
0.0
  0
LINE
  5
A2A
330
8A4
100
AcDbEntity
  8
寸法
  6
Continuous
370
    -2
100
AcDbLine
 10
33896.4460306084
 20
13554.96619862412
 30
0.0
 11
33896.4460306084
 21
15434.96619862412
 31
0.0
  0
INSERT
  5
A2B
330
8A4
100
AcDbEntity
  8
寸法
  6
Continuous
370
    -2
100
AcDbBlockReference
  2
_ORIGIN
 10
33896.4460306084
 20
13494.96619862412
 30
0.0
 41
60.0
 42
60.0
 43
60.0
 50
270.0
  0
INSERT
  5
A2C
330
8A4
100
AcDbEntity
  8
寸法
  6
Continuous
370
    -2
100
AcDbBlockReference
  2
_ORIGIN
 10
33896.4460306084
 20
15494.96619862412
 30
0.0
 41
60.0
 42
60.0
 43
60.0
 50
90.0
  0
MTEXT
  5
A2D
330
8A4
100
AcDbEntity
  8
寸法
  6
Continuous
100
AcDbMText
 10
33617.87460203697
 20
14494.96619862413
 30
0.0
 40
300.0
 41
0.0
 71
     5
 72
     1
  1
\A1;2,000
  7
1_100
 11
0.0000000000000001
 21
1.0
 31
0.0
 73
     1
 44
1.0
1001
ACAD
1000
MTEXTBEGIN
1070
    73
1070
     1
1070
    44
1040
1.0
1070
    74
1070
     0
1000
MTEXTEND
  0
POINT
  5
A2E
330
8A4
100
AcDbEntity
  8
DEFPOINTS
  6
Continuous
 62
     0
100
AcDbPoint
 10
32796.44603060839
 20
13494.96619862412
 30
0.0
  0
POINT
  5
A2F
330
8A4
100
AcDbEntity
  8
DEFPOINTS
  6
Continuous
 62
     0
100
AcDbPoint
 10
32796.44603060839
 20
15494.96619862412
 30
0.0
  0
POINT
  5
A30
330
8A4
100
AcDbEntity
  8
DEFPOINTS
  6
Continuous
 62
     0
100
AcDbPoint
 10
33896.4460306084
 20
15494.96619862412
 30
0.0
  0
ENDBLK
  5
8AF
330
8A4
100
AcDbEntity
  8
0
100
AcDbBlockEnd
  0
BLOCK
  5
8BC
330
8B0
100
AcDbEntity
  8
0
100
AcDbBlockBegin
  2
*D22
 70
     1
 10
0.0
 20
0.0
 30
0.0
  3
*D22
  1

  0
LINE
  5
A31
330
8B0
100
AcDbEntity
  8
寸法
  6
Continuous
370
    -2
100
AcDbLine
 10
31046.44603060839
 20
11094.96619862366
 30
0.0
 11
31046.44603060839
 21
10394.96619862319
 31
0.0
  0
LINE
  5
A32
330
8B0
100
AcDbEntity
  8
寸法
  6
Continuous
370
    -2
100
AcDbLine
 10
31546.44603060839
 20
11094.96619862366
 30
0.0
 11
31546.44603060839
 21
10394.96619862319
 31
0.0
  0
LINE
  5
A33
330
8B0
100
AcDbEntity
  8
寸法
  6
Continuous
370
    -2
100
AcDbLine
 10
30986.44603060839
 20
10394.96619862319
 30
0.0
 11
30926.44603060839
 21
10394.96619862319
 31
0.0
  0
LINE
  5
A34
330
8B0
100
AcDbEntity
  8
寸法
  6
Continuous
370
    -2
100
AcDbLine
 10
31606.44603060839
 20
10394.96619862319
 30
0.0
 11
31666.44603060839
 21
10394.96619862319
 31
0.0
  0
LINE
  5
A35
330
8B0
100
AcDbEntity
  8
寸法
  6
Continuous
370
    -2
100
AcDbLine
 10
31046.44603060839
 20
10394.96619862319
 30
0.0
 11
31546.44603060839
 21
10394.96619862319
 31
0.0
  0
INSERT
  5
A36
330
8B0
100
AcDbEntity
  8
寸法
  6
Continuous
370
    -2
100
AcDbBlockReference
  2
_ORIGIN
 10
31046.44603060839
 20
10394.96619862319
 30
0.0
 41
60.0
 42
60.0
 43
60.0
  0
INSERT
  5
A37
330
8B0
100
AcDbEntity
  8
寸法
  6
Continuous
370
    -2
100
AcDbBlockReference
  2
_ORIGIN
 10
31546.44603060839
 20
10394.96619862319
 30
0.0
 41
60.0
 42
60.0
 43
60.0
 50
180.0
  0
MTEXT
  5
A38
330
8B0
100
AcDbEntity
  8
寸法
  6
Continuous
100
AcDbMText
 10
31296.44603060839
 20
10144.96619862319
 30
0.0
 40
300.0
 41
0.0
 71
     5
 72
     1
  1
\A1;□500
  7
1_100
 73
     1
 44
1.0
1001
ACAD
1000
MTEXTBEGIN
1070
    73
1070
     1
1070
    44
1040
1.0
1070
    74
1070
     0
1000
MTEXTEND
  0
POINT
  5
A39
330
8B0
100
AcDbEntity
  8
DEFPOINTS
  6
Continuous
 62
     0
100
AcDbPoint
 10
31046.44603060839
 20
11394.96619862366
 30
0.0
  0
POINT
  5
A3A
330
8B0
100
AcDbEntity
  8
DEFPOINTS
  6
Continuous
 62
     0
100
AcDbPoint
 10
31546.44603060839
 20
11394.96619862366
 30
0.0
  0
POINT
  5
A3B
330
8B0
100
AcDbEntity
  8
DEFPOINTS
  6
Continuous
 62
     0
100
AcDbPoint
 10
31546.44603060839
 20
10394.96619862319
 30
0.0
  0
ENDBLK
  5
8BD
330
8B0
100
AcDbEntity
  8
0
100
AcDbBlockEnd
  0
BLOCK
  5
8CA
330
8BE
100
AcDbEntity
  8
0
100
AcDbBlockBegin
  2
*D23
 70
     1
 10
0.0
 20
0.0
 30
0.0
  3
*D23
  1

  0
LINE
  5
A3C
330
8BE
100
AcDbEntity
  8
寸法
  6
Continuous
370
    -2
100
AcDbLine
 10
33096.44603060839
 20
11394.96619862412
 30
0.0
 11
33896.4460306084
 21
11394.96619862412
 31
0.0
  0
LINE
  5
A3D
330
8BE
100
AcDbEntity
  8
寸法
  6
Continuous
370
    -2
100
AcDbLine
 10
33096.44603060839
 20
11494.96619862412
 30
0.0
 11
33896.4460306084
 21
11494.96619862412
 31
0.0
  0
LINE
  5
A3E
330
8BE
100
AcDbEntity
  8
寸法
  6
Continuous
370
    -2
100
AcDbLine
 10
33896.4460306084
 20
11334.96619862413
 30
0.0
 11
33896.4460306084
 21
11274.96619862413
 31
0.0
  0
LINE
  5
A3F
330
8BE
100
AcDbEntity
  8
寸法
  6
Continuous
370
    -2
100
AcDbLine
 10
33896.4460306084
 20
11554.96619862412
 30
0.0
 11
33896.4460306084
 21
11614.96619862412
 31
0.0
  0
MTEXT
  5
A40
330
8BE
100
AcDbEntity
  8
寸法
  6
Continuous
100
AcDbMText
 10
33585.1558524659
 20
11039.13904545341
 30
0.0
 40
300.0
 41
0.0
 71
     5
 72
     1
  1
\A1;100
  7
1_100
 11
0.0000000000000001
 21
1.0
 31
0.0
 73
     1
 44
1.0
1001
ACAD
1000
MTEXTBEGIN
1070
    73
1070
     1
1070
    44
1040
1.0
1070
    74
1070
     0
1000
MTEXTEND
  0
LINE
  5
A41
330
8BE
100
AcDbEntity
  8
寸法
  6
Continuous
370
    -2
100
AcDbLine
 10
33896.4460306084
 20
11394.96619862412
 30
0.0
 11
33896.4460306084
 21
11494.96619862412
 31
0.0
  0
INSERT
  5
A42
330
8BE
100
AcDbEntity
  8
寸法
  6
Continuous
370
    -2
100
AcDbBlockReference
  2
_ORIGIN
 10
33896.4460306084
 20
11394.96619862412
 30
0.0
 41
60.0
 42
60.0
 43
60.0
 50
90.0
  0
INSERT
  5
A43
330
8BE
100
AcDbEntity
  8
寸法
  6
Continuous
370
    -2
100
AcDbBlockReference
  2
_ORIGIN
 10
33896.4460306084
 20
11494.96619862412
 30
0.0
 41
60.0
 42
60.0
 43
60.0
 50
270.0
  0
POINT
  5
A44
330
8BE
100
AcDbEntity
  8
DEFPOINTS
  6
Continuous
 62
     0
100
AcDbPoint
 10
32796.44603060839
 20
11394.96619862412
 30
0.0
  0
POINT
  5
A45
330
8BE
100
AcDbEntity
  8
DEFPOINTS
  6
Continuous
 62
     0
100
AcDbPoint
 10
32796.44603060839
 20
11494.96619862412
 30
0.0
  0
POINT
  5
A46
330
8BE
100
AcDbEntity
  8
DEFPOINTS
  6
Continuous
 62
     0
100
AcDbPoint
 10
33896.4460306084
 20
11494.96619862412
 30
0.0
  0
ENDBLK
  5
8CB
330
8BE
100
AcDbEntity
  8
0
100
AcDbBlockEnd
  0
BLOCK
  5
8D6
330
8CC
100
AcDbEntity
  8
0
100
AcDbBlockBegin
  2
*D24
 70
     1
 10
0.0
 20
0.0
 30
0.0
  3
*D24
  1

  0
LINE
  5
A47
330
8CC
100
AcDbEntity
  8
寸法
  6
Continuous
370
    -2
100
AcDbLine
 10
33096.44603060839
 20
11494.96619862412
 30
0.0
 11
33896.4460306084
 21
11494.96619862412
 31
0.0
  0
LINE
  5
A48
330
8CC
100
AcDbEntity
  8
寸法
  6
Continuous
370
    -2
100
AcDbLine
 10
33096.44603060839
 20
13194.96619862412
 30
0.0
 11
33896.4460306084
 21
13194.96619862412
 31
0.0
  0
LINE
  5
A49
330
8CC
100
AcDbEntity
  8
寸法
  6
Continuous
370
    -2
100
AcDbLine
 10
33896.4460306084
 20
11554.96619862412
 30
0.0
 11
33896.4460306084
 21
13134.96619862412
 31
0.0
  0
INSERT
  5
A4A
330
8CC
100
AcDbEntity
  8
寸法
  6
Continuous
370
    -2
100
AcDbBlockReference
  2
_ORIGIN
 10
33896.4460306084
 20
11494.96619862412
 30
0.0
 41
60.0
 42
60.0
 43
60.0
 50
270.0
  0
INSERT
  5
A4B
330
8CC
100
AcDbEntity
  8
寸法
  6
Continuous
370
    -2
100
AcDbBlockReference
  2
_ORIGIN
 10
33896.4460306084
 20
13194.96619862412
 30
0.0
 41
60.0
 42
60.0
 43
60.0
 50
90.0
  0
MTEXT
  5
A4C
330
8CC
100
AcDbEntity
  8
寸法
  6
Continuous
100
AcDbMText
 10
33617.87460203697
 20
12344.96619862413
 30
0.0
 40
300.0
 41
0.0
 71
     5
 72
     1
  1
\A1;1,700
  7
1_100
 11
0.0000000000000001
 21
1.0
 31
0.0
 73
     1
 44
1.0
1001
ACAD
1000
MTEXTBEGIN
1070
    73
1070
     1
1070
    44
1040
1.0
1070
    74
1070
     0
1000
MTEXTEND
  0
POINT
  5
A4D
330
8CC
100
AcDbEntity
  8
DEFPOINTS
  6
Continuous
 62
     0
100
AcDbPoint
 10
32796.44603060839
 20
11494.96619862412
 30
0.0
  0
POINT
  5
A4E
330
8CC
100
AcDbEntity
  8
DEFPOINTS
  6
Continuous
 62
     0
100
AcDbPoint
 10
32796.44603060839
 20
13194.96619862412
 30
0.0
  0
POINT
  5
A4F
330
8CC
100
AcDbEntity
  8
DEFPOINTS
  6
Continuous
 62
     0
100
AcDbPoint
 10
33896.4460306084
 20
13194.96619862412
 30
0.0
  0
ENDBLK
  5
8D7
330
8CC
100
AcDbEntity
  8
0
100
AcDbBlockEnd
  0
BLOCK
  5
8E4
330
8D8
100
AcDbEntity
  8
0
100
AcDbBlockBegin
  2
*D25
 70
     1
 10
0.0
 20
0.0
 30
0.0
  3
*D25
  1

  0
LINE
  5
A50
330
8D8
100
AcDbEntity
  8
寸法
  6
Continuous
370
    -2
100
AcDbLine
 10
26996.44603060839
 20
13194.96619862273
 30
0.0
 11
27696.44603060839
 21
13194.96619862273
 31
0.0
  0
LINE
  5
A51
330
8D8
100
AcDbEntity
  8
寸法
  6
Continuous
370
    -2
100
AcDbLine
 10
26996.44603060839
 20
13494.96619862273
 30
0.0
 11
27696.44603060839
 21
13494.96619862273
 31
0.0
  0
LINE
  5
A52
330
8D8
100
AcDbEntity
  8
寸法
  6
Continuous
370
    -2
100
AcDbLine
 10
27696.44603060839
 20
13134.96619862273
 30
0.0
 11
27696.44603060839
 21
13074.96619862273
 31
0.0
  0
LINE
  5
A53
330
8D8
100
AcDbEntity
  8
寸法
  6
Continuous
370
    -2
100
AcDbLine
 10
27696.44603060839
 20
13554.96619862273
 30
0.0
 11
27696.44603060839
 21
13614.96619862273
 31
0.0
  0
MTEXT
  5
A54
330
8D8
100
AcDbEntity
  8
寸法
  6
Continuous
100
AcDbMText
 10
27915.94211923891
 20
13138.06941215276
 30
0.0
 40
300.0
 41
0.0
 71
     5
 72
     1
  1
\A1;300
  7
1_100
 11
0.0000000000000001
 21
1.0
 31
0.0
 73
     1
 44
1.0
1001
ACAD
1000
MTEXTBEGIN
1070
    73
1070
     1
1070
    44
1040
1.0
1070
    74
1070
     0
1000
MTEXTEND
  0
LINE
  5
A55
330
8D8
100
AcDbEntity
  8
寸法
  6
Continuous
370
    -2
100
AcDbLine
 10
27696.44603060839
 20
13194.96619862273
 30
0.0
 11
27696.44603060839
 21
13494.96619862273
 31
0.0
  0
INSERT
  5
A56
330
8D8
100
AcDbEntity
  8
寸法
  6
Continuous
370
    -2
100
AcDbBlockReference
  2
_ORIGIN
 10
27696.44603060839
 20
13194.96619862273
 30
0.0
 41
60.0
 42
60.0
 43
60.0
 50
90.0
  0
INSERT
  5
A57
330
8D8
100
AcDbEntity
  8
寸法
  6
Continuous
370
    -2
100
AcDbBlockReference
  2
_ORIGIN
 10
27696.44603060839
 20
13494.96619862273
 30
0.0
 41
60.0
 42
60.0
 43
60.0
 50
270.0
  0
POINT
  5
A58
330
8D8
100
AcDbEntity
  8
DEFPOINTS
  6
Continuous
 62
     0
100
AcDbPoint
 10
26696.44603060839
 20
13194.96619862273
 30
0.0
  0
POINT
  5
A59
330
8D8
100
AcDbEntity
  8
DEFPOINTS
  6
Continuous
 62
     0
100
AcDbPoint
 10
26696.44603060839
 20
13494.96619862273
 30
0.0
  0
POINT
  5
A5A
330
8D8
100
AcDbEntity
  8
DEFPOINTS
  6
Continuous
 62
     0
100
AcDbPoint
 10
27696.44603060839
 20
13494.96619862273
 30
0.0
  0
ENDBLK
  5
8E5
330
8D8
100
AcDbEntity
  8
0
100
AcDbBlockEnd
  0
BLOCK
  5
8F0
330
8E6
100
AcDbEntity
  8
0
100
AcDbBlockBegin
  2
*D26
 70
     1
 10
0.0
 20
0.0
 30
0.0
  3
*D26
  1

  0
LINE
  5
A5B
330
8E6
100
AcDbEntity
  8
寸法
  6
Continuous
370
    -2
100
AcDbLine
 10
26996.44603060839
 20
13494.96619862354
 30
0.0
 11
27696.44603060839
 21
13494.96619862354
 31
0.0
  0
LINE
  5
A5C
330
8E6
100
AcDbEntity
  8
寸法
  6
Continuous
370
    -2
100
AcDbLine
 10
26996.44603060839
 20
15494.96619862354
 30
0.0
 11
27696.44603060839
 21
15494.96619862354
 31
0.0
  0
LINE
  5
A5D
330
8E6
100
AcDbEntity
  8
寸法
  6
Continuous
370
    -2
100
AcDbLine
 10
27696.44603060839
 20
13554.96619862354
 30
0.0
 11
27696.44603060839
 21
15434.96619862354
 31
0.0
  0
INSERT
  5
A5E
330
8E6
100
AcDbEntity
  8
寸法
  6
Continuous
370
    -2
100
AcDbBlockReference
  2
_ORIGIN
 10
27696.44603060839
 20
13494.96619862354
 30
0.0
 41
60.0
 42
60.0
 43
60.0
 50
270.0
  0
INSERT
  5
A5F
330
8E6
100
AcDbEntity
  8
寸法
  6
Continuous
370
    -2
100
AcDbBlockReference
  2
_ORIGIN
 10
27696.44603060839
 20
15494.96619862354
 30
0.0
 41
60.0
 42
60.0
 43
60.0
 50
90.0
  0
MTEXT
  5
A60
330
8E6
100
AcDbEntity
  8
寸法
  6
Continuous
100
AcDbMText
 10
27417.87460203696
 20
14494.96619862355
 30
0.0
 40
300.0
 41
0.0
 71
     5
 72
     1
  1
\A1;2,000
  7
1_100
 11
0.0000000000000001
 21
1.0
 31
0.0
 73
     1
 44
1.0
1001
ACAD
1000
MTEXTBEGIN
1070
    73
1070
     1
1070
    44
1040
1.0
1070
    74
1070
     0
1000
MTEXTEND
  0
POINT
  5
A61
330
8E6
100
AcDbEntity
  8
DEFPOINTS
  6
Continuous
 62
     0
100
AcDbPoint
 10
26696.44603060839
 20
13494.96619862354
 30
0.0
  0
POINT
  5
A62
330
8E6
100
AcDbEntity
  8
DEFPOINTS
  6
Continuous
 62
     0
100
AcDbPoint
 10
26696.44603060839
 20
15494.96619862354
 30
0.0
  0
POINT
  5
A63
330
8E6
100
AcDbEntity
  8
DEFPOINTS
  6
Continuous
 62
     0
100
AcDbPoint
 10
27696.44603060839
 20
15494.96619862354
 30
0.0
  0
ENDBLK
  5
8F1
330
8E6
100
AcDbEntity
  8
0
100
AcDbBlockEnd
  0
BLOCK
  5
8FC
330
8F2
100
AcDbEntity
  8
0
100
AcDbBlockBegin
  2
*D27
 70
     1
 10
0.0
 20
0.0
 30
0.0
  3
*D27
  1

  0
LINE
  5
A64
330
8F2
100
AcDbEntity
  8
画層3-寸法
  6
Continuous
370
    -2
100
AcDbLine
 10
23296.44603060839
 20
10202.06023288031
 30
0.0
 11
23296.44603060839
 21
9194.966198622497
 31
0.0
  0
LINE
  5
A65
330
8F2
100
AcDbEntity
  8
画層3-寸法
  6
Continuous
370
    -2
100
AcDbLine
 10
25296.44603060839
 20
10224.96619862249
 30
0.0
 11
25296.44603060839
 21
9194.966198622497
 31
0.0
  0
LINE
  5
A66
330
8F2
100
AcDbEntity
  8
画層3-寸法
  6
Continuous
370
    -2
100
AcDbLine
 10
23356.44603060839
 20
9194.966198622497
 30
0.0
 11
25236.44603060839
 21
9194.966198622497
 31
0.0
  0
INSERT
  5
A67
330
8F2
100
AcDbEntity
  8
画層3-寸法
  6
Continuous
370
    -2
100
AcDbBlockReference
  2
_ORIGIN
 10
23296.44603060839
 20
9194.966198622497
 30
0.0
 41
60.0
 42
60.0
 43
60.0
 50
180.0
  0
INSERT
  5
A68
330
8F2
100
AcDbEntity
  8
画層3-寸法
  6
Continuous
370
    -2
100
AcDbBlockReference
  2
_ORIGIN
 10
25296.44603060839
 20
9194.966198622497
 30
0.0
 41
60.0
 42
60.0
 43
60.0
  0
MTEXT
  5
A69
330
8F2
100
AcDbEntity
  8
画層3-寸法
  6
Continuous
100
AcDbMText
 10
24296.4460306084
 20
9473.537627193925
 30
0.0
 40
300.0
 41
0.0
 71
     5
 72
     1
  1
\A1;2,000
  7
1_100
 73
     1
 44
1.0
1001
ACAD
1000
MTEXTBEGIN
1070
    73
1070
     1
1070
    44
1040
1.0
1070
    74
1070
     0
1000
MTEXTEND
  0
POINT
  5
A6A
330
8F2
100
AcDbEntity
  8
DEFPOINTS
  6
Continuous
 62
     0
100
AcDbPoint
 10
23296.44603060839
 20
10502.06023288031
 30
0.0
  0
POINT
  5
A6B
330
8F2
100
AcDbEntity
  8
DEFPOINTS
  6
Continuous
 62
     0
100
AcDbPoint
 10
25296.44603060839
 20
10524.96619862249
 30
0.0
  0
POINT
  5
A6C
330
8F2
100
AcDbEntity
  8
DEFPOINTS
  6
Continuous
 62
     0
100
AcDbPoint
 10
25296.44603060839
 20
9194.966198622497
 30
0.0
  0
ENDBLK
  5
8FD
330
8F2
100
AcDbEntity
  8
0
100
AcDbBlockEnd
  0
BLOCK
  5
90A
330
8FE
100
AcDbEntity
  8
0
100
AcDbBlockBegin
  2
*D28
 70
     1
 10
0.0
 20
0.0
 30
0.0
  3
*D28
  1

  0
LINE
  5
A6D
330
8FE
100
AcDbEntity
  8
寸法
  6
Continuous
370
    -2
100
AcDbLine
 10
26996.44603060839
 20
11394.96619862273
 30
0.0
 11
27696.44603060839
 21
11394.96619862273
 31
0.0
  0
LINE
  5
A6E
330
8FE
100
AcDbEntity
  8
寸法
  6
Continuous
370
    -2
100
AcDbLine
 10
26996.44603060839
 20
11494.96619862273
 30
0.0
 11
27696.44603060839
 21
11494.96619862273
 31
0.0
  0
LINE
  5
A6F
330
8FE
100
AcDbEntity
  8
寸法
  6
Continuous
370
    -2
100
AcDbLine
 10
27696.44603060839
 20
11334.96619862273
 30
0.0
 11
27696.44603060839
 21
11274.96619862273
 31
0.0
  0
LINE
  5
A70
330
8FE
100
AcDbEntity
  8
寸法
  6
Continuous
370
    -2
100
AcDbLine
 10
27696.44603060839
 20
11554.96619862273
 30
0.0
 11
27696.44603060839
 21
11614.96619862273
 31
0.0
  0
MTEXT
  5
A71
330
8FE
100
AcDbEntity
  8
寸法
  6
Continuous
100
AcDbMText
 10
27395.21615494603
 20
10970.88333302691
 30
0.0
 40
300.0
 41
0.0
 71
     5
 72
     1
  1
\A1;100
  7
1_100
 11
0.0000000000000001
 21
1.0
 31
0.0
 73
     1
 44
1.0
1001
ACAD
1000
MTEXTBEGIN
1070
    73
1070
     1
1070
    44
1040
1.0
1070
    74
1070
     0
1000
MTEXTEND
  0
LINE
  5
A72
330
8FE
100
AcDbEntity
  8
寸法
  6
Continuous
370
    -2
100
AcDbLine
 10
27696.44603060839
 20
11394.96619862273
 30
0.0
 11
27696.44603060839
 21
11494.96619862273
 31
0.0
  0
INSERT
  5
A73
330
8FE
100
AcDbEntity
  8
寸法
  6
Continuous
370
    -2
100
AcDbBlockReference
  2
_ORIGIN
 10
27696.44603060839
 20
11394.96619862273
 30
0.0
 41
60.0
 42
60.0
 43
60.0
 50
90.0
  0
INSERT
  5
A74
330
8FE
100
AcDbEntity
  8
寸法
  6
Continuous
370
    -2
100
AcDbBlockReference
  2
_ORIGIN
 10
27696.44603060839
 20
11494.96619862273
 30
0.0
 41
60.0
 42
60.0
 43
60.0
 50
270.0
  0
POINT
  5
A75
330
8FE
100
AcDbEntity
  8
DEFPOINTS
  6
Continuous
 62
     0
100
AcDbPoint
 10
26696.44603060839
 20
11394.96619862273
 30
0.0
  0
POINT
  5
A76
330
8FE
100
AcDbEntity
  8
DEFPOINTS
  6
Continuous
 62
     0
100
AcDbPoint
 10
26696.44603060839
 20
11494.96619862273
 30
0.0
  0
POINT
  5
A77
330
8FE
100
AcDbEntity
  8
DEFPOINTS
  6
Continuous
 62
     0
100
AcDbPoint
 10
27696.44603060839
 20
11494.96619862273
 30
0.0
  0
ENDBLK
  5
90B
330
8FE
100
AcDbEntity
  8
0
100
AcDbBlockEnd
  0
BLOCK
  5
916
330
90C
100
AcDbEntity
  8
0
100
AcDbBlockBegin
  2
*D29
 70
     1
 10
0.0
 20
0.0
 30
0.0
  3
*D29
  1

  0
LINE
  5
A78
330
90C
100
AcDbEntity
  8
寸法
  6
Continuous
370
    -2
100
AcDbLine
 10
26996.44603060839
 20
13494.96619862273
 30
0.0
 11
28696.44603060839
 21
13494.96619862273
 31
0.0
  0
LINE
  5
A79
330
90C
100
AcDbEntity
  8
寸法
  6
Continuous
370
    -2
100
AcDbLine
 10
26996.44603060839
 20
11494.96619862273
 30
0.0
 11
28696.44603060839
 21
11494.96619862272
 31
0.0
  0
LINE
  5
A7A
330
90C
100
AcDbEntity
  8
寸法
  6
Continuous
370
    -2
100
AcDbLine
 10
28696.44603060839
 20
13434.96619862273
 30
0.0
 11
28696.44603060839
 21
11554.96619862272
 31
0.0
  0
INSERT
  5
A7B
330
90C
100
AcDbEntity
  8
寸法
  6
Continuous
370
    -2
100
AcDbBlockReference
  2
_ORIGIN
 10
28696.44603060839
 20
13494.96619862273
 30
0.0
 41
60.0
 42
60.0
 43
60.0
 50
90.0
  0
INSERT
  5
A7C
330
90C
100
AcDbEntity
  8
寸法
  6
Continuous
370
    -2
100
AcDbBlockReference
  2
_ORIGIN
 10
28696.44603060839
 20
11494.96619862272
 30
0.0
 41
60.0
 42
60.0
 43
60.0
 50
270.0
  0
MTEXT
  5
A7D
330
90C
100
AcDbEntity
  8
寸法
  6
Continuous
100
AcDbMText
 10
28417.87460203696
 20
12494.96619862273
 30
0.0
 40
300.0
 41
0.0
 71
     5
 72
     1
  1
\A1;2,000
  7
1_100
 11
0.0000000000000001
 21
1.0
 31
0.0
 73
     1
 44
1.0
1001
ACAD
1000
MTEXTBEGIN
1070
    73
1070
     1
1070
    44
1040
1.0
1070
    74
1070
     0
1000
MTEXTEND
  0
POINT
  5
A7E
330
90C
100
AcDbEntity
  8
DEFPOINTS
  6
Continuous
 62
     0
100
AcDbPoint
 10
26696.44603060839
 20
13494.96619862273
 30
0.0
  0
POINT
  5
A7F
330
90C
100
AcDbEntity
  8
DEFPOINTS
  6
Continuous
 62
     0
100
AcDbPoint
 10
26696.44603060839
 20
11494.96619862273
 30
0.0
  0
POINT
  5
A80
330
90C
100
AcDbEntity
  8
DEFPOINTS
  6
Continuous
 62
     0
100
AcDbPoint
 10
28696.44603060839
 20
11494.96619862272
 30
0.0
  0
ENDBLK
  5
917
330
90C
100
AcDbEntity
  8
0
100
AcDbBlockEnd
  0
BLOCK
  5
922
330
918
100
AcDbEntity
  8
0
100
AcDbBlockBegin
  2
*D30
 70
     1
 10
0.0
 20
0.0
 30
0.0
  3
*D30
  1

  0
LINE
  5
A81
330
918
100
AcDbEntity
  8
寸法
  6
Continuous
370
    -2
100
AcDbLine
 10
26996.44603060839
 20
11494.96619862273
 30
0.0
 11
27696.44603060839
 21
11494.96619862273
 31
0.0
  0
LINE
  5
A82
330
918
100
AcDbEntity
  8
寸法
  6
Continuous
370
    -2
100
AcDbLine
 10
26996.44603060839
 20
13194.96619862273
 30
0.0
 11
27696.44603060839
 21
13194.96619862273
 31
0.0
  0
LINE
  5
A83
330
918
100
AcDbEntity
  8
寸法
  6
Continuous
370
    -2
100
AcDbLine
 10
27696.44603060839
 20
11554.96619862273
 30
0.0
 11
27696.44603060839
 21
13134.96619862273
 31
0.0
  0
INSERT
  5
A84
330
918
100
AcDbEntity
  8
寸法
  6
Continuous
370
    -2
100
AcDbBlockReference
  2
_ORIGIN
 10
27696.44603060839
 20
11494.96619862273
 30
0.0
 41
60.0
 42
60.0
 43
60.0
 50
270.0
  0
INSERT
  5
A85
330
918
100
AcDbEntity
  8
寸法
  6
Continuous
370
    -2
100
AcDbBlockReference
  2
_ORIGIN
 10
27696.44603060839
 20
13194.96619862273
 30
0.0
 41
60.0
 42
60.0
 43
60.0
 50
90.0
  0
MTEXT
  5
A86
330
918
100
AcDbEntity
  8
寸法
  6
Continuous
100
AcDbMText
 10
27417.87460203696
 20
12344.96619862273
 30
0.0
 40
300.0
 41
0.0
 71
     5
 72
     1
  1
\A1;1,700
  7
1_100
 11
0.0000000000000001
 21
1.0
 31
0.0
 73
     1
 44
1.0
1001
ACAD
1000
MTEXTBEGIN
1070
    73
1070
     1
1070
    44
1040
1.0
1070
    74
1070
     0
1000
MTEXTEND
  0
POINT
  5
A87
330
918
100
AcDbEntity
  8
DEFPOINTS
  6
Continuous
 62
     0
100
AcDbPoint
 10
26696.44603060839
 20
11494.96619862273
 30
0.0
  0
POINT
  5
A88
330
918
100
AcDbEntity
  8
DEFPOINTS
  6
Continuous
 62
     0
100
AcDbPoint
 10
26696.44603060839
 20
13194.96619862273
 30
0.0
  0
POINT
  5
A89
330
918
100
AcDbEntity
  8
DEFPOINTS
  6
Continuous
 62
     0
100
AcDbPoint
 10
27696.44603060839
 20
13194.96619862273
 30
0.0
  0
ENDBLK
  5
923
330
918
100
AcDbEntity
  8
0
100
AcDbBlockEnd
  0
BLOCK
  5
92E
330
924
100
AcDbEntity
  8
0
100
AcDbBlockBegin
  2
*D31
 70
     1
 10
0.0
 20
0.0
 30
0.0
  3
*D31
  1

  0
LINE
  5
A8A
330
924
100
AcDbEntity
  8
寸法
  6
Continuous
370
    -2
100
AcDbLine
 10
31071.44603060839
 20
11094.96619862366
 30
0.0
 11
31071.44603060839
 21
10794.96619862366
 31
0.0
  0
LINE
  5
A8B
330
924
100
AcDbEntity
  8
寸法
  6
Continuous
370
    -2
100
AcDbLine
 10
31521.44603060839
 20
11094.96619862366
 30
0.0
 11
31521.44603060839
 21
10794.96619862366
 31
0.0
  0
LINE
  5
A8C
330
924
100
AcDbEntity
  8
寸法
  6
Continuous
370
    -2
100
AcDbLine
 10
31131.4460306084
 20
10794.96619862366
 30
0.0
 11
31461.44603060839
 21
10794.96619862366
 31
0.0
  0
MTEXT
  5
A8D
330
924
100
AcDbEntity
  8
寸法
  6
Continuous
100
AcDbMText
 10
30496.91929683324
 20
10969.02163710586
 30
0.0
 40
300.0
 41
0.0
 71
     5
 72
     1
  1
\A1;φ450
  7
1_100
 73
     1
 44
1.0
1001
ACAD
1000
MTEXTBEGIN
1070
    73
1070
     1
1070
    44
1040
1.0
1070
    74
1070
     0
1000
MTEXTEND
  0
INSERT
  5
A8E
330
924
100
AcDbEntity
  8
寸法
  6
Continuous
370
    -2
100
AcDbBlockReference
  2
_ORIGIN
 10
31071.44603060839
 20
10794.96619862366
 30
0.0
 41
60.0
 42
60.0
 43
60.0
 50
180.0
  0
INSERT
  5
A8F
330
924
100
AcDbEntity
  8
寸法
  6
Continuous
370
    -2
100
AcDbBlockReference
  2
_ORIGIN
 10
31521.44603060839
 20
10794.96619862366
 30
0.0
 41
60.0
 42
60.0
 43
60.0
  0
POINT
  5
A90
330
924
100
AcDbEntity
  8
DEFPOINTS
  6
Continuous
 62
     0
100
AcDbPoint
 10
31071.44603060839
 20
11394.96619862366
 30
0.0
  0
POINT
  5
A91
330
924
100
AcDbEntity
  8
DEFPOINTS
  6
Continuous
 62
     0
100
AcDbPoint
 10
31521.44603060839
 20
11394.96619862366
 30
0.0
  0
POINT
  5
A92
330
924
100
AcDbEntity
  8
DEFPOINTS
  6
Continuous
 62
     0
100
AcDbPoint
 10
31521.44603060839
 20
10794.96619862366
 30
0.0
  0
ENDBLK
  5
92F
330
924
100
AcDbEntity
  8
0
100
AcDbBlockEnd
  0
BLOCK
  5
93A
330
930
100
AcDbEntity
  8
0
100
AcDbBlockBegin
  2
*D32
 70
     1
 10
0.0
 20
0.0
 30
0.0
  3
*D32
  1

  0
LINE
  5
A93
330
930
100
AcDbEntity
  8
画層3-寸法
  6
Continuous
370
    -2
100
AcDbLine
 10
21296.44603060839
 20
10202.06023288031
 30
0.0
 11
21296.44603060839
 21
9194.966198622497
 31
0.0
  0
LINE
  5
A94
330
930
100
AcDbEntity
  8
画層3-寸法
  6
Continuous
370
    -2
100
AcDbLine
 10
23296.44603060839
 20
10224.96619862249
 30
0.0
 11
23296.44603060839
 21
9194.966198622497
 31
0.0
  0
LINE
  5
A95
330
930
100
AcDbEntity
  8
画層3-寸法
  6
Continuous
370
    -2
100
AcDbLine
 10
21356.4460306084
 20
9194.966198622497
 30
0.0
 11
23236.44603060839
 21
9194.966198622497
 31
0.0
  0
INSERT
  5
A96
330
930
100
AcDbEntity
  8
画層3-寸法
  6
Continuous
370
    -2
100
AcDbBlockReference
  2
_ORIGIN
 10
21296.44603060839
 20
9194.966198622497
 30
0.0
 41
60.0
 42
60.0
 43
60.0
 50
180.0
  0
INSERT
  5
A97
330
930
100
AcDbEntity
  8
画層3-寸法
  6
Continuous
370
    -2
100
AcDbBlockReference
  2
_ORIGIN
 10
23296.44603060839
 20
9194.966198622497
 30
0.0
 41
60.0
 42
60.0
 43
60.0
  0
MTEXT
  5
A98
330
930
100
AcDbEntity
  8
画層3-寸法
  6
Continuous
100
AcDbMText
 10
22296.44603060839
 20
9473.537627193925
 30
0.0
 40
300.0
 41
0.0
 71
     5
 72
     1
  1
\A1;2,000
  7
1_100
 73
     1
 44
1.0
1001
ACAD
1000
MTEXTBEGIN
1070
    73
1070
     1
1070
    44
1040
1.0
1070
    74
1070
     0
1000
MTEXTEND
  0
POINT
  5
A99
330
930
100
AcDbEntity
  8
DEFPOINTS
  6
Continuous
 62
     0
100
AcDbPoint
 10
21296.44603060839
 20
10502.06023288031
 30
0.0
  0
POINT
  5
A9A
330
930
100
AcDbEntity
  8
DEFPOINTS
  6
Continuous
 62
     0
100
AcDbPoint
 10
23296.44603060839
 20
10524.96619862249
 30
0.0
  0
POINT
  5
A9B
330
930
100
AcDbEntity
  8
DEFPOINTS
  6
Continuous
 62
     0
100
AcDbPoint
 10
23296.44603060839
 20
9194.966198622497
 30
0.0
  0
ENDBLK
  5
93B
330
930
100
AcDbEntity
  8
0
100
AcDbBlockEnd
  0
BLOCK
  5
948
330
93C
100
AcDbEntity
  8
0
100
AcDbBlockBegin
  2
*D33
 70
     1
 10
0.0
 20
0.0
 30
0.0
  3
*D33
  1

  0
LINE
  5
A9C
330
93C
100
AcDbEntity
  8
寸法
  6
Continuous
370
    -2
100
AcDbLine
 10
31188.29603060849
 20
21794.96619862378
 30
0.0
 11
31188.29603060849
 21
22094.96619862343
 31
0.0
  0
LINE
  5
A9D
330
93C
100
AcDbEntity
  8
寸法
  6
Continuous
370
    -2
100
AcDbLine
 10
31404.5960306083
 20
21794.96619862378
 30
0.0
 11
31404.5960306083
 21
22094.96619862343
 31
0.0
  0
LINE
  5
A9E
330
93C
100
AcDbEntity
  8
寸法
  6
Continuous
370
    -2
100
AcDbLine
 10
31128.29603060849
 20
22094.96619862343
 30
0.0
 11
31068.29603060849
 21
22094.96619862343
 31
0.0
  0
LINE
  5
A9F
330
93C
100
AcDbEntity
  8
寸法
  6
Continuous
370
    -2
100
AcDbLine
 10
31464.5960306083
 20
22094.96619862343
 30
0.0
 11
31524.5960306083
 21
22094.96619862343
 31
0.0
  0
MTEXT
  5
AA0
330
93C
100
AcDbEntity
  8
寸法
  6
Continuous
100
AcDbMText
 10
31296.44603060839
 20
22394.96619862343
 30
0.0
 40
300.0
 41
0.0
 71
     5
 72
     1
  1
\A1;φ216.3
  7
1_100
 73
     1
 44
1.0
1001
ACAD
1000
MTEXTBEGIN
1070
    73
1070
     1
1070
    44
1040
1.0
1070
    74
1070
     0
1000
MTEXTEND
  0
LINE
  5
AA1
330
93C
100
AcDbEntity
  8
寸法
  6
Continuous
370
    -2
100
AcDbLine
 10
31188.29603060849
 20
22094.96619862343
 30
0.0
 11
31404.5960306083
 21
22094.96619862343
 31
0.0
  0
INSERT
  5
AA2
330
93C
100
AcDbEntity
  8
寸法
  6
Continuous
370
    -2
100
AcDbBlockReference
  2
_ORIGIN
 10
31188.29603060849
 20
22094.96619862343
 30
0.0
 41
60.0
 42
60.0
 43
60.0
  0
INSERT
  5
AA3
330
93C
100
AcDbEntity
  8
寸法
  6
Continuous
370
    -2
100
AcDbBlockReference
  2
_ORIGIN
 10
31404.5960306083
 20
22094.96619862343
 30
0.0
 41
60.0
 42
60.0
 43
60.0
 50
180.0
  0
POINT
  5
AA4
330
93C
100
AcDbEntity
  8
DEFPOINTS
  6
Continuous
 62
     0
100
AcDbPoint
 10
31188.29603060849
 20
21494.96619862378
 30
0.0
  0
POINT
  5
AA5
330
93C
100
AcDbEntity
  8
DEFPOINTS
  6
Continuous
 62
     0
100
AcDbPoint
 10
31404.5960306083
 20
21494.96619862378
 30
0.0
  0
POINT
  5
AA6
330
93C
100
AcDbEntity
  8
DEFPOINTS
  6
Continuous
 62
     0
100
AcDbPoint
 10
31404.5960306083
 20
22094.96619862343
 30
0.0
  0
ENDBLK
  5
949
330
93C
100
AcDbEntity
  8
0
100
AcDbBlockEnd
  0
BLOCK
  5
956
330
94A
100
AcDbEntity
  8
0
100
AcDbBlockBegin
  2
*D34
 70
     1
 10
0.0
 20
0.0
 30
0.0
  3
*D34
  1

  0
LINE
  5
AA7
330
94A
100
AcDbEntity
  8
寸法
  6
Continuous
370
    -2
100
AcDbLine
 10
33096.44603060839
 20
21434.96619862413
 30
0.0
 11
33896.4460306084
 21
21434.96619862413
 31
0.0
  0
LINE
  5
AA8
330
94A
100
AcDbEntity
  8
寸法
  6
Continuous
370
    -2
100
AcDbLine
 10
33096.44603060839
 20
21494.96619862413
 30
0.0
 11
33896.4460306084
 21
21494.96619862413
 31
0.0
  0
LINE
  5
AA9
330
94A
100
AcDbEntity
  8
寸法
  6
Continuous
370
    -2
100
AcDbLine
 10
33896.4460306084
 20
21374.96619862413
 30
0.0
 11
33896.4460306084
 21
21314.96619862413
 31
0.0
  0
LINE
  5
AAA
330
94A
100
AcDbEntity
  8
寸法
  6
Continuous
370
    -2
100
AcDbLine
 10
33896.4460306084
 20
21554.96619862413
 30
0.0
 11
33896.4460306084
 21
21614.96619862413
 31
0.0
  0
MTEXT
  5
AAB
330
94A
100
AcDbEntity
  8
寸法
  6
Continuous
100
AcDbMText
 10
33631.02897160922
 20
21782.71483925557
 30
0.0
 40
300.0
 41
0.0
 71
     5
 72
     1
  1
\A1;60
  7
1_100
 11
0.0000000000000001
 21
1.0
 31
0.0
 73
     1
 44
1.0
1001
ACAD
1000
MTEXTBEGIN
1070
    73
1070
     1
1070
    44
1040
1.0
1070
    74
1070
     0
1000
MTEXTEND
  0
LINE
  5
AAC
330
94A
100
AcDbEntity
  8
寸法
  6
Continuous
370
    -2
100
AcDbLine
 10
33896.4460306084
 20
21434.96619862413
 30
0.0
 11
33896.4460306084
 21
21494.96619862413
 31
0.0
  0
INSERT
  5
AAD
330
94A
100
AcDbEntity
  8
寸法
  6
Continuous
370
    -2
100
AcDbBlockReference
  2
_ORIGIN
 10
33896.4460306084
 20
21434.96619862413
 30
0.0
 41
60.0
 42
60.0
 43
60.0
 50
90.0
  0
INSERT
  5
AAE
330
94A
100
AcDbEntity
  8
寸法
  6
Continuous
370
    -2
100
AcDbBlockReference
  2
_ORIGIN
 10
33896.4460306084
 20
21494.96619862413
 30
0.0
 41
60.0
 42
60.0
 43
60.0
 50
270.0
  0
POINT
  5
AAF
330
94A
100
AcDbEntity
  8
DEFPOINTS
  6
Continuous
 62
     0
100
AcDbPoint
 10
32796.44603060839
 20
21434.96619862413
 30
0.0
  0
POINT
  5
AB0
330
94A
100
AcDbEntity
  8
DEFPOINTS
  6
Continuous
 62
     0
100
AcDbPoint
 10
32796.44603060839
 20
21494.96619862413
 30
0.0
  0
POINT
  5
AB1
330
94A
100
AcDbEntity
  8
DEFPOINTS
  6
Continuous
 62
     0
100
AcDbPoint
 10
33896.4460306084
 20
21494.96619862413
 30
0.0
  0
ENDBLK
  5
957
330
94A
100
AcDbEntity
  8
0
100
AcDbBlockEnd
  0
BLOCK
  5
962
330
958
100
AcDbEntity
  8
0
100
AcDbBlockBegin
  2
*D35
 70
     1
 10
0.0
 20
0.0
 30
0.0
  3
*D35
  1

  0
LINE
  5
AB2
330
958
100
AcDbEntity
  8
寸法
  6
Continuous
370
    -2
100
AcDbLine
 10
33136.44603060839
 20
18464.96619862343
 30
0.0
 11
33896.4460306084
 21
18464.96619862343
 31
0.0
  0
LINE
  5
AB3
330
958
100
AcDbEntity
  8
寸法
  6
Continuous
370
    -2
100
AcDbLine
 10
33096.44603060839
 20
21434.96619862413
 30
0.0
 11
33896.4460306084
 21
21434.96619862413
 31
0.0
  0
LINE
  5
AB4
330
958
100
AcDbEntity
  8
寸法
  6
Continuous
370
    -2
100
AcDbLine
 10
33896.4460306084
 20
18524.96619862343
 30
0.0
 11
33896.4460306084
 21
21374.96619862413
 31
0.0
  0
INSERT
  5
AB5
330
958
100
AcDbEntity
  8
寸法
  6
Continuous
370
    -2
100
AcDbBlockReference
  2
_ORIGIN
 10
33896.4460306084
 20
18464.96619862343
 30
0.0
 41
60.0
 42
60.0
 43
60.0
 50
270.0
  0
INSERT
  5
AB6
330
958
100
AcDbEntity
  8
寸法
  6
Continuous
370
    -2
100
AcDbBlockReference
  2
_ORIGIN
 10
33896.4460306084
 20
21434.96619862413
 30
0.0
 41
60.0
 42
60.0
 43
60.0
 50
90.0
  0
MTEXT
  5
AB7
330
958
100
AcDbEntity
  8
寸法
  6
Continuous
100
AcDbMText
 10
33617.87460203697
 20
19949.96619862378
 30
0.0
 40
300.0
 41
0.0
 71
     5
 72
     1
  1
\A1;2,970
  7
1_100
 11
0.0000000000000001
 21
1.0
 31
0.0
 73
     1
 44
1.0
1001
ACAD
1000
MTEXTBEGIN
1070
    73
1070
     1
1070
    44
1040
1.0
1070
    74
1070
     0
1000
MTEXTEND
  0
POINT
  5
AB8
330
958
100
AcDbEntity
  8
DEFPOINTS
  6
Continuous
 62
     0
100
AcDbPoint
 10
32836.44603060839
 20
18464.96619862343
 30
0.0
  0
POINT
  5
AB9
330
958
100
AcDbEntity
  8
DEFPOINTS
  6
Continuous
 62
     0
100
AcDbPoint
 10
32796.44603060839
 20
21434.96619862413
 30
0.0
  0
POINT
  5
ABA
330
958
100
AcDbEntity
  8
DEFPOINTS
  6
Continuous
 62
     0
100
AcDbPoint
 10
33896.4460306084
 20
21434.96619862413
 30
0.0
  0
ENDBLK
  5
963
330
958
100
AcDbEntity
  8
0
100
AcDbBlockEnd
  0
BLOCK
  5
970
330
964
100
AcDbEntity
  8
0
100
AcDbBlockBegin
  2
*D36
 70
     1
 10
0.0
 20
0.0
 30
0.0
  3
*D36
  1

  0
LINE
  5
ABB
330
964
100
AcDbEntity
  8
寸法
  6
Continuous
370
    -2
100
AcDbLine
 10
26996.44603060839
 20
21434.96619862273
 30
0.0
 11
27696.44603060839
 21
21434.96619862273
 31
0.0
  0
LINE
  5
ABC
330
964
100
AcDbEntity
  8
寸法
  6
Continuous
370
    -2
100
AcDbLine
 10
26996.44603060839
 20
21494.96619862274
 30
0.0
 11
27696.44603060839
 21
21494.96619862274
 31
0.0
  0
LINE
  5
ABD
330
964
100
AcDbEntity
  8
寸法
  6
Continuous
370
    -2
100
AcDbLine
 10
27696.44603060839
 20
21374.96619862274
 30
0.0
 11
27696.44603060839
 21
21314.96619862273
 31
0.0
  0
LINE
  5
ABE
330
964
100
AcDbEntity
  8
寸法
  6
Continuous
370
    -2
100
AcDbLine
 10
27696.44603060839
 20
21554.96619862273
 30
0.0
 11
27696.44603060839
 21
21614.96619862274
 31
0.0
  0
MTEXT
  5
ABF
330
964
100
AcDbEntity
  8
寸法
  6
Continuous
100
AcDbMText
 10
27431.49733742049
 20
21764.58006372119
 30
0.0
 40
300.0
 41
0.0
 71
     5
 72
     1
  1
\A1;60
  7
1_100
 11
0.0000000000000001
 21
1.0
 31
0.0
 73
     1
 44
1.0
1001
ACAD
1000
MTEXTBEGIN
1070
    73
1070
     1
1070
    44
1040
1.0
1070
    74
1070
     0
1000
MTEXTEND
  0
LINE
  5
AC0
330
964
100
AcDbEntity
  8
寸法
  6
Continuous
370
    -2
100
AcDbLine
 10
27696.44603060839
 20
21434.96619862273
 30
0.0
 11
27696.44603060839
 21
21494.96619862274
 31
0.0
  0
INSERT
  5
AC1
330
964
100
AcDbEntity
  8
寸法
  6
Continuous
370
    -2
100
AcDbBlockReference
  2
_ORIGIN
 10
27696.44603060839
 20
21434.96619862273
 30
0.0
 41
60.0
 42
60.0
 43
60.0
 50
90.0
  0
INSERT
  5
AC2
330
964
100
AcDbEntity
  8
寸法
  6
Continuous
370
    -2
100
AcDbBlockReference
  2
_ORIGIN
 10
27696.44603060839
 20
21494.96619862274
 30
0.0
 41
60.0
 42
60.0
 43
60.0
 50
270.0
  0
POINT
  5
AC3
330
964
100
AcDbEntity
  8
DEFPOINTS
  6
Continuous
 62
     0
100
AcDbPoint
 10
26696.44603060839
 20
21434.96619862273
 30
0.0
  0
POINT
  5
AC4
330
964
100
AcDbEntity
  8
DEFPOINTS
  6
Continuous
 62
     0
100
AcDbPoint
 10
26696.44603060839
 20
21494.96619862274
 30
0.0
  0
POINT
  5
AC5
330
964
100
AcDbEntity
  8
DEFPOINTS
  6
Continuous
 62
     0
100
AcDbPoint
 10
27696.44603060839
 20
21494.96619862274
 30
0.0
  0
ENDBLK
  5
971
330
964
100
AcDbEntity
  8
0
100
AcDbBlockEnd
  0
BLOCK
  5
97C
330
972
100
AcDbEntity
  8
0
100
AcDbBlockBegin
  2
*D37
 70
     1
 10
0.0
 20
0.0
 30
0.0
  3
*D37
  1

  0
LINE
  5
AC6
330
972
100
AcDbEntity
  8
寸法
  6
Continuous
370
    -2
100
AcDbLine
 10
26996.44603060839
 20
18464.96619862354
 30
0.0
 11
27696.44603060839
 21
18464.96619862354
 31
0.0
  0
LINE
  5
AC7
330
972
100
AcDbEntity
  8
寸法
  6
Continuous
370
    -2
100
AcDbLine
 10
26996.44603060839
 20
21434.96619862355
 30
0.0
 11
27696.44603060839
 21
21434.96619862355
 31
0.0
  0
LINE
  5
AC8
330
972
100
AcDbEntity
  8
寸法
  6
Continuous
370
    -2
100
AcDbLine
 10
27696.44603060839
 20
18524.96619862354
 30
0.0
 11
27696.44603060839
 21
21374.96619862354
 31
0.0
  0
INSERT
  5
AC9
330
972
100
AcDbEntity
  8
寸法
  6
Continuous
370
    -2
100
AcDbBlockReference
  2
_ORIGIN
 10
27696.44603060839
 20
18464.96619862354
 30
0.0
 41
60.0
 42
60.0
 43
60.0
 50
270.0
  0
INSERT
  5
ACA
330
972
100
AcDbEntity
  8
寸法
  6
Continuous
370
    -2
100
AcDbBlockReference
  2
_ORIGIN
 10
27696.44603060839
 20
21434.96619862355
 30
0.0
 41
60.0
 42
60.0
 43
60.0
 50
90.0
  0
MTEXT
  5
ACB
330
972
100
AcDbEntity
  8
寸法
  6
Continuous
100
AcDbMText
 10
27417.87460203696
 20
19949.96619862355
 30
0.0
 40
300.0
 41
0.0
 71
     5
 72
     1
  1
\A1;2,970
  7
1_100
 11
0.0000000000000001
 21
1.0
 31
0.0
 73
     1
 44
1.0
1001
ACAD
1000
MTEXTBEGIN
1070
    73
1070
     1
1070
    44
1040
1.0
1070
    74
1070
     0
1000
MTEXTEND
  0
POINT
  5
ACC
330
972
100
AcDbEntity
  8
DEFPOINTS
  6
Continuous
 62
     0
100
AcDbPoint
 10
26696.44603060839
 20
18464.96619862354
 30
0.0
  0
POINT
  5
ACD
330
972
100
AcDbEntity
  8
DEFPOINTS
  6
Continuous
 62
     0
100
AcDbPoint
 10
26696.44603060839
 20
21434.96619862355
 30
0.0
  0
POINT
  5
ACE
330
972
100
AcDbEntity
  8
DEFPOINTS
  6
Continuous
 62
     0
100
AcDbPoint
 10
27696.44603060839
 20
21434.96619862355
 30
0.0
  0
ENDBLK
  5
97D
330
972
100
AcDbEntity
  8
0
100
AcDbBlockEnd
  0
ENDSEC
  0
SECTION
  2
ENTITIES
  0
MTEXT
  5
520
102
{ACAD_REACTORS
330
521
102
}
330
1F
100
AcDbEntity
  8
寸法文字
  6
Continuous
100
AcDbMText
 10
17152.62482772583
 20
22249.27083853226
 30
0.0
 40
300.0
 41
0.0
 71
     7
 72
     1
  1
メッセンワイヤー38m㎡
  7
1_100
 73
     1
 44
1.0
1001
ACAD
1000
MTEXTBEGIN
1070
    73
1070
     1
1070
    44
1040
1.0
1070
    74
1070
     0
1000
MTEXTEND
  0
LEADER
  5
521
330
1F
100
AcDbEntity
  8
寸法引出
  6
Continuous
100
AcDbLeader
  3
1_100
 71
     0
 73
     0
 74
     0
 75
     1
 40
346.6666666666666
 41
3117.142857142857
 76
     3
 10
16551.01710172139
 20
21442.11619862287
 30
0.0
 10
16992.62482772583
 20
22149.27083853226
 30
0.0
 10
17052.62482772583
 20
22149.27083853226
 30
0.0
340
520
  0
LEADER
  5
522
330
1F
100
AcDbEntity
  8
寸法引出
  6
Continuous
100
AcDbLeader
  3
1_100
 71
     0
 73
     0
 74
     0
 75
     1
 40
346.6666666666666
 41
3687.142857142858
 76
     3
 10
15237.94644499851
 20
17897.14092394081
 30
0.0
 10
16375.16851405149
 20
18861.14350002586
 30
0.0
 10
16435.16851405149
 20
18861.14350002586
 30
0.0
340
523
  0
MTEXT
  5
523
102
{ACAD_REACTORS
330
522
102
}
330
1F
100
AcDbEntity
  8
寸法文字
  6
Continuous
100
AcDbMText
 10
16535.16851405149
 20
18961.14350002586
 30
0.0
 40
300.0
 41
0.0
 71
     7
 72
     1
  1
筋違メッセンワイヤー38m㎡
  7
1_100
 73
     1
 44
1.0
1001
ACAD
1000
MTEXTBEGIN
1070
    73
1070
     1
1070
    44
1040
1.0
1070
    74
1070
     0
1000
MTEXTEND
  0
HATCH
  5
524
330
1F
100
AcDbEntity
  8
画層3-3
 62
   230
370
    13
100
AcDbHatch
 10
0.0
 20
0.0
 30
0.0
210
0.0
220
0.0
230
1.0
  2
NET
 70
     0
 71
     0
 91
        6
 92
        7
 72
     0
 73
     1
 93
        8
 10
19391.79603060848
 20
15431.86619862287
 10
19347.24603060867
 20
15431.86619862287
 10
19332.24603060867
 20
15416.86619862287
 10
19321.84603060876
 20
15416.86619862287
 10
19321.84603060876
 20
14849.96619862296
 10
19376.79603060895
 20
14849.96619862296
 10
19376.79603060895
 20
14834.96619862296
 10
19391.79603060848
 20
14834.96619862296
 97
        0
 92
        7
 72
     0
 73
     1
 93
        8
 10
19391.79603060848
 20
14834.96619862296
 10
19376.79603060895
 20
14834.96619862296
 10
19376.79603060895
 20
14819.96619862296
 10
19321.84603060876
 20
14819.96619862296
 10
19321.84603060876
 20
14189.96619862296
 10
19376.79603060895
 20
14189.96619862296
 10
19376.79603060895
 20
14174.96619862284
 10
19391.79603060848
 20
14174.96619862284
 97
        0
 92
        7
 72
     0
 73
     1
 93
        6
 10
19391.79603060848
 20
14174.96619862284
 10
19376.79603060895
 20
14174.96619862284
 10
19376.79603060895
 20
14159.96619862296
 10
19321.84603060876
 20
14159.96619862296
 10
19321.84603060876
 20
13594.96619862296
 10
19391.79603060848
 20
13594.96619862296
 97
        0
 92
        7
 72
     0
 73
     1
 93
        6
 10
19391.79603060848
 20
14174.96619862284
 10
19391.79603060848
 20
13553.06619862294
 10
21271.04603060849
 20
13553.06619862294
 10
21271.04603060849
 20
14159.96619862284
 10
21216.09603060877
 20
14159.96619862296
 10
21216.09603060877
 20
14174.96619862296
 97
        0
 92
        7
 72
     0
 73
     1
 93
        8
 10
19391.79603060848
 20
14834.96619862296
 10
19391.79603060848
 20
14174.96619862284
 10
21216.09603060877
 20
14174.96619862296
 10
21216.09603060877
 20
14189.96619862296
 10
21271.04603060849
 20
14189.96619862296
 10
21271.04603060849
 20
14819.96619862296
 10
21216.09603060877
 20
14819.96619862296
 10
21216.09603060877
 20
14834.96619862296
 97
        0
 92
        7
 72
     0
 73
     1
 93
        8
 10
21216.09603060877
 20
14834.96619862296
 10
21216.09603060877
 20
14849.96619862296
 10
21271.04603060849
 20
14849.96619862284
 10
21271.04603060849
 20
15416.86619862287
 10
21260.64603060858
 20
15416.86619862287
 10
21245.64603060858
 20
15431.86619862287
 10
19391.79603060848
 20
15431.86619862287
 10
19391.79603060848
 20
14834.96619862296
 97
        0
 75
     0
 76
     1
 52
45.0
 41
1200.0
 77
     0
 78
     2
 53
45.0
 43
763.1126972758342
 44
1211.632865289706
 45
-106.0660171779821
 46
106.0660171779821
 79
     0
 53
135.0
 43
763.1126972758342
 44
1211.632865289706
 45
-106.0660171779821
 46
-106.0660171779821
 79
     0
 47
10.47656177152982
 98
        6
 10
19359.76125188499
 20
15073.72955138517
 10
19359.76125188499
 20
14574.63406507276
 10
19359.76125188499
 20
13980.77358587507
 10
20055.24661060471
 20
13911.27928297386
 10
20029.95623260785
 20
14524.09272712901
 10
20080.53698860157
 20
15124.27084730427
  0
LINE
  5
525
330
1F
100
AcDbEntity
  8
画層3-1
  6
Continuous
100
AcDbLine
 10
19321.8460306083
 20
13514.96619862296
 30
0.0
 11
21271.04603060849
 21
13514.96619862296
 31
0.0
  0
LINE
  5
526
330
1F
100
AcDbEntity
  8
画層3-1
  6
Continuous
100
AcDbLine
 10
19321.8460306083
 20
13553.06619862294
 30
0.0
 11
21271.04603060849
 21
13553.06619862294
 31
0.0
  0
DIMENSION
  5
527
330
1F
100
AcDbEntity
  8
画層3-寸法
  6
Continuous
100
AcDbDimension
  2
*D3
 10
21296.44603060839
 20
9194.966198622497
 30
0.0
 11
20296.44603060839
 21
9473.537627193925
 31
0.0
 70
    32
 71
     5
 42
2000.0
  3
1_100
100
AcDbAlignedDimension
 13
19296.44603060839
 23
10502.06023288031
 33
0.0
 14
21296.44603060839
 24
10524.96619862249
 34
0.0
100
AcDbRotatedDimension
  0
LINE
  5
528
330
1F
100
AcDbEntity
  8
画層3-1
  6
Continuous
100
AcDbLine
 10
19336.8460306083
 20
15431.86619862287
 30
0.0
 11
21256.04603060849
 21
15431.86619862287
 31
0.0
  0
LINE
  5
529
330
1F
100
AcDbEntity
  8
画層3-2
  6
Continuous
100
AcDbLine
 10
19376.79603060848
 20
14834.96619862296
 30
0.0
 11
21216.09603060877
 21
14834.96619862296
 31
0.0
  0
LINE
  5
52A
330
1F
100
AcDbEntity
  8
画層3-2
  6
Continuous
100
AcDbLine
 10
21216.09603060877
 20
14174.96619862296
 30
0.0
 11
19376.79603060848
 21
14174.96619862284
 31
0.0
  0
LINE
  5
52B
330
1F
100
AcDbEntity
  8
ﾊｯﾁﾝｸﾞ
  6
Continuous
100
AcDbLine
 10
19748.21934777639
 20
13482.4918965886
 30
0.0
 11
19855.74504574203
 21
13374.96619862273
 31
0.0
  0
LINE
  5
52C
330
1F
100
AcDbEntity
  8
ﾊｯﾁﾝｸﾞ
  6
Continuous
100
AcDbLine
 10
19919.08556879686
 20
13494.96619862273
 30
0.0
 11
19827.41530726898
 21
13403.29593709578
 31
0.0
  0
LINE
  5
52D
330
1F
100
AcDbEntity
  8
画層1-1
  6
Continuous
100
AcDbLine
 10
9296.446030608393
 20
18464.96619862296
 30
0.0
 11
26196.4460306084
 21
18464.96619862273
 31
0.0
  0
LINE
  5
52E
102
{ACAD_REACTORS
330
6D4
102
}
330
1F
100
AcDbEntity
  8
画層1
  6
Continuous
100
AcDbLine
 10
26196.4460306084
 20
21434.96619862284
 30
0.0
 11
9296.446030608393
 21
21434.96619862296
 31
0.0
  0
LINE
  5
52F
330
1F
100
AcDbEntity
  8
画層3-1
  6
Continuous
100
AcDbLine
 10
9296.446030608393
 20
15469.96619862296
 30
0.0
 11
26196.4460306084
 21
15469.96619862284
 31
0.0
  0
LINE
  5
530
330
1F
100
AcDbEntity
  8
画層2
  6
Continuous
100
AcDbLine
 10
26196.4460306084
 20
13494.96619862273
 30
0.0
 11
5257.844860775409
 21
13494.96619862273
 31
0.0
  0
LINE
  5
531
102
{ACAD_REACTORS
330
6D4
102
}
330
1F
100
AcDbEntity
  8
画層1
  6
Continuous
100
AcDbLine
 10
26196.4460306084
 20
15494.96619862284
 30
0.0
 11
9296.446030608393
 21
15494.96619862296
 31
0.0
  0
LINE
  5
532
330
1F
100
AcDbEntity
  8
画層1-1
  6
Continuous
100
AcDbLine
 10
19429.5960306083
 20
21384.96619862296
 30
0.0
 11
26196.4460306084
 21
17305.48932960072
 31
0.0
  0
LINE
  5
533
330
1F
100
AcDbEntity
  8
画層1-1
  6
Continuous
100
AcDbLine
 10
26196.4460306084
 20
19624.44678775013
 30
0.0
 11
19429.57603060828
 21
15494.96619862296
 31
0.0
  0
LEADER
  5
534
330
1F
100
AcDbEntity
  8
寸法引出
  6
Continuous
100
AcDbLeader
  3
1_100
 71
     0
 73
     0
 75
     1
 40
300.0
 41
1319.999999999999
 76
     3
 10
19163.76475965186
 20
18439.96619862296
 30
0.0
 10
18835.51723300341
 20
17586.88489695756
 30
0.0
 10
18775.51723300341
 20
17586.88489695756
 30
0.0
340
535
  0
MTEXT
  5
535
102
{ACAD_REACTORS
330
534
102
}
330
1F
100
AcDbEntity
  8
寸法文字
  6
Continuous
100
AcDbMText
 10
18675.51723300341
 20
17686.88489695756
 30
0.0
 40
300.0
 41
0.0
 71
     9
 72
     1
  1
バンド金具
  7
1_100
 73
     1
 44
1.0
1001
ACAD
1000
MTEXTBEGIN
1070
    73
1070
     1
1070
    44
1040
1.0
1070
    74
1070
     0
1000
MTEXTEND
  0
LINE
  5
536
330
1F
100
AcDbEntity
  8
画層1-1
  6
Continuous
100
AcDbLine
 10
19163.29603060848
 20
21384.96619862296
 30
0.0
 11
17790.91345410648
 21
20554.51973256511
 31
0.0
  0
LINE
  5
537
330
1F
100
AcDbEntity
  8
通り芯
  6
DASHDOT
 48
100.0
100
AcDbLine
 10
9296.446030608393
 20
11082.88519929793
 30
0.0
 11
9296.446030608393
 21
21555.4288583256
 31
0.0
  0
LINE
  5
538
330
1F
100
AcDbEntity
  8
画層1
  6
Continuous
100
AcDbLine
 10
9188.296030608483
 20
21494.96619862296
 30
0.0
 11
9188.296030608483
 21
11494.96619862296
 31
0.0
  0
LINE
  5
539
330
1F
100
AcDbEntity
  8
画層1
  6
Continuous
100
AcDbLine
 10
9404.596030608296
 20
11494.96619862296
 30
0.0
 11
9404.596030608296
 21
21494.96619862296
 31
0.0
  0
LINE
  5
53A
330
1F
100
AcDbEntity
  8
画層1
  6
Continuous
100
AcDbLine
 10
9296.446030608393
 20
21459.96619862296
 30
0.0
 11
9296.446030608393
 21
15469.96619862296
 31
0.0
  0
LINE
  5
53B
330
1F
100
AcDbEntity
  8
画層1
  6
Continuous
100
AcDbLine
 10
19404.5960306083
 20
11494.96619862296
 30
0.0
 11
19404.5960306083
 21
18805.90540478776
 31
0.0
  0
LINE
  5
53C
330
1F
100
AcDbEntity
  8
通り芯
  6
DASHDOT
 48
100.0
100
AcDbLine
 10
19296.44603060839
 20
11252.49872682943
 30
0.0
 11
19296.44603060839
 21
18805.90540478776
 31
0.0
  0
LINE
  5
53D
330
1F
100
AcDbEntity
  8
画層1
  6
Continuous
100
AcDbLine
 10
19188.29603060848
 20
18805.90540478776
 30
0.0
 11
19188.29603060848
 21
11494.96619862296
 31
0.0
  0
LINE
  5
53F
330
1F
100
AcDbEntity
  8
DEFPOINTS
100
AcDbLine
 10
11074.63289237396
 20
21492.11619862287
 30
0.0
 11
12358.66993369955
 21
15431.86619862287
 31
0.0
  0
HATCH
  5
540
330
1F
100
AcDbEntity
  8
ﾈｯﾄ
 62
   230
370
    13
100
AcDbHatch
 10
0.0
 20
0.0
 30
0.0
210
0.0
220
0.0
230
1.0
  2
NET
 70
     0
 71
     0
 91
        2
 92
        7
 72
     0
 73
     1
 93
       19
 10
11109.44453972998
 20
21327.81619862282
 10
9504.596030608295
 20
21327.81619862282
 10
9504.596030608295
 20
21434.96619862296
 10
9454.596030608298
 20
21434.96619862296
 10
9454.596030608298
 20
21409.96619862296
 10
9454.596030608298
 20
21359.96619862296
 10
9404.596030608296
 20
21359.96619862296
 10
9404.596030608296
 20
18489.96619862296
 10
9454.596030608298
 20
18489.96619862296
 10
9454.596030608298
 20
18439.96619862296
 10
9404.596030608296
 20
18439.96619862296
 10
9404.596030608296
 20
15519.96619862296
 10
9454.576030608279
 20
15519.96619862284
 10
9454.576030608279
 20
15494.96619862296
 10
9517.246030608204
 20
15494.96619862296
 10
9517.246030608204
 20
15514.74247796148
 10
9671.796030608485
 20
15514.7424779616
 10
9671.796030608485
 20
15494.96619862296
 10
12345.30039658352
 20
15494.96619862296
 97
        0
 92
       23
 72
     0
 73
     1
 93
        8
 10
11086.74175205968
 20
21434.96619862296
 10
9684.596030608298
 20
21434.96619862296
 10
9684.596030608298
 20
21414.74247796148
 10
9530.046030608485
 20
21414.7424779616
 10
9530.046030608485
 20
21434.96619862296
 10
9504.596030608295
 20
21434.96619862296
 10
9504.596030608295
 20
21327.81619862282
 10
11109.44453972998
 20
21327.81619862282
 97
        0
 75
     0
 76
     1
 52
0.0
 41
1000.0
 77
     0
 78
     2
 53
0.0
 43
-359183.3211074761
 44
-240324.8431488385
 45
0.0
 46
125.0
 79
     0
 53
90.0
 43
-359183.3211074761
 44
-240324.8431488385
 45
-125.0
 46
0.0000000000000077
 79
     0
 47
7.903763738028067
 98
        2
 10
10200.43563014223
 20
17056.82959883463
 10
10204.24833188067
 20
21364.67187696615
  0
TEXT
  5
541
330
1F
100
AcDbEntity
  8
図面枠
  6
Continuous
 62
     3
100
AcDbText
 10
1104.147800759222
 20
670.1897760464048
 30
0.0
 40
300.0
  1
1/100
 41
0.75
  7
1_100
 11
1104.147800759222
 21
670.1897760464048
 31
0.0
100
AcDbText
 73
     1
  0
TEXT
  5
542
330
1F
100
AcDbEntity
  8
図面枠
  6
Continuous
 62
     3
100
AcDbText
 10
2826.520299858689
 20
670.4090235378532
 30
0.0
 40
300.0
  1
KS2-H08
 41
0.75
  7
1_100
 11
2826.520299858689
 21
670.4090235378532
 31
0.0
100
AcDbText
 73
     1
  0
LEADER
  5
543
330
1F
100
AcDbEntity
  8
寸法引出
  6
Continuous
100
AcDbLeader
  3
1_100
 71
     0
 73
     0
 75
     1
 40
346.6666666666666
 41
3117.142857142858
 76
     3
 10
9296.446030608393
 20
17036.21412051354
 30
0.0
 10
8146.337811684714
 20
17818.32251948341
 30
0.0
 10
8086.337811684714
 20
17818.32251948341
 30
0.0
340
544
  0
MTEXT
  5
544
102
{ACAD_REACTORS
330
543
102
}
330
1F
100
AcDbEntity
  8
寸法文字
  6
Continuous
100
AcDbMText
 10
7986.337811684714
 20
17918.32251948341
 30
0.0
 40
300.0
 41
0.0
 71
     9
 72
     1
  1
メッセンワイヤー22m㎡
  7
1_100
 73
     1
 44
1.0
1001
ACAD
1000
MTEXTBEGIN
1070
    73
1070
     1
1070
    44
1040
1.0
1070
    74
1070
     0
1000
MTEXTEND
  0
LINE
  5
545
330
1F
100
AcDbEntity
  8
画層3-1
  6
Continuous
100
AcDbLine
 10
19271.04603060849
 20
14159.96619862296
 30
0.0
 11
19271.04603060849
 21
13553.06619862282
 31
0.0
  0
LINE
  5
546
330
1F
100
AcDbEntity
  8
画層3-2
  6
Continuous
100
AcDbLine
 10
19361.79603060848
 20
14159.96619862296
 30
0.0
 11
19361.79603060848
 21
13494.96619862296
 31
0.0
  0
LINE
  5
547
330
1F
100
AcDbEntity
  8
画層3-2
  6
Continuous
100
AcDbLine
 10
19231.09603060876
 20
13494.96619862296
 30
0.0
 11
19231.09603060876
 21
14159.96619862296
 31
0.0
  0
LINE
  5
548
330
1F
100
AcDbEntity
  8
画層3-1
  6
Continuous
100
AcDbLine
 10
19321.8460306083
 20
14159.96619862296
 30
0.0
 11
19321.8460306083
 21
13553.06619862294
 31
0.0
  0
LINE
  5
549
330
1F
100
AcDbEntity
  8
画層3-1
  6
Continuous
100
AcDbLine
 10
17271.04603060849
 20
13706.7327838659
 30
0.0
 11
17271.04603060849
 21
13553.06619862282
 31
0.0
  0
LINE
  5
54A
330
1F
100
AcDbEntity
  8
画層3-1
  6
Continuous
100
AcDbLine
 10
17321.8460306083
 20
13706.7327838659
 30
0.0
 11
17321.8460306083
 21
13553.06619862282
 31
0.0
  0
LINE
  5
54B
330
1F
100
AcDbEntity
  8
画層3-通り芯
  6
DASHDOT
 48
100.0
100
AcDbLine
 10
17296.44603060839
 20
12948.59664349096
 30
0.0
 11
17296.44603060839
 21
13706.7327838659
 31
0.0
  0
LINE
  5
54C
330
1F
100
AcDbEntity
  8
画層3-2
  6
Continuous
100
AcDbLine
 10
17231.09603060876
 20
13494.96619862273
 30
0.0
 11
17231.09603060876
 21
13706.7327838659
 31
0.0
  0
LINE
  5
54D
330
1F
100
AcDbEntity
  8
画層3-2
  6
Continuous
100
AcDbLine
 10
17361.79603060848
 20
13706.7327838659
 30
0.0
 11
17361.79603060848
 21
13494.96619862273
 31
0.0
  0
LINE
  5
54E
330
1F
100
AcDbEntity
  8
画層3-通り芯
  6
DASHDOT
 48
100.0
100
AcDbLine
 10
15296.44603060839
 20
12948.59664349096
 30
0.0
 11
15296.44603060839
 21
15494.96619862296
 31
0.0
  0
LINE
  5
54F
330
1F
100
AcDbEntity
  8
画層3-1
  6
Continuous
100
AcDbLine
 10
15321.8460306083
 20
14159.96619862273
 30
0.0
 11
15321.8460306083
 21
13553.06619862282
 31
0.0
  0
LINE
  5
550
330
1F
100
AcDbEntity
  8
画層3-2
  6
Continuous
100
AcDbLine
 10
15231.09603060876
 20
13494.96619862273
 30
0.0
 11
15231.09603060876
 21
14159.96619862273
 31
0.0
  0
LINE
  5
551
330
1F
100
AcDbEntity
  8
画層3-2
  6
Continuous
100
AcDbLine
 10
15361.79603060848
 20
14159.96619862273
 30
0.0
 11
15361.79603060848
 21
13494.96619862273
 31
0.0
  0
LINE
  5
552
330
1F
100
AcDbEntity
  8
画層3-1
  6
Continuous
100
AcDbLine
 10
15271.04603060848
 20
14159.96619862273
 30
0.0
 11
15271.04603060848
 21
13553.06619862282
 31
0.0
  0
LINE
  5
553
330
1F
100
AcDbEntity
  8
画層3-1
  6
Continuous
100
AcDbLine
 10
17321.8460306083
 20
13553.06619862294
 30
0.0
 11
19271.04603060849
 21
13553.06619862282
 31
0.0
  0
LINE
  5
554
330
1F
100
AcDbEntity
  8
画層3-1
  6
Continuous
100
AcDbLine
 10
17321.8460306083
 20
13514.96619862296
 30
0.0
 11
19271.04603060849
 21
13514.96619862296
 31
0.0
  0
DIMENSION
  5
555
330
1F
100
AcDbEntity
  8
画層3-寸法
  6
Continuous
100
AcDbDimension
  2
*D4
 10
19296.44603060839
 20
9194.966198622497
 30
0.0
 11
18296.44603060839
 21
9473.537627193925
 31
0.0
 70
    32
 71
     5
 42
2000.0
  3
1_100
100
AcDbAlignedDimension
 13
17296.44603060839
 23
10502.06023288031
 33
0.0
 14
19296.44603060839
 24
10502.06023288031
 34
0.0
100
AcDbRotatedDimension
  0
LINE
  5
556
330
1F
100
AcDbEntity
  8
画層3-1
  6
Continuous
100
AcDbLine
 10
17231.09603060876
 20
13573.06619862282
 30
0.0
 11
17361.79603060848
 21
13573.06619862282
 31
0.0
  0
HATCH
  5
557
330
1F
100
AcDbEntity
  8
画層3-3
100
AcDbHatch
 10
0.0
 20
0.0
 30
0.0
210
0.0
220
0.0
230
1.0
  2
PLAST
 70
     0
 71
     0
 91
        1
 92
        7
 72
     0
 73
     1
 93
        4
 10
17421.44603060839
 20
13494.96619862273
 10
17171.44603060839
 20
13494.96619862273
 10
17171.44603060839
 20
13044.96619862273
 10
17421.44603060839
 20
13044.96619862273
 97
        0
 75
     0
 76
     1
 52
45.0
 41
1800.0
 77
     0
 78
     3
 53
45.0
 43
11154.1033748421
 44
7053.299182111645
 45
-318.1980515339463
 46
318.1980515339464
 79
     0
 53
45.0
 43
11114.32861840074
 44
7093.073938553352
 45
-318.1980515339463
 46
318.1980515339464
 79
     0
 53
45.0
 43
11074.55386195892
 44
7132.84869499506
 45
-318.1980515339463
 46
318.1980515339464
 79
     0
 47
2.4753793195157
 98
        1
 10
17410.33922837164
 20
13254.1736466305
  0
LWPOLYLINE
  5
558
330
1F
100
AcDbEntity
  8
画層3-2
100
AcDbPolyline
 90
        4
 70
     0
 43
0.0
 10
17421.44603060839
 20
13494.96619862273
 10
17421.44603060839
 20
13044.96619862273
 10
17171.44603060839
 20
13044.96619862273
 10
17171.44603060839
 20
13494.96619862273
  0
LINE
  5
559
330
1F
100
AcDbEntity
  8
画層3-1
  6
Continuous
100
AcDbLine
 10
15231.09603060876
 20
13573.06619862282
 30
0.0
 11
15361.79603060848
 21
13573.06619862282
 31
0.0
  0
HATCH
  5
55A
330
1F
100
AcDbEntity
  8
画層3-3
100
AcDbHatch
 10
0.0
 20
0.0
 30
0.0
210
0.0
220
0.0
230
1.0
  2
PLAST
 70
     0
 71
     0
 91
        1
 92
        7
 72
     0
 73
     1
 93
        4
 10
15421.44603060839
 20
13494.96619862273
 10
15171.44603060839
 20
13494.96619862273
 10
15171.44603060839
 20
13044.96619862273
 10
15421.44603060839
 20
13044.96619862273
 97
        0
 75
     0
 76
     1
 52
45.0
 41
1800.0
 77
     0
 78
     3
 53
45.0
 43
9154.103374842099
 44
7053.299182111645
 45
-318.1980515339463
 46
318.1980515339464
 79
     0
 53
45.0
 43
9114.328618400744
 44
7093.073938553352
 45
-318.1980515339463
 46
318.1980515339464
 79
     0
 53
45.0
 43
9074.553861958918
 44
7132.84869499506
 45
-318.1980515339463
 46
318.1980515339464
 79
     0
 47
2.4753793195157
 98
        1
 10
15410.33922837163
 20
13254.1736466305
  0
LWPOLYLINE
  5
55B
330
1F
100
AcDbEntity
  8
画層3-2
100
AcDbPolyline
 90
        4
 70
     0
 43
0.0
 10
15421.44603060839
 20
13494.96619862273
 10
15421.44603060839
 20
13044.96619862273
 10
15171.44603060839
 20
13044.96619862273
 10
15171.44603060839
 20
13494.96619862273
  0
LINE
  5
55C
330
1F
100
AcDbEntity
  8
画層3-1
  6
Continuous
100
AcDbLine
 10
15321.8460306083
 20
13553.06619862282
 30
0.0
 11
17271.04603060849
 21
13553.0661986227
 31
0.0
  0
LINE
  5
55D
330
1F
100
AcDbEntity
  8
画層3-1
  6
Continuous
100
AcDbLine
 10
15321.8460306083
 20
13514.96619862273
 30
0.0
 11
17271.04603060849
 21
13514.96619862273
 31
0.0
  0
DIMENSION
  5
55E
330
1F
100
AcDbEntity
  8
画層3-寸法
  6
Continuous
100
AcDbDimension
  2
*D5
 10
17296.44603060839
 20
9194.966198622497
 30
0.0
 11
16296.44603060839
 21
9473.537627193925
 31
0.0
 70
    32
 71
     5
 42
2000.000000000002
  3
1_100
100
AcDbAlignedDimension
 13
15296.44603060839
 23
10502.06023288031
 33
0.0
 14
17296.44603060839
 24
10502.06023288031
 34
0.0
100
AcDbRotatedDimension
  0
LINE
  5
55F
330
1F
100
AcDbEntity
  8
画層3-1
  6
Continuous
100
AcDbLine
 10
19231.09603060876
 20
13573.06619862294
 30
0.0
 11
19361.79603060848
 21
13573.06619862294
 31
0.0
  0
LINE
  5
560
330
1F
100
AcDbEntity
  8
画層2-1
  6
Continuous
100
AcDbLine
 10
19188.29603060848
 20
13344.96619862296
 30
0.0
 11
19404.5960306083
 21
13344.96619862296
 31
0.0
  0
MTEXT
  5
561
330
1F
100
AcDbEntity
  8
寸法文字
  6
Continuous
100
AcDbMText
 10
17272.90503699706
 20
14209.54244647805
 30
0.0
 40
300.0
 41
0.0
 71
     8
 72
     1
  1
カラーハガネ線
  7
1_100
 73
     1
 44
1.0
1001
ACAD
1000
MTEXTBEGIN
1070
    73
1070
     1
1070
    44
1040
1.0
1070
    74
1070
     0
1000
MTEXTEND
  0
MTEXT
  5
562
330
1F
100
AcDbEntity
  8
寸法文字
  6
Continuous
100
AcDbMText
 10
17270.1905515711
 20
13806.3610331202
 30
0.0
 40
300.0
 41
0.0
 71
     8
 72
     1
  1
φ2.6×40mm目
  7
1_100
 73
     1
 44
1.0
1001
ACAD
1000
MTEXTBEGIN
1070
    73
1070
     1
1070
    44
1040
1.0
1070
    74
1070
     0
1000
MTEXTEND
  0
LINE
  5
563
330
1F
100
AcDbEntity
  8
画層3-2
  6
Continuous
100
AcDbLine
 10
17376.79603060849
 20
14834.96619862296
 30
0.0
 11
19216.09603060876
 21
14834.96619862296
 31
0.0
  0
LINE
  5
564
330
1F
100
AcDbEntity
  8
画層3-1
  6
Continuous
100
AcDbLine
 10
17336.8460306083
 20
15431.86619862287
 30
0.0
 11
19231.0960306083
 21
15431.86619862287
 31
0.0
  0
LINE
  5
565
330
1F
100
AcDbEntity
  8
画層3-1
  6
Continuous
100
AcDbLine
 10
17245.64603060858
 20
15469.96619862273
 30
0.0
 11
17245.64603060858
 21
15431.86619862287
 31
0.0
  0
LINE
  5
566
330
1F
100
AcDbEntity
  8
画層3-1
  6
Continuous
100
AcDbLine
 10
17347.24603060867
 20
15431.86619862275
 30
0.0
 11
17347.24603060867
 21
15469.96619862273
 31
0.0
  0
LINE
  5
567
330
1F
100
AcDbEntity
  8
画層3-通り芯
  6
DASHDOT
 48
100.0
100
AcDbLine
 10
17296.44603060839
 20
15373.26055346989
 30
0.0
 11
17296.44603060839
 21
15494.96619862296
 31
0.0
  0
LINE
  5
568
330
1F
100
AcDbEntity
  8
画層3-1
  6
Continuous
100
AcDbLine
 10
17271.04603060849
 20
15416.86619862287
 30
0.0
 11
17271.04603060849
 21
15373.26055346989
 31
0.0
  0
LINE
  5
569
330
1F
100
AcDbEntity
  8
画層3-1
  6
Continuous
100
AcDbLine
 10
17321.8460306083
 20
15416.86619862275
 30
0.0
 11
17321.8460306083
 21
15373.26055346989
 31
0.0
  0
LINE
  5
56A
330
1F
100
AcDbEntity
  8
画層3-2
  6
Continuous
100
AcDbLine
 10
17361.79603060848
 20
15431.86619862287
 30
0.0
 11
17361.79603060848
 21
15373.26055346989
 31
0.0
  0
LINE
  5
56B
330
1F
100
AcDbEntity
  8
画層3-1
  6
Continuous
100
AcDbLine
 10
17332.24603060867
 20
15416.86619862275
 30
0.0
 11
17260.64603060858
 21
15416.86619862287
 31
0.0
  0
LINE
  5
56C
330
1F
100
AcDbEntity
  8
画層3-1
  6
Continuous
100
AcDbLine
 10
17245.64603060858
 20
15431.86619862287
 30
0.0
 11
17260.64603060858
 21
15416.86619862287
 31
0.0
  0
LINE
  5
56D
330
1F
100
AcDbEntity
  8
画層3-1
  6
Continuous
100
AcDbLine
 10
17332.24603060867
 20
15416.86619862275
 30
0.0
 11
17347.24603060867
 21
15431.86619862275
 31
0.0
  0
ARC
  5
56E
330
1F
100
AcDbEntity
  8
画層3-1
  6
Continuous
100
AcDbCircle
 10
17256.04603060848
 20
15416.86619862287
 30
0.0
 40
15.0
100
AcDbArc
 50
0.0
 51
90.0
  0
ARC
  5
56F
330
1F
100
AcDbEntity
  8
画層3-1
  6
Continuous
100
AcDbCircle
 10
17336.8460306083
 20
15416.86619862275
 30
0.0
 40
15.0
100
AcDbArc
 50
90.0
 51
180.0
  0
LINE
  5
570
330
1F
100
AcDbEntity
  8
画層3-2
  6
Continuous
100
AcDbLine
 10
17231.0960306083
 20
15373.26055346989
 30
0.0
 11
17231.0960306083
 21
15431.86619862287
 31
0.0
  0
LINE
  5
571
330
1F
100
AcDbEntity
  8
画層3-1
  6
Continuous
100
AcDbLine
 10
17216.09603060876
 20
14849.96619862273
 30
0.0
 11
17216.09603060876
 21
14819.96619862273
 31
0.0
  0
LINE
  5
572
330
1F
100
AcDbEntity
  8
画層3-1
  6
Continuous
100
AcDbLine
 10
17376.79603060849
 20
14819.96619862273
 30
0.0
 11
17376.79603060849
 21
14849.96619862273
 31
0.0
  0
LINE
  5
573
330
1F
100
AcDbEntity
  8
画層3-1
  6
Continuous
100
AcDbLine
 10
17216.09603060876
 20
14819.96619862273
 30
0.0
 11
17376.79603060849
 21
14819.96619862273
 31
0.0
  0
LINE
  5
574
330
1F
100
AcDbEntity
  8
画層3-1
  6
Continuous
100
AcDbLine
 10
17376.79603060849
 20
14849.96619862273
 30
0.0
 11
17216.09603060876
 21
14849.96619862273
 31
0.0
  0
LINE
  5
575
330
1F
100
AcDbEntity
  8
画層3-2
  6
Continuous
100
AcDbLine
 10
17231.09603060876
 20
14849.96619862273
 30
0.0
 11
17231.09603060876
 21
14879.23759294163
 31
0.0
  0
LINE
  5
576
330
1F
100
AcDbEntity
  8
画層3-1
  6
Continuous
100
AcDbLine
 10
17271.04603060849
 20
14879.23759294163
 30
0.0
 11
17271.04603060849
 21
14849.96619862273
 31
0.0
  0
LINE
  5
577
330
1F
100
AcDbEntity
  8
画層3-1
  6
Continuous
100
AcDbLine
 10
17321.8460306083
 20
14879.23759294163
 30
0.0
 11
17321.8460306083
 21
14849.96619862273
 31
0.0
  0
LINE
  5
578
330
1F
100
AcDbEntity
  8
画層3-2
  6
Continuous
100
AcDbLine
 10
17361.79603060848
 20
14879.23759294163
 30
0.0
 11
17361.79603060848
 21
14849.96619862273
 31
0.0
  0
LINE
  5
579
330
1F
100
AcDbEntity
  8
画層3-通り芯
  6
DASHDOT
 48
100.0
100
AcDbLine
 10
17296.44603060839
 20
14644.05813388423
 30
0.0
 11
17296.44603060839
 21
14879.23759294163
 31
0.0
  0
LINE
  5
57A
330
1F
100
AcDbEntity
  8
画層3-1
  6
Continuous
100
AcDbLine
 10
17271.04603060849
 20
14819.96619862273
 30
0.0
 11
17271.04603060849
 21
14644.05813388423
 31
0.0
  0
LINE
  5
57B
330
1F
100
AcDbEntity
  8
画層3-1
  6
Continuous
100
AcDbLine
 10
17321.8460306083
 20
14819.96619862273
 30
0.0
 11
17321.8460306083
 21
14644.05813388423
 31
0.0
  0
LINE
  5
57C
330
1F
100
AcDbEntity
  8
画層3-2
  6
Continuous
100
AcDbLine
 10
17361.79603060848
 20
14819.96619862273
 30
0.0
 11
17361.79603060848
 21
14644.05813388423
 31
0.0
  0
LINE
  5
57D
330
1F
100
AcDbEntity
  8
画層3-2
  6
Continuous
100
AcDbLine
 10
17231.09603060876
 20
14644.05813388423
 30
0.0
 11
17231.09603060876
 21
14819.96619862273
 31
0.0
  0
LINE
  5
57E
330
1F
100
AcDbEntity
  8
画層3-1
  6
Continuous
100
AcDbLine
 10
15332.24603060867
 20
15416.86619862275
 30
0.0
 11
15347.24603060867
 21
15431.86619862275
 31
0.0
  0
LINE
  5
57F
330
1F
100
AcDbEntity
  8
画層3-1
  6
Continuous
100
AcDbLine
 10
15245.64603060857
 20
15469.96619862273
 30
0.0
 11
15245.64603060857
 21
15431.86619862287
 31
0.0
  0
LINE
  5
580
330
1F
100
AcDbEntity
  8
画層3-1
  6
Continuous
100
AcDbLine
 10
15332.24603060867
 20
15416.86619862275
 30
0.0
 11
15260.64603060858
 21
15416.86619862287
 31
0.0
  0
ARC
  5
581
330
1F
100
AcDbEntity
  8
画層3-1
  6
Continuous
100
AcDbCircle
 10
15336.84603060829
 20
15416.86619862275
 30
0.0
 40
15.0
100
AcDbArc
 50
90.0
 51
180.0
  0
LINE
  5
582
330
1F
100
AcDbEntity
  8
画層3-1
  6
Continuous
100
AcDbLine
 10
15245.64603060857
 20
15431.86619862287
 30
0.0
 11
15260.64603060858
 21
15416.86619862287
 31
0.0
  0
ARC
  5
583
330
1F
100
AcDbEntity
  8
画層3-1
  6
Continuous
100
AcDbCircle
 10
15256.04603060848
 20
15416.86619862287
 30
0.0
 40
15.0
100
AcDbArc
 50
0.0
 51
90.0
  0
LINE
  5
584
330
1F
100
AcDbEntity
  8
画層3-1
  6
Continuous
100
AcDbLine
 10
15347.24603060867
 20
15431.86619862275
 30
0.0
 11
15347.24603060867
 21
15469.96619862273
 31
0.0
  0
LINE
  5
585
330
1F
100
AcDbEntity
  8
画層3-1
  6
Continuous
100
AcDbLine
 10
15376.79603060848
 20
14819.96619862273
 30
0.0
 11
15376.79603060848
 21
14849.96619862273
 31
0.0
  0
LINE
  5
586
330
1F
100
AcDbEntity
  8
画層3-1
  6
Continuous
100
AcDbLine
 10
15216.09603060876
 20
14849.96619862273
 30
0.0
 11
15216.09603060876
 21
14819.96619862273
 31
0.0
  0
LINE
  5
587
330
1F
100
AcDbEntity
  8
画層3-1
  6
Continuous
100
AcDbLine
 10
15216.09603060876
 20
14819.96619862273
 30
0.0
 11
15376.79603060848
 21
14819.96619862273
 31
0.0
  0
LINE
  5
588
330
1F
100
AcDbEntity
  8
画層3-1
  6
Continuous
100
AcDbLine
 10
15376.79603060848
 20
14849.96619862273
 30
0.0
 11
15216.09603060876
 21
14849.96619862273
 31
0.0
  0
LINE
  5
589
330
1F
100
AcDbEntity
  8
画層3-1
  6
Continuous
100
AcDbLine
 10
15376.79603060848
 20
14189.96619862273
 30
0.0
 11
15216.09603060876
 21
14189.96619862273
 31
0.0
  0
LINE
  5
58A
330
1F
100
AcDbEntity
  8
画層3-1
  6
Continuous
100
AcDbLine
 10
15216.09603060876
 20
14159.96619862273
 30
0.0
 11
15376.79603060848
 21
14159.96619862273
 31
0.0
  0
LINE
  5
58B
330
1F
100
AcDbEntity
  8
画層3-1
  6
Continuous
100
AcDbLine
 10
15216.09603060876
 20
14189.96619862273
 30
0.0
 11
15216.09603060876
 21
14159.96619862273
 31
0.0
  0
LINE
  5
58C
330
1F
100
AcDbEntity
  8
画層3-1
  6
Continuous
100
AcDbLine
 10
15376.79603060848
 20
14159.96619862273
 30
0.0
 11
15376.79603060848
 21
14189.96619862273
 31
0.0
  0
LINE
  5
58D
330
1F
100
AcDbEntity
  8
画層3-1
  6
Continuous
100
AcDbLine
 10
15321.8460306083
 20
14819.96619862273
 30
0.0
 11
15321.8460306083
 21
14189.96619862273
 31
0.0
  0
LINE
  5
58E
330
1F
100
AcDbEntity
  8
画層3-2
  6
Continuous
100
AcDbLine
 10
15231.09603060876
 20
14189.96619862273
 30
0.0
 11
15231.09603060876
 21
14819.96619862273
 31
0.0
  0
LINE
  5
58F
330
1F
100
AcDbEntity
  8
画層3-1
  6
Continuous
100
AcDbLine
 10
15271.04603060848
 20
14819.96619862273
 30
0.0
 11
15271.04603060848
 21
14189.96619862273
 31
0.0
  0
LINE
  5
590
330
1F
100
AcDbEntity
  8
画層3-2
  6
Continuous
100
AcDbLine
 10
15361.79603060848
 20
14819.96619862273
 30
0.0
 11
15361.79603060848
 21
14189.96619862273
 31
0.0
  0
LINE
  5
591
330
1F
100
AcDbEntity
  8
画層3-1
  6
Continuous
100
AcDbLine
 10
15321.8460306083
 20
15416.86619862275
 30
0.0
 11
15321.8460306083
 21
14849.96619862273
 31
0.0
  0
LINE
  5
592
330
1F
100
AcDbEntity
  8
画層3-2
  6
Continuous
100
AcDbLine
 10
15231.09603060876
 20
14849.96619862273
 30
0.0
 11
15231.09603060829
 21
15431.86619862287
 31
0.0
  0
LINE
  5
593
330
1F
100
AcDbEntity
  8
画層3-1
  6
Continuous
100
AcDbLine
 10
15271.04603060848
 20
15416.86619862287
 30
0.0
 11
15271.04603060848
 21
14849.96619862273
 31
0.0
  0
LINE
  5
594
330
1F
100
AcDbEntity
  8
画層3-2
  6
Continuous
100
AcDbLine
 10
15361.79603060848
 20
15431.86619862287
 30
0.0
 11
15361.79603060848
 21
14849.96619862273
 31
0.0
  0
LINE
  5
595
330
1F
100
AcDbEntity
  8
画層3-1
  6
Continuous
100
AcDbLine
 10
15336.84603060829
 20
15431.86619862287
 30
0.0
 11
17256.04603060848
 21
15431.86619862287
 31
0.0
  0
LINE
  5
596
330
1F
100
AcDbEntity
  8
画層3-2
  6
Continuous
100
AcDbLine
 10
15376.79603060848
 20
14834.96619862273
 30
0.0
 11
17216.09603060876
 21
14834.96619862273
 31
0.0
  0
LEADER
  5
597
330
1F
100
AcDbEntity
  8
寸法引出
  6
Continuous
100
AcDbLeader
  3
1_100_B
 71
     0
 73
     0
 74
     0
 75
     1
 40
300.0
 41
1845.0
 76
     3
 10
15361.79603060848
 20
15195.80974195329
 30
0.0
 10
15573.53519582656
 20
14934.25515519794
 30
0.0
 10
15653.53519582656
 20
14934.25515519794
 30
0.0
  0
MTEXT
  5
598
102
{ACAD_REACTORS
330
597
102
}
330
1F
100
AcDbEntity
  8
寸法文字
  6
Continuous
100
AcDbMText
 10
15703.53519582656
 20
14984.25515519794
 30
0.0
 40
300.0
 41
0.0
 71
     7
 72
     1
  1
FB-4.5×19
  7
1_100
 73
     1
 44
1.0
1001
ACAD
1000
MTEXTBEGIN
1070
    73
1070
     1
1070
    44
1040
1.0
1070
    74
1070
     0
1000
MTEXTEND
  0
LINE
  5
599
330
1F
100
AcDbEntity
  8
画層3-2
  6
Continuous
100
AcDbLine
 10
16033.30333246385
 20
14174.96619862273
 30
0.0
 11
15376.79603060848
 21
14174.96619862273
 31
0.0
  0
LWPOLYLINE
  5
59A
330
1F
100
AcDbEntity
  8
画層1-1
100
AcDbPolyline
 90
        4
 70
     1
 43
0.0
 10
19489.53151317082
 20
15554.70449752781
 10
19621.45675710496
 20
15635.21184199328
 10
19642.29333930231
 20
15601.06748898538
 10
19510.36809536816
 20
15520.56014451991
  0
ARC
  5
59B
330
1F
100
AcDbEntity
  8
画層3-1
  6
Continuous
100
AcDbCircle
 10
19256.04603060848
 20
15416.86619862287
 30
0.0
 40
15.0
100
AcDbArc
 50
0.0
 51
90.0
  0
LINE
  5
59C
330
1F
100
AcDbEntity
  8
画層3-1
  6
Continuous
100
AcDbLine
 10
19245.64603060858
 20
15469.96619862296
 30
0.0
 11
19245.64603060858
 21
15431.86619862287
 31
0.0
  0
LINE
  5
59D
330
1F
100
AcDbEntity
  8
画層3-1
  6
Continuous
100
AcDbLine
 10
19245.64603060858
 20
15431.86619862287
 30
0.0
 11
19260.64603060858
 21
15416.86619862287
 31
0.0
  0
ARC
  5
59E
330
1F
100
AcDbEntity
  8
画層3-1
  6
Continuous
100
AcDbCircle
 10
19336.8460306083
 20
15416.86619862287
 30
0.0
 40
15.0
100
AcDbArc
 50
90.0
 51
180.0
  0
LINE
  5
59F
330
1F
100
AcDbEntity
  8
画層3-1
  6
Continuous
100
AcDbLine
 10
19332.24603060867
 20
15416.86619862287
 30
0.0
 11
19260.64603060858
 21
15416.86619862287
 31
0.0
  0
LINE
  5
5A0
330
1F
100
AcDbEntity
  8
画層3-1
  6
Continuous
100
AcDbLine
 10
19332.24603060867
 20
15416.86619862287
 30
0.0
 11
19347.24603060867
 21
15431.86619862287
 31
0.0
  0
LINE
  5
5A1
330
1F
100
AcDbEntity
  8
画層3-1
  6
Continuous
100
AcDbLine
 10
19347.24603060867
 20
15431.86619862287
 30
0.0
 11
19347.24603060867
 21
15469.96619862296
 31
0.0
  0
LWPOLYLINE
  5
5A2
330
1F
100
AcDbEntity
  8
画層1-1
100
AcDbPolyline
 90
        4
 70
     1
 43
0.0
 10
19103.35999377353
 20
15554.70944958857
 10
18971.4348233943
 20
15635.21691458674
 10
18950.59821000091
 20
15601.072580616
 10
19082.52338038014
 20
15520.56511561807
  0
LINE
  5
5A3
330
1F
100
AcDbEntity
  8
画層3-1
  6
Continuous
100
AcDbLine
 10
19216.09603060876
 20
14849.96619862296
 30
0.0
 11
19216.09603060876
 21
14819.96619862296
 31
0.0
  0
LINE
  5
5A4
330
1F
100
AcDbEntity
  8
画層3-1
  6
Continuous
100
AcDbLine
 10
19216.09603060876
 20
14819.96619862296
 30
0.0
 11
19376.79603060848
 21
14819.96619862296
 31
0.0
  0
LINE
  5
5A5
330
1F
100
AcDbEntity
  8
画層3-1
  6
Continuous
100
AcDbLine
 10
19376.79603060848
 20
14819.96619862296
 30
0.0
 11
19376.79603060848
 21
14849.96619862296
 31
0.0
  0
LINE
  5
5A6
330
1F
100
AcDbEntity
  8
画層3-1
  6
Continuous
100
AcDbLine
 10
19376.79603060848
 20
14849.96619862296
 30
0.0
 11
19216.09603060876
 21
14849.96619862296
 31
0.0
  0
LINE
  5
5A7
330
1F
100
AcDbEntity
  8
画層3-1
  6
Continuous
100
AcDbLine
 10
19216.09603060876
 20
14189.96619862296
 30
0.0
 11
19216.09603060876
 21
14159.96619862296
 31
0.0
  0
LINE
  5
5A8
330
1F
100
AcDbEntity
  8
画層3-1
  6
Continuous
100
AcDbLine
 10
19216.09603060876
 20
14159.96619862296
 30
0.0
 11
19376.79603060848
 21
14159.96619862296
 31
0.0
  0
LINE
  5
5A9
330
1F
100
AcDbEntity
  8
画層3-1
  6
Continuous
100
AcDbLine
 10
19376.79603060848
 20
14159.96619862296
 30
0.0
 11
19376.79603060848
 21
14189.96619862296
 31
0.0
  0
LINE
  5
5AA
330
1F
100
AcDbEntity
  8
画層3-1
  6
Continuous
100
AcDbLine
 10
19376.79603060848
 20
14189.96619862296
 30
0.0
 11
19216.09603060876
 21
14189.96619862296
 31
0.0
  0
LINE
  5
5AB
330
1F
100
AcDbEntity
  8
画層3-1
  6
Continuous
100
AcDbLine
 10
19271.04603060849
 20
14819.96619862296
 30
0.0
 11
19271.04603060849
 21
14189.96619862296
 31
0.0
  0
LINE
  5
5AC
330
1F
100
AcDbEntity
  8
画層3-2
  6
Continuous
100
AcDbLine
 10
19361.79603060848
 20
14819.96619862296
 30
0.0
 11
19361.79603060848
 21
14189.96619862296
 31
0.0
  0
LINE
  5
5AD
330
1F
100
AcDbEntity
  8
画層3-2
  6
Continuous
100
AcDbLine
 10
19231.09603060876
 20
14189.96619862296
 30
0.0
 11
19231.09603060876
 21
14819.96619862296
 31
0.0
  0
LINE
  5
5AE
330
1F
100
AcDbEntity
  8
画層3-1
  6
Continuous
100
AcDbLine
 10
19321.8460306083
 20
14819.96619862296
 30
0.0
 11
19321.8460306083
 21
14189.96619862296
 31
0.0
  0
LINE
  5
5AF
330
1F
100
AcDbEntity
  8
画層3-1
  6
Continuous
100
AcDbLine
 10
19271.04603060849
 20
15416.86619862287
 30
0.0
 11
19271.04603060849
 21
14849.96619862296
 31
0.0
  0
LINE
  5
5B0
330
1F
100
AcDbEntity
  8
画層3-2
  6
Continuous
100
AcDbLine
 10
19231.09603060876
 20
14849.96619862296
 30
0.0
 11
19231.0960306083
 21
15431.86619862287
 31
0.0
  0
LINE
  5
5B1
330
1F
100
AcDbEntity
  8
画層3-2
  6
Continuous
100
AcDbLine
 10
19361.79603060848
 20
15431.86619862287
 30
0.0
 11
19361.79603060848
 21
14849.96619862296
 31
0.0
  0
LINE
  5
5B2
330
1F
100
AcDbEntity
  8
画層3-1
  6
Continuous
100
AcDbLine
 10
19321.8460306083
 20
15416.86619862287
 30
0.0
 11
19321.8460306083
 21
14849.96619862296
 31
0.0
  0
LINE
  5
5B3
330
1F
100
AcDbEntity
  8
画層2-1
  6
Continuous
100
AcDbLine
 10
19188.29603060848
 20
13594.96619862296
 30
0.0
 11
19404.5960306083
 21
13594.96619862296
 31
0.0
  0
LINE
  5
5B4
330
1F
100
AcDbEntity
  8
画層3-2
  6
Continuous
100
AcDbLine
 10
19216.09603060876
 20
14174.96619862296
 30
0.0
 11
18530.60398736411
 21
14174.96619862284
 31
0.0
  0
LINE
  5
5B5
330
1F
100
AcDbEntity
  8
画層1
  6
Continuous
100
AcDbLine
 10
19271.44603060839
 20
15469.96619862296
 30
0.0
 11
19271.44603060839
 21
15519.96619862296
 31
0.0
  0
CIRCLE
  5
5B6
330
1F
100
AcDbEntity
  8
画層1
  6
Continuous
100
AcDbCircle
 10
19163.29603060848
 20
15494.96619862296
 30
0.0
 40
10.9509940156
  0
CIRCLE
  5
5B7
330
1F
100
AcDbEntity
  8
画層1
  6
Continuous
100
AcDbCircle
 10
19429.57603060828
 20
15494.96619862296
 30
0.0
 40
10.9509940156
  0
LINE
  5
5B8
330
1F
100
AcDbEntity
  8
画層1
  6
Continuous
100
AcDbLine
 10
19321.44603060839
 20
15469.96619862296
 30
0.0
 11
19321.44603060839
 21
15519.96619862296
 31
0.0
  0
LWPOLYLINE
  5
5B9
330
1F
100
AcDbEntity
  8
画層3-1
100
AcDbPolyline
 90
        4
 70
     0
 43
0.0
 10
15321.8460306083
 20
13514.96619862273
 10
15321.8460306083
 20
13194.96619862273
 10
15271.04603060848
 20
13194.96619862273
 10
15271.04603060848
 20
13514.96619862296
  0
LWPOLYLINE
  5
5BA
330
1F
100
AcDbEntity
  8
画層3-1
100
AcDbPolyline
 90
        4
 70
     0
 43
0.0
 10
17321.8460306083
 20
13514.96619862273
 10
17321.8460306083
 20
13194.96619862273
 10
17271.04603060849
 20
13194.96619862273
 10
17271.04603060849
 20
13514.96619862296
  0
LWPOLYLINE
  5
5BB
330
1F
100
AcDbEntity
  8
画層3-1
100
AcDbPolyline
 90
        4
 70
     0
 43
0.0
 10
19321.8460306083
 20
13514.96619862273
 10
19321.8460306083
 20
13194.96619862273
 10
19271.04603060849
 20
13194.96619862273
 10
19271.04603060849
 20
13514.96619862296
  0
LWPOLYLINE
  5
5BC
330
1F
100
AcDbEntity
  8
画層1
  6
Continuous
100
AcDbPolyline
 90
        4
 70
     1
 43
0.0
 10
19138.29603060848
 20
15519.96619862296
 10
19454.57603060828
 20
15519.96619862296
 10
19454.57603060828
 20
15469.96619862296
 10
19138.29603060848
 20
15469.96619862296
  0
LINE
  5
5BD
330
1F
100
AcDbEntity
  8
ﾊｯﾁﾝｸﾞ
  6
Continuous
100
AcDbLine
 10
18832.1984114065
 20
13494.96619862273
 30
0.0
 11
18952.19841140696
 21
13374.96619862273
 31
0.0
  0
LINE
  5
5BE
330
1F
100
AcDbEntity
  8
ﾊｯﾁﾝｸﾞ
  6
Continuous
100
AcDbLine
 10
18884.27069318715
 20
13442.89391684219
 30
0.0
 11
18816.3429749678
 21
13374.96619862273
 31
0.0
  0
LINE
  5
5BF
330
1F
100
AcDbEntity
  8
ﾊｯﾁﾝｸﾞ
  6
Continuous
100
AcDbLine
 10
18844.67271344039
 20
13482.4918965886
 30
0.0
 11
18737.14701547475
 21
13374.96619862273
 31
0.0
  0
LINE
  5
5C0
330
1F
100
AcDbEntity
  8
ﾊｯﾁﾝｸﾞ
  6
Continuous
100
AcDbLine
 10
18686.28079445429
 20
13403.29593709578
 30
0.0
 11
18657.9510559817
 21
13374.96619862273
 31
0.0
  0
LINE
  5
5C1
330
1F
100
AcDbEntity
  8
ﾊｯﾁﾝｸﾞ
  6
Continuous
100
AcDbLine
 10
18646.68281470753
 20
13442.89391684219
 30
0.0
 11
18578.75509648818
 21
13374.96619862273
 31
0.0
  0
LINE
  5
5C2
330
1F
100
AcDbEntity
  8
ﾊｯﾁﾝｸﾞ
  6
Continuous
100
AcDbLine
 10
18753.00245191298
 20
13494.96619862284
 30
0.0
 11
18805.0747336941
 21
13442.89391684219
 31
0.0
  0
LINE
  5
5C3
330
1F
100
AcDbEntity
  8
ﾊｯﾁﾝｸﾞ
  6
Continuous
100
AcDbLine
 10
18673.80649241993
 20
13494.96619862273
 30
0.0
 11
18765.4767539478
 21
13403.29593709566
 31
0.0
  0
LINE
  5
5C4
330
1F
100
AcDbEntity
  8
ﾊｯﾁﾝｸﾞ
  6
Continuous
100
AcDbLine
 10
18594.61053292687
 20
13494.96619862273
 30
0.0
 11
18714.61053292781
 21
13374.96619862273
 31
0.0
  0
LINE
  5
5C5
330
1F
100
AcDbEntity
  8
ﾊｯﾁﾝｸﾞ
  6
Continuous
100
AcDbLine
 10
18607.08483496123
 20
13482.4918965886
 30
0.0
 11
18553.32198597818
 21
13428.72904760566
 31
0.0
  0
LINE
  5
5C6
330
1F
100
AcDbEntity
  8
ﾊｯﾁﾝｸﾞ
  6
Continuous
100
AcDbLine
 10
18990.5903303926
 20
13494.96619862273
 30
0.0
 11
19046.44603060839
 21
13439.11049840717
 31
0.0
  0
LINE
  5
5C7
330
1F
100
AcDbEntity
  8
ﾊｯﾁﾝｸﾞ
  6
Continuous
100
AcDbLine
 10
18911.39437089908
 20
13494.96619862273
 30
0.0
 11
19031.39437090001
 21
13374.96619862273
 31
0.0
  0
LINE
  5
5C8
330
1F
100
AcDbEntity
  8
ﾊｯﾁﾝｸﾞ
  6
Continuous
100
AcDbLine
 10
18923.86867293344
 20
13403.29593709578
 30
0.0
 11
18895.53893446085
 21
13374.96619862273
 31
0.0
  0
LINE
  5
5C9
330
1F
100
AcDbEntity
  8
ﾊｯﾁﾝｸﾞ
  6
Continuous
100
AcDbLine
 10
19839.8896093038
 20
13494.96619862284
 30
0.0
 11
19787.81732752269
 21
13442.89391684219
 31
0.0
  0
LINE
  5
5CA
330
1F
100
AcDbEntity
  8
ﾊｯﾁﾝｸﾞ
  6
Continuous
100
AcDbLine
 10
19708.62136802963
 20
13442.89391684219
 30
0.0
 11
19776.54908624898
 21
13374.96619862273
 31
0.0
  0
LINE
  5
5CB
330
1F
100
AcDbEntity
  8
ﾊｯﾁﾝｸﾞ
  6
Continuous
100
AcDbLine
 10
19669.02338828334
 20
13403.29593709578
 30
0.0
 11
19697.35312675593
 21
13374.96619862273
 31
0.0
  0
LINE
  5
5CC
330
1F
100
AcDbEntity
  8
ﾊｯﾁﾝｸﾞ
  6
Continuous
100
AcDbLine
 10
19760.69364981029
 20
13494.96619862273
 30
0.0
 11
19640.69364980982
 21
13374.96619862273
 31
0.0
  0
LINE
  5
5CD
330
1F
100
AcDbEntity
  8
ﾊｯﾁﾝｸﾞ
  6
Continuous
100
AcDbLine
 10
19681.4976903177
 20
13494.96619862273
 30
0.0
 11
19561.49769031677
 21
13374.96619862273
 31
0.0
  0
LINE
  5
5CE
330
1F
100
AcDbEntity
  8
ﾊｯﾁﾝｸﾞ
  6
Continuous
100
AcDbLine
 10
19602.30173082418
 20
13494.96619862273
 30
0.0
 11
19546.44603060839
 21
13439.11049840717
 31
0.0
  0
LWPOLYLINE
  5
5CF
330
1F
100
AcDbEntity
  8
画層2
100
AcDbPolyline
 90
        8
 70
     0
 43
0.0
 10
19046.44603060839
 20
13494.96619862273
 10
19046.44603060839
 20
13194.96619862273
 10
19071.44603060839
 20
13194.96619862273
 10
19071.44603060839
 20
11394.96619862273
 10
19521.44603060839
 20
11394.96619862273
 10
19521.44603060839
 20
13194.96619862273
 10
19546.44603060839
 20
13194.96619862273
 10
19546.44603060839
 20
13494.96619862273
  0
LINE
  5
5D0
330
1F
100
AcDbEntity
  8
画層2
100
AcDbLine
 10
19521.44603060839
 20
11494.96619862273
 30
0.0
 11
19071.44603060839
 21
11494.96619862273
 31
0.0
  0
HATCH
  5
5D1
330
1F
100
AcDbEntity
  8
ﾊｯﾁﾝｸﾞ
100
AcDbHatch
 10
0.0
 20
0.0
 30
0.0
210
0.0
220
0.0
230
1.0
  2
PLAST
 70
     0
 71
     0
 91
        2
 92
        7
 72
     0
 73
     1
 93
        6
 10
19521.44603060839
 20
13194.96619862273
 10
19546.44603060839
 20
13194.96619862273
 10
19546.44603060839
 20
13494.96619862273
 10
19296.44603060839
 20
13494.96619862273
 10
19296.44603060839
 20
11494.96619862273
 10
19521.44603060839
 20
11494.96619862273
 97
        0
 92
        7
 72
     0
 73
     1
 93
        6
 10
19296.44603060839
 20
13494.96619862284
 10
19046.44603060839
 20
13494.96619862284
 10
19046.44603060839
 20
13194.96619862273
 10
19071.44603060839
 20
13194.96619862273
 10
19071.44603060839
 20
11494.96619862273
 10
19296.44603060839
 20
11494.96619862273
 97
        0
 75
     0
 76
     1
 52
45.0
 41
2000.0
 77
     0
 78
     3
 53
45.0
 43
-359183.3211074761
 44
-240324.8431488385
 45
-353.5533905932737
 46
353.5533905932738
 79
     0
 53
45.0
 43
-359227.5152813001
 44
-240280.6489750143
 45
-353.5533905932737
 46
353.5533905932738
 79
     0
 53
45.0
 43
-359271.7094551244
 44
-240236.4548011902
 45
-353.5533905932737
 46
353.5533905932738
 79
     0
 47
15.39309701390718
 98
        2
 10
19321.52008091939
 20
12507.86776162685
 10
19213.6940196613
 20
12646.40602390167
  0
INSERT
  5
5D2
330
1F
100
AcDbEntity
  8
ﾊｯﾁﾝｸﾞ
100
AcDbBlockReference
  2
sai450
 10
19296.44603060839
 20
11494.96619862273
 30
0.0
  0
LINE
  5
5D3
330
1F
100
AcDbEntity
  8
画層3-1
  6
Continuous
100
AcDbLine
 10
9336.846030608297
 20
15431.86619862287
 30
0.0
 11
11256.04603060848
 21
15431.86619862287
 31
0.0
  0
LINE
  5
5D4
330
1F
100
AcDbEntity
  8
画層3-2
  6
Continuous
100
AcDbLine
 10
11216.09603060876
 20
14174.96619862296
 30
0.0
 11
9376.796030608485
 21
14174.96619862296
 31
0.0
  0
LINE
  5
5D5
330
1F
100
AcDbEntity
  8
画層3-2
  6
Continuous
100
AcDbLine
 10
9376.796030608485
 20
14834.96619862296
 30
0.0
 11
11216.09603060876
 21
14834.96619862296
 31
0.0
  0
LEADER
  5
5D6
330
1F
100
AcDbEntity
  8
寸法引出
  6
Continuous
100
AcDbLeader
  3
1_100
 71
     0
 73
     0
 74
     0
 75
     1
 40
300.0
 41
1547.142857142856
 76
     3
 10
9521.446030608393
 20
12065.60823148607
 30
0.0
 10
9988.935751230471
 20
12356.21145393608
 30
0.0
 10
10048.93575123047
 20
12356.21145393608
 30
0.0
340
5D7
  0
MTEXT
  5
5D7
102
{ACAD_REACTORS
330
5D6
102
}
330
1F
100
AcDbEntity
  8
寸法文字
  6
Continuous
100
AcDbMText
 10
10148.93575123047
 20
12456.21145393607
 30
0.0
 40
300.0
 41
0.0
 71
     7
 72
     1
  1
コンクリート
  7
1_100
 73
     1
 44
1.0
1001
ACAD
1000
MTEXTBEGIN
1070
    73
1070
     1
1070
    44
1040
1.0
1070
    74
1070
     0
1000
MTEXTEND
  0
LINE
  5
5D8
330
1F
100
AcDbEntity
  8
画層3-1
  6
Continuous
100
AcDbLine
 10
9271.046030608484
 20
13553.06619862282
 30
0.0
 11
11271.04603060848
 21
13553.06619862282
 31
0.0
  0
LINE
  5
5D9
330
1F
100
AcDbEntity
  8
画層3-1
  6
Continuous
100
AcDbLine
 10
9271.046030608484
 20
13514.96619862296
 30
0.0
 11
11271.04603060848
 21
13514.96619862296
 31
0.0
  0
HATCH
  5
5DA
330
1F
100
AcDbEntity
  8
画層3-3
 62
   230
370
    13
100
AcDbHatch
 10
0.0
 20
0.0
 30
0.0
210
0.0
220
0.0
230
1.0
  2
NET
 70
     0
 71
     0
 91
        3
 92
        7
 72
     0
 73
     1
 93
       12
 10
9347.246030608673
 20
15431.86619862287
 10
9332.24603060867
 20
15416.86619862287
 10
9321.846030608764
 20
15416.86619862287
 10
9321.846030608297
 20
14849.96619862284
 10
9376.796030608485
 20
14849.96619862296
 10
9376.796030608485
 20
14834.96619862284
 10
11216.09603060876
 20
14834.96619862296
 10
11216.09603060876
 20
14849.96619862273
 10
11271.04603060848
 20
14849.96619862273
 10
11271.04603060848
 20
15416.86619862275
 10
11260.64603060858
 20
15416.86619862287
 10
11245.64603060858
 20
15431.86619862287
 97
        0
 92
        7
 72
     0
 73
     1
 93
       12
 10
9376.796030608485
 20
14834.96619862284
 10
9376.796030608485
 20
14819.96619862296
 10
9321.846030608297
 20
14819.96619862296
 10
9321.846030608297
 20
14189.96619862296
 10
9376.796030608485
 20
14189.96619862296
 10
9376.796030608485
 20
14174.96619862296
 10
11216.09603060876
 20
14174.96619862296
 10
11216.09603060876
 20
14189.96619862273
 10
11271.04603060848
 20
14189.96619862273
 10
11271.04603060848
 20
14819.96619862273
 10
11216.09603060876
 20
14819.96619862273
 10
11216.09603060876
 20
14834.96619862284
 97
        0
 92
        7
 72
     0
 73
     1
 93
        8
 10
9376.796030608485
 20
14174.96619862296
 10
9376.796030608485
 20
14159.96619862296
 10
9321.846030608297
 20
14159.96619862284
 10
9321.846030608297
 20
13553.06619862282
 10
11271.04603060848
 20
13553.06619862282
 10
11271.04603060848
 20
14159.96619862273
 10
11216.09603060876
 20
14159.96619862273
 10
11216.09603060876
 20
14174.96619862296
 97
        0
 75
     0
 76
     1
 52
45.0
 41
1200.0
 77
     0
 78
     2
 53
45.0
 43
-39866.63718090764
 44
31744.66751039309
 45
-106.0660171779821
 46
106.0660171779821
 79
     0
 53
135.0
 43
-39866.63718090764
 44
31744.66751039309
 45
-106.0660171779821
 46
-106.0660171779821
 79
     0
 47
8.784363265905074
 98
        3
 10
10579.74589599949
 20
15177.96530177725
 10
10535.78969596933
 20
14536.70666955296
 10
10570.95471150569
 20
13869.09500024469
  0
DIMENSION
  5
5DB
330
1F
100
AcDbEntity
  8
画層3-寸法
  6
Continuous
100
AcDbDimension
  2
*D6
 10
11296.44603060839
 20
9194.966198622497
 30
0.0
 11
10296.44603060839
 21
9473.537627193925
 31
0.0
 70
    32
 71
     5
 42
2000.0
  3
1_100
100
AcDbAlignedDimension
 13
9296.446030608393
 23
9632.466198622497
 33
0.0
 14
11296.44603060839
 24
10502.06023288031
 34
0.0
100
AcDbRotatedDimension
  0
LEADER
  5
5DC
330
1F
100
AcDbEntity
  8
寸法引出
  6
Continuous
100
AcDbLeader
  3
1_100
 71
     0
 73
     0
 74
     0
 75
     1
 40
300.0
 41
495.0
 76
     3
 10
9521.446030608393
 20
11444.96619862296
 30
0.0
 10
9954.1646844186
 20
11712.98882626161
 30
0.0
 10
10014.1646844186
 20
11712.98882626161
 30
0.0
340
5DD
  0
MTEXT
  5
5DD
102
{ACAD_REACTORS
330
5DC
102
}
330
1F
100
AcDbEntity
  8
寸法文字
  6
Continuous
100
AcDbMText
 10
10114.1646844186
 20
11812.98882626161
 30
0.0
 40
300.0
 41
0.0
 71
     7
 72
     1
  1
砕石
  7
1_100
 73
     1
 44
1.0
1001
ACAD
1000
MTEXTBEGIN
1070
    73
1070
     1
1070
    44
1040
1.0
1070
    74
1070
     0
1000
MTEXTEND
  0
LINE
  5
5DE
330
1F
100
AcDbEntity
  8
画層3-1
  6
Continuous
100
AcDbLine
 10
9271.046030608484
 20
15431.8661986231
 30
0.0
 11
9271.046030608484
 21
13514.96619862296
 31
0.0
  0
LINE
  5
5DF
330
1F
100
AcDbEntity
  8
画層3-1
  6
Continuous
100
AcDbLine
 10
9321.846030608297
 20
14159.96619862296
 30
0.0
 11
9321.846030608297
 21
13553.06619862294
 31
0.0
  0
LINE
  5
5E0
330
1F
100
AcDbEntity
  8
画層3-2
  6
Continuous
100
AcDbLine
 10
9361.796030608484
 20
14159.96619862296
 30
0.0
 11
9361.796030608484
 21
13494.96619862296
 31
0.0
  0
LEADER
  5
5E1
330
1F
100
AcDbEntity
  8
寸法引出
  6
Continuous
100
AcDbLeader
  3
1_100
 71
     0
 73
     0
 75
     1
 40
300.0
 41
1095.0
 76
     3
 10
9210.067908806271
 20
13554.31372902637
 30
0.0
 10
8250.358079481419
 20
14172.25831597323
 30
0.0
 10
8190.358079481418
 20
14172.25831597323
 30
0.0
340
5E2
  0
MTEXT
  5
5E2
102
{ACAD_REACTORS
330
5E1
102
}
330
1F
100
AcDbEntity
  8
寸法文字
  6
Continuous
100
AcDbMText
 10
8090.358079481417
 20
14272.25831597323
 30
0.0
 40
300.0
 41
0.0
 71
     9
 72
     1
  1
FRP被覆
  7
1_100
 73
     1
 44
1.0
1001
ACAD
1000
MTEXTBEGIN
1070
    73
1070
     1
1070
    44
1040
1.0
1070
    74
1070
     0
1000
MTEXTEND
  0
LINE
  5
5E3
330
1F
100
AcDbEntity
  8
画層2-1
  6
Continuous
100
AcDbLine
 10
9188.296030608483
 20
13344.96619862296
 30
0.0
 11
9404.596030608296
 21
13344.96619862296
 31
0.0
  0
DIMENSION
  5
5E4
330
1F
100
AcDbEntity
  8
寸法
  6
Continuous
100
AcDbDimension
  2
*D7
 10
9546.446030608393
 20
10394.96619862273
 30
0.0
 11
9296.446030608393
 21
10144.96619862273
 31
0.0
 70
    32
  1
□<>
 71
     5
 42
500.0
  3
1_100
100
AcDbAlignedDimension
 13
9046.446030608393
 23
11394.96619862296
 33
0.0
 14
9546.446030608393
 24
11394.96619862284
 34
0.0
100
AcDbRotatedDimension
1001
ACAD
1000
DSTYLE
1002
{
1070
    77
1070
     2
1070
   174
1070
     1
1002
}
  0
DIMENSION
  5
5E5
330
1F
100
AcDbEntity
  8
寸法
  6
Continuous
100
AcDbDimension
  2
*D8
 10
9521.446030608393
 20
10794.96619862296
 30
0.0
 11
8495.055794414145
 21
10976.2998602118
 31
0.0
 70
   160
  1
φ<>
 71
     5
 42
450.0
  3
1_100
100
AcDbAlignedDimension
 13
9071.44603060839
 23
11394.96619862296
 33
0.0
 14
9521.446030608393
 24
11394.96619862296
 34
0.0
100
AcDbRotatedDimension
  0
LINE
  5
5E6
330
1F
100
AcDbEntity
  8
画層3-1
  6
Continuous
100
AcDbLine
 10
9332.24603060867
 20
15416.86619862287
 30
0.0
 11
9347.246030608673
 21
15431.86619862287
 31
0.0
  0
ARC
  5
5E7
330
1F
100
AcDbEntity
  8
画層3-1
  6
Continuous
100
AcDbCircle
 10
9336.846030608297
 20
15416.86619862287
 30
0.0
 40
15.0
100
AcDbArc
 50
90.0
 51
180.0
  0
LINE
  5
5E8
330
1F
100
AcDbEntity
  8
画層3-1
  6
Continuous
100
AcDbLine
 10
9347.246030608673
 20
15431.86619862287
 30
0.0
 11
9347.246030608673
 21
15469.96619862296
 31
0.0
  0
LINE
  5
5E9
330
1F
100
AcDbEntity
  8
画層1
  6
Continuous
100
AcDbLine
 10
9321.44603060839
 20
15469.96619862296
 30
0.0
 11
9321.44603060839
 21
15519.96619862296
 31
0.0
  0
CIRCLE
  5
5EA
330
1F
100
AcDbEntity
  8
画層1
  6
Continuous
100
AcDbCircle
 10
9429.576030608279
 20
15494.96619862296
 30
0.0
 40
10.9509940156
  0
LWPOLYLINE
  5
5EB
330
1F
100
AcDbEntity
  8
画層1
100
AcDbPolyline
 90
        4
 70
     1
 43
0.0
 10
9517.246030608204
 20
15514.7424779616
 10
9671.796030608485
 20
15514.7424779616
 10
9671.796030608485
 20
15474.7424779616
 10
9517.246030608204
 20
15474.7424779616
  0
LWPOLYLINE
  5
5EC
330
1F
100
AcDbEntity
  8
画層1-1
100
AcDbPolyline
 90
        4
 70
     1
 43
0.0
 10
9489.531513170815
 20
15554.70449752781
 10
9621.456757104969
 20
15635.21184199328
 10
9642.293339302312
 20
15601.06748898538
 10
9510.368095368161
 20
15520.56014451991
  0
LINE
  5
5ED
330
1F
100
AcDbEntity
  8
画層3-1
  6
Continuous
100
AcDbLine
 10
9376.796030608485
 20
14819.96619862296
 30
0.0
 11
9376.796030608485
 21
14849.96619862296
 31
0.0
  0
LINE
  5
5EE
330
1F
100
AcDbEntity
  8
画層3-1
  6
Continuous
100
AcDbLine
 10
9376.796030608485
 20
14159.96619862296
 30
0.0
 11
9376.796030608485
 21
14189.96619862296
 31
0.0
  0
LINE
  5
5EF
330
1F
100
AcDbEntity
  8
画層3-1
  6
Continuous
100
AcDbLine
 10
9321.846030608297
 20
14819.96619862296
 30
0.0
 11
9321.846030608297
 21
14189.96619862296
 31
0.0
  0
LINE
  5
5F0
330
1F
100
AcDbEntity
  8
画層3-2
  6
Continuous
100
AcDbLine
 10
9361.796030608484
 20
14819.96619862296
 30
0.0
 11
9361.796030608484
 21
14189.96619862296
 31
0.0
  0
LINE
  5
5F1
330
1F
100
AcDbEntity
  8
画層3-1
  6
Continuous
100
AcDbLine
 10
9321.846030608297
 20
15416.86619862287
 30
0.0
 11
9321.846030608297
 21
14849.96619862296
 31
0.0
  0
LINE
  5
5F2
330
1F
100
AcDbEntity
  8
画層3-2
  6
Continuous
100
AcDbLine
 10
9361.796030608484
 20
15431.86619862287
 30
0.0
 11
9361.796030608484
 21
14849.96619862296
 31
0.0
  0
CIRCLE
  5
5F3
330
1F
100
AcDbEntity
  8
画層1
  6
Continuous
100
AcDbCircle
 10
9163.296030608483
 20
15494.96619862296
 30
0.0
 40
10.9509940156
  0
LINE
  5
5F4
330
1F
100
AcDbEntity
  8
画層1
  6
Continuous
100
AcDbLine
 10
9271.446030608393
 20
15469.96619862296
 30
0.0
 11
9271.446030608393
 21
15519.96619862296
 31
0.0
  0
LINE
  5
5F5
330
1F
100
AcDbEntity
  8
画層3-1
  6
Continuous
100
AcDbLine
 10
9271.046030608484
 20
14159.96619862296
 30
0.0
 11
9376.796030608485
 21
14159.96619862296
 31
0.0
  0
LINE
  5
5F6
330
1F
100
AcDbEntity
  8
画層3-1
  6
Continuous
100
AcDbLine
 10
9271.046030608484
 20
14819.96619862296
 30
0.0
 11
9376.796030608485
 21
14819.96619862296
 31
0.0
  0
LINE
  5
5F7
330
1F
100
AcDbEntity
  8
画層3-1
  6
Continuous
100
AcDbLine
 10
9376.796030608485
 20
14189.96619862296
 30
0.0
 11
9271.046030608484
 21
14189.96619862296
 31
0.0
  0
LINE
  5
5F8
330
1F
100
AcDbEntity
  8
画層3-1
  6
Continuous
100
AcDbLine
 10
9376.796030608485
 20
14849.96619862296
 30
0.0
 11
9271.046030608484
 21
14849.96619862296
 31
0.0
  0
LINE
  5
5F9
330
1F
100
AcDbEntity
  8
画層3-1
  6
Continuous
100
AcDbLine
 10
9332.24603060867
 20
15416.86619862287
 30
0.0
 11
9271.046030608484
 21
15416.86619862287
 31
0.0
  0
ARC
  5
5FA
330
1F
100
AcDbEntity
  8
画層3-1
  6
Continuous
100
AcDbCircle
 10
9308.653071638207
 20
15434.31150460314
 30
0.0
 40
37.68645720078001
100
AcDbArc
 50
108.8995839705783
 51
183.7202809734824
  0
LINE
  5
5FB
330
1F
100
AcDbEntity
  8
画層2-1
  6
Continuous
100
AcDbLine
 10
9188.296030608483
 20
13594.96619862296
 30
0.0
 11
9404.596030608296
 21
13594.96619862296
 31
0.0
  0
MTEXT
  5
5FC
330
1F
100
AcDbEntity
  8
寸法文字
  6
Continuous
100
AcDbMText
 10
8022.376478901611
 20
14118.85949607754
 30
0.0
 40
300.0
 41
0.0
 71
     3
 72
     1
  1
（250）
  7
1_100
 73
     1
 44
1.0
1001
ACAD
1000
MTEXTBEGIN
1070
    73
1070
     1
1070
    44
1040
1.0
1070
    74
1070
     0
1000
MTEXTEND
  0
LINE
  5
5FD
330
1F
100
AcDbEntity
  8
画層3-1
  6
Continuous
100
AcDbLine
 10
13321.84603060829
 20
13596.29969646666
 30
0.0
 11
13321.84603060829
 21
13553.06619862282
 31
0.0
  0
LINE
  5
5FE
330
1F
100
AcDbEntity
  8
画層3-1
  6
Continuous
100
AcDbLine
 10
13271.04603060848
 20
13596.29969646666
 30
0.0
 11
13271.04603060848
 21
13553.06619862282
 31
0.0
  0
LINE
  5
5FF
330
1F
100
AcDbEntity
  8
画層3-通り芯
  6
DASHDOT
 48
100.0
100
AcDbLine
 10
13296.44603060839
 20
12948.59664349096
 30
0.0
 11
13296.44603060839
 21
13596.29969646666
 31
0.0
  0
LINE
  5
600
330
1F
100
AcDbEntity
  8
画層3-2
  6
Continuous
100
AcDbLine
 10
13361.79603060848
 20
13596.29969646666
 30
0.0
 11
13361.79603060848
 21
13494.96619862273
 31
0.0
  0
LINE
  5
601
330
1F
100
AcDbEntity
  8
画層3-2
  6
Continuous
100
AcDbLine
 10
13231.09603060876
 20
13494.96619862273
 30
0.0
 11
13231.09603060876
 21
13596.29969646666
 31
0.0
  0
LINE
  5
602
330
1F
100
AcDbEntity
  8
画層3-通り芯
  6
DASHDOT
 48
100.0
100
AcDbLine
 10
11296.44603060839
 20
12948.59664349096
 30
0.0
 11
11296.44603060839
 21
15494.96619862296
 31
0.0
  0
LINE
  5
603
330
1F
100
AcDbEntity
  8
画層3-1
  6
Continuous
100
AcDbLine
 10
11271.04603060848
 20
14159.96619862273
 30
0.0
 11
11271.04603060848
 21
13553.06619862282
 31
0.0
  0
LINE
  5
604
330
1F
100
AcDbEntity
  8
画層3-2
  6
Continuous
100
AcDbLine
 10
11361.79603060848
 20
14159.96619862273
 30
0.0
 11
11361.79603060848
 21
13494.96619862273
 31
0.0
  0
LINE
  5
605
330
1F
100
AcDbEntity
  8
画層3-2
  6
Continuous
100
AcDbLine
 10
11231.09603060876
 20
13494.96619862273
 30
0.0
 11
11231.09603060876
 21
14159.96619862273
 31
0.0
  0
LINE
  5
606
330
1F
100
AcDbEntity
  8
画層3-1
  6
Continuous
100
AcDbLine
 10
11321.8460306083
 20
14159.96619862273
 30
0.0
 11
11321.8460306083
 21
13553.06619862282
 31
0.0
  0
LINE
  5
607
330
1F
100
AcDbEntity
  8
画層3-1
  6
Continuous
100
AcDbLine
 10
13231.09603060876
 20
13573.06619862282
 30
0.0
 11
13361.79603060848
 21
13573.06619862282
 31
0.0
  0
HATCH
  5
608
330
1F
100
AcDbEntity
  8
画層3-3
100
AcDbHatch
 10
0.0
 20
0.0
 30
0.0
210
0.0
220
0.0
230
1.0
  2
PLAST
 70
     0
 71
     0
 91
        1
 92
        7
 72
     0
 73
     1
 93
        4
 10
13421.44603060839
 20
13494.96619862273
 10
13171.44603060839
 20
13494.96619862273
 10
13171.44603060839
 20
13044.96619862273
 10
13421.44603060839
 20
13044.96619862273
 97
        0
 75
     0
 76
     1
 52
45.0
 41
1800.0
 77
     0
 78
     3
 53
45.0
 43
7154.1033748421
 44
7053.299182111645
 45
-318.1980515339463
 46
318.1980515339464
 79
     0
 53
45.0
 43
7114.328618400744
 44
7093.073938553352
 45
-318.1980515339463
 46
318.1980515339464
 79
     0
 53
45.0
 43
7074.553861958918
 44
7132.84869499506
 45
-318.1980515339463
 46
318.1980515339464
 79
     0
 47
2.4753793195157
 98
        1
 10
13410.33922837163
 20
13254.1736466305
  0
LWPOLYLINE
  5
609
330
1F
100
AcDbEntity
  8
画層3-2
100
AcDbPolyline
 90
        4
 70
     0
 43
0.0
 10
13421.44603060839
 20
13494.96619862273
 10
13421.44603060839
 20
13044.96619862273
 10
13171.44603060839
 20
13044.96619862273
 10
13171.44603060839
 20
13494.96619862273
  0
DIMENSION
  5
60A
330
1F
100
AcDbEntity
  8
画層3-寸法
  6
Continuous
100
AcDbDimension
  2
*D9
 10
13421.44603060839
 20
12664.96619862273
 30
0.0
 11
13296.44603060839
 21
12464.96619862273
 31
0.0
 70
    32
  1
□<>
 71
     5
 42
250.0
  3
1_100_B
100
AcDbAlignedDimension
 13
13171.44603060839
 23
13044.96619862273
 33
0.0
 14
13421.44603060839
 24
13044.96619862273
 34
0.0
100
AcDbRotatedDimension
1001
ACAD
1000
DSTYLE
1002
{
1070
    77
1070
     2
1070
   174
1070
     1
1002
}
  0
LINE
  5
60B
330
1F
100
AcDbEntity
  8
画層3-1
  6
Continuous
100
AcDbLine
 10
11231.09603060876
 20
13573.06619862282
 30
0.0
 11
11361.79603060848
 21
13573.06619862282
 31
0.0
  0
HATCH
  5
60C
330
1F
100
AcDbEntity
  8
画層3-3
100
AcDbHatch
 10
0.0
 20
0.0
 30
0.0
210
0.0
220
0.0
230
1.0
  2
PLAST
 70
     0
 71
     0
 91
        1
 92
        7
 72
     0
 73
     1
 93
        4
 10
11421.44603060839
 20
13494.96619862273
 10
11171.44603060839
 20
13494.96619862273
 10
11171.44603060839
 20
13044.96619862273
 10
11421.44603060839
 20
13044.96619862273
 97
        0
 75
     0
 76
     1
 52
45.0
 41
1800.0
 77
     0
 78
     3
 53
45.0
 43
5154.103374842101
 44
7053.299182111645
 45
-318.1980515339463
 46
318.1980515339464
 79
     0
 53
45.0
 43
5114.328618400743
 44
7093.073938553352
 45
-318.1980515339463
 46
318.1980515339464
 79
     0
 53
45.0
 43
5074.553861958919
 44
7132.84869499506
 45
-318.1980515339463
 46
318.1980515339464
 79
     0
 47
2.4753793195157
 98
        1
 10
11410.33922837163
 20
13254.1736466305
  0
LWPOLYLINE
  5
60D
330
1F
100
AcDbEntity
  8
画層3-2
100
AcDbPolyline
 90
        4
 70
     0
 43
0.0
 10
11421.44603060839
 20
13494.96619862273
 10
11421.44603060839
 20
13044.96619862273
 10
11171.44603060839
 20
13044.96619862273
 10
11171.44603060839
 20
13494.96619862273
  0
DIMENSION
  5
60E
330
1F
100
AcDbEntity
  8
画層3-寸法
  6
Continuous
100
AcDbDimension
  2
*D10
 10
13296.44603060839
 20
9194.966198622497
 30
0.0
 11
12296.44603060839
 21
9473.537627193925
 31
0.0
 70
    32
 71
     5
 42
2000.0
  3
1_100
100
AcDbAlignedDimension
 13
11296.44603060839
 23
10502.06023288031
 33
0.0
 14
13296.44603060839
 24
10502.06023288031
 34
0.0
100
AcDbRotatedDimension
  0
DIMENSION
  5
60F
330
1F
100
AcDbEntity
  8
画層3-寸法
  6
Continuous
100
AcDbDimension
  2
*D11
 10
12751.44603060839
 20
13044.96619862273
 30
0.0
 11
12489.25290173386
 21
13130.34009184887
 31
0.0
 70
   160
 71
     5
 42
450.0
  3
1_100_B
100
AcDbAlignedDimension
 13
13171.44603060839
 23
13494.96619862273
 33
0.0
 14
13171.44603060839
 24
13044.96619862273
 34
0.0
 50
90.0
100
AcDbRotatedDimension
  0
LINE
  5
610
330
1F
100
AcDbEntity
  8
画層3-1
  6
Continuous
100
AcDbLine
 10
11321.8460306083
 20
13514.96619862273
 30
0.0
 11
13271.04603060848
 21
13514.96619862273
 31
0.0
  0
LINE
  5
611
330
1F
100
AcDbEntity
  8
画層3-1
  6
Continuous
100
AcDbLine
 10
11321.8460306083
 20
13553.06619862282
 30
0.0
 11
13271.04603060848
 21
13553.06619862282
 31
0.0
  0
LINE
  5
612
330
1F
100
AcDbEntity
  8
画層3-1
  6
Continuous
100
AcDbLine
 10
13347.24603060867
 20
15431.86619862275
 30
0.0
 11
13347.24603060867
 21
15469.96619862273
 31
0.0
  0
LINE
  5
613
330
1F
100
AcDbEntity
  8
画層3-1
  6
Continuous
100
AcDbLine
 10
13245.64603060857
 20
15469.96619862273
 30
0.0
 11
13245.64603060857
 21
15431.86619862287
 31
0.0
  0
LINE
  5
614
330
1F
100
AcDbEntity
  8
画層3-通り芯
  6
DASHDOT
 48
100.0
100
AcDbLine
 10
13296.44603060839
 20
15357.497081541
 30
0.0
 11
13296.44603060839
 21
15494.96619862296
 31
0.0
  0
ARC
  5
615
330
1F
100
AcDbEntity
  8
画層3-1
  6
Continuous
100
AcDbCircle
 10
13336.8460306083
 20
15416.86619862275
 30
0.0
 40
15.0
100
AcDbArc
 50
90.0
 51
180.0
  0
LINE
  5
616
330
1F
100
AcDbEntity
  8
画層3-1
  6
Continuous
100
AcDbLine
 10
13332.24603060867
 20
15416.86619862275
 30
0.0
 11
13347.24603060867
 21
15431.86619862275
 31
0.0
  0
LINE
  5
617
330
1F
100
AcDbEntity
  8
画層3-1
  6
Continuous
100
AcDbLine
 10
13245.64603060857
 20
15431.86619862287
 30
0.0
 11
13260.64603060858
 21
15416.86619862287
 31
0.0
  0
LINE
  5
618
330
1F
100
AcDbEntity
  8
画層3-1
  6
Continuous
100
AcDbLine
 10
13332.24603060867
 20
15416.86619862275
 30
0.0
 11
13260.64603060858
 21
15416.86619862287
 31
0.0
  0
ARC
  5
619
330
1F
100
AcDbEntity
  8
画層3-1
  6
Continuous
100
AcDbCircle
 10
13256.04603060848
 20
15416.86619862287
 30
0.0
 40
15.0
100
AcDbArc
 50
0.0
 51
90.0
  0
LINE
  5
61A
330
1F
100
AcDbEntity
  8
画層3-2
  6
Continuous
100
AcDbLine
 10
13361.79603060848
 20
15431.86619862287
 30
0.0
 11
13361.79603060848
 21
15357.497081541
 31
0.0
  0
LINE
  5
61B
330
1F
100
AcDbEntity
  8
画層3-1
  6
Continuous
100
AcDbLine
 10
13321.84603060829
 20
15416.86619862275
 30
0.0
 11
13321.84603060829
 21
15357.497081541
 31
0.0
  0
LINE
  5
61C
330
1F
100
AcDbEntity
  8
画層3-1
  6
Continuous
100
AcDbLine
 10
13271.04603060848
 20
15416.86619862287
 30
0.0
 11
13271.04603060848
 21
15357.497081541
 31
0.0
  0
LINE
  5
61D
330
1F
100
AcDbEntity
  8
画層3-2
  6
Continuous
100
AcDbLine
 10
13231.0960306083
 20
15357.497081541
 30
0.0
 11
13231.0960306083
 21
15431.86619862287
 31
0.0
  0
LINE
  5
61E
330
1F
100
AcDbEntity
  8
画層3-1
  6
Continuous
100
AcDbLine
 10
13376.79603060848
 20
14819.96619862273
 30
0.0
 11
13376.79603060848
 21
14849.96619862273
 31
0.0
  0
LINE
  5
61F
330
1F
100
AcDbEntity
  8
画層3-1
  6
Continuous
100
AcDbLine
 10
13216.09603060876
 20
14849.96619862273
 30
0.0
 11
13216.09603060876
 21
14819.96619862273
 31
0.0
  0
LINE
  5
620
330
1F
100
AcDbEntity
  8
画層3-1
  6
Continuous
100
AcDbLine
 10
13216.09603060876
 20
14819.96619862273
 30
0.0
 11
13376.79603060848
 21
14819.96619862273
 31
0.0
  0
LINE
  5
621
330
1F
100
AcDbEntity
  8
画層3-1
  6
Continuous
100
AcDbLine
 10
13376.79603060848
 20
14849.96619862273
 30
0.0
 11
13216.09603060876
 21
14849.96619862273
 31
0.0
  0
LINE
  5
622
330
1F
100
AcDbEntity
  8
画層3-2
  6
Continuous
100
AcDbLine
 10
13231.09603060876
 20
14849.96619862273
 30
0.0
 11
13231.09603060876
 21
14891.68320190337
 31
0.0
  0
LINE
  5
623
330
1F
100
AcDbEntity
  8
画層3-2
  6
Continuous
100
AcDbLine
 10
13361.79603060848
 20
14891.68320190337
 30
0.0
 11
13361.79603060848
 21
14849.96619862273
 31
0.0
  0
LINE
  5
624
330
1F
100
AcDbEntity
  8
画層3-1
  6
Continuous
100
AcDbLine
 10
13321.84603060829
 20
14891.68320190337
 30
0.0
 11
13321.84603060829
 21
14849.96619862273
 31
0.0
  0
LINE
  5
625
330
1F
100
AcDbEntity
  8
画層3-1
  6
Continuous
100
AcDbLine
 10
13271.04603060848
 20
14891.68320190337
 30
0.0
 11
13271.04603060848
 21
14849.96619862273
 31
0.0
  0
LINE
  5
626
330
1F
100
AcDbEntity
  8
画層3-1
  6
Continuous
100
AcDbLine
 10
13376.79603060848
 20
14159.96619862273
 30
0.0
 11
13376.79603060848
 21
14189.96619862273
 31
0.0
  0
LINE
  5
627
330
1F
100
AcDbEntity
  8
画層3-1
  6
Continuous
100
AcDbLine
 10
13216.09603060876
 20
14189.96619862273
 30
0.0
 11
13216.09603060876
 21
14159.96619862273
 31
0.0
  0
LINE
  5
628
330
1F
100
AcDbEntity
  8
画層3-1
  6
Continuous
100
AcDbLine
 10
13216.09603060876
 20
14159.96619862273
 30
0.0
 11
13376.79603060848
 21
14159.96619862273
 31
0.0
  0
LINE
  5
629
330
1F
100
AcDbEntity
  8
画層3-1
  6
Continuous
100
AcDbLine
 10
13376.79603060848
 20
14189.96619862273
 30
0.0
 11
13216.09603060876
 21
14189.96619862273
 31
0.0
  0
LINE
  5
62A
330
1F
100
AcDbEntity
  8
画層3-2
  6
Continuous
100
AcDbLine
 10
13361.79603060848
 20
14819.96619862273
 30
0.0
 11
13361.79603060848
 21
14189.96619862273
 31
0.0
  0
LINE
  5
62B
330
1F
100
AcDbEntity
  8
画層3-1
  6
Continuous
100
AcDbLine
 10
13321.84603060829
 20
14819.96619862273
 30
0.0
 11
13321.84603060829
 21
14189.96619862273
 31
0.0
  0
LINE
  5
62C
330
1F
100
AcDbEntity
  8
画層3-2
  6
Continuous
100
AcDbLine
 10
13231.09603060876
 20
14189.96619862273
 30
0.0
 11
13231.09603060876
 21
14819.96619862273
 31
0.0
  0
LINE
  5
62D
330
1F
100
AcDbEntity
  8
画層3-1
  6
Continuous
100
AcDbLine
 10
13271.04603060848
 20
14819.96619862273
 30
0.0
 11
13271.04603060848
 21
14189.96619862273
 31
0.0
  0
LINE
  5
62E
330
1F
100
AcDbEntity
  8
画層3-通り芯
  6
DASHDOT
 48
100.0
100
AcDbLine
 10
13296.44603060839
 20
14094.19985511027
 30
0.0
 11
13296.44603060839
 21
14891.68320190337
 31
0.0
  0
LINE
  5
62F
330
1F
100
AcDbEntity
  8
画層3-2
  6
Continuous
100
AcDbLine
 10
13361.79603060848
 20
14159.96619862273
 30
0.0
 11
13361.79603060848
 21
14094.19985511027
 31
0.0
  0
LINE
  5
630
330
1F
100
AcDbEntity
  8
画層3-1
  6
Continuous
100
AcDbLine
 10
13321.84603060829
 20
14159.96619862273
 30
0.0
 11
13321.84603060829
 21
14094.19985511027
 31
0.0
  0
LINE
  5
631
330
1F
100
AcDbEntity
  8
画層3-1
  6
Continuous
100
AcDbLine
 10
13271.04603060848
 20
14159.96619862273
 30
0.0
 11
13271.04603060848
 21
14094.19985511027
 31
0.0
  0
LINE
  5
632
330
1F
100
AcDbEntity
  8
画層3-2
  6
Continuous
100
AcDbLine
 10
13231.09603060876
 20
14094.19985511027
 30
0.0
 11
13231.09603060876
 21
14159.96619862273
 31
0.0
  0
LINE
  5
633
330
1F
100
AcDbEntity
  8
画層3-1
  6
Continuous
100
AcDbLine
 10
11245.64603060858
 20
15469.96619862273
 30
0.0
 11
11245.64603060858
 21
15431.86619862287
 31
0.0
  0
LINE
  5
634
330
1F
100
AcDbEntity
  8
画層3-1
  6
Continuous
100
AcDbLine
 10
11347.24603060867
 20
15431.86619862275
 30
0.0
 11
11347.24603060867
 21
15469.96619862273
 31
0.0
  0
LINE
  5
635
330
1F
100
AcDbEntity
  8
画層3-1
  6
Continuous
100
AcDbLine
 10
11332.24603060867
 20
15416.86619862275
 30
0.0
 11
11260.64603060858
 21
15416.86619862287
 31
0.0
  0
LINE
  5
636
330
1F
100
AcDbEntity
  8
画層3-1
  6
Continuous
100
AcDbLine
 10
11245.64603060858
 20
15431.86619862287
 30
0.0
 11
11260.64603060858
 21
15416.86619862287
 31
0.0
  0
ARC
  5
637
330
1F
100
AcDbEntity
  8
画層3-1
  6
Continuous
100
AcDbCircle
 10
11256.04603060848
 20
15416.86619862287
 30
0.0
 40
15.0
100
AcDbArc
 50
0.0
 51
90.0
  0
LINE
  5
638
330
1F
100
AcDbEntity
  8
画層3-1
  6
Continuous
100
AcDbLine
 10
11332.24603060867
 20
15416.86619862275
 30
0.0
 11
11347.24603060867
 21
15431.86619862275
 31
0.0
  0
ARC
  5
639
330
1F
100
AcDbEntity
  8
画層3-1
  6
Continuous
100
AcDbCircle
 10
11336.8460306083
 20
15416.86619862275
 30
0.0
 40
15.0
100
AcDbArc
 50
90.0
 51
180.0
  0
LINE
  5
63A
330
1F
100
AcDbEntity
  8
画層3-1
  6
Continuous
100
AcDbLine
 10
11216.09603060876
 20
14849.96619862273
 30
0.0
 11
11216.09603060876
 21
14819.96619862273
 31
0.0
  0
LINE
  5
63B
330
1F
100
AcDbEntity
  8
画層3-1
  6
Continuous
100
AcDbLine
 10
11376.79603060848
 20
14819.96619862273
 30
0.0
 11
11376.79603060848
 21
14849.96619862273
 31
0.0
  0
LINE
  5
63C
330
1F
100
AcDbEntity
  8
画層3-1
  6
Continuous
100
AcDbLine
 10
11216.09603060876
 20
14819.96619862273
 30
0.0
 11
11376.79603060848
 21
14819.96619862273
 31
0.0
  0
LINE
  5
63D
330
1F
100
AcDbEntity
  8
画層3-1
  6
Continuous
100
AcDbLine
 10
11376.79603060848
 20
14849.96619862273
 30
0.0
 11
11216.09603060876
 21
14849.96619862273
 31
0.0
  0
LINE
  5
63E
330
1F
100
AcDbEntity
  8
画層3-1
  6
Continuous
100
AcDbLine
 10
11216.09603060876
 20
14159.96619862273
 30
0.0
 11
11376.79603060848
 21
14159.96619862273
 31
0.0
  0
LINE
  5
63F
330
1F
100
AcDbEntity
  8
画層3-1
  6
Continuous
100
AcDbLine
 10
11216.09603060876
 20
14189.96619862273
 30
0.0
 11
11216.09603060876
 21
14159.96619862273
 31
0.0
  0
LINE
  5
640
330
1F
100
AcDbEntity
  8
画層3-1
  6
Continuous
100
AcDbLine
 10
11376.79603060848
 20
14189.96619862273
 30
0.0
 11
11216.09603060876
 21
14189.96619862273
 31
0.0
  0
LINE
  5
641
330
1F
100
AcDbEntity
  8
画層3-1
  6
Continuous
100
AcDbLine
 10
11376.79603060848
 20
14159.96619862273
 30
0.0
 11
11376.79603060848
 21
14189.96619862273
 31
0.0
  0
LINE
  5
642
330
1F
100
AcDbEntity
  8
寸法引出
  6
Continuous
100
AcDbLine
 10
11659.94065464662
 20
14338.4862978873
 30
0.0
 11
11508.98301855662
 21
14834.96619862273
 31
0.0
  0
LINE
  5
643
330
1F
100
AcDbEntity
  8
画層3-1
  6
Continuous
100
AcDbLine
 10
11271.04603060848
 20
14819.96619862273
 30
0.0
 11
11271.04603060848
 21
14189.96619862273
 31
0.0
  0
LINE
  5
644
330
1F
100
AcDbEntity
  8
画層3-2
  6
Continuous
100
AcDbLine
 10
11361.79603060848
 20
14819.96619862273
 30
0.0
 11
11361.79603060848
 21
14189.96619862273
 31
0.0
  0
LINE
  5
645
330
1F
100
AcDbEntity
  8
画層3-2
  6
Continuous
100
AcDbLine
 10
11231.09603060876
 20
14189.96619862273
 30
0.0
 11
11231.09603060876
 21
14819.96619862273
 31
0.0
  0
LINE
  5
646
330
1F
100
AcDbEntity
  8
画層3-1
  6
Continuous
100
AcDbLine
 10
11321.8460306083
 20
14819.96619862273
 30
0.0
 11
11321.8460306083
 21
14189.96619862273
 31
0.0
  0
LINE
  5
647
330
1F
100
AcDbEntity
  8
画層3-1
  6
Continuous
100
AcDbLine
 10
11271.04603060848
 20
15416.86619862287
 30
0.0
 11
11271.04603060848
 21
14849.96619862273
 31
0.0
  0
LINE
  5
648
330
1F
100
AcDbEntity
  8
画層3-2
  6
Continuous
100
AcDbLine
 10
11231.09603060876
 20
14849.96619862273
 30
0.0
 11
11231.0960306083
 21
15431.86619862287
 31
0.0
  0
LINE
  5
649
330
1F
100
AcDbEntity
  8
画層3-2
  6
Continuous
100
AcDbLine
 10
11361.79603060848
 20
15431.86619862287
 30
0.0
 11
11361.79603060848
 21
14849.96619862273
 31
0.0
  0
LINE
  5
64A
330
1F
100
AcDbEntity
  8
画層3-1
  6
Continuous
100
AcDbLine
 10
11321.8460306083
 20
15416.86619862275
 30
0.0
 11
11321.8460306083
 21
14849.96619862273
 31
0.0
  0
LEADER
  5
64B
330
1F
100
AcDbEntity
  8
寸法引出
  6
Continuous
100
AcDbLeader
  3
1_100_B
 71
     0
 73
     0
 74
     0
 75
     1
 40
300.0
 41
1095.0
 76
     3
 10
11503.48246567744
 20
14174.96619862273
 30
0.0
 10
11659.94065464662
 20
14338.4862978873
 30
0.0
 10
11739.94065464662
 20
14338.4862978873
 30
0.0
  0
MTEXT
  5
64C
102
{ACAD_REACTORS
330
64B
102
}
330
1F
100
AcDbEntity
  8
寸法文字
  6
Continuous
100
AcDbMText
 10
11789.94065464662
 20
14388.4862978873
 30
0.0
 40
300.0
 41
0.0
 71
     7
 72
     1
  1
4mm線
  7
1_100
 73
     1
 44
1.0
1001
ACAD
1000
MTEXTBEGIN
1070
    73
1070
     1
1070
    44
1040
1.0
1070
    74
1070
     0
1000
MTEXTEND
  0
LINE
  5
64D
330
1F
100
AcDbEntity
  8
画層3-2
  6
Continuous
100
AcDbLine
 10
11376.79603060848
 20
14834.96619862273
 30
0.0
 11
13216.09603060876
 21
14834.96619862273
 31
0.0
  0
LINE
  5
64E
330
1F
100
AcDbEntity
  8
画層3-2
  6
Continuous
100
AcDbLine
 10
13216.09603060876
 20
14174.96619862273
 30
0.0
 11
11376.79603060848
 21
14174.96619862273
 31
0.0
  0
LINE
  5
64F
330
1F
100
AcDbEntity
  8
画層3-1
  6
Continuous
100
AcDbLine
 10
11336.8460306083
 20
15431.86619862263
 30
0.0
 11
13256.04603060848
 21
15431.86619862263
 31
0.0
  0
LINE
  5
650
330
1F
100
AcDbEntity
  8
画層3-2
  6
Continuous
100
AcDbLine
 10
11376.79603060848
 20
14834.96619862273
 30
0.0
 11
13216.09603060876
 21
14834.96619862273
 31
0.0
  0
LINE
  5
651
330
1F
100
AcDbEntity
  8
画層3-2
  6
Continuous
100
AcDbLine
 10
13216.09603060876
 20
14174.96619862273
 30
0.0
 11
11376.79603060848
 21
14174.96619862273
 31
0.0
  0
LEADER
  5
652
330
1F
100
AcDbEntity
  8
寸法引出
  6
Continuous
100
AcDbLeader
  3
1_100_B
 71
     0
 73
     0
 74
     0
 75
     1
 40
300.0
 41
2635.714285714287
 76
     3
 10
11321.8460306083
 20
14914.29366797606
 30
0.0
 10
11489.08485462471
 20
14985.09837578704
 30
0.0
 10
11569.08485462471
 20
14985.09837578704
 30
0.0
  0
MTEXT
  5
653
102
{ACAD_REACTORS
330
652
102
}
330
1F
100
AcDbEntity
  8
寸法文字
  6
Continuous
100
AcDbMText
 10
11619.08485462471
 20
15035.09837578704
 30
0.0
 40
300.0
 41
0.0
 71
     7
 72
     1
  1
主柱φ50.8×2.3ｔ
  7
1_100
 73
     1
 44
1.0
1001
ACAD
1000
MTEXTBEGIN
1070
    73
1070
     1
1070
    44
1040
1.0
1070
    74
1070
     0
1000
MTEXTEND
  0
LWPOLYLINE
  5
654
330
1F
100
AcDbEntity
  8
画層3-1
100
AcDbPolyline
 90
        4
 70
     0
 43
0.0
 10
11321.8460306083
 20
13514.96619862273
 10
11321.8460306083
 20
13194.96619862273
 10
11271.04603060848
 20
13194.96619862273
 10
11271.04603060848
 20
13514.96619862296
  0
LWPOLYLINE
  5
655
330
1F
100
AcDbEntity
  8
画層3-1
100
AcDbPolyline
 90
        4
 70
     0
 43
0.0
 10
9321.846030608297
 20
13514.96619862273
 10
9321.846030608297
 20
13194.96619862273
 10
9271.046030608484
 20
13194.96619862273
 10
9271.046030608484
 20
13514.96619862296
  0
LWPOLYLINE
  5
656
330
1F
100
AcDbEntity
  8
画層3-1
100
AcDbPolyline
 90
        4
 70
     0
 43
0.0
 10
13321.84603060829
 20
13514.96619862273
 10
13321.84603060829
 20
13194.96619862273
 10
13271.04603060848
 20
13194.96619862273
 10
13271.04603060848
 20
13514.96619862296
  0
LWPOLYLINE
  5
657
330
1F
100
AcDbEntity
  8
画層1
  6
Continuous
100
AcDbPolyline
 90
        4
 70
     1
 43
0.0
 10
9138.296030608485
 20
15519.96619862296
 10
9454.576030608279
 20
15519.96619862296
 10
9454.576030608279
 20
15469.96619862296
 10
9138.296030608485
 20
15469.96619862296
  0
LINE
  5
658
330
1F
100
AcDbEntity
  8
ﾊｯﾁﾝｸﾞ
  6
Continuous
100
AcDbLine
 10
8832.198411406496
 20
13494.96619862284
 30
0.0
 11
8952.198411406962
 21
13374.96619862273
 31
0.0
  0
LINE
  5
659
330
1F
100
AcDbEntity
  8
ﾊｯﾁﾝｸﾞ
  6
Continuous
100
AcDbLine
 10
8884.270693187149
 20
13442.89391684231
 30
0.0
 11
8816.342974967801
 21
13374.96619862273
 31
0.0
  0
LINE
  5
65A
330
1F
100
AcDbEntity
  8
ﾊｯﾁﾝｸﾞ
  6
Continuous
100
AcDbLine
 10
8844.67271344039
 20
13482.4918965886
 30
0.0
 11
8737.14701547475
 21
13374.96619862273
 31
0.0
  0
LINE
  5
65B
330
1F
100
AcDbEntity
  8
ﾊｯﾁﾝｸﾞ
  6
Continuous
100
AcDbLine
 10
8686.280794454285
 20
13403.29593709578
 30
0.0
 11
8657.951055981696
 21
13374.96619862273
 31
0.0
  0
LINE
  5
65C
330
1F
100
AcDbEntity
  8
ﾊｯﾁﾝｸﾞ
  6
Continuous
100
AcDbLine
 10
8646.682814707524
 20
13442.89391684231
 30
0.0
 11
8578.755096488178
 21
13374.96619862273
 31
0.0
  0
LINE
  5
65D
330
1F
100
AcDbEntity
  8
ﾊｯﾁﾝｸﾞ
  6
Continuous
100
AcDbLine
 10
8753.002451912978
 20
13494.96619862296
 30
0.0
 11
8805.074733694095
 21
13442.89391684231
 31
0.0
  0
LINE
  5
65E
330
1F
100
AcDbEntity
  8
ﾊｯﾁﾝｸﾞ
  6
Continuous
100
AcDbLine
 10
8673.806492419926
 20
13494.96619862273
 30
0.0
 11
8765.476753947803
 21
13403.29593709578
 31
0.0
  0
LINE
  5
65F
330
1F
100
AcDbEntity
  8
ﾊｯﾁﾝｸﾞ
  6
Continuous
100
AcDbLine
 10
8594.610532926877
 20
13494.96619862273
 30
0.0
 11
8714.610532927805
 21
13374.96619862273
 31
0.0
  0
LINE
  5
660
330
1F
100
AcDbEntity
  8
ﾊｯﾁﾝｸﾞ
  6
Continuous
100
AcDbLine
 10
8607.084834961232
 20
13482.4918965886
 30
0.0
 11
8553.321985978184
 21
13428.72904760578
 31
0.0
  0
LINE
  5
661
330
1F
100
AcDbEntity
  8
ﾊｯﾁﾝｸﾞ
  6
Continuous
100
AcDbLine
 10
8990.590330392601
 20
13494.96619862273
 30
0.0
 11
9046.446030608393
 21
13439.11049840717
 31
0.0
  0
LINE
  5
662
330
1F
100
AcDbEntity
  8
ﾊｯﾁﾝｸﾞ
  6
Continuous
100
AcDbLine
 10
8911.394370899083
 20
13494.96619862284
 30
0.0
 11
9031.394370900015
 21
13374.96619862273
 31
0.0
  0
LINE
  5
663
330
1F
100
AcDbEntity
  8
ﾊｯﾁﾝｸﾞ
  6
Continuous
100
AcDbLine
 10
8923.868672933442
 20
13403.29593709578
 30
0.0
 11
8895.538934460853
 21
13374.96619862273
 31
0.0
  0
LINE
  5
664
330
1F
100
AcDbEntity
  8
ﾊｯﾁﾝｸﾞ
  6
Continuous
100
AcDbLine
 10
9839.889609303805
 20
13494.96619862296
 30
0.0
 11
9787.817327522686
 21
13442.89391684231
 31
0.0
  0
LINE
  5
665
330
1F
100
AcDbEntity
  8
ﾊｯﾁﾝｸﾞ
  6
Continuous
100
AcDbLine
 10
9748.219347776393
 20
13482.4918965886
 30
0.0
 11
9855.745045742033
 21
13374.96619862273
 31
0.0
  0
LINE
  5
666
330
1F
100
AcDbEntity
  8
ﾊｯﾁﾝｸﾞ
  6
Continuous
100
AcDbLine
 10
9708.621368029634
 20
13442.89391684231
 30
0.0
 11
9776.549086248984
 21
13374.96619862273
 31
0.0
  0
LINE
  5
667
330
1F
100
AcDbEntity
  8
ﾊｯﾁﾝｸﾞ
  6
Continuous
100
AcDbLine
 10
9669.023388283342
 20
13403.29593709578
 30
0.0
 11
9697.353126755928
 21
13374.96619862273
 31
0.0
  0
LINE
  5
668
330
1F
100
AcDbEntity
  8
ﾊｯﾁﾝｸﾞ
  6
Continuous
100
AcDbLine
 10
9760.693649810288
 20
13494.96619862284
 30
0.0
 11
9640.69364980982
 21
13374.96619862273
 31
0.0
  0
LINE
  5
669
330
1F
100
AcDbEntity
  8
ﾊｯﾁﾝｸﾞ
  6
Continuous
100
AcDbLine
 10
9681.4976903177
 20
13494.96619862284
 30
0.0
 11
9561.497690316768
 21
13374.96619862273
 31
0.0
  0
LINE
  5
66A
330
1F
100
AcDbEntity
  8
ﾊｯﾁﾝｸﾞ
  6
Continuous
100
AcDbLine
 10
9602.301730824182
 20
13494.96619862273
 30
0.0
 11
9546.446030608393
 21
13439.11049840717
 31
0.0
  0
LINE
  5
66B
330
1F
100
AcDbEntity
  8
ﾊｯﾁﾝｸﾞ
  6
Continuous
100
AcDbLine
 10
9985.807226255552
 20
13482.4918965886
 30
0.0
 11
10039.5700752386
 21
13428.72904760578
 31
0.0
  0
LINE
  5
66C
330
1F
100
AcDbEntity
  8
ﾊｯﾁﾝｸﾞ
  6
Continuous
100
AcDbLine
 10
9998.281528289908
 20
13494.96619862273
 30
0.0
 11
9878.281528288979
 21
13374.96619862273
 31
0.0
  0
LINE
  5
66D
330
1F
100
AcDbEntity
  8
ﾊｯﾁﾝｸﾞ
  6
Continuous
100
AcDbLine
 10
9919.085568796857
 20
13494.96619862273
 30
0.0
 11
9827.415307268978
 21
13403.29593709578
 31
0.0
  0
LINE
  5
66E
330
1F
100
AcDbEntity
  8
ﾊｯﾁﾝｸﾞ
  6
Continuous
100
AcDbLine
 10
9946.209246509258
 20
13442.89391684231
 30
0.0
 11
10014.1369647286
 21
13374.96619862273
 31
0.0
  0
LINE
  5
66F
330
1F
100
AcDbEntity
  8
ﾊｯﾁﾝｸﾞ
  6
Continuous
100
AcDbLine
 10
9906.611266762496
 20
13403.29593709578
 30
0.0
 11
9934.941005235085
 21
13374.96619862273
 31
0.0
  0
LWPOLYLINE
  5
670
330
1F
100
AcDbEntity
  8
画層2
100
AcDbPolyline
 90
        8
 70
     0
 43
0.0
 10
9046.446030608393
 20
13494.96619862273
 10
9046.446030608393
 20
13194.96619862273
 10
9071.44603060839
 20
13194.96619862273
 10
9071.44603060839
 20
11394.96619862273
 10
9521.446030608393
 20
11394.96619862273
 10
9521.446030608393
 20
13194.96619862273
 10
9546.446030608393
 20
13194.96619862273
 10
9546.446030608393
 20
13494.96619862273
  0
LINE
  5
671
330
1F
100
AcDbEntity
  8
画層2
100
AcDbLine
 10
9521.446030608393
 20
11494.96619862273
 30
0.0
 11
9071.44603060839
 21
11494.96619862273
 31
0.0
  0
HATCH
  5
672
330
1F
100
AcDbEntity
  8
ﾊｯﾁﾝｸﾞ
100
AcDbHatch
 10
0.0
 20
0.0
 30
0.0
210
0.0
220
0.0
230
1.0
  2
PLAST
 70
     0
 71
     0
 91
        2
 92
        7
 72
     0
 73
     1
 93
        6
 10
9521.446030608393
 20
13194.96619862273
 10
9546.446030608393
 20
13194.96619862273
 10
9546.446030608393
 20
13494.96619862284
 10
9296.446030608393
 20
13494.96619862284
 10
9296.446030608393
 20
11494.96619862273
 10
9521.446030608393
 20
11494.96619862273
 97
        0
 92
        7
 72
     0
 73
     1
 93
        6
 10
9296.446030608393
 20
13494.96619862273
 10
9046.446030608393
 20
13494.96619862273
 10
9046.446030608393
 20
13194.96619862273
 10
9071.44603060839
 20
13194.96619862273
 10
9071.44603060839
 20
11494.96619862273
 10
9296.446030608393
 20
11494.96619862273
 97
        0
 75
     0
 76
     1
 52
45.0
 41
2000.0
 77
     0
 78
     3
 53
45.0
 43
-359183.3211074761
 44
-240324.8431488385
 45
-353.5533905932737
 46
353.5533905932738
 79
     0
 53
45.0
 43
-359227.5152813001
 44
-240280.6489750143
 45
-353.5533905932737
 46
353.5533905932738
 79
     0
 53
45.0
 43
-359271.7094551244
 44
-240236.4548011902
 45
-353.5533905932737
 46
353.5533905932738
 79
     0
 47
9.703071649984703
 98
        2
 10
9483.799081623102
 20
12593.03798655608
 10
9182.796187623415
 20
12622.14757223429
  0
INSERT
  5
673
330
1F
100
AcDbEntity
  8
ﾊｯﾁﾝｸﾞ
100
AcDbBlockReference
  2
sai450
 10
9296.446030608393
 20
11494.96619862273
 30
0.0
  0
DIMENSION
  5
674
330
1F
100
AcDbEntity
  8
寸法
  6
Continuous
100
AcDbDimension
  2
*D12
 10
19296.44603060839
 20
8394.966198622496
 30
0.0
 11
14296.44603060839
 21
8673.537627193926
 31
0.0
 70
    32
 71
     5
 42
10000.0
  3
1_100
100
AcDbAlignedDimension
 13
9296.446030608393
 23
9994.96619862273
 33
0.0
 14
19296.44603060839
 24
11252.49872682955
 34
0.0
100
AcDbRotatedDimension
  0
LEADER
  5
675
330
1F
100
AcDbEntity
  8
寸法引出
  6
Continuous
100
AcDbLeader
  3
1_100_B
 71
     0
 73
     0
 74
     0
 75
     1
 40
300.0
 41
3098.571428571429
 76
     3
 10
11593.73569987762
 20
13553.06619862282
 30
0.0
 10
11655.31823478966
 20
13641.76742564702
 30
0.0
 10
11735.31823478966
 20
13641.76742564702
 30
0.0
213
69.95590756242018
223
0.0
233
0.0
  0
LINE
  5
676
330
1F
100
AcDbEntity
  8
画層3-1
  6
Continuous
100
AcDbLine
 10
13321.84603060829
 20
13553.06619862282
 30
0.0
 11
15271.04603060848
 21
13553.06619862282
 31
0.0
  0
LINE
  5
677
330
1F
100
AcDbEntity
  8
画層3-1
  6
Continuous
100
AcDbLine
 10
13321.84603060829
 20
13514.96619862273
 30
0.0
 11
15271.04603060848
 21
13514.96619862273
 31
0.0
  0
DIMENSION
  5
678
330
1F
100
AcDbEntity
  8
画層3-寸法
  6
Continuous
100
AcDbDimension
  2
*D13
 10
15296.44603060839
 20
9194.966198622497
 30
0.0
 11
14296.44603060839
 21
9473.537627193925
 31
0.0
 70
    32
 71
     5
 42
2000.0
  3
1_100
100
AcDbAlignedDimension
 13
13296.44603060839
 23
10502.06023288031
 33
0.0
 14
15296.44603060839
 24
10502.06023288031
 34
0.0
100
AcDbRotatedDimension
  0
LINE
  5
679
330
1F
100
AcDbEntity
  8
画層3-1
  6
Continuous
100
AcDbLine
 10
13336.8460306083
 20
15431.86619862275
 30
0.0
 11
15256.04603060848
 21
15431.86619862287
 31
0.0
  0
LINE
  5
67A
330
1F
100
AcDbEntity
  8
画層3-2
  6
Continuous
100
AcDbLine
 10
15216.09603060876
 20
14174.96619862273
 30
0.0
 11
13376.79603060848
 21
14174.96619862273
 31
0.0
  0
LINE
  5
67B
330
1F
100
AcDbEntity
  8
画層3-2
  6
Continuous
100
AcDbLine
 10
13376.79603060848
 20
14834.96619862273
 30
0.0
 11
15216.09603060876
 21
14834.96619862273
 31
0.0
  0
MTEXT
  5
67C
102
{ACAD_REACTORS
330
675
102
}
330
1F
100
AcDbEntity
  8
寸法文字
  6
Continuous
100
AcDbMText
 10
11715.36232722738
 20
13691.76742564702
 30
0.0
 40
300.0
 41
0.0
 71
     7
 72
     1
  1
φ38.1×1.6ｔ（上下）
  7
1_100
 73
     1
 44
1.0
1001
ACAD
1000
MTEXTBEGIN
1070
    73
1070
     1
1070
    44
1040
1.0
1070
    74
1070
     0
1000
MTEXTEND
  0
LWPOLYLINE
  5
67D
330
1F
100
AcDbEntity
  8
画層1
100
AcDbPolyline
 90
        4
 70
     1
 43
0.0
 10
9277.564892149079
 20
15849.96619862296
 10
9317.564892149077
 20
15849.96619862296
 10
9317.564892149077
 20
15669.96619862296
 10
9277.564892149079
 20
15669.96619862296
  0
MTEXT
  5
67E
102
{ACAD_REACTORS
330
67F
102
}
330
1F
100
AcDbEntity
  8
寸法文字
  6
Continuous
100
AcDbMText
 10
16923.32506932226
 20
15988.26277238155
 30
0.0
 40
300.0
 41
0.0
 71
     9
 72
     1
  1
タンバックル12mm
  7
1_100
 73
     1
 44
1.0
1001
ACAD
1000
MTEXTBEGIN
1070
    73
1070
     1
1070
    44
1040
1.0
1070
    74
1070
     0
1000
MTEXTEND
  0
LEADER
  5
67F
330
1F
100
AcDbEntity
  8
寸法引出
  6
Continuous
100
AcDbLeader
  3
1_100
 71
     0
 73
     0
 40
300.0
 41
2603.571428571428
 76
     2
 10
19006.9118429823
 20
15566.70713069384
 30
0.0
 10
17023.32506932226
 20
15888.26277238155
 30
0.0
340
67E
  0
TEXT
  5
680
330
1F
100
AcDbEntity
  8
寸法
  6
Continuous
100
AcDbText
 10
5527.331065697207
 20
13550.83164737817
 30
0.0
 40
300.0
  1
▽GL
 41
0.75
  7
1_100
 72
     2
 11
6193.759637125779
 21
13550.83164737817
 31
0.0
100
AcDbText
 73
     1
  0
MTEXT
  5
681
330
1F
100
AcDbEntity
  8
寸法文字
  6
Continuous
100
AcDbMText
 10
6762.130158845812
 20
20440.57951052442
 30
0.0
 40
300.0
 41
0.0
 71
     3
 72
     1
  1
（STKT-590鋼管）
  7
1_100
 73
     1
 44
1.0
1001
ACAD
1000
MTEXTBEGIN
1070
    73
1070
     1
1070
    44
1040
1.0
1070
    74
1070
     0
1000
MTEXTEND
  0
LEADER
  5
682
330
1F
100
AcDbEntity
  8
寸法引出
  6
Continuous
100
AcDbLeader
  3
1_100
 71
     0
 73
     0
 75
     1
 40
300.0
 41
4699.285714285712
 76
     3
 10
9188.296030608483
 20
19936.50733268658
 30
0.0
 10
8144.072137654305
 20
20659.82521998081
 30
0.0
 10
8084.072137654306
 20
20659.82521998081
 30
0.0
340
683
  0
MTEXT
  5
683
102
{ACAD_REACTORS
330
682
102
}
330
1F
100
AcDbEntity
  8
寸法文字
  6
Continuous
100
AcDbMText
 10
7984.072137654306
 20
20759.8252199808
 30
0.0
 40
300.0
 41
0.0
 71
     9
 72
     1
  1
主柱KSポールφ216.3厚さ3.5mm
  7
1_100
 73
     1
 44
1.0
1001
ACAD
1000
ACAD_MTEXT_DEFINED_HEIGHT_BEGIN
1070
    46
1040
0.0
1000
ACAD_MTEXT_DEFINED_HEIGHT_END
1000
MTEXTBEGIN
1070
    73
1070
     1
1070
    44
1040
1.0
1070
    74
1070
     0
1000
MTEXTEND
  0
LINE
  5
684
330
1F
100
AcDbEntity
  8
寸法引出
  6
Continuous
100
AcDbLine
 10
16375.16851405148
 20
18861.14350002586
 30
0.0
 11
15903.52889760724
 21
19412.43890038774
 31
0.0
  0
LINE
  5
685
330
1F
100
AcDbEntity
  8
画層1
  6
Continuous
100
AcDbLine
 10
19454.5960306083
 20
21409.96619862296
 30
0.0
 11
19454.5960306083
 21
21459.96619862296
 31
0.0
  0
CIRCLE
  5
686
330
1F
100
AcDbEntity
  8
画層1
  6
Continuous
100
AcDbCircle
 10
19429.5960306083
 20
21434.96619862296
 30
0.0
 40
10.9509940156
  0
CIRCLE
  5
687
330
1F
100
AcDbEntity
  8
画層1
  6
Continuous
100
AcDbCircle
 10
19429.5960306083
 20
21384.96619862296
 30
0.0
 40
10.9509940156
  0
LINE
  5
688
330
1F
100
AcDbEntity
  8
画層1
  6
Continuous
100
AcDbLine
 10
19454.5960306083
 20
21359.96619862296
 30
0.0
 11
19454.5960306083
 21
21409.96619862296
 31
0.0
  0
LINE
  5
689
330
1F
100
AcDbEntity
  8
画層1
  6
Continuous
100
AcDbLine
 10
19321.44603060839
 20
21409.96619862296
 30
0.0
 11
19321.44603060839
 21
21459.96619862296
 31
0.0
  0
LINE
  5
68A
330
1F
100
AcDbEntity
  8
画層1
  6
Continuous
100
AcDbLine
 10
19271.44603060839
 20
21409.96619862296
 30
0.0
 11
19271.44603060839
 21
21459.96619862296
 31
0.0
  0
LINE
  5
68B
330
1F
100
AcDbEntity
  8
画層1
  6
Continuous
100
AcDbLine
 10
19138.29603060848
 20
21459.96619862296
 30
0.0
 11
19138.29603060848
 21
21409.96619862296
 31
0.0
  0
CIRCLE
  5
68C
330
1F
100
AcDbEntity
  8
画層1
  6
Continuous
100
AcDbCircle
 10
19163.29603060848
 20
21434.96619862296
 30
0.0
 40
10.9509940156
  0
CIRCLE
  5
68D
330
1F
100
AcDbEntity
  8
画層1
  6
Continuous
100
AcDbCircle
 10
19163.29603060848
 20
21384.96619862296
 30
0.0
 40
10.9509940156
  0
LINE
  5
68E
330
1F
100
AcDbEntity
  8
画層1
  6
Continuous
100
AcDbLine
 10
19138.29603060848
 20
21409.96619862296
 30
0.0
 11
19138.29603060848
 21
21359.96619862296
 31
0.0
  0
LINE
  5
68F
330
1F
100
AcDbEntity
  8
画層1
  6
Continuous
100
AcDbLine
 10
19271.44603060839
 20
21359.96619862296
 30
0.0
 11
19271.44603060839
 21
21409.96619862296
 31
0.0
  0
LINE
  5
690
330
1F
100
AcDbEntity
  8
画層1
  6
Continuous
100
AcDbLine
 10
19321.44603060839
 20
21359.96619862296
 30
0.0
 11
19321.44603060839
 21
21409.96619862296
 31
0.0
  0
LINE
  5
691
330
1F
100
AcDbEntity
  8
画層1
  6
Continuous
100
AcDbLine
 10
19138.29603060848
 20
21409.96619862296
 30
0.0
 11
19454.5960306083
 21
21409.96619862296
 31
0.0
  0
LINE
  5
692
330
1F
100
AcDbEntity
  8
画層1
  6
Continuous
100
AcDbLine
 10
19454.5960306083
 20
21459.96619862296
 30
0.0
 11
19138.29603060848
 21
21459.96619862296
 31
0.0
  0
LINE
  5
693
330
1F
100
AcDbEntity
  8
画層1
  6
Continuous
100
AcDbLine
 10
19188.29603060848
 20
21494.96619862296
 30
0.0
 11
19404.5960306083
 21
21494.96619862296
 31
0.0
  0
LINE
  5
694
330
1F
100
AcDbEntity
  8
画層1
  6
Continuous
100
AcDbLine
 10
19188.29603060848
 20
21474.96619862296
 30
0.0
 11
19404.5960306083
 21
21474.96619862296
 31
0.0
  0
LINE
  5
695
330
1F
100
AcDbEntity
  8
画層1
  6
Continuous
100
AcDbLine
 10
19454.5960306083
 20
21409.96619862296
 30
0.0
 11
19138.29603060848
 21
21409.96619862296
 31
0.0
  0
LINE
  5
696
330
1F
100
AcDbEntity
  8
画層1
  6
Continuous
100
AcDbLine
 10
19138.29603060848
 20
21359.96619862296
 30
0.0
 11
19454.5960306083
 21
21359.96619862296
 31
0.0
  0
LINE
  5
697
330
1F
100
AcDbEntity
  8
画層1
  6
Continuous
100
AcDbLine
 10
19454.5960306083
 20
18439.96619862296
 30
0.0
 11
19454.5960306083
 21
18489.96619862296
 31
0.0
  0
CIRCLE
  5
698
330
1F
100
AcDbEntity
  8
画層1
  6
Continuous
100
AcDbCircle
 10
19429.5960306083
 20
18464.96619862296
 30
0.0
 40
10.9509940156
  0
LINE
  5
699
330
1F
100
AcDbEntity
  8
画層1
  6
Continuous
100
AcDbLine
 10
19138.29603060848
 20
18489.96619862296
 30
0.0
 11
19138.29603060848
 21
18439.96619862296
 31
0.0
  0
CIRCLE
  5
69A
330
1F
100
AcDbEntity
  8
画層1
  6
Continuous
100
AcDbCircle
 10
19163.29603060848
 20
18464.96619862296
 30
0.0
 40
10.9509940156
  0
LINE
  5
69B
330
1F
100
AcDbEntity
  8
画層1
  6
Continuous
100
AcDbLine
 10
19271.44603060839
 20
18439.96619862296
 30
0.0
 11
19271.44603060839
 21
18489.96619862296
 31
0.0
  0
LINE
  5
69C
330
1F
100
AcDbEntity
  8
画層1
  6
Continuous
100
AcDbLine
 10
19321.44603060839
 20
18439.96619862296
 30
0.0
 11
19321.44603060839
 21
18489.96619862296
 31
0.0
  0
LINE
  5
69D
330
1F
100
AcDbEntity
  8
画層1
  6
Continuous
100
AcDbLine
 10
19138.29603060848
 20
18439.96619862296
 30
0.0
 11
19454.5960306083
 21
18439.96619862296
 31
0.0
  0
LINE
  5
69E
330
1F
100
AcDbEntity
  8
画層1
  6
Continuous
100
AcDbLine
 10
19454.5960306083
 20
18489.96619862296
 30
0.0
 11
19138.29603060848
 21
18489.96619862296
 31
0.0
  0
LINE
  5
69F
330
1F
100
AcDbEntity
  8
画層1
  6
Continuous
100
AcDbLine
 10
19188.29603060848
 20
21494.96619862296
 30
0.0
 11
19188.29603060848
 21
19463.04826193048
 31
0.0
  0
LINE
  5
6A0
330
1F
100
AcDbEntity
  8
通り芯
  6
DASHDOT
 48
100.0
100
AcDbLine
 10
19296.44603060839
 20
19463.04826193048
 30
0.0
 11
19296.44603060839
 21
21555.4288583256
 31
0.0
  0
LINE
  5
6A1
330
1F
100
AcDbEntity
  8
画層1
  6
Continuous
100
AcDbLine
 10
19404.5960306083
 20
19463.04826193048
 30
0.0
 11
19404.5960306083
 21
21494.96619862296
 31
0.0
  0
LINE
  5
6A2
330
1F
100
AcDbEntity
  8
画層1
100
AcDbLine
 10
19138.29603060848
 20
21384.96619862285
 30
0.0
 11
19088.29603060848
 21
21384.96619862285
 31
0.0
  0
DIMENSION
  5
6A4
330
1F
100
AcDbEntity
  8
寸法
  6
Continuous
100
AcDbDimension
  2
*D14
 10
9404.596030608296
 20
22094.96619862296
 30
0.0
 11
9296.446030608393
 21
22394.96619862296
 31
0.0
 70
    32
  1
φ<>
 71
     5
 42
216.2999999998137
  3
1_100
100
AcDbAlignedDimension
 13
9188.296030608483
 23
21494.96619862296
 33
0.0
 14
9404.596030608296
 24
21494.96619862296
 34
0.0
100
AcDbRotatedDimension
  0
LINE
  5
6A5
330
1F
100
AcDbEntity
  8
画層1
  6
Continuous
100
AcDbLine
 10
9321.44603060839
 20
21409.96619862296
 30
0.0
 11
9321.44603060839
 21
21459.96619862296
 31
0.0
  0
LINE
  5
6A6
330
1F
100
AcDbEntity
  8
画層1
  6
Continuous
100
AcDbLine
 10
9454.596030608298
 20
21409.96619862296
 30
0.0
 11
9454.596030608298
 21
21459.96619862296
 31
0.0
  0
LINE
  5
6A7
330
1F
100
AcDbEntity
  8
画層1
  6
Continuous
100
AcDbLine
 10
9530.046030608485
 20
21434.96619862296
 30
0.0
 11
9454.596030608298
 21
21434.96619862296
 31
0.0
  0
CIRCLE
  5
6A8
330
1F
100
AcDbEntity
  8
画層1
  6
Continuous
100
AcDbCircle
 10
9429.596030608298
 20
21434.96619862296
 30
0.0
 40
10.9509940156
  0
LWPOLYLINE
  5
6A9
330
1F
100
AcDbEntity
  8
画層1
100
AcDbPolyline
 90
        4
 70
     1
 43
0.0
 10
9530.046030608485
 20
21454.7424779616
 10
9684.596030608298
 20
21454.7424779616
 10
9684.596030608298
 20
21414.7424779616
 10
9530.046030608485
 20
21414.7424779616
  0
CIRCLE
  5
6AA
330
1F
100
AcDbEntity
  8
画層1
  6
Continuous
100
AcDbCircle
 10
9429.596030608298
 20
21384.96619862296
 30
0.0
 40
10.9509940156
  0
LINE
  5
6AB
330
1F
100
AcDbEntity
  8
画層1
  6
Continuous
100
AcDbLine
 10
9454.596030608298
 20
21359.96619862296
 30
0.0
 11
9454.596030608298
 21
21409.96619862296
 31
0.0
  0
LINE
  5
6AC
330
1F
100
AcDbEntity
  8
画層1
  6
Continuous
100
AcDbLine
 10
9321.44603060839
 20
21359.96619862296
 30
0.0
 11
9321.44603060839
 21
21409.96619862296
 31
0.0
  0
LINE
  5
6AD
330
1F
100
AcDbEntity
  8
画層1
  6
Continuous
100
AcDbLine
 10
9138.296030608485
 20
21459.96619862296
 30
0.0
 11
9138.296030608485
 21
21409.96619862296
 31
0.0
  0
LINE
  5
6AE
330
1F
100
AcDbEntity
  8
画層1
  6
Continuous
100
AcDbLine
 10
9271.446030608393
 20
21409.96619862296
 30
0.0
 11
9271.446030608393
 21
21459.96619862296
 31
0.0
  0
CIRCLE
  5
6AF
330
1F
100
AcDbEntity
  8
画層1
  6
Continuous
100
AcDbCircle
 10
9163.296030608483
 20
21434.96619862296
 30
0.0
 40
10.9509940156
  0
CIRCLE
  5
6B0
330
1F
100
AcDbEntity
  8
画層1
  6
Continuous
100
AcDbCircle
 10
9163.296030608483
 20
21384.96619862296
 30
0.0
 40
10.9509940156
  0
LINE
  5
6B1
330
1F
100
AcDbEntity
  8
画層1
  6
Continuous
100
AcDbLine
 10
9271.446030608393
 20
21359.96619862296
 30
0.0
 11
9271.446030608393
 21
21409.96619862296
 31
0.0
  0
LINE
  5
6B2
330
1F
100
AcDbEntity
  8
画層1
  6
Continuous
100
AcDbLine
 10
9138.296030608485
 20
21409.96619862296
 30
0.0
 11
9138.296030608485
 21
21359.96619862296
 31
0.0
  0
LINE
  5
6B3
330
1F
100
AcDbEntity
  8
画層1
  6
Continuous
100
AcDbLine
 10
9138.296030608485
 20
21409.96619862296
 30
0.0
 11
9454.596030608298
 21
21409.96619862296
 31
0.0
  0
LINE
  5
6B4
330
1F
100
AcDbEntity
  8
画層1
  6
Continuous
100
AcDbLine
 10
9454.596030608298
 20
21459.96619862296
 30
0.0
 11
9138.296030608485
 21
21459.96619862296
 31
0.0
  0
LINE
  5
6B5
330
1F
100
AcDbEntity
  8
画層1
  6
Continuous
100
AcDbLine
 10
9188.296030608483
 20
21494.96619862296
 30
0.0
 11
9404.596030608296
 21
21494.96619862296
 31
0.0
  0
LINE
  5
6B6
330
1F
100
AcDbEntity
  8
画層1
  6
Continuous
100
AcDbLine
 10
9188.296030608483
 20
21474.96619862296
 30
0.0
 11
9404.596030608296
 21
21474.96619862296
 31
0.0
  0
LINE
  5
6B7
330
1F
100
AcDbEntity
  8
画層1
  6
Continuous
100
AcDbLine
 10
9454.596030608298
 20
21409.96619862296
 30
0.0
 11
9138.296030608485
 21
21409.96619862296
 31
0.0
  0
LINE
  5
6B8
330
1F
100
AcDbEntity
  8
画層1
  6
Continuous
100
AcDbLine
 10
9138.296030608485
 20
21359.96619862296
 30
0.0
 11
9454.596030608298
 21
21359.96619862296
 31
0.0
  0
LINE
  5
6B9
330
1F
100
AcDbEntity
  8
画層1
  6
Continuous
100
AcDbLine
 10
9321.44603060839
 20
18439.96619862296
 30
0.0
 11
9321.44603060839
 21
18489.96619862296
 31
0.0
  0
LINE
  5
6BA
330
1F
100
AcDbEntity
  8
画層1
  6
Continuous
100
AcDbLine
 10
9454.596030608298
 20
18439.96619862296
 30
0.0
 11
9454.596030608298
 21
18489.96619862296
 31
0.0
  0
CIRCLE
  5
6BB
330
1F
100
AcDbEntity
  8
画層1
  6
Continuous
100
AcDbCircle
 10
9429.596030608298
 20
18464.96619862296
 30
0.0
 40
10.9509940156
  0
LWPOLYLINE
  5
6BC
330
1F
100
AcDbEntity
  8
画層1-1
100
AcDbPolyline
 90
        4
 70
     1
 43
0.0
 10
9530.046030608485
 20
18484.96719293693
 10
9684.596030608298
 20
18484.96719293693
 10
9684.596030608298
 20
18444.96719293693
 10
9530.046030608485
 20
18444.96719293693
  0
CIRCLE
  5
6BD
330
1F
100
AcDbEntity
  8
画層1
  6
Continuous
100
AcDbCircle
 10
9163.296030608483
 20
18464.96619862296
 30
0.0
 40
10.9509940156
  0
LINE
  5
6BE
330
1F
100
AcDbEntity
  8
画層1
  6
Continuous
100
AcDbLine
 10
9138.296030608485
 20
18489.96619862296
 30
0.0
 11
9138.296030608485
 21
18439.96619862296
 31
0.0
  0
LINE
  5
6BF
330
1F
100
AcDbEntity
  8
画層1
  6
Continuous
100
AcDbLine
 10
9271.446030608393
 20
18439.96619862296
 30
0.0
 11
9271.446030608393
 21
18489.96619862296
 31
0.0
  0
LINE
  5
6C0
330
1F
100
AcDbEntity
  8
画層1
  6
Continuous
100
AcDbLine
 10
9138.296030608485
 20
18439.96619862296
 30
0.0
 11
9454.596030608298
 21
18439.96619862296
 31
0.0
  0
LINE
  5
6C1
330
1F
100
AcDbEntity
  8
画層1
  6
Continuous
100
AcDbLine
 10
9454.596030608298
 20
18489.96619862296
 30
0.0
 11
9138.296030608485
 21
18489.96619862296
 31
0.0
  0
LINE
  5
6C3
330
1F
100
AcDbEntity
  8
画層1
100
AcDbLine
 10
9504.596030608295
 20
21384.96619862285
 30
0.0
 11
9454.596030608298
 21
21384.96619862285
 31
0.0
  0
LWPOLYLINE
  5
6C4
330
1F
100
AcDbEntity
  8
画層1
100
AcDbPolyline
 90
        4
 70
     1
 43
0.0
 10
19088.29603060848
 20
21442.11619862287
 10
9504.596030608295
 20
21442.11619862287
 10
9504.596030608295
 20
21327.81619862282
 10
19088.29603060848
 20
21327.81619862282
  0
LEADER
  5
6C5
330
1F
100
AcDbEntity
  8
寸法引出
  6
Continuous
100
AcDbLeader
  3
1_100
 71
     0
 73
     0
 74
     0
 75
     1
 40
300.0
 41
5880.0
 76
     3
 10
11917.7458116836
 20
21380.29144780071
 30
0.0
 10
12948.45175696305
 20
23074.29292739324
 30
0.0
 10
13008.45175696305
 20
23074.29292739324
 30
0.0
340
6C6
  0
MTEXT
  5
6C6
102
{ACAD_REACTORS
330
6C5
102
}
330
1F
100
AcDbEntity
  8
寸法文字
  6
Continuous
100
AcDbMText
 10
13108.45175696305
 20
23174.29292739324
 30
0.0
 40
300.0
 41
0.0
 71
     7
 72
     1
  1
端末・コーナー補強ポールφ114.3×3.0mm
  7
1_100
 73
     1
 44
1.0
1001
ACAD
1000
ACAD_MTEXT_DEFINED_HEIGHT_BEGIN
1070
    46
1040
0.0
1000
ACAD_MTEXT_DEFINED_HEIGHT_END
1000
MTEXTBEGIN
1070
    73
1070
     1
1070
    44
1040
1.0
1070
    74
1070
     0
1000
MTEXTEND
  0
MTEXT
  5
6C9
330
1F
100
AcDbEntity
  8
寸法文字
  6
Continuous
100
AcDbMText
 10
13399.00998430467
 20
22918.15838660534
 30
0.0
 40
300.0
 41
0.0
 71
     1
 72
     1
  1
（STK-540鋼管）
  7
1_100
 73
     1
 44
1.0
1001
ACAD
1000
ACAD_MTEXT_DEFINED_HEIGHT_BEGIN
1070
    46
1040
0.0
1000
ACAD_MTEXT_DEFINED_HEIGHT_END
1000
MTEXTBEGIN
1070
    73
1070
     1
1070
    44
1040
1.0
1070
    74
1070
     0
1000
MTEXTEND
  0
MTEXT
  5
6CA
102
{ACAD_REACTORS
330
6CB
102
}
330
1F
100
AcDbEntity
  8
寸法文字
  6
Continuous
100
AcDbMText
 10
8038.242446530158
 20
22427.49082544774
 30
0.0
 40
300.0
 41
0.0
 71
     9
 72
     1
  1
上部ネット下り防止付き
  7
1_100
 73
     1
 44
1.0
1001
ACAD
1000
MTEXTBEGIN
1070
    73
1070
     1
1070
    44
1040
1.0
1070
    74
1070
     0
1000
MTEXTEND
  0
LEADER
  5
6CB
330
1F
100
AcDbEntity
  8
寸法引出
  6
Continuous
100
AcDbLeader
  3
1_100
 71
     0
 73
     0
 75
     1
 40
300.0
 41
2940.000000000001
 76
     3
 10
9296.446030608393
 20
21494.96619862296
 30
0.0
 10
8198.242446530157
 20
22327.49082544773
 30
0.0
 10
8138.242446530158
 20
22327.49082544773
 30
0.0
340
6CA
  0
LINE
  5
6CC
330
1F
100
AcDbEntity
  8
画層1
  6
Continuous
100
AcDbLine
 10
31296.44603060839
 20
21474.96619862343
 30
0.0
 11
31296.44603060839
 21
15850.19091359853
 31
0.0
  0
LINE
  5
6CD
330
1F
100
AcDbEntity
  8
画層1
  6
Continuous
100
AcDbLine
 10
31188.29603060849
 20
21494.96619862274
 30
0.0
 11
31188.29603060849
 21
11494.96619862284
 31
0.0
  0
LINE
  5
6CE
330
1F
100
AcDbEntity
  8
画層1
  6
Continuous
100
AcDbLine
 10
31404.5960306083
 20
11494.96619862284
 30
0.0
 11
31404.5960306083
 21
21494.96619862274
 31
0.0
  0
LINE
  5
6CF
330
1F
100
AcDbEntity
  8
通り芯
  6
DASHDOT
 48
100.0
100
AcDbLine
 10
31296.44603060839
 20
11252.4987268299
 30
0.0
 11
31296.44603060839
 21
21555.42885832583
 31
0.0
  0
DIMENSION
  5
6D0
330
1F
100
AcDbEntity
  8
寸法
  6
Continuous
100
AcDbDimension
  2
*D15
 10
34896.4460306084
 20
13494.96619862412
 30
0.0
 11
34617.87460203697
 21
17494.96619862413
 31
0.0
 70
    32
 71
     5
 42
8000.0
  3
1_100
100
AcDbAlignedDimension
 13
32796.44603060839
 23
21494.96619862413
 33
0.0
 14
32796.44603060839
 24
13494.96619862412
 34
0.0
 50
90.0
100
AcDbRotatedDimension
  0
DIMENSION
  5
6D1
330
1F
100
AcDbEntity
  8
寸法
  6
Continuous
100
AcDbDimension
  2
*D16
 10
28696.44603060839
 20
13494.96619862273
 30
0.0
 11
28417.87460203703
 21
17994.96619862273
 31
0.0
 70
   160
 71
     5
 42
8000.000000000001
  3
1_100
100
AcDbAlignedDimension
 13
26696.44603060839
 23
21494.96619862274
 33
0.0
 14
26696.44603060839
 24
13494.96619862273
 34
0.0
 50
90.0
100
AcDbRotatedDimension
  0
LINE
  5
6D2
102
{ACAD_REACTORS
330
6D4
102
}
330
1F
100
AcDbEntity
  8
DEFPOINTS
100
AcDbLine
 10
26196.4460306084
 20
21434.96619862273
 30
0.0
 11
26196.4460306084
 21
13494.96619862284
 31
0.0
  0
LINE
  5
6D3
102
{ACAD_REACTORS
330
6D4
102
}
330
1F
100
AcDbEntity
  8
DEFPOINTS
100
AcDbLine
 10
23829.29908618845
 20
21434.96619862273
 30
0.0
 11
25101.22726782832
 21
15431.86619862287
 31
0.0
  0
HATCH
  5
6D4
330
1F
100
AcDbEntity
  8
ﾈｯﾄ
 62
   230
370
    13
100
AcDbHatch
 10
0.0
 20
0.0
 30
0.0
210
0.0
220
0.0
230
1.0
  2
NET
 70
     0
 71
     1
 91
        1
 92
        7
 72
     0
 73
     1
 93
        4
 10
23829.29908618843
 20
21434.96619862287
 10
25087.85773071225
 20
15494.96619862285
 10
26196.44603060839
 20
15494.96619862284
 10
26196.4460306084
 20
21434.96619862284
 97
        4
330
52E
330
6D3
330
531
330
6D2
 75
     0
 76
     1
 52
0.0
 41
1000.0
 77
     0
 78
     2
 53
0.0
 43
-39866.63718090764
 44
31744.66751039309
 45
0.0
 46
125.0
 79
     0
 53
90.0
 43
-39866.63718090764
 44
31744.66751039309
 45
-125.0
 46
0.0000000000000077
 79
     0
 47
45.81165359595611
 98
        1
 10
25489.89678368812
 20
20766.75358355862
  0
LINE
  5
6D5
330
1F
100
AcDbEntity
  8
画層1-1
  6
DASHED
 48
100.0
100
AcDbLine
 10
31163.29603060849
 20
21434.96619862273
 30
0.0
 11
31163.29603060849
 21
15494.96619862284
 31
0.0
  0
DIMENSION
  5
6D6
330
1F
100
AcDbEntity
  8
寸法
  6
Continuous
100
AcDbDimension
  2
*D17
 10
27696.44603060839
 20
18464.96619862354
 30
0.0
 11
27417.87460203696
 21
16979.96619862355
 31
0.0
 70
    32
 71
     5
 42
2970.000000000002
  3
1_100
100
AcDbAlignedDimension
 13
26696.44603060839
 23
15494.96619862354
 33
0.0
 14
26696.44603060839
 24
18464.96619862354
 34
0.0
 50
90.0
100
AcDbRotatedDimension
  0
DIMENSION
  5
6D7
330
1F
100
AcDbEntity
  8
寸法
  6
Continuous
100
AcDbDimension
  2
*D18
 10
33896.4460306084
 20
18464.96619862343
 30
0.0
 11
33617.87460203697
 21
16979.96619862378
 31
0.0
 70
    32
 71
     5
 42
2969.999999999302
  3
1_100
100
AcDbAlignedDimension
 13
32796.44603060839
 23
15494.96619862412
 33
0.0
 14
32836.44603060839
 24
18464.96619862343
 34
0.0
 50
90.0
100
AcDbRotatedDimension
  0
LEADER
  5
6D8
330
1F
100
AcDbEntity
  8
寸法引出
  6
Continuous
100
AcDbLeader
  3
1_100
 71
     0
 73
     0
 74
     0
 75
     1
 40
346.6666666666666
 41
3117.142857142858
 76
     3
 10
20172.46661824455
 20
18464.96619862285
 30
0.0
 10
21050.61413327653
 20
15990.19112107252
 30
0.0
 10
21110.61413327653
 20
15990.19112107252
 30
0.0
340
6D9
  0
MTEXT
  5
6D9
102
{ACAD_REACTORS
330
6D8
102
}
330
1F
100
AcDbEntity
  8
寸法文字
  6
Continuous
100
AcDbMText
 10
21210.61413327653
 20
16090.19112107252
 30
0.0
 40
300.0
 41
0.0
 71
     7
 72
     1
  1
メッセンワイヤー22m㎡
  7
1_100
 73
     1
 44
1.0
1001
ACAD
1000
MTEXTBEGIN
1070
    73
1070
     1
1070
    44
1040
1.0
1070
    74
1070
     0
1000
MTEXTEND
  0
DIMENSION
  5
6DA
330
1F
100
AcDbEntity
  8
寸法
  6
Continuous
100
AcDbDimension
  2
*D19
 10
34896.4460306084
 20
11494.96619862412
 30
0.0
 11
34617.87460203697
 21
12494.96619862413
 31
0.0
 70
    32
 71
     5
 42
2000.0
  3
1_100
100
AcDbAlignedDimension
 13
32796.44603060839
 23
13494.96619862412
 33
0.0
 14
32796.44603060839
 24
11494.96619862412
 34
0.0
 50
90.0
100
AcDbRotatedDimension
  0
DIMENSION
  5
6DB
330
1F
100
AcDbEntity
  8
寸法
  6
Continuous
100
AcDbDimension
  2
*D20
 10
33896.4460306084
 20
13494.96619862412
 30
0.0
 11
34115.94211923846
 21
13138.06941215439
 31
0.0
 70
   160
 71
     5
 42
300.0
  3
1_100
100
AcDbAlignedDimension
 13
32796.44603060839
 23
13194.96619862412
 33
0.0
 14
32796.44603060839
 24
13494.96619862412
 34
0.0
 50
90.0
100
AcDbRotatedDimension
  0
LWPOLYLINE
  5
6DC
330
1F
100
AcDbEntity
  8
画層3-1
100
AcDbPolyline
 90
        4
 70
     0
 43
0.0
 10
31166.04603060849
 20
15494.96619862261
 10
31166.04603060849
 20
13194.96619862273
 10
31115.24603060867
 20
13194.96619862273
 10
31115.24603060867
 20
15494.96619862261
  0
DIMENSION
  5
6DD
330
1F
100
AcDbEntity
  8
寸法
  6
Continuous
100
AcDbDimension
  2
*D21
 10
33896.4460306084
 20
15494.96619862412
 30
0.0
 11
33617.87460203697
 21
14494.96619862413
 31
0.0
 70
    32
 71
     5
 42
2000.0
  3
1_100
100
AcDbAlignedDimension
 13
32796.44603060839
 23
13494.96619862412
 33
0.0
 14
32796.44603060839
 24
15494.96619862412
 34
0.0
 50
90.0
100
AcDbRotatedDimension
  0
LINE
  5
6DE
330
1F
100
AcDbEntity
  8
画層2-1
  6
Continuous
100
AcDbLine
 10
31188.29603060849
 20
13344.96619862284
 30
0.0
 11
31404.5960306083
 21
13344.96619862284
 31
0.0
  0
DIMENSION
  5
6DF
330
1F
100
AcDbEntity
  8
寸法
  6
Continuous
100
AcDbDimension
  2
*D22
 10
31546.44603060839
 20
10394.96619862319
 30
0.0
 11
31296.44603060839
 21
10144.96619862319
 31
0.0
 70
    32
  1
□<>
 71
     5
 42
500.0
  3
1_100
100
AcDbAlignedDimension
 13
31046.44603060839
 23
11394.96619862366
 33
0.0
 14
31546.44603060839
 24
11394.96619862366
 34
0.0
100
AcDbRotatedDimension
1001
ACAD
1000
DSTYLE
1002
{
1070
    77
1070
     2
1070
   174
1070
     1
1002
}
  0
DIMENSION
  5
6E0
330
1F
100
AcDbEntity
  8
寸法
  6
Continuous
100
AcDbDimension
  2
*D23
 10
33896.4460306084
 20
11494.96619862412
 30
0.0
 11
33585.1558524659
 21
11039.13904545341
 31
0.0
 70
   160
 71
     5
 42
100.0
  3
1_100
100
AcDbAlignedDimension
 13
32796.44603060839
 23
11394.96619862412
 33
0.0
 14
32796.44603060839
 24
11494.96619862412
 34
0.0
 50
90.0
100
AcDbRotatedDimension
  0
DIMENSION
  5
6E1
330
1F
100
AcDbEntity
  8
寸法
  6
Continuous
100
AcDbDimension
  2
*D24
 10
33896.4460306084
 20
13194.96619862412
 30
0.0
 11
33617.87460203697
 21
12344.96619862413
 31
0.0
 70
    32
 71
     5
 42
1700.0
  3
1_100
100
AcDbAlignedDimension
 13
32796.44603060839
 23
11494.96619862412
 33
0.0
 14
32796.44603060839
 24
13194.96619862412
 34
0.0
 50
90.0
100
AcDbRotatedDimension
  0
CIRCLE
  5
6E2
330
1F
100
AcDbEntity
  8
画層3-1
100
AcDbCircle
 10
31140.64603060858
 20
15494.96619862261
 30
0.0
 40
25.40000000002328
  0
LINE
  5
6E3
330
1F
100
AcDbEntity
  8
画層1
  6
Continuous
100
AcDbLine
 10
31296.44603060839
 20
15670.19091359993
 30
0.0
 11
31296.44603060839
 21
15494.96619862343
 31
0.0
  0
LINE
  5
6E4
330
1F
100
AcDbEntity
  8
画層1
  6
Continuous
100
AcDbLine
 10
31271.44603060839
 20
15519.96619862284
 30
0.0
 11
31188.29603060849
 21
15519.96619862284
 31
0.0
  0
LINE
  5
6E5
330
1F
100
AcDbEntity
  8
画層1
  6
Continuous
100
AcDbLine
 10
31246.44603060839
 20
15494.96619862343
 30
0.0
 11
31346.44603060839
 21
15494.96619862343
 31
0.0
  0
LINE
  5
6E6
330
1F
100
AcDbEntity
  8
画層1
  6
Continuous
100
AcDbLine
 10
31138.29603060849
 20
15519.96619862284
 30
0.0
 11
31138.29603060849
 21
15469.96619862284
 31
0.0
  0
LINE
  5
6E7
330
1F
100
AcDbEntity
  8
画層1
  6
Continuous
100
AcDbLine
 10
31138.29603060849
 20
15494.96619862343
 30
0.0
 11
31188.29603060849
 21
15494.96619862343
 31
0.0
  0
LINE
  5
6E8
330
1F
100
AcDbEntity
  8
画層1
  6
Continuous
100
AcDbLine
 10
31321.44603060839
 20
15469.96619862284
 30
0.0
 11
31321.44603060839
 21
15519.96619862284
 31
0.0
  0
LINE
  5
6E9
330
1F
100
AcDbEntity
  8
画層1
  6
Continuous
100
AcDbLine
 10
31271.44603060839
 20
15469.96619862284
 30
0.0
 11
31271.44603060839
 21
15519.96619862284
 31
0.0
  0
LINE
  5
6EA
330
1F
100
AcDbEntity
  8
画層1
  6
Continuous
100
AcDbLine
 10
31404.5960306083
 20
15519.96619862284
 30
0.0
 11
31321.44603060839
 21
15519.96619862284
 31
0.0
  0
LINE
  5
6EB
330
1F
100
AcDbEntity
  8
画層1
  6
Continuous
100
AcDbLine
 10
31271.44603060839
 20
15469.96619862284
 30
0.0
 11
31188.29603060849
 21
15469.96619862284
 31
0.0
  0
LINE
  5
6EC
330
1F
100
AcDbEntity
  8
画層1
100
AcDbLine
 10
31321.44603060839
 20
15469.96619862284
 30
0.0
 11
31404.5960306083
 21
15469.96619862284
 31
0.0
  0
LINE
  5
6ED
330
1F
100
AcDbEntity
  8
画層3-1
100
AcDbLine
 10
31166.04603060849
 20
13623.64078452649
 30
0.0
 11
31115.24603060867
 21
13623.64078452649
 31
0.0
  0
LINE
  5
6EE
330
1F
100
AcDbEntity
  8
画層3-1
100
AcDbLine
 10
31166.04603060849
 20
13598.64078452649
 30
0.0
 11
31115.24603060867
 21
13598.64078452649
 31
0.0
  0
LINE
  5
6EF
330
1F
100
AcDbEntity
  8
画層2-1
  6
Continuous
100
AcDbLine
 10
31188.29603060849
 20
13594.96619862284
 30
0.0
 11
31404.5960306083
 21
13594.96619862284
 31
0.0
  0
LINE
  5
6F0
330
1F
100
AcDbEntity
  8
画層3-1
100
AcDbLine
 10
31140.64603060858
 20
13623.64078452649
 30
0.0
 11
31140.64603060858
 21
15469.56619862259
 31
0.0
  0
LINE
  5
6F1
330
1F
100
AcDbEntity
  8
ﾊｯﾁﾝｸﾞ
  6
Continuous
100
AcDbLine
 10
30832.1984114065
 20
13494.96619862273
 30
0.0
 11
30952.19841140696
 21
13374.96619862273
 31
0.0
  0
LINE
  5
6F2
330
1F
100
AcDbEntity
  8
ﾊｯﾁﾝｸﾞ
  6
Continuous
100
AcDbLine
 10
30884.27069318715
 20
13442.89391684219
 30
0.0
 11
30816.3429749678
 21
13374.96619862273
 31
0.0
  0
LINE
  5
6F3
330
1F
100
AcDbEntity
  8
ﾊｯﾁﾝｸﾞ
  6
Continuous
100
AcDbLine
 10
30844.67271344038
 20
13482.4918965886
 30
0.0
 11
30737.14701547475
 21
13374.96619862273
 31
0.0
  0
LINE
  5
6F4
330
1F
100
AcDbEntity
  8
ﾊｯﾁﾝｸﾞ
  6
Continuous
100
AcDbLine
 10
30686.28079445429
 20
13403.29593709578
 30
0.0
 11
30657.9510559817
 21
13374.96619862273
 31
0.0
  0
LINE
  5
6F5
330
1F
100
AcDbEntity
  8
ﾊｯﾁﾝｸﾞ
  6
Continuous
100
AcDbLine
 10
30646.68281470753
 20
13442.89391684219
 30
0.0
 11
30578.75509648819
 21
13374.96619862273
 31
0.0
  0
LINE
  5
6F6
330
1F
100
AcDbEntity
  8
ﾊｯﾁﾝｸﾞ
  6
Continuous
100
AcDbLine
 10
30753.00245191299
 20
13494.96619862284
 30
0.0
 11
30805.0747336941
 21
13442.89391684219
 31
0.0
  0
LINE
  5
6F7
330
1F
100
AcDbEntity
  8
ﾊｯﾁﾝｸﾞ
  6
Continuous
100
AcDbLine
 10
30673.80649241993
 20
13494.96619862273
 30
0.0
 11
30765.47675394782
 21
13403.29593709566
 31
0.0
  0
LINE
  5
6F8
330
1F
100
AcDbEntity
  8
ﾊｯﾁﾝｸﾞ
  6
Continuous
100
AcDbLine
 10
30594.61053292688
 20
13494.96619862273
 30
0.0
 11
30714.61053292781
 21
13374.96619862273
 31
0.0
  0
LINE
  5
6F9
330
1F
100
AcDbEntity
  8
ﾊｯﾁﾝｸﾞ
  6
Continuous
100
AcDbLine
 10
30607.08483496124
 20
13482.4918965886
 30
0.0
 11
30553.32198597819
 21
13428.72904760566
 31
0.0
  0
LINE
  5
6FA
330
1F
100
AcDbEntity
  8
ﾊｯﾁﾝｸﾞ
  6
Continuous
100
AcDbLine
 10
30990.5903303926
 20
13494.96619862273
 30
0.0
 11
31046.44603060839
 21
13439.11049840717
 31
0.0
  0
LINE
  5
6FB
330
1F
100
AcDbEntity
  8
ﾊｯﾁﾝｸﾞ
  6
Continuous
100
AcDbLine
 10
30911.39437089909
 20
13494.96619862273
 30
0.0
 11
31031.39437090002
 21
13374.96619862273
 31
0.0
  0
LINE
  5
6FC
330
1F
100
AcDbEntity
  8
ﾊｯﾁﾝｸﾞ
  6
Continuous
100
AcDbLine
 10
30923.86867293344
 20
13403.29593709578
 30
0.0
 11
30895.53893446085
 21
13374.96619862273
 31
0.0
  0
LINE
  5
6FD
330
1F
100
AcDbEntity
  8
ﾊｯﾁﾝｸﾞ
  6
Continuous
100
AcDbLine
 10
31839.88960930381
 20
13494.96619862284
 30
0.0
 11
31787.81732752269
 21
13442.89391684219
 31
0.0
  0
LINE
  5
6FE
330
1F
100
AcDbEntity
  8
ﾊｯﾁﾝｸﾞ
  6
Continuous
100
AcDbLine
 10
31748.21934777639
 20
13482.4918965886
 30
0.0
 11
31855.74504574204
 21
13374.96619862273
 31
0.0
  0
LINE
  5
6FF
330
1F
100
AcDbEntity
  8
ﾊｯﾁﾝｸﾞ
  6
Continuous
100
AcDbLine
 10
31708.62136802964
 20
13442.89391684219
 30
0.0
 11
31776.54908624898
 21
13374.96619862273
 31
0.0
  0
LINE
  5
700
330
1F
100
AcDbEntity
  8
ﾊｯﾁﾝｸﾞ
  6
Continuous
100
AcDbLine
 10
31669.02338828334
 20
13403.29593709578
 30
0.0
 11
31697.35312675594
 21
13374.96619862273
 31
0.0
  0
LINE
  5
701
330
1F
100
AcDbEntity
  8
ﾊｯﾁﾝｸﾞ
  6
Continuous
100
AcDbLine
 10
31760.69364981029
 20
13494.96619862273
 30
0.0
 11
31640.69364980982
 21
13374.96619862273
 31
0.0
  0
LINE
  5
702
330
1F
100
AcDbEntity
  8
ﾊｯﾁﾝｸﾞ
  6
Continuous
100
AcDbLine
 10
31681.4976903177
 20
13494.96619862273
 30
0.0
 11
31561.49769031677
 21
13374.96619862273
 31
0.0
  0
LINE
  5
703
330
1F
100
AcDbEntity
  8
ﾊｯﾁﾝｸﾞ
  6
Continuous
100
AcDbLine
 10
31602.30173082418
 20
13494.96619862273
 30
0.0
 11
31546.44603060839
 21
13439.11049840717
 31
0.0
  0
LINE
  5
704
330
1F
100
AcDbEntity
  8
ﾊｯﾁﾝｸﾞ
  6
Continuous
100
AcDbLine
 10
31985.80722625555
 20
13482.4918965886
 30
0.0
 11
32039.57007523861
 21
13428.72904760566
 31
0.0
  0
LINE
  5
705
330
1F
100
AcDbEntity
  8
ﾊｯﾁﾝｸﾞ
  6
Continuous
100
AcDbLine
 10
31998.28152828991
 20
13494.96619862273
 30
0.0
 11
31878.28152828898
 21
13374.96619862273
 31
0.0
  0
LINE
  5
706
330
1F
100
AcDbEntity
  8
ﾊｯﾁﾝｸﾞ
  6
Continuous
100
AcDbLine
 10
31919.08556879686
 20
13494.96619862273
 30
0.0
 11
31827.41530726898
 21
13403.29593709578
 31
0.0
  0
LINE
  5
707
330
1F
100
AcDbEntity
  8
ﾊｯﾁﾝｸﾞ
  6
Continuous
100
AcDbLine
 10
31946.20924650926
 20
13442.89391684219
 30
0.0
 11
32014.13696472861
 21
13374.96619862273
 31
0.0
  0
LINE
  5
708
330
1F
100
AcDbEntity
  8
ﾊｯﾁﾝｸﾞ
  6
Continuous
100
AcDbLine
 10
31906.6112667625
 20
13403.29593709578
 30
0.0
 11
31934.94100523509
 21
13374.96619862273
 31
0.0
  0
LWPOLYLINE
  5
709
330
1F
100
AcDbEntity
  8
画層2
100
AcDbPolyline
 90
        8
 70
     0
 43
0.0
 10
31046.44603060839
 20
13494.96619862273
 10
31046.44603060839
 20
13194.96619862273
 10
31071.44603060839
 20
13194.96619862273
 10
31071.44603060839
 20
11394.96619862273
 10
31521.44603060839
 20
11394.96619862273
 10
31521.44603060839
 20
13194.96619862273
 10
31546.44603060839
 20
13194.96619862273
 10
31546.44603060839
 20
13494.96619862273
  0
LINE
  5
70A
330
1F
100
AcDbEntity
  8
画層2
100
AcDbLine
 10
31521.44603060839
 20
11494.96619862273
 30
0.0
 11
31071.44603060839
 21
11494.96619862273
 31
0.0
  0
HATCH
  5
70B
330
1F
100
AcDbEntity
  8
ﾊｯﾁﾝｸﾞ
100
AcDbHatch
 10
0.0
 20
0.0
 30
0.0
210
0.0
220
0.0
230
1.0
  2
PLAST
 70
     0
 71
     0
 91
        2
 92
        7
 72
     0
 73
     1
 93
        6
 10
31521.44603060839
 20
13194.96619862273
 10
31546.44603060839
 20
13194.96619862273
 10
31546.44603060839
 20
13494.96619862319
 10
31296.44603060839
 20
13494.96619862319
 10
31296.44603060839
 20
11494.96619862273
 10
31521.44603060839
 20
11494.96619862273
 97
        0
 92
        7
 72
     0
 73
     1
 93
        6
 10
31296.44603060839
 20
13494.96619862319
 10
31046.44603060839
 20
13494.96619862308
 10
31046.44603060839
 20
13194.96619862273
 10
31071.44603060839
 20
13194.96619862273
 10
31071.44603060839
 20
11494.96619862273
 10
31296.44603060839
 20
11494.96619862273
 97
        0
 75
     0
 76
     1
 52
45.0
 41
2000.0
 77
     0
 78
     3
 53
45.0
 43
-359183.3211074761
 44
-240324.8431488385
 45
-353.5533905932737
 46
353.5533905932738
 79
     0
 53
45.0
 43
-359227.5152813001
 44
-240280.6489750143
 45
-353.5533905932737
 46
353.5533905932738
 79
     0
 53
45.0
 43
-359271.7094551244
 44
-240236.4548011902
 45
-353.5533905932737
 46
353.5533905932738
 79
     0
 47
18.13803608297583
 98
        2
 10
31425.94464701649
 20
12725.23695157702
 10
31226.28804323079
 20
12670.82302754094
  0
INSERT
  5
70C
330
1F
100
AcDbEntity
  8
ﾊｯﾁﾝｸﾞ
100
AcDbBlockReference
  2
sai450
 10
31296.44603060839
 20
11494.96619862273
 30
0.0
  0
DIMENSION
  5
70D
330
1F
100
AcDbEntity
  8
寸法
  6
Continuous
100
AcDbDimension
  2
*D25
 10
27696.44603060839
 20
13494.96619862273
 30
0.0
 11
27915.94211923891
 21
13138.06941215276
 31
0.0
 70
   160
 71
     5
 42
300.0
  3
1_100
100
AcDbAlignedDimension
 13
26696.44603060839
 23
13194.96619862273
 33
0.0
 14
26696.44603060839
 24
13494.96619862273
 34
0.0
 50
90.0
100
AcDbRotatedDimension
  0
LINE
  5
70E
330
1F
100
AcDbEntity
  8
画層3-通り芯
  6
DASHDOT
 48
100.0
100
AcDbLine
 10
25296.44603060839
 20
12948.59664349119
 30
0.0
 11
25296.44603060839
 21
15494.96619862296
 31
0.0
  0
LINE
  5
70F
330
1F
100
AcDbEntity
  8
画層3-1
  6
Continuous
100
AcDbLine
 10
25271.04603060849
 20
14159.96619862296
 30
0.0
 11
25271.04603060849
 21
13553.06619862282
 31
0.0
  0
LINE
  5
710
330
1F
100
AcDbEntity
  8
画層3-1
  6
Continuous
100
AcDbLine
 10
25321.8460306083
 20
14159.96619862296
 30
0.0
 11
25321.8460306083
 21
13553.06619862294
 31
0.0
  0
LINE
  5
711
330
1F
100
AcDbEntity
  8
画層3-2
  6
Continuous
100
AcDbLine
 10
25361.79603060848
 20
14159.96619862296
 30
0.0
 11
25361.79603060848
 21
13494.96619862296
 31
0.0
  0
LINE
  5
712
330
1F
100
AcDbEntity
  8
画層3-2
  6
Continuous
100
AcDbLine
 10
25231.09603060877
 20
13494.96619862296
 30
0.0
 11
25231.09603060877
 21
14159.96619862296
 31
0.0
  0
DIMENSION
  5
713
330
1F
100
AcDbEntity
  8
寸法
  6
Continuous
100
AcDbDimension
  2
*D26
 10
27696.44603060839
 20
15494.96619862354
 30
0.0
 11
27417.87460203696
 21
14494.96619862355
 31
0.0
 70
    32
 71
     5
 42
2000.0
  3
1_100
100
AcDbAlignedDimension
 13
26696.44603060839
 23
13494.96619862354
 33
0.0
 14
26696.44603060839
 24
15494.96619862354
 34
0.0
 50
90.0
100
AcDbRotatedDimension
  0
LINE
  5
714
330
1F
100
AcDbEntity
  8
画層3-通り芯
  6
DASHDOT
 48
100.0
100
AcDbLine
 10
23296.44603060839
 20
12948.59664349119
 30
0.0
 11
23296.44603060839
 21
15494.96619862296
 31
0.0
  0
LINE
  5
715
330
1F
100
AcDbEntity
  8
画層3-2
  6
Continuous
100
AcDbLine
 10
23361.79603060849
 20
14159.96619862296
 30
0.0
 11
23361.79603060849
 21
13494.96619862296
 31
0.0
  0
LINE
  5
716
330
1F
100
AcDbEntity
  8
画層3-1
  6
Continuous
100
AcDbLine
 10
23321.8460306083
 20
14159.96619862296
 30
0.0
 11
23321.8460306083
 21
13553.06619862294
 31
0.0
  0
LINE
  5
717
330
1F
100
AcDbEntity
  8
画層3-2
  6
Continuous
100
AcDbLine
 10
23231.09603060876
 20
13494.96619862296
 30
0.0
 11
23231.09603060876
 21
14159.96619862296
 31
0.0
  0
LINE
  5
718
330
1F
100
AcDbEntity
  8
画層3-1
  6
Continuous
100
AcDbLine
 10
23271.04603060849
 20
14159.96619862296
 30
0.0
 11
23271.04603060849
 21
13553.06619862282
 31
0.0
  0
DIMENSION
  5
719
330
1F
100
AcDbEntity
  8
画層3-寸法
  6
Continuous
100
AcDbDimension
  2
*D27
 10
25296.44603060839
 20
9194.966198622497
 30
0.0
 11
24296.4460306084
 21
9473.537627193925
 31
0.0
 70
    32
 71
     5
 42
2000.0
  3
1_100
100
AcDbAlignedDimension
 13
23296.44603060839
 23
10502.06023288031
 33
0.0
 14
25296.44603060839
 24
10524.96619862249
 34
0.0
100
AcDbRotatedDimension
  0
LINE
  5
71A
330
1F
100
AcDbEntity
  8
画層3-1
  6
Continuous
100
AcDbLine
 10
23321.84603060877
 20
13514.96619862296
 30
0.0
 11
25271.04603060849
 21
13514.96619862284
 31
0.0
  0
LINE
  5
71B
330
1F
100
AcDbEntity
  8
画層3-1
  6
Continuous
100
AcDbLine
 10
23321.8460306083
 20
13553.06619862282
 30
0.0
 11
25271.04603060849
 21
13553.06619862305
 31
0.0
  0
LWPOLYLINE
  5
71C
330
1F
100
AcDbEntity
  8
画層3-2
100
AcDbPolyline
 90
        4
 70
     0
 43
0.0
 10
23421.44603060839
 20
13494.96619862296
 10
23421.44603060839
 20
13044.96619862296
 10
23171.44603060839
 20
13044.96619862296
 10
23171.44603060839
 20
13494.96619862296
  0
HATCH
  5
71D
330
1F
100
AcDbEntity
  8
画層3-3
100
AcDbHatch
 10
0.0
 20
0.0
 30
0.0
210
0.0
220
0.0
230
1.0
  2
PLAST
 70
     0
 71
     0
 91
        1
 92
        7
 72
     0
 73
     1
 93
        4
 10
23421.44603060839
 20
13494.96619862296
 10
23171.44603060839
 20
13494.96619862296
 10
23171.44603060839
 20
13044.96619862296
 10
23421.44603060839
 20
13044.96619862296
 97
        0
 75
     0
 76
     1
 52
45.0
 41
1800.0
 77
     0
 78
     3
 53
45.0
 43
17154.1033748421
 44
7053.299182111645
 45
-318.1980515339463
 46
318.1980515339464
 79
     0
 53
45.0
 43
17114.32861840074
 44
7093.07393855347
 45
-318.1980515339463
 46
318.1980515339464
 79
     0
 53
45.0
 43
17074.55386195892
 44
7132.848694995177
 45
-318.1980515339463
 46
318.1980515339464
 79
     0
 47
2.4753793195157
 98
        1
 10
23410.33922837164
 20
13254.17364663062
  0
LINE
  5
71E
330
1F
100
AcDbEntity
  8
画層3-1
  6
Continuous
100
AcDbLine
 10
23231.09603060876
 20
13573.06619862294
 30
0.0
 11
23361.79603060849
 21
13573.06619862294
 31
0.0
  0
LINE
  5
71F
330
1F
100
AcDbEntity
  8
画層3-1
  6
Continuous
100
AcDbLine
 10
25231.09603060877
 20
13573.06619862294
 30
0.0
 11
25361.79603060848
 21
13573.06619862294
 31
0.0
  0
LINE
  5
720
330
1F
100
AcDbEntity
  8
画層3-1
  6
Continuous
100
AcDbLine
 10
25321.8460306083
 20
13514.96619862284
 30
0.0
 11
26196.4460306084
 21
13514.96619862284
 31
0.0
  0
LINE
  5
721
330
1F
100
AcDbEntity
  8
画層3-1
  6
Continuous
100
AcDbLine
 10
25321.8460306083
 20
13553.06619862305
 30
0.0
 11
26196.4460306084
 21
13553.06619862305
 31
0.0
  0
LWPOLYLINE
  5
722
330
1F
100
AcDbEntity
  8
画層3-2
100
AcDbPolyline
 90
        4
 70
     0
 43
0.0
 10
25421.44603060839
 20
13494.96619862296
 10
25421.44603060839
 20
13044.96619862296
 10
25171.44603060839
 20
13044.96619862296
 10
25171.44603060839
 20
13494.96619862296
  0
HATCH
  5
723
330
1F
100
AcDbEntity
  8
画層3-3
100
AcDbHatch
 10
0.0
 20
0.0
 30
0.0
210
0.0
220
0.0
230
1.0
  2
PLAST
 70
     0
 71
     0
 91
        1
 92
        7
 72
     0
 73
     1
 93
        4
 10
25421.44603060839
 20
13494.96619862296
 10
25171.44603060839
 20
13494.96619862296
 10
25171.44603060839
 20
13044.96619862296
 10
25421.44603060839
 20
13044.96619862296
 97
        0
 75
     0
 76
     1
 52
45.0
 41
1800.0
 77
     0
 78
     3
 53
45.0
 43
19154.1033748421
 44
7053.299182111645
 45
-318.1980515339463
 46
318.1980515339464
 79
     0
 53
45.0
 43
19114.32861840074
 44
7093.07393855347
 45
-318.1980515339463
 46
318.1980515339464
 79
     0
 53
45.0
 43
19074.55386195892
 44
7132.848694995177
 45
-318.1980515339463
 46
318.1980515339464
 79
     0
 47
2.4753793195157
 98
        1
 10
25410.33922837164
 20
13254.17364663062
  0
DIMENSION
  5
724
330
1F
100
AcDbEntity
  8
寸法
  6
Continuous
100
AcDbDimension
  2
*D28
 10
27696.44603060839
 20
11494.96619862273
 30
0.0
 11
27395.21615494603
 21
10970.88333302691
 31
0.0
 70
   160
 71
     5
 42
100.0
  3
1_100
100
AcDbAlignedDimension
 13
26696.44603060839
 23
11394.96619862273
 33
0.0
 14
26696.44603060839
 24
11494.96619862273
 34
0.0
 50
90.0
100
AcDbRotatedDimension
  0
DIMENSION
  5
725
330
1F
100
AcDbEntity
  8
寸法
  6
Continuous
100
AcDbDimension
  2
*D29
 10
28696.44603060839
 20
11494.96619862272
 30
0.0
 11
28417.87460203696
 21
12494.96619862273
 31
0.0
 70
    32
 71
     5
 42
2000.0
  3
1_100
100
AcDbAlignedDimension
 13
26696.44603060839
 23
13494.96619862273
 33
0.0
 14
26696.44603060839
 24
11494.96619862273
 34
0.0
 50
90.0
100
AcDbRotatedDimension
  0
DIMENSION
  5
726
330
1F
100
AcDbEntity
  8
寸法
  6
Continuous
100
AcDbDimension
  2
*D30
 10
27696.44603060839
 20
13194.96619862273
 30
0.0
 11
27417.87460203696
 21
12344.96619862273
 31
0.0
 70
    32
 71
     5
 42
1700.0
  3
1_100
100
AcDbAlignedDimension
 13
26696.44603060839
 23
11494.96619862273
 33
0.0
 14
26696.44603060839
 24
13194.96619862273
 34
0.0
 50
90.0
100
AcDbRotatedDimension
  0
LINE
  5
727
330
1F
100
AcDbEntity
  8
画層3-1
  6
Continuous
100
AcDbLine
 10
23336.8460306083
 20
15431.86619862287
 30
0.0
 11
25256.04603060849
 21
15431.86619862287
 31
0.0
  0
LINE
  5
728
330
1F
100
AcDbEntity
  8
画層3-2
  6
Continuous
100
AcDbLine
 10
23376.79603060849
 20
14834.96619862296
 30
0.0
 11
25216.09603060877
 21
14834.96619862296
 31
0.0
  0
LINE
  5
729
330
1F
100
AcDbEntity
  8
画層3-2
  6
Continuous
100
AcDbLine
 10
25216.09603060877
 20
14174.96619862296
 30
0.0
 11
23376.79603060849
 21
14174.96619862296
 31
0.0
  0
ARC
  5
72A
330
1F
100
AcDbEntity
  8
画層3-1
  6
Continuous
100
AcDbCircle
 10
23336.8460306083
 20
15416.86619862287
 30
0.0
 40
15.0
100
AcDbArc
 50
90.0
 51
180.0
  0
LINE
  5
72B
330
1F
100
AcDbEntity
  8
画層3-1
  6
Continuous
100
AcDbLine
 10
23347.24603060867
 20
15431.86619862287
 30
0.0
 11
23347.24603060867
 21
15469.96619862296
 31
0.0
  0
LINE
  5
72C
330
1F
100
AcDbEntity
  8
画層3-1
  6
Continuous
100
AcDbLine
 10
23332.24603060867
 20
15416.86619862287
 30
0.0
 11
23347.24603060867
 21
15431.86619862287
 31
0.0
  0
ARC
  5
72D
330
1F
100
AcDbEntity
  8
画層3-1
  6
Continuous
100
AcDbCircle
 10
23256.04603060849
 20
15416.86619862287
 30
0.0
 40
15.0
100
AcDbArc
 50
0.0
 51
90.0
  0
LINE
  5
72E
330
1F
100
AcDbEntity
  8
画層3-1
  6
Continuous
100
AcDbLine
 10
23245.64603060858
 20
15469.96619862296
 30
0.0
 11
23245.64603060858
 21
15431.86619862287
 31
0.0
  0
LINE
  5
72F
330
1F
100
AcDbEntity
  8
画層3-1
  6
Continuous
100
AcDbLine
 10
23245.64603060858
 20
15431.86619862287
 30
0.0
 11
23260.64603060858
 21
15416.86619862287
 31
0.0
  0
LINE
  5
730
330
1F
100
AcDbEntity
  8
画層3-1
  6
Continuous
100
AcDbLine
 10
23332.24603060867
 20
15416.86619862287
 30
0.0
 11
23260.64603060858
 21
15416.86619862287
 31
0.0
  0
LINE
  5
731
330
1F
100
AcDbEntity
  8
画層3-1
  6
Continuous
100
AcDbLine
 10
23376.79603060849
 20
14819.96619862296
 30
0.0
 11
23376.79603060849
 21
14849.96619862296
 31
0.0
  0
LINE
  5
732
330
1F
100
AcDbEntity
  8
画層3-1
  6
Continuous
100
AcDbLine
 10
23376.79603060849
 20
14159.96619862296
 30
0.0
 11
23376.79603060849
 21
14189.96619862296
 31
0.0
  0
LINE
  5
733
330
1F
100
AcDbEntity
  8
画層3-2
  6
Continuous
100
AcDbLine
 10
23361.79603060849
 20
14819.96619862296
 30
0.0
 11
23361.79603060849
 21
14189.96619862296
 31
0.0
  0
LINE
  5
734
330
1F
100
AcDbEntity
  8
画層3-1
  6
Continuous
100
AcDbLine
 10
23321.8460306083
 20
14819.96619862296
 30
0.0
 11
23321.8460306083
 21
14189.96619862296
 31
0.0
  0
LINE
  5
735
330
1F
100
AcDbEntity
  8
画層3-1
  6
Continuous
100
AcDbLine
 10
23216.09603060877
 20
14849.96619862296
 30
0.0
 11
23216.09603060877
 21
14819.96619862296
 31
0.0
  0
LINE
  5
736
330
1F
100
AcDbEntity
  8
画層3-1
  6
Continuous
100
AcDbLine
 10
23216.09603060877
 20
14189.96619862296
 30
0.0
 11
23216.09603060877
 21
14159.96619862296
 31
0.0
  0
LINE
  5
737
330
1F
100
AcDbEntity
  8
画層3-2
  6
Continuous
100
AcDbLine
 10
23231.09603060876
 20
14189.96619862296
 30
0.0
 11
23231.09603060876
 21
14819.96619862296
 31
0.0
  0
LINE
  5
738
330
1F
100
AcDbEntity
  8
画層3-1
  6
Continuous
100
AcDbLine
 10
23271.04603060849
 20
14819.96619862296
 30
0.0
 11
23271.04603060849
 21
14189.96619862296
 31
0.0
  0
LINE
  5
739
330
1F
100
AcDbEntity
  8
画層3-1
  6
Continuous
100
AcDbLine
 10
23216.09603060877
 20
14159.96619862296
 30
0.0
 11
23376.79603060849
 21
14159.96619862296
 31
0.0
  0
LINE
  5
73A
330
1F
100
AcDbEntity
  8
画層3-1
  6
Continuous
100
AcDbLine
 10
23376.79603060849
 20
14189.96619862296
 30
0.0
 11
23216.09603060877
 21
14189.96619862296
 31
0.0
  0
LINE
  5
73B
330
1F
100
AcDbEntity
  8
画層3-1
  6
Continuous
100
AcDbLine
 10
23216.09603060877
 20
14819.96619862296
 30
0.0
 11
23376.79603060849
 21
14819.96619862296
 31
0.0
  0
LINE
  5
73C
330
1F
100
AcDbEntity
  8
画層3-1
  6
Continuous
100
AcDbLine
 10
23376.79603060849
 20
14849.96619862296
 30
0.0
 11
23216.09603060877
 21
14849.96619862296
 31
0.0
  0
LINE
  5
73D
330
1F
100
AcDbEntity
  8
画層3-2
  6
Continuous
100
AcDbLine
 10
23361.79603060849
 20
15431.86619862287
 30
0.0
 11
23361.79603060849
 21
14849.96619862296
 31
0.0
  0
LINE
  5
73E
330
1F
100
AcDbEntity
  8
画層3-1
  6
Continuous
100
AcDbLine
 10
23321.8460306083
 20
15416.86619862287
 30
0.0
 11
23321.8460306083
 21
14849.96619862296
 31
0.0
  0
LINE
  5
73F
330
1F
100
AcDbEntity
  8
画層3-2
  6
Continuous
100
AcDbLine
 10
23231.09603060876
 20
14849.96619862296
 30
0.0
 11
23231.0960306083
 21
15431.86619862287
 31
0.0
  0
LINE
  5
740
330
1F
100
AcDbEntity
  8
画層3-1
  6
Continuous
100
AcDbLine
 10
23271.04603060849
 20
15416.86619862287
 30
0.0
 11
23271.04603060849
 21
14849.96619862296
 31
0.0
  0
LINE
  5
741
330
1F
100
AcDbEntity
  8
画層3-1
  6
Continuous
100
AcDbLine
 10
25332.24603060867
 20
15416.86619862287
 30
0.0
 11
25260.64603060858
 21
15416.86619862287
 31
0.0
  0
LINE
  5
742
330
1F
100
AcDbEntity
  8
画層3-1
  6
Continuous
100
AcDbLine
 10
25245.64603060858
 20
15431.86619862287
 30
0.0
 11
25260.64603060858
 21
15416.86619862287
 31
0.0
  0
LINE
  5
743
330
1F
100
AcDbEntity
  8
画層3-1
  6
Continuous
100
AcDbLine
 10
25245.64603060858
 20
15469.96619862296
 30
0.0
 11
25245.64603060858
 21
15431.86619862287
 31
0.0
  0
LINE
  5
744
330
1F
100
AcDbEntity
  8
画層3-1
  6
Continuous
100
AcDbLine
 10
25332.24603060867
 20
15416.86619862287
 30
0.0
 11
25347.24603060867
 21
15431.86619862287
 31
0.0
  0
ARC
  5
745
330
1F
100
AcDbEntity
  8
画層3-1
  6
Continuous
100
AcDbCircle
 10
25256.04603060849
 20
15416.86619862287
 30
0.0
 40
15.0
100
AcDbArc
 50
0.0
 51
90.0
  0
LINE
  5
746
330
1F
100
AcDbEntity
  8
画層3-1
  6
Continuous
100
AcDbLine
 10
25347.24603060867
 20
15431.86619862287
 30
0.0
 11
25347.24603060867
 21
15469.96619862296
 31
0.0
  0
ARC
  5
747
330
1F
100
AcDbEntity
  8
画層3-1
  6
Continuous
100
AcDbCircle
 10
25336.8460306083
 20
15416.86619862287
 30
0.0
 40
15.0
100
AcDbArc
 50
90.0
 51
180.0
  0
LINE
  5
748
330
1F
100
AcDbEntity
  8
画層3-1
  6
Continuous
100
AcDbLine
 10
25336.8460306083
 20
15431.86619862287
 30
0.0
 11
26196.4460306084
 21
15431.86619862322
 31
0.0
  0
LINE
  5
749
330
1F
100
AcDbEntity
  8
画層3-1
  6
Continuous
100
AcDbLine
 10
25216.09603060877
 20
14849.96619862296
 30
0.0
 11
25216.09603060877
 21
14819.96619862296
 31
0.0
  0
LINE
  5
74A
330
1F
100
AcDbEntity
  8
画層3-1
  6
Continuous
100
AcDbLine
 10
25376.79603060849
 20
14849.96619862296
 30
0.0
 11
25216.09603060877
 21
14849.96619862296
 31
0.0
  0
LINE
  5
74B
330
1F
100
AcDbEntity
  8
画層3-1
  6
Continuous
100
AcDbLine
 10
25216.09603060877
 20
14819.96619862296
 30
0.0
 11
25376.79603060849
 21
14819.96619862296
 31
0.0
  0
LINE
  5
74C
330
1F
100
AcDbEntity
  8
画層3-1
  6
Continuous
100
AcDbLine
 10
25376.79603060849
 20
14819.96619862296
 30
0.0
 11
25376.79603060849
 21
14849.96619862296
 31
0.0
  0
LINE
  5
74D
330
1F
100
AcDbEntity
  8
画層3-2
  6
Continuous
100
AcDbLine
 10
25376.79603060849
 20
14834.96619862296
 30
0.0
 11
26196.4460306084
 21
14834.96619862296
 31
0.0
  0
LINE
  5
74E
330
1F
100
AcDbEntity
  8
画層3-1
  6
Continuous
100
AcDbLine
 10
25216.09603060877
 20
14189.96619862296
 30
0.0
 11
25216.09603060877
 21
14159.96619862296
 31
0.0
  0
LINE
  5
74F
330
1F
100
AcDbEntity
  8
画層3-1
  6
Continuous
100
AcDbLine
 10
25376.79603060849
 20
14189.96619862296
 30
0.0
 11
25216.09603060877
 21
14189.96619862296
 31
0.0
  0
LINE
  5
750
330
1F
100
AcDbEntity
  8
画層3-1
  6
Continuous
100
AcDbLine
 10
25216.09603060877
 20
14159.96619862296
 30
0.0
 11
25376.79603060849
 21
14159.96619862296
 31
0.0
  0
LINE
  5
751
330
1F
100
AcDbEntity
  8
画層3-1
  6
Continuous
100
AcDbLine
 10
25376.79603060849
 20
14159.96619862296
 30
0.0
 11
25376.79603060849
 21
14189.96619862296
 31
0.0
  0
LINE
  5
752
330
1F
100
AcDbEntity
  8
画層3-2
  6
Continuous
100
AcDbLine
 10
26196.4460306084
 20
14174.96619862308
 30
0.0
 11
25376.79603060849
 21
14174.96619862296
 31
0.0
  0
LINE
  5
753
330
1F
100
AcDbEntity
  8
画層3-1
  6
Continuous
100
AcDbLine
 10
25271.04603060849
 20
14819.96619862296
 30
0.0
 11
25271.04603060849
 21
14189.96619862296
 31
0.0
  0
LINE
  5
754
330
1F
100
AcDbEntity
  8
画層3-1
  6
Continuous
100
AcDbLine
 10
25321.8460306083
 20
14819.96619862296
 30
0.0
 11
25321.8460306083
 21
14189.96619862296
 31
0.0
  0
LINE
  5
755
330
1F
100
AcDbEntity
  8
画層3-2
  6
Continuous
100
AcDbLine
 10
25361.79603060848
 20
14819.96619862296
 30
0.0
 11
25361.79603060848
 21
14189.96619862296
 31
0.0
  0
LINE
  5
756
330
1F
100
AcDbEntity
  8
画層3-2
  6
Continuous
100
AcDbLine
 10
25231.09603060877
 20
14189.96619862296
 30
0.0
 11
25231.09603060877
 21
14819.96619862296
 31
0.0
  0
LINE
  5
757
330
1F
100
AcDbEntity
  8
画層3-1
  6
Continuous
100
AcDbLine
 10
25271.04603060849
 20
15416.86619862287
 30
0.0
 11
25271.04603060849
 21
14849.96619862296
 31
0.0
  0
LINE
  5
758
330
1F
100
AcDbEntity
  8
画層3-1
  6
Continuous
100
AcDbLine
 10
25321.8460306083
 20
15416.86619862287
 30
0.0
 11
25321.8460306083
 21
14849.96619862296
 31
0.0
  0
LINE
  5
759
330
1F
100
AcDbEntity
  8
画層3-2
  6
Continuous
100
AcDbLine
 10
25231.09603060877
 20
14849.96619862296
 30
0.0
 11
25231.0960306083
 21
15431.86619862287
 31
0.0
  0
LINE
  5
75A
330
1F
100
AcDbEntity
  8
画層3-2
  6
Continuous
100
AcDbLine
 10
25361.79603060848
 20
15431.86619862287
 30
0.0
 11
25361.79603060848
 21
14849.96619862296
 31
0.0
  0
LWPOLYLINE
  5
75B
330
1F
100
AcDbEntity
  8
画層3-1
100
AcDbPolyline
 90
        4
 70
     0
 43
0.0
 10
23321.8460306083
 20
13514.96619862273
 10
23321.8460306083
 20
13194.96619862273
 10
23271.04603060849
 20
13194.96619862273
 10
23271.04603060849
 20
13514.96619862296
  0
LWPOLYLINE
  5
75C
330
1F
100
AcDbEntity
  8
画層3-1
100
AcDbPolyline
 90
        4
 70
     0
 43
0.0
 10
25321.8460306083
 20
13514.96619862273
 10
25321.8460306083
 20
13194.96619862273
 10
25271.04603060849
 20
13194.96619862273
 10
25271.04603060849
 20
13514.96619862296
  0
TEXT
  5
75D
330
1F
100
AcDbEntity
  8
寸法
  6
Continuous
100
AcDbText
 10
30074.93961026249
 20
13534.28799777863
 30
0.0
 40
300.0
  1
▽GL
 41
0.75
  7
1_100
 72
     2
 11
30741.36818169106
 21
13534.28799777863
 31
0.0
100
AcDbText
 73
     1
  0
LINE
  5
75E
330
1F
100
AcDbEntity
  8
画層2
  6
Continuous
100
AcDbLine
 10
29923.20455268819
 20
13494.96619862273
 30
0.0
 11
32022.42388747122
 21
13494.96619862343
 31
0.0
  0
DIMENSION
  5
75F
330
1F
100
AcDbEntity
  8
寸法
  6
Continuous
100
AcDbDimension
  2
*D31
 10
31521.44603060839
 20
10794.96619862366
 30
0.0
 11
30496.91929683324
 21
10969.02163710586
 31
0.0
 70
   160
  1
φ<>
 71
     5
 42
450.0
  3
1_100
100
AcDbAlignedDimension
 13
31071.44603060839
 23
11394.96619862366
 33
0.0
 14
31521.44603060839
 24
11394.96619862366
 34
0.0
100
AcDbRotatedDimension
  0
LWPOLYLINE
  5
760
330
1F
100
AcDbEntity
  8
画層1
100
AcDbPolyline
 90
        4
 70
     1
 43
0.0
 10
31277.56489214908
 20
15849.96619862284
 10
31317.56489214908
 20
15849.96619862284
 10
31317.56489214908
 20
15669.96619862284
 10
31277.56489214908
 20
15669.96619862284
  0
LINE
  5
761
330
1F
100
AcDbEntity
  8
画層3-通り芯
  6
DASHDOT
 48
100.0
100
AcDbLine
 10
21296.44603060839
 20
12948.59664349119
 30
0.0
 11
21296.44603060839
 21
15494.96619862296
 31
0.0
  0
LINE
  5
762
330
1F
100
AcDbEntity
  8
画層3-2
  6
Continuous
100
AcDbLine
 10
21231.09603060877
 20
13494.96619862296
 30
0.0
 11
21231.09603060877
 21
14159.96619862296
 31
0.0
  0
LINE
  5
763
330
1F
100
AcDbEntity
  8
画層3-2
  6
Continuous
100
AcDbLine
 10
21361.79603060849
 20
14159.96619862296
 30
0.0
 11
21361.79603060849
 21
13494.96619862296
 31
0.0
  0
LINE
  5
764
330
1F
100
AcDbEntity
  8
画層3-1
  6
Continuous
100
AcDbLine
 10
21321.8460306083
 20
14159.96619862296
 30
0.0
 11
21321.8460306083
 21
13553.06619862294
 31
0.0
  0
LINE
  5
765
330
1F
100
AcDbEntity
  8
画層3-1
  6
Continuous
100
AcDbLine
 10
21271.04603060849
 20
14159.96619862296
 30
0.0
 11
21271.04603060849
 21
13553.06619862282
 31
0.0
  0
LINE
  5
766
330
1F
100
AcDbEntity
  8
画層3-1
  6
Continuous
100
AcDbLine
 10
21231.09603060877
 20
13573.06619862294
 30
0.0
 11
21361.79603060849
 21
13573.06619862294
 31
0.0
  0
LWPOLYLINE
  5
767
330
1F
100
AcDbEntity
  8
画層3-2
100
AcDbPolyline
 90
        4
 70
     0
 43
0.0
 10
21421.44603060839
 20
13494.96619862296
 10
21421.44603060839
 20
13044.96619862296
 10
21171.44603060839
 20
13044.96619862296
 10
21171.44603060839
 20
13494.96619862296
  0
HATCH
  5
768
330
1F
100
AcDbEntity
  8
画層3-3
100
AcDbHatch
 10
0.0
 20
0.0
 30
0.0
210
0.0
220
0.0
230
1.0
  2
PLAST
 70
     0
 71
     0
 91
        1
 92
        7
 72
     0
 73
     1
 93
        4
 10
21421.44603060839
 20
13494.96619862296
 10
21171.44603060839
 20
13494.96619862296
 10
21171.44603060839
 20
13044.96619862296
 10
21421.44603060839
 20
13044.96619862296
 97
        0
 75
     0
 76
     1
 52
45.0
 41
1800.0
 77
     0
 78
     3
 53
45.0
 43
15154.1033748421
 44
7053.299182111645
 45
-318.1980515339463
 46
318.1980515339464
 79
     0
 53
45.0
 43
15114.32861840074
 44
7093.07393855347
 45
-318.1980515339463
 46
318.1980515339464
 79
     0
 53
45.0
 43
15074.55386195892
 44
7132.848694995177
 45
-318.1980515339463
 46
318.1980515339464
 79
     0
 47
2.4753793195157
 98
        1
 10
21410.33922837164
 20
13254.17364663062
  0
ARC
  5
769
330
1F
100
AcDbEntity
  8
画層3-1
  6
Continuous
100
AcDbCircle
 10
21336.8460306083
 20
15416.86619862287
 30
0.0
 40
15.0
100
AcDbArc
 50
90.0
 51
180.0
  0
LINE
  5
76A
330
1F
100
AcDbEntity
  8
画層3-1
  6
Continuous
100
AcDbLine
 10
21347.24603060867
 20
15431.86619862287
 30
0.0
 11
21347.24603060867
 21
15469.96619862296
 31
0.0
  0
ARC
  5
76B
330
1F
100
AcDbEntity
  8
画層3-1
  6
Continuous
100
AcDbCircle
 10
21256.04603060849
 20
15416.86619862287
 30
0.0
 40
15.0
100
AcDbArc
 50
0.0
 51
90.0
  0
LINE
  5
76C
330
1F
100
AcDbEntity
  8
画層3-1
  6
Continuous
100
AcDbLine
 10
21332.24603060867
 20
15416.86619862287
 30
0.0
 11
21347.24603060867
 21
15431.86619862287
 31
0.0
  0
LINE
  5
76D
330
1F
100
AcDbEntity
  8
画層3-1
  6
Continuous
100
AcDbLine
 10
21245.64603060858
 20
15469.96619862296
 30
0.0
 11
21245.64603060858
 21
15431.86619862287
 31
0.0
  0
LINE
  5
76E
330
1F
100
AcDbEntity
  8
画層3-1
  6
Continuous
100
AcDbLine
 10
21245.64603060858
 20
15431.86619862287
 30
0.0
 11
21260.64603060858
 21
15416.86619862287
 31
0.0
  0
LINE
  5
76F
330
1F
100
AcDbEntity
  8
画層3-1
  6
Continuous
100
AcDbLine
 10
21332.24603060867
 20
15416.86619862287
 30
0.0
 11
21260.64603060858
 21
15416.86619862287
 31
0.0
  0
LINE
  5
770
330
1F
100
AcDbEntity
  8
画層3-1
  6
Continuous
100
AcDbLine
 10
21376.79603060849
 20
14819.96619862296
 30
0.0
 11
21376.79603060849
 21
14849.96619862296
 31
0.0
  0
LINE
  5
771
330
1F
100
AcDbEntity
  8
画層3-1
  6
Continuous
100
AcDbLine
 10
21216.09603060877
 20
14819.96619862296
 30
0.0
 11
21376.79603060849
 21
14819.96619862296
 31
0.0
  0
LINE
  5
772
330
1F
100
AcDbEntity
  8
画層3-1
  6
Continuous
100
AcDbLine
 10
21376.79603060849
 20
14849.96619862296
 30
0.0
 11
21216.09603060877
 21
14849.96619862296
 31
0.0
  0
LINE
  5
773
330
1F
100
AcDbEntity
  8
画層3-1
  6
Continuous
100
AcDbLine
 10
21216.09603060877
 20
14849.96619862296
 30
0.0
 11
21216.09603060877
 21
14819.96619862296
 31
0.0
  0
LINE
  5
774
330
1F
100
AcDbEntity
  8
画層3-1
  6
Continuous
100
AcDbLine
 10
21376.79603060849
 20
14159.96619862296
 30
0.0
 11
21376.79603060849
 21
14189.96619862296
 31
0.0
  0
LINE
  5
775
330
1F
100
AcDbEntity
  8
画層3-1
  6
Continuous
100
AcDbLine
 10
21216.09603060877
 20
14159.96619862296
 30
0.0
 11
21376.79603060849
 21
14159.96619862296
 31
0.0
  0
LINE
  5
776
330
1F
100
AcDbEntity
  8
画層3-1
  6
Continuous
100
AcDbLine
 10
21376.79603060849
 20
14189.96619862296
 30
0.0
 11
21216.09603060877
 21
14189.96619862296
 31
0.0
  0
LINE
  5
777
330
1F
100
AcDbEntity
  8
画層3-1
  6
Continuous
100
AcDbLine
 10
21216.09603060877
 20
14189.96619862296
 30
0.0
 11
21216.09603060877
 21
14159.96619862296
 31
0.0
  0
LINE
  5
778
330
1F
100
AcDbEntity
  8
画層3-2
  6
Continuous
100
AcDbLine
 10
21231.09603060877
 20
14189.96619862296
 30
0.0
 11
21231.09603060877
 21
14819.96619862296
 31
0.0
  0
LINE
  5
779
330
1F
100
AcDbEntity
  8
画層3-2
  6
Continuous
100
AcDbLine
 10
21361.79603060849
 20
14819.96619862296
 30
0.0
 11
21361.79603060849
 21
14189.96619862296
 31
0.0
  0
LINE
  5
77A
330
1F
100
AcDbEntity
  8
画層3-1
  6
Continuous
100
AcDbLine
 10
21321.8460306083
 20
14819.96619862296
 30
0.0
 11
21321.8460306083
 21
14189.96619862296
 31
0.0
  0
LINE
  5
77B
330
1F
100
AcDbEntity
  8
画層3-1
  6
Continuous
100
AcDbLine
 10
21271.04603060849
 20
14819.96619862296
 30
0.0
 11
21271.04603060849
 21
14189.96619862296
 31
0.0
  0
LINE
  5
77C
330
1F
100
AcDbEntity
  8
画層3-2
  6
Continuous
100
AcDbLine
 10
21361.79603060849
 20
15431.86619862287
 30
0.0
 11
21361.79603060849
 21
14849.96619862296
 31
0.0
  0
LINE
  5
77D
330
1F
100
AcDbEntity
  8
画層3-2
  6
Continuous
100
AcDbLine
 10
21231.09603060877
 20
14849.96619862296
 30
0.0
 11
21231.0960306083
 21
15431.86619862287
 31
0.0
  0
LINE
  5
77E
330
1F
100
AcDbEntity
  8
画層3-1
  6
Continuous
100
AcDbLine
 10
21321.8460306083
 20
15416.86619862287
 30
0.0
 11
21321.8460306083
 21
14849.96619862296
 31
0.0
  0
LINE
  5
77F
330
1F
100
AcDbEntity
  8
画層3-1
  6
Continuous
100
AcDbLine
 10
21271.04603060849
 20
15416.86619862287
 30
0.0
 11
21271.04603060849
 21
14849.96619862296
 31
0.0
  0
LWPOLYLINE
  5
780
330
1F
100
AcDbEntity
  8
画層3-1
100
AcDbPolyline
 90
        4
 70
     0
 43
0.0
 10
21321.8460306083
 20
13514.96619862273
 10
21321.8460306083
 20
13194.96619862273
 10
21271.04603060849
 20
13194.96619862273
 10
21271.04603060849
 20
13514.96619862296
  0
LINE
  5
781
330
1F
100
AcDbEntity
  8
ﾊｯﾁﾝｸﾞ
  6
Continuous
100
AcDbLine
 10
19985.80722625555
 20
13482.4918965886
 30
0.0
 11
20039.5700752386
 21
13428.72904760566
 31
0.0
  0
LINE
  5
782
330
1F
100
AcDbEntity
  8
ﾊｯﾁﾝｸﾞ
  6
Continuous
100
AcDbLine
 10
19998.28152828991
 20
13494.96619862273
 30
0.0
 11
19878.28152828898
 21
13374.96619862273
 31
0.0
  0
LINE
  5
783
330
1F
100
AcDbEntity
  8
ﾊｯﾁﾝｸﾞ
  6
Continuous
100
AcDbLine
 10
19946.20924650926
 20
13442.89391684219
 30
0.0
 11
20014.13696472861
 21
13374.96619862273
 31
0.0
  0
LINE
  5
784
330
1F
100
AcDbEntity
  8
ﾊｯﾁﾝｸﾞ
  6
Continuous
100
AcDbLine
 10
19906.6112667625
 20
13403.29593709578
 30
0.0
 11
19934.94100523508
 21
13374.96619862273
 31
0.0
  0
LINE
  5
785
330
1F
100
AcDbEntity
  8
寸法引出
  6
Continuous
100
AcDbLine
 10
20761.67482876872
 20
15494.96619862296
 30
0.0
 11
21050.61413327653
 21
15990.19112107252
 31
0.0
  0
HATCH
  5
786
330
1F
100
AcDbEntity
  8
画層3-3
 62
   230
370
    13
100
AcDbHatch
 10
0.0
 20
0.0
 30
0.0
210
0.0
220
0.0
230
1.0
  2
NET
 70
     0
 71
     0
 91
        9
 92
        7
 72
     0
 73
     1
 93
       12
 10
23216.09603060877
 20
14834.96619862296
 10
23216.09603060877
 20
14849.96619862296
 10
23271.04603060849
 20
14849.96619862296
 10
23271.04603060849
 20
15416.86619862287
 10
23260.64603060858
 20
15416.86619862287
 10
23245.64603060858
 20
15431.86619862298
 10
21347.24603060867
 20
15431.86619862287
 10
21332.24603060867
 20
15416.86619862287
 10
21321.84603060876
 20
15416.86619862287
 10
21321.84603060876
 20
14849.96619862296
 10
21376.79603060849
 20
14849.96619862296
 10
21376.79603060849
 20
14834.96619862296
 97
        0
 92
        7
 72
     0
 73
     1
 93
       12
 10
23216.09603060877
 20
14174.96619862296
 10
23216.09603060877
 20
14189.96619862284
 10
23271.04603060849
 20
14189.96619862284
 10
23271.04603060849
 20
14819.96619862296
 10
23216.09603060877
 20
14819.96619862296
 10
23216.09603060877
 20
14834.96619862296
 10
21376.79603060849
 20
14834.96619862296
 10
21376.79603060849
 20
14819.96619862296
 10
21321.84603060876
 20
14819.96619862296
 10
21321.84603060876
 20
14189.96619862284
 10
21376.79603060849
 20
14189.96619862296
 10
21376.79603060849
 20
14174.96619862296
 97
        0
 92
        7
 72
     0
 73
     1
 93
        8
 10
21376.79603060849
 20
14174.96619862296
 10
21376.79603060849
 20
14159.96619862296
 10
21321.84603060876
 20
14159.96619862296
 10
21321.84603060876
 20
13553.06619862282
 10
23271.04603060849
 20
13553.06619862294
 10
23271.04603060849
 20
14159.96619862296
 10
23216.09603060877
 20
14159.96619862284
 10
23216.09603060877
 20
14174.96619862296
 97
        0
 92
        7
 72
     0
 73
     1
 93
        8
 10
25271.04603060849
 20
13553.06619862282
 10
25271.04603060849
 20
14159.96619862296
 10
25216.09603060877
 20
14159.96619862296
 10
25216.09603060877
 20
14174.96619862296
 10
23376.79603060849
 20
14174.96619862296
 10
23376.79603060849
 20
14159.96619862296
 10
23321.84603060877
 20
14159.96619862296
 10
23321.84603060877
 20
13553.06619862282
 97
        0
 92
        7
 72
     0
 73
     1
 93
       12
 10
25216.09603060877
 20
14174.96619862296
 10
25216.09603060877
 20
14189.96619862296
 10
25271.04603060849
 20
14189.96619862296
 10
25271.04603060849
 20
14819.96619862296
 10
25216.09603060877
 20
14819.96619862296
 10
25216.09603060877
 20
14834.96619862296
 10
23376.79603060849
 20
14834.96619862296
 10
23376.79603060849
 20
14819.96619862296
 10
23321.84603060877
 20
14819.96619862296
 10
23321.84603060877
 20
14189.96619862296
 10
23376.79603060849
 20
14189.96619862296
 10
23376.79603060849
 20
14174.96619862284
 97
        0
 92
        7
 72
     0
 73
     1
 93
       12
 10
23347.24603060867
 20
15431.86619862287
 10
23332.24603060867
 20
15416.86619862287
 10
23321.84603060877
 20
15416.86619862287
 10
23321.84603060877
 20
14849.96619862296
 10
23376.79603060849
 20
14849.96619862296
 10
23376.79603060849
 20
14834.96619862296
 10
25216.09603060877
 20
14834.96619862284
 10
25216.09603060877
 20
14849.96619862296
 10
25271.04603060895
 20
14849.96619862296
 10
25271.04603060895
 20
15416.86619862287
 10
25260.64603060905
 20
15416.86619862287
 10
25245.64603060905
 20
15431.86619862287
 97
        0
 92
        7
 72
     0
 73
     1
 93
        8
 10
25321.84603060877
 20
14849.96619862296
 10
25376.79603060895
 20
14849.96619862296
 10
25376.79603060895
 20
14834.96619862296
 10
26196.4460306084
 20
14834.96619862296
 10
26196.4460306084
 20
15431.86619862298
 10
25347.24603060867
 20
15431.86619862287
 10
25332.24603060867
 20
15416.86619862287
 10
25321.84603060877
 20
15416.86619862287
 97
        0
 92
        7
 72
     0
 73
     1
 93
        8
 10
25321.84603060877
 20
14189.96619862296
 10
25376.79603060895
 20
14189.96619862296
 10
25376.79603060895
 20
14174.96619862296
 10
26196.4460306084
 20
14174.96619862296
 10
26196.4460306084
 20
14834.96619862296
 10
25376.79603060895
 20
14834.96619862296
 10
25376.79603060895
 20
14819.96619862296
 10
25321.84603060877
 20
14819.96619862296
 97
        0
 92
        7
 72
     0
 73
     1
 93
        6
 10
25376.79603060895
 20
14174.96619862296
 10
25376.79603060895
 20
14159.96619862296
 10
25321.84603060877
 20
14159.96619862296
 10
25321.84603060877
 20
13553.06619862282
 10
26196.4460306084
 20
13553.06619862294
 10
26196.4460306084
 20
14174.96619862296
 97
        0
 75
     0
 76
     1
 52
45.0
 41
1200.0
 77
     0
 78
     2
 53
45.0
 43
763.1126972758342
 44
1211.632865289706
 45
-106.0660171779821
 46
106.0660171779821
 79
     0
 53
135.0
 43
763.1126972758342
 44
1211.632865289706
 45
-106.0660171779821
 46
-106.0660171779821
 79
     0
 47
10.47656177152982
 98
        9
 10
22902.70809789469
 20
15069.94044606424
 10
22850.28439723935
 20
14472.77641368263
 10
22797.860696584
 20
13896.56550671872
 10
23909.24275957562
 20
13812.75304707234
 10
23919.72754313985
 20
14493.72953910033
 10
24045.54436680164
 20
15237.5654494064
 10
25502.9226948619
 20
15216.61232398859
 10
25481.9532725108
 20
14598.49516618917
 10
25628.73959091214
 20
13938.47175755423
  0
LINE
  5
787
330
1F
100
AcDbEntity
  8
画層3-1
  6
Continuous
100
AcDbLine
 10
21321.84603060876
 20
13514.96619862296
 30
0.0
 11
23271.04603060849
 21
13514.96619862284
 31
0.0
  0
LINE
  5
788
330
1F
100
AcDbEntity
  8
画層3-1
  6
Continuous
100
AcDbLine
 10
21321.8460306083
 20
13553.06619862282
 30
0.0
 11
23271.04603060849
 21
13553.06619862305
 31
0.0
  0
TEXT
  5
789
330
1F
100
AcDbEntity
  8
寸法
  6
Continuous
100
AcDbText
 10
22118.64001075413
 20
8539.327698374998
 30
0.0
 40
300.0
  1
10,000
 41
0.75
  7
1_100
 11
22118.64001075413
 21
8539.327698374998
 31
0.0
100
AcDbText
 73
     1
  0
DIMENSION
  5
78A
330
1F
100
AcDbEntity
  8
画層3-寸法
  6
Continuous
100
AcDbDimension
  2
*D32
 10
23296.44603060839
 20
9194.966198622497
 30
0.0
 11
22296.44603060839
 21
9473.537627193925
 31
0.0
 70
    32
 71
     5
 42
2000.0
  3
1_100
100
AcDbAlignedDimension
 13
21296.44603060839
 23
10502.06023288031
 33
0.0
 14
23296.44603060839
 24
10524.96619862249
 34
0.0
100
AcDbRotatedDimension
  0
LINE
  5
78B
330
1F
100
AcDbEntity
  8
画層3-2
  6
Continuous
100
AcDbLine
 10
23216.09603060877
 20
14174.96619862296
 30
0.0
 11
21376.79603060849
 21
14174.96619862296
 31
0.0
  0
LINE
  5
78C
330
1F
100
AcDbEntity
  8
画層3-2
  6
Continuous
100
AcDbLine
 10
21376.79603060849
 20
14834.96619862296
 30
0.0
 11
23216.09603060877
 21
14834.96619862296
 31
0.0
  0
LINE
  5
78D
330
1F
100
AcDbEntity
  8
画層3-1
  6
Continuous
100
AcDbLine
 10
21336.8460306083
 20
15431.86619862287
 30
0.0
 11
23256.04603060849
 21
15431.86619862287
 31
0.0
  0
MTEXT
  5
78E
330
1F
100
AcDbEntity
  8
寸法文字
  6
Continuous
100
AcDbMText
 10
32883.57117611452
 20
22903.13740488469
 30
0.0
 40
300.0
 41
0.0
 71
     1
 72
     1
  1
（溶融亜鉛メッキ450g/㎡）
  7
1_100
 73
     1
 44
1.0
1001
ACAD
1000
MTEXTBEGIN
1070
    73
1070
     1
1070
    44
1040
1.0
1070
    74
1070
     0
1000
MTEXTEND
  0
LEADER
  5
78F
330
1F
100
AcDbEntity
  8
寸法引出
  6
Continuous
100
AcDbLeader
  3
1_100
 71
     0
 73
     0
 74
     0
 75
     1
 40
300.0
 41
4699.285714285712
 76
     3
 10
31404.5960306083
 20
21083.8560364924
 30
0.0
 10
32561.05156970538
 20
22978.33766363726
 30
0.0
 10
32621.05156970538
 20
22978.33766363726
 30
0.0
340
790
  0
MTEXT
  5
790
102
{ACAD_REACTORS
330
78F
102
}
330
1F
100
AcDbEntity
  8
寸法文字
  6
Continuous
100
AcDbMText
 10
32721.05156970538
 20
23078.33766363726
 30
0.0
 40
300.0
 41
0.0
 71
     7
 72
     1
  1
主柱KSポールφ216.3厚さ3.5mm
  7
1_100
 73
     1
 44
1.0
1001
ACAD
1000
ACAD_MTEXT_DEFINED_HEIGHT_BEGIN
1070
    46
1040
0.0
1000
ACAD_MTEXT_DEFINED_HEIGHT_END
1000
MTEXTBEGIN
1070
    73
1070
     1
1070
    44
1040
1.0
1070
    74
1070
     0
1000
MTEXTEND
  0
DIMENSION
  5
791
330
1F
100
AcDbEntity
  8
寸法
  6
Continuous
100
AcDbDimension
  2
*D33
 10
31404.5960306083
 20
22094.96619862343
 30
0.0
 11
31296.44603060839
 21
22394.96619862343
 31
0.0
 70
    32
  1
φ<>
 71
     5
 42
216.2999999998137
  3
1_100
100
AcDbAlignedDimension
 13
31188.29603060849
 23
21494.96619862378
 33
0.0
 14
31404.5960306083
 24
21494.96619862378
 34
0.0
100
AcDbRotatedDimension
  0
LINE
  5
792
330
1F
100
AcDbEntity
  8
画層1
  6
Continuous
100
AcDbLine
 10
31321.44603060839
 20
21409.96619862273
 30
0.0
 11
31321.44603060839
 21
21459.96619862273
 31
0.0
  0
LINE
  5
793
330
1F
100
AcDbEntity
  8
画層1
  6
Continuous
100
AcDbLine
 10
31271.44603060839
 20
21409.96619862273
 30
0.0
 11
31271.44603060839
 21
21459.96619862273
 31
0.0
  0
LINE
  5
794
330
1F
100
AcDbEntity
  8
画層1
  6
Continuous
100
AcDbLine
 10
31138.29603060849
 20
21459.96619862273
 30
0.0
 11
31138.29603060849
 21
21409.96619862273
 31
0.0
  0
LINE
  5
795
330
1F
100
AcDbEntity
  8
画層1
  6
Continuous
100
AcDbLine
 10
31188.29603060849
 20
21409.96619862273
 30
0.0
 11
31271.44603060839
 21
21409.96619862273
 31
0.0
  0
LINE
  5
796
330
1F
100
AcDbEntity
  8
画層1
  6
Continuous
100
AcDbLine
 10
31233.64603060858
 20
21434.96619862343
 30
0.0
 11
31346.44603060839
 21
21434.96619862343
 31
0.0
  0
LINE
  5
797
330
1F
100
AcDbEntity
  8
画層1
  6
Continuous
100
AcDbLine
 10
31138.29603060849
 20
21434.96619862343
 30
0.0
 11
31188.29603060849
 21
21434.96619862343
 31
0.0
  0
LINE
  5
798
330
1F
100
AcDbEntity
  8
画層1
  6
Continuous
100
AcDbLine
 10
31321.44603060839
 20
21409.96619862273
 30
0.0
 11
31404.5960306083
 21
21409.96619862273
 31
0.0
  0
LINE
  5
799
330
1F
100
AcDbEntity
  8
画層1
  6
Continuous
100
AcDbLine
 10
31188.29603060849
 20
21494.96619862274
 30
0.0
 11
31404.5960306083
 21
21494.96619862274
 31
0.0
  0
LINE
  5
79A
330
1F
100
AcDbEntity
  8
画層1
  6
Continuous
100
AcDbLine
 10
31188.29603060849
 20
21474.96619862273
 30
0.0
 11
31404.5960306083
 21
21474.96619862273
 31
0.0
  0
LINE
  5
79B
330
1F
100
AcDbEntity
  8
画層1
  6
Continuous
100
AcDbLine
 10
31271.44603060839
 20
21459.96619862273
 30
0.0
 11
31188.29603060849
 21
21459.96619862273
 31
0.0
  0
LINE
  5
79C
330
1F
100
AcDbEntity
  8
画層1
  6
Continuous
100
AcDbLine
 10
31404.5960306083
 20
21459.96619862273
 30
0.0
 11
31321.44603060839
 21
21459.96619862273
 31
0.0
  0
LINE
  5
79D
330
1F
100
AcDbEntity
  8
画層1
  6
Continuous
100
AcDbLine
 10
31188.29603060849
 20
18439.96619862284
 30
0.0
 11
31271.44603060839
 21
18439.96619862284
 31
0.0
  0
LINE
  5
79E
330
1F
100
AcDbEntity
  8
画層1
  6
Continuous
100
AcDbLine
 10
31246.44603060839
 20
18464.96619862343
 30
0.0
 11
31346.44603060839
 21
18464.96619862343
 31
0.0
  0
LINE
  5
79F
330
1F
100
AcDbEntity
  8
画層1
  6
Continuous
100
AcDbLine
 10
31271.44603060839
 20
18489.96619862284
 30
0.0
 11
31188.29603060849
 21
18489.96619862284
 31
0.0
  0
LINE
  5
7A0
330
1F
100
AcDbEntity
  8
画層1
  6
Continuous
100
AcDbLine
 10
31138.29603060849
 20
18489.96619862284
 30
0.0
 11
31138.29603060849
 21
18439.96619862284
 31
0.0
  0
LINE
  5
7A1
330
1F
100
AcDbEntity
  8
画層1
  6
Continuous
100
AcDbLine
 10
31138.29603060849
 20
18464.96619862343
 30
0.0
 11
31188.29603060849
 21
18464.96619862343
 31
0.0
  0
LINE
  5
7A2
330
1F
100
AcDbEntity
  8
画層1
  6
Continuous
100
AcDbLine
 10
31321.44603060839
 20
18439.96619862284
 30
0.0
 11
31321.44603060839
 21
18489.96619862284
 31
0.0
  0
LINE
  5
7A3
330
1F
100
AcDbEntity
  8
画層1
  6
Continuous
100
AcDbLine
 10
31271.44603060839
 20
18439.96619862284
 30
0.0
 11
31271.44603060839
 21
18489.96619862284
 31
0.0
  0
LINE
  5
7A4
330
1F
100
AcDbEntity
  8
画層1
  6
Continuous
100
AcDbLine
 10
31321.44603060839
 20
18439.96619862284
 30
0.0
 11
31404.5960306083
 21
18439.96619862284
 31
0.0
  0
LINE
  5
7A5
330
1F
100
AcDbEntity
  8
画層1
  6
Continuous
100
AcDbLine
 10
31404.5960306083
 20
18489.96619862284
 30
0.0
 11
31321.44603060839
 21
18489.96619862284
 31
0.0
  0
DIMENSION
  5
7A6
330
1F
100
AcDbEntity
  8
寸法
  6
Continuous
100
AcDbDimension
  2
*D34
 10
33896.4460306084
 20
21494.96619862413
 30
0.0
 11
33631.02897160922
 21
21782.71483925557
 31
0.0
 70
   160
 71
     5
 42
60.0
  3
1_100
100
AcDbAlignedDimension
 13
32796.44603060839
 23
21434.96619862413
 33
0.0
 14
32796.44603060839
 24
21494.96619862413
 34
0.0
 50
90.0
100
AcDbRotatedDimension
  0
DIMENSION
  5
7A7
330
1F
100
AcDbEntity
  8
寸法
  6
Continuous
100
AcDbDimension
  2
*D35
 10
33896.4460306084
 20
21434.96619862413
 30
0.0
 11
33617.87460203697
 21
19949.96619862378
 31
0.0
 70
    32
 71
     5
 42
2970.000000000699
  3
1_100
100
AcDbAlignedDimension
 13
32836.44603060839
 23
18464.96619862343
 33
0.0
 14
32796.44603060839
 24
21434.96619862413
 34
0.0
 50
90.0
100
AcDbRotatedDimension
  0
DIMENSION
  5
7A8
330
1F
100
AcDbEntity
  8
寸法
  6
Continuous
100
AcDbDimension
  2
*D36
 10
27696.44603060839
 20
21494.96619862274
 30
0.0
 11
27431.49733742049
 21
21764.58006372119
 31
0.0
 70
   160
 71
     5
 42
60.0
  3
1_100
100
AcDbAlignedDimension
 13
26696.44603060839
 23
21434.96619862273
 33
0.0
 14
26696.44603060839
 24
21494.96619862274
 34
0.0
 50
90.0
100
AcDbRotatedDimension
  0
DIMENSION
  5
7A9
330
1F
100
AcDbEntity
  8
寸法
  6
Continuous
100
AcDbDimension
  2
*D37
 10
27696.44603060839
 20
21434.96619862355
 30
0.0
 11
27417.87460203696
 21
19949.96619862355
 31
0.0
 70
    32
 71
     5
 42
2970.0
  3
1_100
100
AcDbAlignedDimension
 13
26696.44603060839
 23
18464.96619862354
 33
0.0
 14
26696.44603060839
 24
21434.96619862355
 34
0.0
 50
90.0
100
AcDbRotatedDimension
  0
LEADER
  5
7AA
330
1F
100
AcDbEntity
  8
寸法引出
  6
Continuous
100
AcDbLeader
  3
1_100
 71
     0
 73
     0
 74
     0
 75
     1
 40
846.6666666666665
 41
5162.142857142854
 76
     3
 10
20948.84014286522
 20
21434.96619862284
 30
0.0
 10
21486.96241279506
 20
22493.22198777414
 30
0.0
 10
21546.96241279506
 20
22493.22198777414
 30
0.0
340
7AB
  0
MTEXT
  5
7AB
102
{ACAD_REACTORS
330
7AA
102
}
330
1F
100
AcDbEntity
  8
寸法文字
  6
Continuous
100
AcDbMText
 10
21646.96241279507
 20
22593.22198777415
 30
0.0
 40
300.0
 41
0.0
 71
     7
 72
     1
  1
ネット上下6mm合繊ロープに4mm合繊\Pロープにて38m㎡ワイヤーに巻付
  7
1_100
 73
     1
 44
1.0
1001
ACAD
1000
MTEXTBEGIN
1070
    73
1070
     1
1070
    44
1040
1.0
1070
    74
1070
     0
1000
MTEXTEND
  0
LWPOLYLINE
  5
7AC
330
1F
100
AcDbEntity
  8
図面枠
100
AcDbPolyline
 90
        4
 70
     1
 43
0.0
 10
763.1128021525496
 20
1211.633412319432
 10
39763.11280215252
 20
1211.633412319432
 10
39763.11280215252
 20
26711.63341231943
 10
763.1128021525496
 20
26711.63341231943
  0
LWPOLYLINE
  5
7AD
330
1F
100
AcDbEntity
  8
図面枠
100
AcDbPolyline
 90
        4
 70
     1
 43
0.0
 10
763.1128021516182
 20
1211.633412319432
 10
39763.11280215158
 20
1211.633412319432
 10
39763.11280215158
 20
26711.63341231943
 10
763.1128021516182
 20
26711.63341231943
  0
MTEXT
  5
7AE
330
1F
100
AcDbEntity
  8
寸法
  6
Continuous
 62
     3
100
AcDbMText
 10
20263.11280215138
 20
25240.01002365277
 30
0.0
 40
500.0
 41
0.0
 71
     8
 72
     1
  1
防球ネット　ＫＳ－Ⅱ型　Ｈ＝８,０００
  7
MSP明朝
 73
     1
 44
1.0
1001
ACAD
1000
ACAD_MTEXT_DEFINED_HEIGHT_BEGIN
1070
    46
1040
0.0
1000
ACAD_MTEXT_DEFINED_HEIGHT_END
1000
MTEXTBEGIN
1070
    73
1070
     1
1070
    44
1040
1.0
1070
    74
1070
     0
1000
MTEXTEND
  0
LINE
  5
7AF
330
1F
100
AcDbEntity
  8
寸法
  6
Continuous
 62
     3
100
AcDbLine
 10
15936.35293555076
 20
25082.46039678397
 30
0.0
 11
24589.87266875433
 21
25082.46039678397
 31
0.0
  0
LINE
  5
7B0
330
1F
100
AcDbEntity
  8
寸法
  6
Continuous
 62
     3
100
AcDbLine
 10
15936.35293555076
 20
25142.46039678164
 30
0.0
 11
24589.87266875433
 21
25142.46039678164
 31
0.0
  0
MTEXT
  5
7B1
330
1F
100
AcDbEntity
  8
画層1-1
100
AcDbMText
 10
3579.711242696953
 20
5678.044742234932
 30
0.0
 40
300.0
 41
0.0
 71
     1
 72
     5
  1
{\F|c128;・※印表記のネットを使用する場合標準柱スパンは変更になる場合があります}
  7
1_100
 73
     1
 44
1.0
1001
AcDbBlockRepETag
1070
     1
1071
        0
1005
7B1
1001
ACAD
1000
MTEXTBEGIN
1070
    73
1070
     1
1070
    44
1040
1.0
1070
    74
1070
     0
1000
MTEXTEND
  0
MTEXT
  5
7B2
330
1F
100
AcDbEntity
  8
画層1-1
100
AcDbMText
 10
3579.711242696953
 20
2389.542416204051
 30
0.0
 40
300.0
 41
0.0
 71
     1
 72
     5
  1
・速度圧　q=0.6EVo （N/㎡）　・地表面粗度区分　　　・基礎　普通土質 [B] を選定
  7
1_100
 73
     1
 44
1.0
1001
AcDbBlockRepETag
1070
     1
1071
        1
1005
7B2
1001
ACAD
1000
MTEXTBEGIN
1070
    73
1070
     1
1070
    44
1040
1.0
1070
    74
1070
     0
1000
MTEXTEND
  0
MTEXT
  5
7B3
330
1F
100
AcDbEntity
  8
画層1-1
100
AcDbMText
 10
3579.711242696953
 20
7478.044742234931
 30
0.0
 40
300.0
 41
0.0
 71
     1
 72
     5
  1
・主柱．端末ポール．バンド金具．ボルトは溶融亜鉛メッキ仕上げとする
  7
1_100
 73
     1
 44
1.0
1001
AcDbBlockRepETag
1070
     1
1071
        2
1005
7B3
1001
ACAD
1000
MTEXTBEGIN
1070
    73
1070
     1
1070
    44
1040
1.0
1070
    74
1070
     0
1000
MTEXTEND
  0
MTEXT
  5
7B4
330
1F
100
AcDbEntity
  8
画層1-1
100
AcDbMText
 10
3579.711242696953
 20
6878.044742234931
 30
0.0
 40
300.0
 41
0.0
 71
     1
 72
     5
  1
・主柱ポール基礎部（ＧＬ）はＦＲＰ被覆補強とする
  7
1_100
 73
     1
 44
1.0
1001
AcDbBlockRepETag
1070
     1
1071
        3
1005
7B4
1001
ACAD
1000
MTEXTBEGIN
1070
    73
1070
     1
1070
    44
1040
1.0
1070
    74
1070
     0
1000
MTEXTEND
  0
MTEXT
  5
7B5
330
1F
100
AcDbEntity
  8
画層1-1
100
AcDbMText
 10
3579.711242696953
 20
4217.686820219554
 30
0.0
 40
300.0
 41
0.0
 71
     1
 72
     5
  1
・構造計算書．材料承認願いを提出後施工のこと
  7
1_100
 73
     1
 44
1.0
1001
AcDbBlockRepETag
1070
     1
1071
        4
1005
7B5
1001
ACAD
1000
MTEXTBEGIN
1070
    73
1070
     1
1070
    44
1040
1.0
1070
    74
1070
     0
1000
MTEXTEND
  0
MTEXT
  5
7B6
330
1F
100
AcDbEntity
  8
画層1-1
100
AcDbMText
 10
3579.711242696953
 20
6278.044742234932
 30
0.0
 40
300.0
 41
0.0
 71
     1
 72
     5
  1
・上部（補強ポール・ネット）下り防止金具付きとする
  7
1_100
 73
     1
 44
1.0
1001
AcDbBlockRepETag
1070
     1
1071
        5
1005
7B6
1001
ACAD
1000
MTEXTBEGIN
1070
    73
1070
     1
1070
    44
1040
1.0
1070
    74
1070
     0
1000
MTEXTEND
  0
POINT
  5
7B7
330
1F
100
AcDbEntity
  8
画層1-1
100
AcDbPoint
 10
763.1128402207819
 20
1695.768128386102
 30
0.0
1001
AcDbBlockRepETag
1070
     1
1071
        6
1005
7B7
  0
MTEXT
  5
7B8
330
1F
100
AcDbEntity
  8
画層1-1
100
AcDbMText
 10
3079.711242696953
 20
3480.364304853444
 30
0.0
 40
400.0
 41
0.0
 71
     1
 72
     5
  1
設計条件
  7
1_100
 73
     1
 44
1.0
1001
AcDbBlockRepETag
1070
     1
1071
        7
1005
7B8
1001
ACAD
1000
MTEXTBEGIN
1070
    73
1070
     1
1070
    44
1040
1.0
1070
    74
1070
     0
1000
MTEXTEND
  0
MTEXT
  5
7B9
330
1F
100
AcDbEntity
  8
画層1-1
100
AcDbMText
 10
3079.711242696953
 20
4868.709921568603
 30
0.0
 40
400.0
 41
0.0
 71
     1
 72
     5
  1
特記
  7
1_100
 73
     1
 44
1.0
1001
AcDbBlockRepETag
1070
     1
1071
        8
1005
7B9
1001
ACAD
1000
MTEXTBEGIN
1070
    73
1070
     1
1070
    44
1040
1.0
1070
    74
1070
     0
1000
MTEXTEND
  0
MTEXT
  5
7BA
330
1F
100
AcDbEntity
  8
画層1-1
100
AcDbMText
 10
3079.711242696953
 20
8149.473710173705
 30
0.0
 40
400.0
 41
0.0
 71
     1
 72
     5
  1
仕様について
  7
1_100
 73
     1
 44
1.0
1001
AcDbBlockRepETag
1070
     1
1071
        9
1005
7BA
1001
ACAD
1000
MTEXTBEGIN
1070
    73
1070
     1
1070
    44
1040
1.0
1070
    74
1070
     0
1000
MTEXTEND
  0
MTEXT
  5
7BB
330
1F
100
AcDbEntity
  8
画層1-1
100
AcDbMText
 10
10476.43775339998
 20
2327.365934676214
 30
0.0
 40
300.0
 41
0.0
 71
     1
 72
     5
  1
Ⅲ
  7
STYLE1
 73
     1
 44
1.0
1001
AcDbBlockRepETag
1070
     1
1071
       10
1005
7BB
1001
ACAD
1000
MTEXTBEGIN
1070
    73
1070
     1
1070
    44
1040
1.0
1070
    74
1070
     0
1000
MTEXTEND
  0
MTEXT
  5
7BC
330
1F
100
AcDbEntity
  8
画層1-1
100
AcDbMText
 10
6563.18921270898
 20
2354.028841552906
 30
0.0
 40
120.0
 41
0.0
 71
     1
 72
     5
  1
2
  7
1_100
 73
     1
 44
1.0
1001
AcDbBlockRepETag
1070
     1
1071
       11
1005
7BC
1001
ACAD
1000
MTEXTBEGIN
1070
    73
1070
     1
1070
    44
1040
1.0
1070
    74
1070
     0
1000
MTEXTEND
  0
MTEXT
  5
7BD
330
1F
100
AcDbEntity
  8
画層1-1
100
AcDbMText
 10
3579.711242696953
 20
2937.618978688166
 30
0.0
 40
300.0
 41
0.0
 71
     1
 72
     5
  1
・設計荷重。建築基準法・同施工令（平成12年6月）に基づく風圧力に依る、基準風速。
  7
1_100
 73
     1
 44
1.0
1001
AcDbBlockRepETag
1070
     1
1071
       12
1005
7BD
1001
ACAD
1000
ACAD_MTEXT_DEFINED_HEIGHT_BEGIN
1070
    46
1040
0.0
1000
ACAD_MTEXT_DEFINED_HEIGHT_END
1000
MTEXTBEGIN
1070
    73
1070
     1
1070
    44
1040
1.0
1070
    74
1070
     0
1000
MTEXTEND
  0
LWPOLYLINE
  5
7BE
330
1F
100
AcDbEntity
  8
寸法引出
  6
Continuous
100
AcDbPolyline
 90
        2
 70
     0
 43
0.0
 10
26211.32464686131
 20
9194.966198622614
 10
25296.44603060839
 20
9194.966198622497
1001
ACAD
1000
DSTYLE
1002
{
1070
    41
1040
3.0
1070
   341
1005
0
1002
}
  0
LWPOLYLINE
  5
7BF
330
1F
100
AcDbEntity
  8
寸法引出
  6
Continuous
100
AcDbPolyline
 90
        2
 70
     0
 43
0.0
 10
26206.48584580842
 20
8394.966198622613
 10
19296.44603060839
 20
8394.966198622496
1001
ACAD
1000
DSTYLE
1002
{
1070
    41
1040
3.0
1070
   341
1005
0
1002
}
  0
LINE
  5
7C0
330
1F
100
AcDbEntity
  8
寸法引出
  6
ByBlock
100
AcDbLine
 10
25906.48584580842
 20
8475.350955622607
 30
0.0
 11
26206.48584580842
 21
8394.966198622613
 31
0.0
  0
LINE
  5
7C1
330
1F
100
AcDbEntity
  8
寸法引出
  6
ByBlock
100
AcDbLine
 10
26206.48584580842
 20
8394.966198622613
 30
0.0
 11
25906.48584580842
 21
8314.581441622607
 31
0.0
  0
LINE
  5
7C2
330
1F
100
AcDbEntity
  8
寸法引出
  6
ByBlock
100
AcDbLine
 10
25911.3246468613
 20
9275.350955622576
 30
0.0
 11
26211.32464686131
 21
9194.966198622614
 31
0.0
  0
LINE
  5
7C3
330
1F
100
AcDbEntity
  8
寸法引出
  6
ByBlock
100
AcDbLine
 10
26211.32464686131
 20
9194.966198622614
 30
0.0
 11
25911.32464686132
 21
9114.581441622574
 31
0.0
  0
MTEXT
  5
E6B
330
1F
100
AcDbEntity
  8
寸法文字
  6
Continuous
100
AcDbMText
 10
11995.83940548079
 20
20302.58721867863
 30
0.0
 40
200.0
 41
0.0
 71
     1
 72
     1
  1
※KRP-40　1100D18本40mm目（再生ポリエステル100%）\P※KSP-24　37.5mm目（ｽｰﾊﾟｰﾎﾟﾘｴﾁﾚﾝ）
  7
1_100
 73
     1
 44
1.0
1001
ACAD
1000
MTEXTBEGIN
1070
    73
1070
     1
1070
    44
1040
1.0
1070
    74
1070
     0
1000
MTEXTEND
  0
MTEXT
  5
E6C
330
1F
100
AcDbEntity
  8
寸法文字
  6
Continuous
100
AcDbMText
 10
11971.27055317819
 20
20484.36013681333
 30
0.0
 40
300.0
 41
0.0
 71
     7
 72
     1
  1
ネット\Pクレモナ250D/80本×37.5mm目
  7
1_100
 73
     1
 44
0.6
1001
ACAD
1000
MTEXTBEGIN
1070
    73
1070
     1
1070
    44
1040
0.6
1070
    74
1070
     0
1000
MTEXTEND
  0
LEADER
  5
E6D
330
1F
100
AcDbEntity
  8
寸法引出
100
AcDbLeader
  3
1_50
 71
     0
 76
     3
 10
11445.25915549653
 20
19742.87708884624
 30
0.0
 10
11771.2705531782
 20
20384.36013681333
 30
0.0
 10
17690.37813329257
 20
20384.36013681333
 30
0.0
1001
ACAD
1000
DSTYLE
1002
{
1070
    41
1040
1.0
1070
   341
1005
87
1070
   147
1040
0.625
1070
    77
1070
     0
1002
}
  0
LINE
  5
E7C
330
1F
100
AcDbEntity
  8
画層1-1
100
AcDbLine
 10
19163.29603060848
 20
15494.96619862296
 30
0.0
 11
12243.85522972068
 21
19717.56175398956
 31
0.0
  0
LINE
  5
E7E
330
1F
100
AcDbEntity
  8
画層1-1
100
AcDbLine
 10
11922.41322935707
 20
19910.59209017304
 30
0.0
 11
9429.596030608298
 21
21384.96619862296
 31
0.0
  0
LINE
  5
116F
330
1F
100
AcDbEntity
  8
画層1-1
  6
Continuous
100
AcDbLine
 10
16964.23290867703
 20
20054.28463102332
 30
0.0
 11
9429.576030608279
 21
15494.96619862296
 31
0.0
  0
ENDSEC
  0
SECTION
  2
OBJECTS
  0
DICTIONARY
  5
C
330
0
100
AcDbDictionary
281
     1
  3
ACAD_COLOR
350
6B
  3
ACAD_GROUP
350
D
  3
ACAD_LAYOUT
350
1A
  3
ACAD_MATERIAL
350
6A
  3
ACAD_MLINESTYLE
350
17
  3
ACAD_PLOTSETTINGS
350
19
  3
ACAD_PLOTSTYLENAME
350
E
  3
ACAD_TABLESTYLE
350
B77
  3
ACDBHEADERROUNDTRIPXREC
350
1172
  3
AcDbVariableDictionary
350
5E
  3
ADE_QUERY_LIBRARY
350
E83
  3
AEC_CLASSIFICATION_SYSTEM_DEFS
350
E69
  3
AEC_VARS
350
BA4
  3
ASE_INDEX_DICTIONARY
350
E81
  3
Autodesk_MAP
350
BA6
  3
Root
350
E98
1001
ADE
1000
ADE02C004
1000
[Query]
1000
CaseSensitiveMatch=0
1000
SaveCurrQueryInSession=1
1000
MkSelSetWithQryObj=0
1000
ShowBlockAsInsPt=0
1000
CreateAssociativeHatchObjects=0
1000
ReferenceBoundaryForAreaLocation=1
1000
ShowImageAsBoundary=1
1000
DefaultJoinOperator=2
1000
ColorForAdd=red
1000
ColorForRemove=red
1000
BlockLocnForQuery=1
1000
TextLocnForQuery=1
1000
IncludeAllObjectsInGroups=0
1000
AlwaysUseLibraryDefinitions=0
1000
PreviewDefinitionsFrom=2
1000
[Save Back]
1000
RedefineBlockDefinitions=1
1000
RedefineLayerDefinitions=1
1000
RedefineTextStyleDefinitions=1
1000
RemoveUnusedGroups=1
1000
EraseSavedBackObjects=1
1000
RemoveLockAfterSave=1
1000
CreateHistoryFileOfChanges=0
1000
CreateBackupFileOfSourceDwg=1
1000
DontAddObjectsToSaveSet=0
1000
MarkObjectsForEditingWithoutPrompting=0
1000
[Coordinate Transformation]
1000
RestoreLastActiveDwgsOnStartup=1
1000
ActivateDwgsOnAttach=1
1000
AdjustSizesAndScalesForChangesInUnits=1
1000
AdjustRotationsForMapDistortions=1
1000
AdjustSizesAndScalesForMapDistortions=1
1000
AdjustElevations=1
1000
AdjustZeroRotationObjects=1
1000
ReconnectDbOnWSOpen=1
1000
NoOfSQLConditionsInHistory=10
  0
DICTIONARY
  5
E72
330
1F
100
AcDbDictionary
280
     1
281
     1
  3
ACAD_SORTENTS
360
E73
  0
DICTIONARY
  5
6B
102
{ACAD_REACTORS
330
C
102
}
330
C
100
AcDbDictionary
281
     1
  0
DICTIONARY
  5
D
102
{ACAD_REACTORS
330
C
102
}
330
C
100
AcDbDictionary
281
     1
  0
DICTIONARY
  5
1A
102
{ACAD_REACTORS
330
C
102
}
330
C
100
AcDbDictionary
281
     1
  3
Model
350
22
  3
レイアウト1
350
51
  3
レイアウト2
350
56
  0
DICTIONARY
  5
6A
102
{ACAD_REACTORS
330
C
102
}
330
C
100
AcDbDictionary
281
     1
  0
DICTIONARY
  5
17
102
{ACAD_REACTORS
330
C
102
}
330
C
100
AcDbDictionary
281
     1
  3
Standard
350
18
  0
DICTIONARY
  5
19
102
{ACAD_REACTORS
330
C
102
}
330
C
100
AcDbDictionary
281
     1
  0
ACDBDICTIONARYWDFLT
  5
E
102
{ACAD_REACTORS
330
C
102
}
330
C
100
AcDbDictionary
281
     1
  3
Normal
350
F
100
AcDbDictionaryWithDefault
340
F
  0
DICTIONARY
  5
B77
102
{ACAD_REACTORS
330
C
102
}
330
C
100
AcDbDictionary
281
     1
  3
Legend
350
BAA
  3
Standard
350
B78
  0
DICTIONARY
  5
1172
102
{ACAD_REACTORS
330
C
102
}
330
C
100
AcDbDictionary
281
     1
  0
DICTIONARY
  5
5E
102
{ACAD_REACTORS
330
C
102
}
330
C
100
AcDbDictionary
281
     1
  3
CTABLESTYLE
350
E85
  3
DIMASSOC
350
5F
  3
HIDETEXT
350
63
  3
PROJECTNAME
350
AFE
  0
DICTIONARY
  5
E83
102
{ACAD_REACTORS
330
C
102
}
330
C
100
AcDbDictionary
281
     1
  3
_CurrQry
350
1170
  0
DICTIONARY
  5
E69
102
{ACAD_REACTORS
330
C
102
}
330
C
100
AcDbDictionary
281
     1
  0
DICTIONARY
  5
BA4
102
{ACAD_REACTORS
330
C
102
}
330
C
100
AcDbDictionary
281
     1
  3
AEC_VARS_DWG_SETUP
350
EBD
  0
DICTIONARY
  5
E81
102
{ACAD_REACTORS
330
C
102
}
330
C
100
AcDbDictionary
281
     1
  3
ASEBlockHierarchyIndexRecord
350
E82
1001
DCO15
1040
1621579511.19
  0
DICTIONARY
  5
BA6
102
{ACAD_REACTORS
330
C
102
}
330
C
100
AcDbDictionary
281
     1
  3
MAP_DISPLAY_MANAGEMENT_DICTIONARY
350
BA7
  3
MAP_DISPLAY_STYLELIBRARY_DICTIONARY
350
BA8
  0
SORTENTSTABLE
  5
E73
102
{ACAD_REACTORS
330
E72
102
}
330
E72
100
AcDbSortentsTable
330
1F
331
7A5
  5
7A8
331
60B
  5
60D
331
6E6
  5
6E9
331
70E
  5
711
331
E7C
  5
E7E
331
775
  5
778
331
72E
  5
731
331
77D
  5
780
331
736
  5
739
331
5C8
  5
5CA
331
785
  5
788
331
591
  5
593
331
73E
  5
741
331
6BD
  5
6C0
331
666
  5
668
331
5E8
  5
5EA
331
599
  5
59B
331
746
  5
749
331
54A
  5
54C
331
62F
  5
631
331
6C5
  5
6CA
331
66E
  5
670
331
637
  5
639
331
5A1
  5
5A3
331
562
  5
564
331
5F0
  5
5F2
331
6CD
  5
6D0
331
686
  5
688
331
63F
  5
641
331
5F8
  5
5FA
331
56A
  5
56C
331
68E
  5
690
331
7AB
  5
7AE
331
716
  5
719
331
71E
  5
721
331
677
  5
679
331
524
  5
524
331
726
  5
729
331
554
  5
556
331
67F
  5
681
331
75E
  5
761
331
55C
  5
55E
331
6A7
  5
6AA
331
5D5
  5
5D7
331
7C3
  5
E6D
331
79D
  5
7A0
331
74E
  5
751
331
6EF
  5
6F2
331
7B5
  5
7B8
331
756
  5
759
331
6F7
  5
6FA
331
600
  5
602
331
5A9
  5
5AB
331
572
  5
574
331
7BD
  5
7C0
331
766
  5
769
331
6FF
  5
702
331
52B
  5
52B
331
696
  5
698
331
647
  5
649
331
610
  5
612
331
5B1
  5
5B3
331
E6D
  5
E7C
331
533
  5
533
331
76E
  5
771
331
57A
  5
57C
331
707
  5
70A
331
69E
  5
6A0
331
64F
  5
651
331
5B9
  5
5BB
331
582
  5
584
331
53B
  5
53C
331
618
  5
61A
331
6AE
  5
6B1
331
657
  5
659
331
5C1
  5
5C3
331
58A
  5
58C
331
543
  5
545
331
620
  5
622
331
6B6
  5
6B9
331
65F
  5
661
331
78E
  5
791
331
5DC
  5
5DE
331
6D7
  5
6DA
331
796
  5
799
331
5E4
  5
5E6
331
6DF
  5
6E2
331
7A6
  5
7A9
331
60C
  5
60E
331
6E7
  5
6EA
331
70F
  5
712
331
776
  5
779
331
72F
  5
732
331
77E
  5
781
331
737
  5
73A
331
628
  5
62A
331
5C9
  5
5CB
331
786
  5
789
331
592
  5
594
331
73F
  5
742
331
6BE
  5
6C1
331
667
  5
669
331
630
  5
632
331
5E9
  5
5EB
331
747
  5
74A
331
54B
  5
54D
331
59A
  5
59C
331
6C6
  5
6CB
331
66F
  5
671
331
5F1
  5
5F3
331
638
  5
63A
331
563
  5
565
331
5A2
  5
5A4
331
6CE
  5
6D1
331
687
  5
689
331
56B
  5
56D
331
5F9
  5
5FB
331
68F
  5
691
331
7AC
  5
7AF
331
717
  5
71A
331
670
  5
672
331
71F
  5
722
331
525
  5
525
331
678
  5
67A
331
727
  5
72A
331
555
  5
557
331
6A0
  5
6A2
331
75F
  5
762
331
55D
  5
55F
331
5D6
  5
5D8
331
6E8
  5
6EB
331
79E
  5
7A1
331
74F
  5
752
331
6F0
  5
6F3
331
7B6
  5
7B9
331
757
  5
75A
331
6F8
  5
6FB
331
640
  5
642
331
601
  5
603
331
5AA
  5
5AC
331
573
  5
575
331
7BE
  5
7C1
331
767
  5
76A
331
700
  5
703
331
52C
  5
52C
331
697
  5
699
331
648
  5
64A
331
611
  5
613
331
57B
  5
57D
331
5B2
  5
5B4
331
76F
  5
772
331
534
  5
534
331
69F
  5
6A1
331
650
  5
652
331
619
  5
61B
331
583
  5
585
331
53C
  5
53D
331
5BA
  5
5BC
331
6AF
  5
6B2
331
658
  5
65A
331
621
  5
623
331
5C2
  5
5C4
331
544
  5
546
331
58B
  5
58D
331
6B7
  5
6BA
331
6D0
  5
6D3
331
78F
  5
792
331
5DD
  5
5DF
331
6D8
  5
6DB
331
797
  5
79A
331
5E5
  5
5E7
331
6E0
  5
6E3
331
7A7
  5
7AA
331
60D
  5
60F
331
708
  5
70B
331
728
  5
72B
331
E7E
  5
116F
331
777
  5
77A
331
730
  5
733
331
77F
  5
782
331
738
  5
73B
331
660
  5
662
331
629
  5
62B
331
5CA
  5
5CC
331
787
  5
78A
331
593
  5
595
331
740
  5
743
331
6BF
  5
6C3
331
668
  5
66A
331
5EA
  5
5EC
331
59B
  5
59D
331
54C
  5
54E
331
631
  5
633
331
680
  5
682
331
639
  5
63B
331
5A3
  5
5A5
331
564
  5
566
331
5F2
  5
5F4
331
6CF
  5
6D2
331
688
  5
68A
331
5FA
  5
5FC
331
56C
  5
56E
331
710
  5
713
331
7AD
  5
7B0
331
718
  5
71B
331
671
  5
673
331
720
  5
723
331
679
  5
67B
331
526
  5
526
331
758
  5
75B
331
556
  5
558
331
6A1
  5
6A3
331
55E
  5
560
331
5D7
  5
5D9
331
748
  5
74B
331
6E9
  5
6EC
331
79F
  5
7A2
331
750
  5
753
331
6F1
  5
6F4
331
7B7
  5
7BA
331
760
  5
763
331
6F9
  5
6FC
331
690
  5
692
331
641
  5
643
331
602
  5
604
331
574
  5
576
331
7BF
  5
7C2
331
768
  5
76B
331
701
  5
704
331
52D
  5
52D
331
5AB
  5
5AD
331
698
  5
69A
331
649
  5
64B
331
612
  5
614
331
5B3
  5
5B5
331
535
  5
535
331
57C
  5
57E
331
6A8
  5
6AB
331
651
  5
653
331
5BB
  5
5BD
331
584
  5
586
331
53D
  5
540
331
61A
  5
61C
331
6B0
  5
6B3
331
659
  5
65B
331
622
  5
624
331
58C
  5
58E
331
5C3
  5
5C5
331
545
  5
547
331
116F
  5
537
331
788
  5
78B
331
6D1
  5
6D4
331
790
  5
793
331
5DE
  5
5E0
331
6D9
  5
6DC
331
7A0
  5
7A3
331
5E6
  5
5E8
331
6E1
  5
6E4
331
709
  5
70C
331
60E
  5
610
331
770
  5
773
331
729
  5
72C
331
778
  5
77B
331
731
  5
734
331
780
  5
783
331
739
  5
73C
331
6B8
  5
6BB
331
661
  5
663
331
62A
  5
62C
331
741
  5
744
331
594
  5
596
331
5CB
  5
5CD
331
6C0
  5
6C4
331
669
  5
66B
331
632
  5
634
331
5EB
  5
5ED
331
54D
  5
54F
331
59C
  5
59E
331
681
  5
683
331
63A
  5
63C
331
5F3
  5
5F5
331
5A4
  5
5A6
331
565
  5
567
331
689
  5
68B
331
5FB
  5
5FD
331
56D
  5
56F
331
711
  5
714
331
7AE
  5
7B1
331
719
  5
71C
331
672
  5
674
331
721
  5
724
331
527
  5
527
331
67A
  5
67C
331
759
  5
75C
331
557
  5
559
331
6A2
  5
6A6
331
5D0
  5
5D2
331
55F
  5
561
331
798
  5
79B
331
749
  5
74C
331
6EA
  5
6ED
331
7B0
  5
7B3
331
751
  5
754
331
6F2
  5
6F5
331
7B8
  5
7BB
331
761
  5
764
331
6FA
  5
6FD
331
691
  5
693
331
642
  5
644
331
5AC
  5
5AE
331
575
  5
577
331
769
  5
76C
331
702
  5
705
331
52E
  5
52E
331
603
  5
605
331
699
  5
69B
331
64A
  5
64C
331
613
  5
615
331
57D
  5
57F
331
536
  5
536
331
5B4
  5
5B6
331
6A9
  5
6AC
331
652
  5
654
331
61B
  5
61D
331
585
  5
587
331
5BC
  5
5BE
331
6B1
  5
6B4
331
65A
  5
65C
331
623
  5
625
331
5C4
  5
5C6
331
546
  5
548
331
58D
  5
58F
331
789
  5
78C
331
6D2
  5
6D5
331
791
  5
794
331
5DF
  5
5E1
331
6DA
  5
6DD
331
7A1
  5
7A4
331
5E7
  5
5E9
331
6E2
  5
6E5
331
70A
  5
70D
331
60F
  5
611
331
771
  5
774
331
72A
  5
72D
331
779
  5
77C
331
732
  5
735
331
781
  5
784
331
73A
  5
73D
331
6B9
  5
6BC
331
662
  5
664
331
5CC
  5
5CE
331
742
  5
745
331
595
  5
597
331
62B
  5
62D
331
6C1
  5
6C5
331
66A
  5
66C
331
633
  5
635
331
59D
  5
59F
331
5EC
  5
5EE
331
54E
  5
550
331
6C9
  5
6CC
331
682
  5
684
331
63B
  5
63D
331
5A5
  5
5A7
331
566
  5
568
331
5F4
  5
5F6
331
68A
  5
68C
331
5FC
  5
5FE
331
56E
  5
570
331
712
  5
715
331
7AF
  5
7B2
331
71A
  5
71D
331
520
  5
520
331
673
  5
675
331
722
  5
725
331
550
  5
552
331
67B
  5
67D
331
75A
  5
75D
331
558
  5
55A
331
5D1
  5
5D3
331
799
  5
79C
331
74A
  5
74D
331
6EB
  5
6EE
331
7B1
  5
7B4
331
752
  5
755
331
6F3
  5
6F6
331
7B9
  5
7BC
331
762
  5
765
331
6FB
  5
6FE
331
692
  5
694
331
643
  5
645
331
604
  5
606
331
5AD
  5
5AF
331
576
  5
578
331
76A
  5
76D
331
703
  5
706
331
52F
  5
52F
331
69A
  5
69C
331
64B
  5
64D
331
614
  5
616
331
5B5
  5
5B7
331
537
  5
538
331
57E
  5
580
331
6AA
  5
6AD
331
653
  5
655
331
5BD
  5
5BF
331
586
  5
588
331
53F
  5
541
331
61C
  5
61E
331
6B2
  5
6B5
331
65B
  5
65D
331
624
  5
626
331
58E
  5
590
331
547
  5
549
331
5C5
  5
5C7
331
78A
  5
78D
331
5D8
  5
5DA
331
6D3
  5
6D6
331
792
  5
795
331
5E0
  5
5E2
331
6DB
  5
6DE
331
7A2
  5
7A5
331
608
  5
60A
331
6E3
  5
6E6
331
70B
  5
70E
331
772
  5
775
331
72B
  5
72E
331
77A
  5
77D
331
733
  5
736
331
782
  5
785
331
73B
  5
73E
331
6BA
  5
6BD
331
663
  5
665
331
62C
  5
62E
331
743
  5
746
331
596
  5
598
331
5CD
  5
5CF
331
66B
  5
66D
331
634
  5
636
331
5ED
  5
5EF
331
54F
  5
551
331
59E
  5
5A0
331
6CA
  5
6CD
331
683
  5
685
331
5F5
  5
5F7
331
5A6
  5
5A8
331
567
  5
569
331
63C
  5
63E
331
68B
  5
68D
331
5FD
  5
5FF
331
56F
  5
571
331
7A8
  5
7AB
331
713
  5
716
331
71B
  5
71E
331
521
  5
521
331
674
  5
676
331
723
  5
726
331
551
  5
553
331
67C
  5
67E
331
75B
  5
75E
331
559
  5
55B
331
6A4
  5
6A7
331
5D2
  5
5D4
331
7C0
  5
7C3
331
79A
  5
79D
331
74B
  5
74E
331
6EC
  5
6EF
331
7B2
  5
7B5
331
753
  5
756
331
6F4
  5
6F7
331
7BA
  5
7BD
331
528
  5
528
331
6FC
  5
6FF
331
763
  5
766
331
693
  5
695
331
644
  5
646
331
5AE
  5
5B0
331
577
  5
579
331
76B
  5
76E
331
704
  5
707
331
530
  5
530
331
605
  5
607
331
69B
  5
69D
331
64C
  5
64E
331
615
  5
617
331
57F
  5
581
331
538
  5
539
331
5B6
  5
5B8
331
6AB
  5
6AE
331
654
  5
656
331
61D
  5
61F
331
5BE
  5
5C0
331
540
  5
542
331
587
  5
589
331
6B3
  5
6B6
331
65C
  5
65E
331
625
  5
627
331
5C6
  5
5C8
331
58F
  5
591
331
78B
  5
78E
331
5D9
  5
5DB
331
6D4
  5
6D7
331
793
  5
796
331
5E1
  5
5E3
331
6DC
  5
6DF
331
7A3
  5
7A6
331
609
  5
60B
331
6E4
  5
6E7
331
70C
  5
70F
331
773
  5
776
331
72C
  5
72F
331
77B
  5
77E
331
734
  5
737
331
783
  5
786
331
73C
  5
73F
331
6BB
  5
6BE
331
664
  5
666
331
5CE
  5
5D0
331
597
  5
599
331
744
  5
747
331
548
  5
54A
331
62D
  5
62F
331
6C3
  5
6C6
331
66C
  5
66E
331
635
  5
637
331
59F
  5
5A1
331
560
  5
562
331
5EE
  5
5F0
331
6CB
  5
6CE
331
684
  5
686
331
63D
  5
63F
331
5A7
  5
5A9
331
568
  5
56A
331
5F6
  5
5F8
331
68C
  5
68E
331
5FE
  5
600
331
7A9
  5
7AC
331
714
  5
717
331
71C
  5
71F
331
522
  5
522
331
675
  5
677
331
724
  5
727
331
552
  5
554
331
67D
  5
67F
331
75C
  5
75F
331
55A
  5
55C
331
6A5
  5
6A8
331
5D3
  5
5D5
331
7C1
  5
E6B
331
79B
  5
79E
331
74C
  5
74F
331
6ED
  5
6F0
331
7B3
  5
7B6
331
754
  5
757
331
6F5
  5
6F8
331
570
  5
572
331
7BB
  5
7BE
331
529
  5
529
331
6FD
  5
700
331
764
  5
767
331
694
  5
696
331
645
  5
647
331
606
  5
608
331
5AF
  5
5B1
331
E6B
  5
E70
331
531
  5
531
331
76C
  5
76F
331
578
  5
57A
331
705
  5
708
331
69C
  5
69E
331
64D
  5
64F
331
5B7
  5
5B9
331
616
  5
618
331
539
  5
53A
331
580
  5
582
331
6AC
  5
6AF
331
655
  5
657
331
5BF
  5
5C1
331
588
  5
58A
331
541
  5
543
331
61E
  5
620
331
6B4
  5
6B7
331
65D
  5
65F
331
626
  5
628
331
5C7
  5
5C9
331
78C
  5
78F
331
5DA
  5
5DC
331
6D5
  5
6D8
331
794
  5
797
331
5E2
  5
5E4
331
6DD
  5
6E0
331
7A4
  5
7A7
331
60A
  5
60C
331
6E5
  5
6E8
331
70D
  5
710
331
774
  5
777
331
72D
  5
730
331
77C
  5
77F
331
735
  5
738
331
784
  5
787
331
590
  5
592
331
73D
  5
740
331
6BC
  5
6BF
331
665
  5
667
331
62E
  5
630
331
5CF
  5
5D1
331
745
  5
748
331
549
  5
54B
331
598
  5
59A
331
6C4
  5
6C9
331
66D
  5
66F
331
636
  5
638
331
5EF
  5
5F1
331
561
  5
563
331
5A0
  5
5A2
331
6CC
  5
6CF
331
685
  5
687
331
5F7
  5
5F9
331
569
  5
56B
331
63E
  5
640
331
68D
  5
68F
331
5FF
  5
601
331
7AA
  5
7AD
331
715
  5
718
331
71D
  5
720
331
523
  5
523
331
676
  5
678
331
725
  5
728
331
553
  5
555
331
67E
  5
680
331
75D
  5
760
331
55B
  5
55D
331
6A6
  5
6A9
331
5D4
  5
5D6
331
7C2
  5
E6C
331
79C
  5
79F
331
74D
  5
750
331
6EE
  5
6F1
331
7B4
  5
7B7
331
755
  5
758
331
6F6
  5
6F9
331
5A8
  5
5AA
331
571
  5
573
331
7BC
  5
7BF
331
765
  5
768
331
6FE
  5
701
331
52A
  5
52A
331
695
  5
697
331
646
  5
648
331
5B0
  5
5B2
331
579
  5
57B
331
E6C
  5
E71
331
76D
  5
770
331
706
  5
709
331
532
  5
532
331
607
  5
609
331
69D
  5
69F
331
64E
  5
650
331
617
  5
619
331
581
  5
583
331
53A
  5
53B
331
5B8
  5
5BA
331
6AD
  5
6B0
331
656
  5
658
331
61F
  5
621
331
5C0
  5
5C2
331
542
  5
544
331
589
  5
58B
331
6B5
  5
6B8
331
65E
  5
660
331
627
  5
629
331
78D
  5
790
331
5DB
  5
5DD
331
6D6
  5
6D9
331
795
  5
798
331
5E3
  5
5E5
331
6DE
  5
6E1
  0
LAYOUT
  5
22
102
{ACAD_XDICTIONARY
360
1173
102
}
102
{ACAD_REACTORS
330
1A
102
}
330
1A
100
AcDbPlotSettings
  1

  2
EPSON PM-3000C
  4
A4
  6

 40
3.757083177566528
 41
14.7637300491333
 42
3.757080078125
 43
3.757080078125
 44
209.9733276367186
 45
296.9683227539062
 46
0.0
 47
0.0
 48
0.0
 49
0.0
140
0.0
141
0.0
142
1.0
143
143.6399115774126
 70
 11952
 72
     1
 73
     1
 74
     0
  7
2.ctb
 75
     0
147
0.0069618533527227
148
-591.9820315496763
149
899.064114407307
100
AcDbLayout
  1
Model
 70
     1
 71
     0
 10
0.0
 20
0.0
 11
12.0
 21
9.0
 12
0.0
 22
0.0
 32
0.0
 14
0.0
 24
0.0
 34
0.0
 15
0.0
 25
0.0
 35
0.0
146
0.0
 13
0.0
 23
0.0
 33
0.0
 16
1.0
 26
0.0
 36
0.0
 17
0.0
 27
1.0
 37
0.0
 76
     0
330
1F
  0
LAYOUT
  5
51
102
{ACAD_XDICTIONARY
360
1175
102
}
102
{ACAD_REACTORS
330
1A
102
}
330
1A
100
AcDbPlotSettings
  1

  2
None
  4

  6

 40
0.0
 41
0.0
 42
0.0
 43
0.0
 44
0.0
 45
0.0
 46
0.0
 47
0.0
 48
0.0
 49
0.0
140
0.0
141
0.0
142
1.0
143
1.0
 70
   688
 72
     0
 73
     0
 74
     5
  7

 75
    16
147
1.0
148
0.0
149
0.0
100
AcDbLayout
  1
レイアウト1
 70
     1
 71
     1
 10
0.0
 20
0.0
 11
12.0
 21
9.0
 12
0.0
 22
0.0
 32
0.0
 14
0.0
 24
0.0
 34
0.0
 15
0.0
 25
0.0
 35
0.0
146
0.0
 13
0.0
 23
0.0
 33
0.0
 16
1.0
 26
0.0
 36
0.0
 17
0.0
 27
1.0
 37
0.0
 76
     0
330
50
  0
LAYOUT
  5
56
102
{ACAD_XDICTIONARY
360
1177
102
}
102
{ACAD_REACTORS
330
1A
102
}
330
1A
100
AcDbPlotSettings
  1

  2
None
  4

  6

 40
0.0
 41
0.0
 42
0.0
 43
0.0
 44
0.0
 45
0.0
 46
0.0
 47
0.0
 48
0.0
 49
0.0
140
0.0
141
0.0
142
1.0
143
1.0
 70
   688
 72
     0
 73
     0
 74
     5
  7

 75
    16
147
1.0
148
0.0
149
0.0
100
AcDbLayout
  1
レイアウト2
 70
     1
 71
     2
 10
0.0
 20
0.0
 11
12.0
 21
9.0
 12
0.0
 22
0.0
 32
0.0
 14
0.0
 24
0.0
 34
0.0
 15
0.0
 25
0.0
 35
0.0
146
0.0
 13
0.0
 23
0.0
 33
0.0
 16
1.0
 26
0.0
 36
0.0
 17
0.0
 27
1.0
 37
0.0
 76
     0
330
55
  0
MLINESTYLE
  5
18
102
{ACAD_REACTORS
330
17
102
}
330
17
100
AcDbMlineStyle
  2
STANDARD
 70
     0
  3

 62
   256
 51
90.0
 52
90.0
 71
     2
 49
0.5
 62
   256
  6
BYLAYER
 49
-0.5
 62
   256
  6
BYLAYER
  0
ACDBPLACEHOLDER
  5
F
102
{ACAD_REACTORS
330
E
102
}
330
E
  0
TABLESTYLE
  5
BAA
102
{ACAD_REACTORS
330
B77
102
}
330
B77
100
AcDbTableStyle
  3

 70
     0
 71
     1
 40
0.06
 41
0.06
280
     0
281
     0
  7
Standard
140
0.4
170
     4
 62
     0
 63
     7
283
     0
274
    -2
284
     0
 64
     0
275
    -2
285
     0
 65
     0
276
    -2
286
     1
 66
     0
277
    -2
287
     1
 67
     0
278
    -2
288
     0
 68
     0
279
    -2
289
     1
 69
     0
  7
Standard
140
0.5
170
     5
 62
     0
 63
     7
283
     0
274
    -2
284
     1
 64
     0
275
    -2
285
     0
 65
     0
276
    -2
286
     1
 66
     0
277
    -2
287
     1
 67
     0
278
    -2
288
     0
 68
     0
279
    -2
289
     1
 69
     0
  7
Standard
140
0.4
170
     4
 62
     0
 63
     7
283
     0
274
    -2
284
     1
 64
     0
275
    -2
285
     0
 65
     0
276
    -2
286
     1
 66
     0
277
    -2
287
     1
 67
     0
278
    -2
288
     0
 68
     0
279
    -2
289
     1
 69
     0
  0
TABLESTYLE
  5
B78
102
{ACAD_REACTORS
330
B77
102
}
330
B77
100
AcDbTableStyle
  3
Standard
 70
     0
 71
     0
 40
1.5
 41
1.5
280
     0
281
     0
  7
Standard
140
4.5
170
     2
 62
     0
 63
     7
283
     0
274
    -2
284
     1
 64
     0
275
    -2
285
     1
 65
     0
276
    -2
286
     1
 66
     0
277
    -2
287
     1
 67
     0
278
    -2
288
     1
 68
     0
279
    -2
289
     1
 69
     0
  7
Standard
140
6.0
170
     5
 62
     0
 63
     7
283
     0
274
    -2
284
     1
 64
     0
275
    -2
285
     1
 65
     0
276
    -2
286
     1
 66
     0
277
    -2
287
     1
 67
     0
278
    -2
288
     1
 68
     0
279
    -2
289
     1
 69
     0
  7
Standard
140
4.5
170
     5
 62
     0
 63
     7
283
     0
274
    -2
284
     1
 64
     0
275
    -2
285
     1
 65
     0
276
    -2
286
     1
 66
     0
277
    -2
287
     1
 67
     0
278
    -2
288
     1
 68
     0
279
    -2
289
     1
 69
     0
  0
DICTIONARYVAR
  5
E85
102
{ACAD_REACTORS
330
5E
102
}
330
5E
100
DictionaryVariables
280
     0
  1
STANDARD
  0
DICTIONARYVAR
  5
5F
102
{ACAD_REACTORS
330
5E
102
}
330
5E
100
DictionaryVariables
280
     0
  1
2
  0
DICTIONARYVAR
  5
63
102
{ACAD_REACTORS
330
5E
102
}
330
5E
100
DictionaryVariables
280
     0
  1
1
  0
DICTIONARYVAR
  5
AFE
102
{ACAD_REACTORS
330
5E
102
}
330
5E
100
DictionaryVariables
280
     0
  1

  0
XRECORD
  5
1170
102
{ACAD_REACTORS
330
E83
102
}
330
E83
100
AcDbXrecord
280
     1
1000
ADE02C001
1070
     1
1070
     0
1002
{
1002
}
1002
{
1002
}
1002
{
1002
}
1000

  0
XRECORD
  5
E82
102
{ACAD_REACTORS
330
E81
102
}
330
E81
100
AcDbXrecord
280
     1
330
673
330
70C
330
5D2
330
981
330
982
330
98A
330
98B
330
993
330
994
330
99C
330
99D
330
9A7
330
9A8
330
9B1
330
9B2
330
9BB
330
9BC
330
9C4
330
9C5
330
9CE
330
9CF
330
9D6
330
9D7
330
9DF
330
9E0
330
9EB
330
9EC
330
9F3
330
9F4
330
9FD
330
9FE
330
A05
330
A06
330
A0E
330
A0F
330
A17
330
A18
330
A23
330
A24
330
A2B
330
A2C
330
A36
330
A37
330
A42
330
A43
330
A4A
330
A4B
330
A56
330
A57
330
A5E
330
A5F
330
A67
330
A68
330
A73
330
A74
330
A7B
330
A7C
330
A84
330
A85
330
A8E
330
A8F
330
A96
330
A97
330
AA2
330
AA3
330
AAD
330
AAE
330
AB5
330
AB6
330
AC1
330
AC2
330
AC9
330
ACA
  0
DMMAPMANAGER
  5
BA7
102
{ACAD_REACTORS
330
BA6
102
}
330
BA6
100
AcDbDictionary
281
     1
  3
DisplayMap1
350
BA9
100
AcDbDictionaryWithDefault
340
BA9
100
AcMapDMMapManager
 70
     1
340
BA9
  0
DMSTYLELIBRARY
  5
BA8
102
{ACAD_REACTORS
330
BA6
102
}
330
BA6
100
AcMapDMStyleLibrary
 70
     1
 70
     1
360
BAE
  0
DICTIONARY
  5
1173
330
22
100
AcDbDictionary
280
     1
281
     1
  3
ACAD_XREC_ROUNDTRIP
360
1174
  0
DICTIONARY
  5
1175
330
51
100
AcDbDictionary
280
     1
281
     1
  3
ACAD_XREC_ROUNDTRIP
360
1176
  0
DICTIONARY
  5
1177
330
56
100
AcDbDictionary
280
     1
281
     1
  3
ACAD_XREC_ROUNDTRIP
360
1178
  0
DMMAP
  5
BA9
102
{ACAD_REACTORS
330
BA7
330
BAB
102
}
330
BA7
100
AcMapDMMap
 70
     1
  1
既定値
 70
     1
330
0
100
AcMapDMMap
 70
     1
 90
        1
360
BAB
 90
        1
 40
1.797693134862314E+99
 70
     1
100
AcMapDMMap
 70
     2
 70
     0
 40
1.797693134862314E+99
290
     0
290
     1
 40
1.0
 40
3.0
  1
Legend
 90
        1
 40
1.797693134862314E+99
  1

 70
     0
 40
1.0
 70
     1
 90
        0
 90
        1
360
BAC
  0
DMSTYLECATEGORY
  5
BAE
102
{ACAD_REACTORS
330
BA8
102
}
330
BA8
100
AcMapDMStyleCategory
 70
     1
  1
スタイルを表示
 70
     0
  0
XRECORD
  5
1174
102
{ACAD_REACTORS
330
1173
102
}
330
1173
100
AcDbXrecord
280
     1
102
SHADEPLOT
 70
     0
102
SHADEPLOTRESLEVEL
 70
     2
102
SHADEPLOTCUSTOMDPI
 70
   300
  0
XRECORD
  5
1176
102
{ACAD_REACTORS
330
1175
102
}
330
1175
100
AcDbXrecord
280
     1
102
SHADEPLOT
 70
     0
102
SHADEPLOTRESLEVEL
 70
     2
102
SHADEPLOTCUSTOMDPI
 70
   300
  0
XRECORD
  5
1178
102
{ACAD_REACTORS
330
1177
102
}
330
1177
100
AcDbXrecord
280
     1
102
SHADEPLOT
 70
     0
102
SHADEPLOTRESLEVEL
 70
     2
102
SHADEPLOTCUSTOMDPI
 70
   300
  0
DMBASEELEMENT
  5
BAB
102
{ACAD_REACTORS
330
BA9
102
}
330
BA9
100
AcMapDMBaseElement
 70
     1
  1
マップ ベース
 70
     1
330
BA9
100
AcMapDMBaseElement
 70
     1
  1

 70
     2
  1

 70
     1
 40
1.797693134862314E+99
 70
     1
 70
     1
 70
     1
 70
     1
360
BAD
100
AcMapDMBaseElement
 70
     1
  0
DMDEFAULTSTYLE
  5
BAC
102
{ACAD_REACTORS
330
BA9
102
}
330
BA9
100
AcMapDMDefaultStyle
 70
     1
 90
        1
  1
既定値
100
AcMapDMDefaultStyle
 70
     1
280
   100
 90
     0
  0
DMSTYLEREFERENCE
  5
BAD
330
BAB
100
AcMapDMStyleReference
 70
     1
 70
     0
340
BAC
330
BA9
  0
ENDSEC
  0
EOF
