  0
SECTION
  2
HEADER
  9
$ACADVER
  1
AC1015
  9
$ACADMAINTVER
 70
    20
  9
$DWGCODEPAGE
  3
ANSI_932
  9
$INSBASE
 10
0.0
 20
0.0
 30
0.0
  9
$EXTMIN
 10
353.1057262049289
 20
328.3962306215471
 30
-0.0000000349181948
  9
$EXTMAX
 10
39356.86582581184
 20
26472.85135066746
 30
0.0000000814935747
  9
$LIMMIN
 10
0.0
 20
0.0
  9
$LIMMAX
 10
420.0
 20
297.0
  9
$ORTHOMODE
 70
     0
  9
$REGENMODE
 70
     1
  9
$FILLMODE
 70
     1
  9
$QTEXTMODE
 70
     0
  9
$MIRRTEXT
 70
     0
  9
$LTSCALE
 40
1.0
  9
$ATTMODE
 70
     1
  9
$TEXTSIZE
 40
2.5
  9
$TRACEWID
 40
1.0
  9
$TEXTSTYLE
  7
Standard
  9
$CLAYER
  8
0
  9
$CELTYPE
  6
ByLayer
  9
$CECOLOR
 62
   256
  9
$CELTSCALE
 40
1.0
  9
$DISPSILH
 70
     0
  9
$DIMSCALE
 40
500.0
  9
$DIMASZ
 40
2.5
  9
$DIMEXO
 40
0.625
  9
$DIMDLI
 40
3.75
  9
$DIMRND
 40
0.0
  9
$DIMDLE
 40
0.0
  9
$DIMEXE
 40
1.25
  9
$DIMTP
 40
0.0
  9
$DIMTM
 40
0.0
  9
$DIMTXT
 40
2.5
  9
$DIMCEN
 40
2.5
  9
$DIMTSZ
 40
0.0
  9
$DIMTOL
 70
     0
  9
$DIMLIM
 70
     0
  9
$DIMTIH
 70
     0
  9
$DIMTOH
 70
     0
  9
$DIMSE1
 70
     0
  9
$DIMSE2
 70
     0
  9
$DIMTAD
 70
     1
  9
$DIMZIN
 70
     8
  9
$DIMBLK
  1

  9
$DIMASO
 70
     1
  9
$DIMSHO
 70
     1
  9
$DIMPOST
  1

  9
$DIMAPOST
  1

  9
$DIMALT
 70
     0
  9
$DIMALTD
 70
     3
  9
$DIMALTF
 40
0.03937007874016
  9
$DIMLFAC
 40
1.0
  9
$DIMTOFL
 70
     1
  9
$DIMTVP
 40
0.0
  9
$DIMTIX
 70
     0
  9
$DIMSOXD
 70
     0
  9
$DIMSAH
 70
     0
  9
$DIMBLK1
  1

  9
$DIMBLK2
  1

  9
$DIMSTYLE
  2
ISO-25
  9
$DIMCLRD
 70
     0
  9
$DIMCLRE
 70
     0
  9
$DIMCLRT
 70
     0
  9
$DIMTFAC
 40
1.0
  9
$DIMGAP
 40
0.625
  9
$DIMJUST
 70
     0
  9
$DIMSD1
 70
     0
  9
$DIMSD2
 70
     0
  9
$DIMTOLJ
 70
     0
  9
$DIMTZIN
 70
     8
  9
$DIMALTZ
 70
     0
  9
$DIMALTTZ
 70
     0
  9
$DIMUPT
 70
     0
  9
$DIMDEC
 70
     2
  9
$DIMTDEC
 70
     2
  9
$DIMALTU
 70
     2
  9
$DIMALTTD
 70
     3
  9
$DIMTXSTY
  7
Standard
  9
$DIMAUNIT
 70
     0
  9
$DIMADEC
 70
     0
  9
$DIMALTRND
 40
0.0
  9
$DIMAZIN
 70
     0
  9
$DIMDSEP
 70
    44
  9
$DIMATFIT
 70
     3
  9
$DIMFRAC
 70
     0
  9
$DIMLDRBLK
  1

  9
$DIMLUNIT
 70
     2
  9
$DIMLWD
 70
    -2
  9
$DIMLWE
 70
    -2
  9
$DIMTMOVE
 70
     0
  9
$LUNITS
 70
     2
  9
$LUPREC
 70
     4
  9
$SKETCHINC
 40
1.0
  9
$FILLETRAD
 40
0.0
  9
$AUNITS
 70
     0
  9
$AUPREC
 70
     0
  9
$MENU
  1
.
  9
$ELEVATION
 40
0.0
  9
$PELEVATION
 40
0.0
  9
$THICKNESS
 40
0.0
  9
$LIMCHECK
 70
     0
  9
$CHAMFERA
 40
0.0
  9
$CHAMFERB
 40
0.0
  9
$CHAMFERC
 40
0.0
  9
$CHAMFERD
 40
0.0
  9
$SKPOLY
 70
     0
  9
$TDCREATE
 40
2454361.414591100
  9
$TDUCREATE
 40
2454361.039591100
  9
$TDUPDATE
 40
2454571.494070579
  9
$TDUUPDATE
 40
2454571.119070579
  9
$TDINDWG
 40
0.0337496296
  9
$TDUSRTIMER
 40
0.0337472917
  9
$USRTIMER
 70
     1
  9
$ANGBASE
 50
0.0
  9
$ANGDIR
 70
     0
  9
$PDMODE
 70
     0
  9
$PDSIZE
 40
0.0
  9
$PLINEWID
 40
0.0
  9
$SPLFRAME
 70
     0
  9
$SPLINETYPE
 70
     6
  9
$SPLINESEGS
 70
     8
  9
$HANDSEED
  5
1210
  9
$SURFTAB1
 70
     6
  9
$SURFTAB2
 70
     6
  9
$SURFTYPE
 70
     6
  9
$SURFU
 70
     6
  9
$SURFV
 70
     6
  9
$UCSBASE
  2

  9
$UCSNAME
  2

  9
$UCSORG
 10
0.0
 20
0.0
 30
0.0
  9
$UCSXDIR
 10
1.0
 20
0.0
 30
0.0
  9
$UCSYDIR
 10
0.0
 20
1.0
 30
0.0
  9
$UCSORTHOREF
  2

  9
$UCSORTHOVIEW
 70
     0
  9
$UCSORGTOP
 10
0.0
 20
0.0
 30
0.0
  9
$UCSORGBOTTOM
 10
0.0
 20
0.0
 30
0.0
  9
$UCSORGLEFT
 10
0.0
 20
0.0
 30
0.0
  9
$UCSORGRIGHT
 10
0.0
 20
0.0
 30
0.0
  9
$UCSORGFRONT
 10
0.0
 20
0.0
 30
0.0
  9
$UCSORGBACK
 10
0.0
 20
0.0
 30
0.0
  9
$PUCSBASE
  2

  9
$PUCSNAME
  2

  9
$PUCSORG
 10
0.0
 20
0.0
 30
0.0
  9
$PUCSXDIR
 10
1.0
 20
0.0
 30
0.0
  9
$PUCSYDIR
 10
0.0
 20
1.0
 30
0.0
  9
$PUCSORTHOREF
  2

  9
$PUCSORTHOVIEW
 70
     0
  9
$PUCSORGTOP
 10
0.0
 20
0.0
 30
0.0
  9
$PUCSORGBOTTOM
 10
0.0
 20
0.0
 30
0.0
  9
$PUCSORGLEFT
 10
0.0
 20
0.0
 30
0.0
  9
$PUCSORGRIGHT
 10
0.0
 20
0.0
 30
0.0
  9
$PUCSORGFRONT
 10
0.0
 20
0.0
 30
0.0
  9
$PUCSORGBACK
 10
0.0
 20
0.0
 30
0.0
  9
$USERI1
 70
     0
  9
$USERI2
 70
     0
  9
$USERI3
 70
     0
  9
$USERI4
 70
     0
  9
$USERI5
 70
     0
  9
$USERR1
 40
0.0
  9
$USERR2
 40
0.0
  9
$USERR3
 40
0.0
  9
$USERR4
 40
0.0
  9
$USERR5
 40
0.0
  9
$WORLDVIEW
 70
     1
  9
$SHADEDGE
 70
     3
  9
$SHADEDIF
 70
    70
  9
$TILEMODE
 70
     1
  9
$MAXACTVP
 70
    64
  9
$PINSBASE
 10
0.0
 20
0.0
 30
0.0
  9
$PLIMCHECK
 70
     0
  9
$PEXTMIN
 10
0.0
 20
0.0
 30
0.0
  9
$PEXTMAX
 10
0.0
 20
0.0
 30
0.0
  9
$PLIMMIN
 10
0.0
 20
0.0
  9
$PLIMMAX
 10
12.0
 20
9.0
  9
$UNITMODE
 70
     0
  9
$VISRETAIN
 70
     1
  9
$PLINEGEN
 70
     0
  9
$PSLTSCALE
 70
     1
  9
$TREEDEPTH
 70
  3020
  9
$CMLSTYLE
  2
Standard
  9
$CMLJUST
 70
     0
  9
$CMLSCALE
 40
20.0
  9
$PROXYGRAPHICS
 70
     1
  9
$MEASUREMENT
 70
     1
  9
$CELWEIGHT
370
    -1
  9
$ENDCAPS
280
     0
  9
$JOINSTYLE
280
     0
  9
$LWDISPLAY
290
     0
  9
$INSUNITS
 70
     6
  9
$HYPERLINKBASE
  1

  9
$STYLESHEET
  1
2.CTB
  9
$XEDIT
290
     1
  9
$CEPSNTYPE
380
     0
  9
$PSTYLEMODE
290
     1
  9
$FINGERPRINTGUID
  2
{FDEAD578-A652-11D2-9A35-0060089B3A3F}
  9
$VERSIONGUID
  2
{3D14E605-6E51-418A-A975-179DFD49D500}
  9
$EXTNAMES
290
     1
  9
$PSVPSCALE
 40
0.0
  9
$OLESTARTUP
290
     0
  0
ENDSEC
  0
SECTION
  2
CLASSES
  0
CLASS
  1
ACDBDICTIONARYWDFLT
  2
AcDbDictionaryWithDefault
  3
ObjectDBX Classes
 90
        0
280
     0
281
     0
  0
CLASS
  1
ACDBPLACEHOLDER
  2
AcDbPlaceHolder
  3
ObjectDBX Classes
 90
        0
280
     0
281
     0
  0
CLASS
  1
LAYOUT
  2
AcDbLayout
  3
ObjectDBX Classes
 90
        0
280
     0
281
     0
  0
CLASS
  1
DICTIONARYVAR
  2
AcDbDictionaryVar
  3
ObjectDBX Classes
 90
        0
280
     0
281
     0
  0
CLASS
  1
SORTENTSTABLE
  2
AcDbSortentsTable
  3
ObjectDBX Classes
 90
    32768
280
     0
281
     0
  0
CLASS
  1
TABLESTYLE
  2
AcDbTableStyle
  3
ObjectDBX Classes
 90
     2047
280
     0
281
     0
  0
CLASS
  1
AECC_TREE_NODE
  2
AeccDbTreeNode
  3
AeccvBase10|Product Desc: Autodesk Civil 3D |Company: Autodesk,Inc. |WEB Address: www.autodesk.com
 90
     1023
280
     0
281
     0
  0
CLASS
  1
AECC_CLASS_NODE
  2
AeccDbClassNode
  3
AeccLand10|Product Desc: Autodesk Civil 3D |Company: Autodesk,Inc. |WEB Address: www.autodesk.com
 90
     1023
280
     0
281
     0
  0
CLASS
  1
AECC_ROOT_SETTINGS_NODE
  2
AeccDbRootSettingsNode
  3
AeccvBase10|Product Desc: Autodesk Civil 3D |Company: Autodesk,Inc. |WEB Address: www.autodesk.com
 90
     1023
280
     0
281
     0
  0
CLASS
  1
AEC_VARS_DWG_SETUP
  2
AecDbVarsDwgSetup
  3
AecBase40|Product Desc: Autodesk Architectural Desktop 2005 |Company: Autodesk,Inc. |WEB Address: www.autodesk.com
 90
      129
280
     0
281
     0
  0
CLASS
  1
DMMAPMANAGER
  2
AcMapDMMapManager
  3
AcMapDisplayManagement
 90
     1024
280
     0
281
     0
  0
CLASS
  1
DMSTYLELIBRARY
  2
AcMapDMStyleLibrary
  3
AcMapDisplayManagement
 90
     1024
280
     0
281
     0
  0
CLASS
  1
DMMAP
  2
AcMapDMMap
  3
AcMapDisplayManagement
 90
     1024
280
     0
281
     0
  0
CLASS
  1
DMBASEELEMENT
  2
AcMapDMBaseElement
  3
AcMapDisplayManagement
 90
     1024
280
     0
281
     0
  0
CLASS
  1
DMDEFAULTSTYLE
  2
AcMapDMDefaultStyle
  3
AcMapDisplayManagement
 90
     1024
280
     0
281
     0
  0
CLASS
  1
DMSTYLEREFERENCE
  2
AcMapDMStyleReference
  3
AcMapDisplayManagement
 90
     1024
280
     0
281
     0
  0
CLASS
  1
DMSTYLECATEGORY
  2
AcMapDMStyleCategory
  3
AcMapDisplayManagement
 90
     1024
280
     0
281
     0
  0
CLASS
  1
AECC_SETTINGS_NODE
  2
AeccDbSettingsNode
  3
AeccvBase10|Product Desc: Autodesk Civil 3D |Company: Autodesk,Inc. |WEB Address: www.autodesk.com
 90
     1023
280
     0
281
     0
  0
CLASS
  1
AECC_PROFILE_VIEW_STYLE
  2
AeccDbGraphStyleProfile
  3
AeccLand10|Product Desc: Autodesk Civil 3D |Company: Autodesk,Inc. |WEB Address: www.autodesk.com
 90
      129
280
     0
281
     0
  0
CLASS
  1
AECC_PROFILE_VIEW_BAND_STYLE_SET
  2
AeccDbGraphProfileBandStyleSet
  3
AeccLand10|Product Desc: Autodesk Civil 3D |Company: Autodesk,Inc. |WEB Address: www.autodesk.com
 90
      129
280
     0
281
     0
  0
CLASS
  1
AECC_PROFILE_VIEW_DATA_BAND_STYLE
  2
AeccDbGraphStyleProfileDataBands
  3
AeccLand10|Product Desc: Autodesk Civil 3D |Company: Autodesk,Inc. |WEB Address: www.autodesk.com
 90
      129
280
     0
281
     0
  0
CLASS
  1
AECC_LABEL_NODE
  2
AeccDbLabelNode
  3
AeccLand10|Product Desc: Autodesk Civil 3D |Company: Autodesk,Inc. |WEB Address: www.autodesk.com
 90
     1023
280
     0
281
     0
  0
CLASS
  1
AECC_LABEL_COLLECTOR_STYLE
  2
AeccDbLabelStyleCollector
  3
AeccLand10|Product Desc: Autodesk Civil 3D |Company: Autodesk,Inc. |WEB Address: www.autodesk.com
 90
     1023
280
     0
281
     0
  0
CLASS
  1
AECC_LABEL_TEXT_STYLE
  2
AeccDbLabelStyleText
  3
AeccLand10|Product Desc: Autodesk Civil 3D |Company: Autodesk,Inc. |WEB Address: www.autodesk.com
 90
     1023
280
     0
281
     0
  0
CLASS
  1
AECC_PROFILE_VIEW_HORIZONTAL_GEOMETRY_BAND_STYLE
  2
AeccDbGraphStyleHorGeometryBands
  3
AeccLand10|Product Desc: Autodesk Civil 3D |Company: Autodesk,Inc. |WEB Address: www.autodesk.com
 90
      129
280
     0
281
     0
  0
CLASS
  1
AECC_PROFILE_VIEW_VERTICAL_GEOMETRY_BAND_STYLE
  2
AeccDbGraphStyleVertGeometryBands
  3
AeccLand10|Product Desc: Autodesk Civil 3D |Company: Autodesk,Inc. |WEB Address: www.autodesk.com
 90
      129
280
     0
281
     0
  0
CLASS
  1
AECC_LABEL_RADIAL_LINE_STYLE
  2
AeccDbLabelStyleRadialLine
  3
AeccLand10|Product Desc: Autodesk Civil 3D |Company: Autodesk,Inc. |WEB Address: www.autodesk.com
 90
     1023
280
     0
281
     0
  0
CLASS
  1
AECC_POINT_STYLE
  2
AeccDbPointStyle
  3
AeccLand10|Product Desc: Autodesk Civil 3D |Company: Autodesk,Inc. |WEB Address: www.autodesk.com
 90
      895
280
     0
281
     0
  0
CLASS
  1
AECC_PROFILE_LABEL_SET
  2
AeccDbVAlignStnLabelsDlgTemplate
  3
AeccLand10|Product Desc: Autodesk Civil 3D |Company: Autodesk,Inc. |WEB Address: www.autodesk.com
 90
     1023
280
     0
281
     0
  0
CLASS
  1
AECC_SECTION_VIEW_STYLE
  2
AeccDbGraphStyleCrossSection
  3
AeccLand10|Product Desc: Autodesk Civil 3D |Company: Autodesk,Inc. |WEB Address: www.autodesk.com
 90
      129
280
     0
281
     0
  0
CLASS
  1
AECC_SECTION_VIEW_BAND_STYLE_SET
  2
AeccDbGraphSectionBandStyleSet
  3
AeccLand10|Product Desc: Autodesk Civil 3D |Company: Autodesk,Inc. |WEB Address: www.autodesk.com
 90
      129
280
     0
281
     0
  0
CLASS
  1
AECC_SECTION_VIEW_DATA_BAND_STYLE
  2
AeccDbGraphStyleSectionDataBands
  3
AeccLand10|Product Desc: Autodesk Civil 3D |Company: Autodesk,Inc. |WEB Address: www.autodesk.com
 90
      129
280
     0
281
     0
  0
CLASS
  1
AECC_SECTION_LABEL_SET
  2
AeccDbSectionLabelsDlgTemplate
  3
AeccLand10|Product Desc: Autodesk Civil 3D |Company: Autodesk,Inc. |WEB Address: www.autodesk.com
 90
     1023
280
     0
281
     0
  0
CLASS
  1
AECC_ALIGNMENT_STYLE
  2
AeccDbAlignmentStyle
  3
AeccLand10|Product Desc: Autodesk Civil 3D |Company: Autodesk,Inc. |WEB Address: www.autodesk.com
 90
     1023
280
     0
281
     0
  0
CLASS
  1
AECC_LABEL_VECTOR_ARROW_STYLE
  2
AeccDbLabelStyleVectorArrow
  3
AeccLand10|Product Desc: Autodesk Civil 3D |Company: Autodesk,Inc. |WEB Address: www.autodesk.com
 90
     1023
280
     0
281
     0
  0
CLASS
  1
AECC_ALIGNMENT_LABEL_SET
  2
AeccDbAlignStnLabelsDlgTemplate
  3
AeccLand10|Product Desc: Autodesk Civil 3D |Company: Autodesk,Inc. |WEB Address: www.autodesk.com
 90
     1023
280
     0
281
     0
  0
CLASS
  1
AECC_SURFACE_STYLE
  2
AeccDbSurfaceStyle
  3
AeccLand10|Product Desc: Autodesk Civil 3D |Company: Autodesk,Inc. |WEB Address: www.autodesk.com
 90
      129
280
     0
281
     0
  0
CLASS
  1
AECC_LEGEND_TABLE_STYLE
  2
AeccDbLegendScheduleTableStyle
  3
AeccLand10|Product Desc: Autodesk Civil 3D |Company: Autodesk,Inc. |WEB Address: www.autodesk.com
 90
     1023
280
     0
281
     0
  0
CLASS
  1
AECC_SECTION_STYLE
  2
AeccDbSectionStyle
  3
AeccLand10|Product Desc: Autodesk Civil 3D |Company: Autodesk,Inc. |WEB Address: www.autodesk.com
 90
     1023
280
     0
281
     0
  0
CLASS
  1
AECC_GRADING_STYLE
  2
AeccDbGradingStyle
  3
AeccLand10|Product Desc: Autodesk Civil 3D |Company: Autodesk,Inc. |WEB Address: www.autodesk.com
 90
     1023
280
     0
281
     0
  0
CLASS
  1
AECC_GRADING_CRITERIA
  2
AeccDbGradingCriteria
  3
AeccLand10|Product Desc: Autodesk Civil 3D |Company: Autodesk,Inc. |WEB Address: www.autodesk.com
 90
     1023
280
     0
281
     0
  0
CLASS
  1
AECC_PARCEL_STYLE
  2
AeccDbParcelStyle
  3
AeccLand10|Product Desc: Autodesk Civil 3D |Company: Autodesk,Inc. |WEB Address: www.autodesk.com
 90
      129
280
     0
281
     0
  0
CLASS
  1
AECC_SAMPLE_LINE_GROUP_STYLE
  2
AeccDbSampleLineGroupStyle
  3
AeccLand10|Product Desc: Autodesk Civil 3D |Company: Autodesk,Inc. |WEB Address: www.autodesk.com
 90
      129
280
     0
281
     0
  0
CLASS
  1
AECC_SHEET_STYLE
  2
AeccDbSheetStyle
  3
AeccLand10|Product Desc: Autodesk Civil 3D |Company: Autodesk,Inc. |WEB Address: www.autodesk.com
 90
      129
280
     0
281
     0
  0
CLASS
  1
AECC_SAMPLE_LINE_STYLE
  2
AeccDbSampleLineStyle
  3
AeccLand10|Product Desc: Autodesk Civil 3D |Company: Autodesk,Inc. |WEB Address: www.autodesk.com
 90
     1023
280
     0
281
     0
  0
CLASS
  1
AECC_PROFILE_STYLE
  2
AeccDbVAlignmentStyle
  3
AeccLand10|Product Desc: Autodesk Civil 3D |Company: Autodesk,Inc. |WEB Address: www.autodesk.com
 90
     1023
280
     0
281
     0
  0
CLASS
  1
AECC_STATION_FORMAT_STYLE
  2
AeccDbStationFormatStyle
  3
AeccLand10|Product Desc: Autodesk Civil 3D |Company: Autodesk,Inc. |WEB Address: www.autodesk.com
 90
     1023
280
     0
281
     0
  0
CLASS
  1
AECC_TABLE_STYLE
  2
AeccDbScheduleTableStyle
  3
AeccLand10|Product Desc: Autodesk Civil 3D |Company: Autodesk,Inc. |WEB Address: www.autodesk.com
 90
     1023
280
     0
281
     0
  0
CLASS
  1
AECC_GRADING_CRITERIA_SET
  2
AeccDbGradingCriteriaSet
  3
AeccLand10|Product Desc: Autodesk Civil 3D |Company: Autodesk,Inc. |WEB Address: www.autodesk.com
 90
     1023
280
     0
281
     0
  0
CLASS
  1
AECC_FORMAT_MANAGER_OBJECT
  2
AeccDbFormatManagerObject
  3
AeccLand10|Product Desc: Autodesk Civil 3D |Company: Autodesk,Inc. |WEB Address: www.autodesk.com
 90
     1023
280
     0
281
     0
  0
CLASS
  1
AECC_POINT_DESCRIPTION_KEY_SET_NODE
  2
AeccDbPointDescKeySetsNode
  3
AeccvBase10|Product Desc: Autodesk Civil 3D |Company: Autodesk,Inc. |WEB Address: www.autodesk.com
 90
     1023
280
     0
281
     0
  0
ENDSEC
  0
SECTION
  2
TABLES
  0
TABLE
  2
VPORT
  5
8
330
0
100
AcDbSymbolTable
 70
     2
  0
VPORT
  5
1208
330
8
100
AcDbSymbolTableRecord
100
AcDbViewportTableRecord
  2
*Active
 70
     0
 10
0.0
 20
0.0
 11
1.0
 21
1.0
 12
19678.43291290591
 22
13236.42567533373
 13
0.0
 23
0.0
 14
10.0
 24
10.0
 15
10.0
 25
10.0
 16
0.0
 26
0.0
 36
1.0
 17
0.0
 27
0.0
 37
0.0
 40
32257.42086251044
 41
1.227931488801053
 42
50.0
 43
0.0
 44
0.0
 50
0.0
 51
0.0
 71
     0
 72
  1000
 73
     1
 74
     1
 75
     0
 76
     0
 77
     0
 78
     0
281
     0
 65
     1
110
0.0
120
0.0
130
0.0
111
1.0
121
0.0
131
0.0
112
0.0
122
1.0
132
0.0
 79
     0
146
0.0
  0
ENDTAB
  0
TABLE
  2
LTYPE
  5
5
330
0
100
AcDbSymbolTable
 70
     3
  0
LTYPE
  5
14
330
5
100
AcDbSymbolTableRecord
100
AcDbLinetypeTableRecord
  2
ByBlock
 70
     0
  3

 72
    65
 73
     0
 40
0.0
  0
LTYPE
  5
15
330
5
100
AcDbSymbolTableRecord
100
AcDbLinetypeTableRecord
  2
ByLayer
 70
     0
  3

 72
    65
 73
     0
 40
0.0
  0
LTYPE
  5
16
330
5
100
AcDbSymbolTableRecord
100
AcDbLinetypeTableRecord
  2
Continuous
 70
     0
  3
Solid line
 72
    65
 73
     0
 40
0.0
  0
LTYPE
  5
270
330
5
100
AcDbSymbolTableRecord
100
AcDbLinetypeTableRecord
  2
DASHED
 70
     0
  3
__ __ __ __ __ __ __ __ __ __ __ __ __ __ __
 72
    65
 73
     2
 40
3.0
 49
2.0
 74
     0
 49
-1.0
 74
     0
  0
LTYPE
  5
271
330
5
100
AcDbSymbolTableRecord
100
AcDbLinetypeTableRecord
  2
DASHDOT
 70
     0
  3
__ . __ . __ . __ . __ . __ . __ . __ . __ . __
 72
    65
 73
     4
 40
8.5
 49
6.0
 74
     0
 49
-1.0
 74
     0
 49
0.5
 74
     0
 49
-1.0
 74
     0
  0
ENDTAB
  0
TABLE
  2
LAYER
  5
2
330
0
100
AcDbSymbolTable
 70
    18
  0
LAYER
  5
10
330
2
100
AcDbSymbolTableRecord
100
AcDbLayerTableRecord
  2
0
 70
     0
 62
     7
  6
Continuous
370
    -3
390
F
  0
LAYER
  5
272
330
2
100
AcDbSymbolTableRecord
100
AcDbLayerTableRecord
  2
DEFPOINTS
 70
     0
 62
     4
  6
Continuous
290
     0
370
    -3
390
F
  0
LAYER
  5
273
330
2
100
AcDbSymbolTableRecord
100
AcDbLayerTableRecord
  2
寸法
 70
     0
 62
     6
  6
Continuous
370
    -3
390
F
  0
LAYER
  5
274
330
2
100
AcDbSymbolTableRecord
100
AcDbLayerTableRecord
  2
画層1-1
 70
     0
 62
    82
  6
Continuous
370
    -3
390
F
  0
LAYER
  5
275
330
2
100
AcDbSymbolTableRecord
100
AcDbLayerTableRecord
  2
図面枠
 70
     0
 62
     7
  6
Continuous
370
    -3
390
F
  0
LAYER
  5
276
330
2
100
AcDbSymbolTableRecord
100
AcDbLayerTableRecord
  2
ﾊｯﾁﾝｸﾞ
 70
     0
 62
     1
  6
Continuous
370
    -3
390
F
  0
LAYER
  5
277
330
2
100
AcDbSymbolTableRecord
100
AcDbLayerTableRecord
  2
画層1
 70
     0
 62
     7
  6
Continuous
370
    -3
390
F
  0
LAYER
  5
278
330
2
100
AcDbSymbolTableRecord
100
AcDbLayerTableRecord
  2
画層2
 70
     0
 62
    40
  6
Continuous
370
    -3
390
F
  0
LAYER
  5
279
330
2
100
AcDbSymbolTableRecord
100
AcDbLayerTableRecord
  2
通り芯
 70
     0
 62
     4
  6
Continuous
370
    13
390
F
  0
LAYER
  5
27A
330
2
100
AcDbSymbolTableRecord
100
AcDbLayerTableRecord
  2
ﾈｯﾄ
 70
     0
 62
   230
  6
Continuous
370
    13
390
F
  0
LAYER
  5
27B
330
2
100
AcDbSymbolTableRecord
100
AcDbLayerTableRecord
  2
画層3-3
 70
     0
 62
     1
  6
Continuous
370
    -3
390
F
  0
LAYER
  5
27C
330
2
100
AcDbSymbolTableRecord
100
AcDbLayerTableRecord
  2
画層3-1
 70
     0
 62
     3
  6
Continuous
370
    -3
390
F
  0
LAYER
  5
27D
330
2
100
AcDbSymbolTableRecord
100
AcDbLayerTableRecord
  2
画層3-2
 70
     0
 62
    60
  6
Continuous
370
    -3
390
F
  0
LAYER
  5
27E
330
2
100
AcDbSymbolTableRecord
100
AcDbLayerTableRecord
  2
画層2-1
 70
     0
 62
     7
  6
Continuous
370
    -3
390
F
  0
LAYER
  5
27F
330
2
100
AcDbSymbolTableRecord
100
AcDbLayerTableRecord
  2
画層3-通り芯
 70
     0
 62
     4
  6
Continuous
370
    -3
390
F
  0
LAYER
  5
280
330
2
100
AcDbSymbolTableRecord
100
AcDbLayerTableRecord
  2
画層3-寸法
 70
     0
 62
     6
  6
Continuous
370
    -3
390
F
  0
LAYER
  5
281
330
2
100
AcDbSymbolTableRecord
100
AcDbLayerTableRecord
  2
寸法文字
 70
     0
 62
     6
  6
Continuous
370
    -3
390
F
  0
LAYER
  5
282
330
2
100
AcDbSymbolTableRecord
100
AcDbLayerTableRecord
  2
寸法引出
 70
     0
 62
     3
  6
Continuous
370
    -3
390
F
  0
ENDTAB
  0
TABLE
  2
STYLE
  5
3
330
0
100
AcDbSymbolTable
 70
     4
  0
STYLE
  5
11
330
3
100
AcDbSymbolTableRecord
100
AcDbTextStyleTableRecord
  2
Standard
 70
     0
 40
0.0
 41
1.0
 50
0.0
 71
     0
 42
2.5
  3
txt
  4

  0
STYLE
  5
283
330
3
100
AcDbSymbolTableRecord
100
AcDbTextStyleTableRecord
  2
1_100
 70
     0
 40
0.0
 41
0.75
 50
0.0
 71
     0
 42
2.5
  3
romans.shx
  4
extfont2.shx
  0
STYLE
  5
284
330
3
100
AcDbSymbolTableRecord
100
AcDbTextStyleTableRecord
  2
STYLE1
 70
     0
 40
0.0
 41
0.75
 50
0.0
 71
     0
 42
0.2
  3
HGRSKP.TTF
  4

1001
ACAD
1000
HGSeikaishotaiPRO
1071
    32833
  0
STYLE
  5
285
330
3
100
AcDbSymbolTableRecord
100
AcDbTextStyleTableRecord
  2
MSP明朝
 70
     0
 40
0.0
 41
0.75
 50
0.0
 71
     0
 42
0.2
  3
MS PMincho.ttf
  4

1001
ACAD
1000
MS PMincho
1071
    32786
  0
ENDTAB
  0
TABLE
  2
VIEW
  5
6
330
0
100
AcDbSymbolTable
 70
     0
  0
ENDTAB
  0
TABLE
  2
UCS
  5
7
330
0
100
AcDbSymbolTable
 70
     0
  0
ENDTAB
  0
TABLE
  2
APPID
  5
9
330
0
100
AcDbSymbolTable
 70
     4
  0
APPID
  5
12
330
9
100
AcDbSymbolTableRecord
100
AcDbRegAppTableRecord
  2
ACAD
 70
     0
  0
APPID
  5
289
330
9
100
AcDbSymbolTableRecord
100
AcDbRegAppTableRecord
  2
AcDbBlockRepETag
 70
     0
  0
APPID
  5
F09
330
9
100
AcDbSymbolTableRecord
100
AcDbRegAppTableRecord
  2
ADE
 70
     0
  0
APPID
  5
F0A
330
9
100
AcDbSymbolTableRecord
100
AcDbRegAppTableRecord
  2
DCO15
 70
     0
  0
ENDTAB
  0
TABLE
  2
DIMSTYLE
  5
A
330
0
100
AcDbSymbolTable
 70
     5
100
AcDbDimStyleTable
 71
     0
  0
DIMSTYLE
105
27
330
A
100
AcDbSymbolTableRecord
100
AcDbDimStyleTableRecord
  2
ISO-25
 70
     0
 41
2.5
 42
0.625
 43
3.75
 44
1.25
 73
     0
 74
     0
 77
     1
 78
     8
140
2.5
141
2.5
143
0.03937007874016
147
0.625
171
     3
172
     1
271
     2
272
     2
274
     3
278
    44
283
     0
284
     8
340
11
  0
DIMSTYLE
105
286
330
A
100
AcDbSymbolTableRecord
100
AcDbDimStyleTableRecord
  2
STANDARD
 70
     0
340
11
  0
DIMSTYLE
105
287
102
{ACAD_REACTORS
330
577
330
578
330
5D2
330
5D3
330
5F5
330
5FA
330
5FC
330
5FD
330
5FF
330
617
330
6A9
330
6AA
330
6D1
330
6F9
330
74D
330
783
330
796
330
797
330
798
330
799
330
79A
330
7C0
330
7C4
330
7E0
330
7E1
330
7E2
330
7E3
330
7E4
330
7E5
330
7E6
330
811
330
812
330
81A
330
828
330
829
102
}
330
A
100
AcDbSymbolTableRecord
100
AcDbDimStyleTableRecord
  2
1_100
 70
     0
 40
100.0
 41
0.6
 42
3.0
 43
10.0
 44
0.0
 73
     0
 74
     0
 77
     1
 78
     8
140
3.0
141
0.0
147
1.0
172
     1
173
     1
176
   256
177
   256
178
   256
271
     1
272
     1
277
     6
279
     2
284
     8
340
283
341
87
343
87
344
87
  0
DIMSTYLE
105
288
102
{ACAD_REACTORS
330
6F6
330
757
102
}
330
A
100
AcDbSymbolTableRecord
100
AcDbDimStyleTableRecord
  2
1_100_B
 70
     0
 40
100.0
 41
0.8
 42
2.0
 43
10.0
 44
0.0
 73
     0
 74
     0
 77
     1
 78
    12
140
3.0
147
0.5
172
     1
173
     1
176
   256
177
   256
178
   256
271
     1
272
     1
277
     6
279
     2
340
283
341
87
343
87
344
87
  0
DIMSTYLE
105
F08
330
A
100
AcDbSymbolTableRecord
100
AcDbDimStyleTableRecord
  2
1_50
 70
     0
 40
50.0
 41
1.0
 42
3.0
 43
10.0
 44
0.0
 73
     0
 74
     0
 77
     1
 78
    12
140
3.0
141
0.0
147
1.0
172
     1
173
     1
176
   256
177
   256
178
   256
271
     1
272
     1
277
     6
279
     2
340
283
341
87
343
87
344
87
  0
ENDTAB
  0
TABLE
  2
BLOCK_RECORD
  5
1
330
0
100
AcDbSymbolTable
 70
    40
  0
BLOCK_RECORD
  5
1F
330
1
100
AcDbSymbolTableRecord
100
AcDbBlockTableRecord
  2
*Model_Space
340
22
  0
BLOCK_RECORD
  5
50
330
1
100
AcDbSymbolTableRecord
100
AcDbBlockTableRecord
  2
*Paper_Space
340
51
  0
BLOCK_RECORD
  5
55
330
1
100
AcDbSymbolTableRecord
100
AcDbBlockTableRecord
  2
*Paper_Space0
340
56
  0
BLOCK_RECORD
  5
87
330
1
100
AcDbSymbolTableRecord
100
AcDbBlockTableRecord
  2
_ORIGIN
340
0
102
{BLKREFS
331
A19
331
A1A
331
A22
331
A23
331
A2C
331
A2D
331
A36
331
A37
331
A42
331
A43
331
A4A
331
A4B
331
A53
331
A54
331
A5C
331
A5D
331
A65
331
A66
331
A6E
331
A6F
331
A77
331
A78
331
A80
331
A81
331
A89
331
A8A
331
A94
331
A95
331
A9D
331
A9E
331
AA6
331
AA7
331
AB0
331
AB1
331
AB8
331
AB9
331
AC1
331
AC2
331
ACA
331
ACB
331
AD6
331
AD7
331
AE1
331
AE2
331
AE9
331
AEA
331
AF3
331
AF4
331
AFD
331
AFE
331
B06
331
B07
331
B0F
331
B10
331
B1B
331
B1C
331
B26
331
B27
331
B2E
331
B2F
331
B37
331
B38
331
B40
331
B41
331
B4C
331
B4D
331
B54
331
B55
331
B60
331
B61
331
B6B
331
B6C
331
B73
331
B74
102
}
  0
BLOCK_RECORD
  5
8C
330
1
100
AcDbSymbolTableRecord
100
AcDbBlockTableRecord
  2
sai450
340
0
310
28000000200000002000000001000800000000000004000000000000000000000000000000000000000000004000000080000000FF000000002000004020000080200000FF200000004000004040000080400000FF400000006000004060000080600000FF600000008000004080000080800000FF80000000A0000040A000
310
0080A00000FFA0000000C0000040C0000080C00000FFC0000000FF000040FF000080FF0000FFFF0000000020004000200080002000FF002000002020004020200080202000FF202000004020004040200080402000FF402000006020004060200080602000FF602000008020004080200080802000FF80200000A0200040A0
310
200080A02000FFA0200000C0200040C0200080C02000FFC0200000FF200040FF200080FF2000FFFF2000000040004000400080004000FF004000002040004020400080204000FF204000004040004040400080404000FF404000006040004060400080604000FF604000008040004080400080804000FF80400000A0400040
310
A0400080A04000FFA0400000C0400040C0400080C04000FFC0400000FF400040FF400080FF4000FFFF4000000060004000600080006000FF006000002060004020600080206000FF206000004060004040600080406000FF406000006060004060600080606000FF606000008060004080600080806000FF80600000A06000
310
40A0600080A06000FFA0600000C0600040C0600080C06000FFC0600000FF600040FF600080FF6000FFFF6000000080004000800080008000FF008000002080004020800080208000FF208000004080004040800080408000FF408000006080004060800080608000FF608000008080004080800080808000FF80800000A080
310
0040A0800080A08000FFA0800000C0800040C0800080C08000FFC0800000FF800040FF800080FF8000FFFF80000000A0004000A0008000A000FF00A0000020A0004020A0008020A000FF20A0000040A0004040A0008040A000FF40A0000060A0004060A0008060A000FF60A0000080A0004080A0008080A000FF80A00000A0
310
A00040A0A00080A0A000FFA0A00000C0A00040C0A00080C0A000FFC0A00000FFA00040FFA00080FFA000FFFFA0000000C0004000C0008000C000FF00C0000020C0004020C0008020C000FF20C0000040C0004040C0008040C000FF40C0000060C0004060C0008060C000FF60C0000080C0004080C0008080C000FF80C00000
310
A0C00040A0C00080A0C000FFA0C00000C0C00040C0C00080C0C000FFC0C00000FFC00040FFC00080FFC000FFFFC0000000FF004000FF008000FF00FF00FF000020FF004020FF008020FF00FF20FF000040FF004040FF008040FF00FF40FF000060FF004060FF008060FF00FF60FF000080FF004080FF008080FF00FF80FF00
310
00A0FF0040A0FF0080A0FF00FFA0FF0000C0FF0040C0FF0080C0FF00FFC0FF0000FFFF0040FFFF0080FFFF00FFFFFF00FFFFFFFFFFFFFFFFFFFFFFFFFFFFFFFFFFFFFFFFFFFFFFFFFFFFFFFFFFFFFFFFFFFFFFFFFFFFFFFFFFFFFFFFFFFFFFFFFFFFFFFFFFFFFFFFFFFFFFFFFFFFFFFFFFFFFFFFFFFFFFFFFFFFFFFFFFFFFF
310
FFFFFFFFFFFFFFFFFFFFFFFFFFFFFFFFFFFFFFFFFFFFFFFFFFFFFFFFFFFFFFFFFFFFFFFFFFFFFFFFFFFFFFFFFFFFFFFFFFFFFFFFFFFFFFFFFFFFFFFFFFFFFFFFFFFFFFFFFFFFFFFFFFFFFFFFFFFFFFFFFFFFFFFFFFFFFFFFFFFFFFFFFFFFFFFFFFFFFFFFFFFFFFFFFFFFFFFFFFFFFFFFFFFFFFFFFFFFFFFFFFFFFFFFFFFFFF
310
FFFFFFFFFFFFFFFFFFFFFFFFFFFFFFFFFFFFFFFFFFFFFFFFFFFFFFFFFFFFFFFFFFFFFFFFFFFFFFFFFFFFFFFFFFFFFFFFFFFFFFFFFFFFFFFFFFFFFFFFFFFFFFFFFFFFFFFFFFFFFFFFFFFFFFFFFFFFFFFFFFFFFFFFFFFFFFFFFFFFFFFFFFFFFFFFFFFFFFFFFFFFFFFFFFFFFFFFFFFFFFFFFFFFFFFFFFFFFFFFFFFFFFFFFFFFFF
310
FFFFFFFFFFFFFFFFFFFFFFFFFFFFFFFFFFFFFFFFFFFFFFFFFFFFFFFFFFFFFFFFFFFFFFFFFFFFFFFFFFFFFFFFFFFFFFFFFFFFFFFFE0FFE0FFFFFFE0FFE0FFFFFFFFE0E0FFFFFFFFE0E0FFFFFFFFE0E0FFFFFFFFFFFFE0E0FFFFFFFFE0E0FFFFFFFFE0E0FFFFFFFFFFE0FFFFFFFFFFE0FFFFFFFFFFFFE0FFFFFFFFFFE0FFFFFF
310
FFFFE0E0FFFFFFFFFFE0FFFFFFFFFFE0FFFFFFFFFFFFFFE0FFFFFFFFFFE0FFFFFFFFFFE0FFFFFFFFFFFFE0FFFFFFFFFFE0FFFFFFFFFFFFE0FFFFFFFFFFE0FFFFFFFFFFFFE0FFFFFFFFFFE0FFFFFFFFFFE0FFFFFFFFFFFFFFE0FFFFFFFFFFE0FFFFFFFFFFE0E0FFFFFFFFFFE0FFFFFFFFFFE0FFFFFFFFFFFFE0FFFFFFFFFFE0
310
FFFFFFFFFFFFE0FFFFFFFFFFE0FFFFFFFFFFE0FFFFFFFFFFE0FFE0FFFFFFE0FFE0FFFFFFFFE0E0FFFFFFFFE0FFE0FFFFFFE0FFE0FFFFFFFFFFFFFFFFFFFFFFFFFFFFFFFFFFFFFFFFFFFFFFFFFFFFFFFFFFFFFFFFFFFFFFFFFFFFFFFFFFFFFFFFFFFFFFFFFFFFFFFFFFFFFFFFFFFFFFFFFFFFFFFFFFFFFFFFFFFFFFFFFFFFFF
310
FFFFFFFFFFFFFFFFFFFFFFFFFFFFFFFFFFFFFFFFFFFFFFFFFFFFFFFFFFFFFFFFFFFFFFFFFFFFFFFFFFFFFFFFFFFFFFFFFFFFFFFFFFFFFFFFFFFFFFFFFFFFFFFFFFFFFFFFFFFFFFFFFFFFFFFFFFFFFFFFFFFFFFFFFFFFFFFFFFFFFFFFFFFFFFFFFFFFFFFFFFFFFFFFFFFFFFFFFFFFFFFFFFFFFFFFFFFFFFFFFFFFFFFFFFFFFF
310
FFFFFFFFFFFFFFFFFFFFFFFFFFFFFFFFFFFFFFFFFFFFFFFFFFFFFFFFFFFFFFFFFFFFFFFFFFFFFFFFFFFFFFFFFFFFFFFFFFFFFFFFFFFFFFFFFFFFFFFFFFFFFFFFFFFFFFFFFFFFFFFFFFFFFFFFFFFFFFFFFFFFFFFFFFFFFFFFFFFFFFFFFFFFFFFFFFFFFFFFFFFFFFFFFFFFFFFFFFFFFFFFFFFFFFFFFFFFFFFFFFFFFFFFFFFFFF
310
FFFFFFFFFFFFFFFFFFFFFFFFFFFFFFFFFFFFFFFFFFFFFFFFFFFFFFFFFFFFFFFFFFFFFFFFFFFFFFFFFFFFFFFFFFFFFFFFFFFFFFFFFFFFFFFF
102
{BLKREFS
331
5C2
331
6F2
331
7DF
102
}
  0
BLOCK_RECORD
  5
844
330
1
100
AcDbSymbolTableRecord
100
AcDbBlockTableRecord
  2
*D3
340
0
  0
BLOCK_RECORD
  5
850
330
1
100
AcDbSymbolTableRecord
100
AcDbBlockTableRecord
  2
*D4
340
0
  0
BLOCK_RECORD
  5
85C
330
1
100
AcDbSymbolTableRecord
100
AcDbBlockTableRecord
  2
*D5
340
0
  0
BLOCK_RECORD
  5
868
330
1
100
AcDbSymbolTableRecord
100
AcDbBlockTableRecord
  2
*D6
340
0
  0
BLOCK_RECORD
  5
876
330
1
100
AcDbSymbolTableRecord
100
AcDbBlockTableRecord
  2
*D7
340
0
  0
BLOCK_RECORD
  5
884
330
1
100
AcDbSymbolTableRecord
100
AcDbBlockTableRecord
  2
*D8
340
0
  0
BLOCK_RECORD
  5
890
330
1
100
AcDbSymbolTableRecord
100
AcDbBlockTableRecord
  2
*D9
340
0
  0
BLOCK_RECORD
  5
89C
330
1
100
AcDbSymbolTableRecord
100
AcDbBlockTableRecord
  2
*D10
340
0
  0
BLOCK_RECORD
  5
8A8
330
1
100
AcDbSymbolTableRecord
100
AcDbBlockTableRecord
  2
*D11
340
0
  0
BLOCK_RECORD
  5
8B4
330
1
100
AcDbSymbolTableRecord
100
AcDbBlockTableRecord
  2
*D12
340
0
  0
BLOCK_RECORD
  5
8C0
330
1
100
AcDbSymbolTableRecord
100
AcDbBlockTableRecord
  2
*D13
340
0
  0
BLOCK_RECORD
  5
8CC
330
1
100
AcDbSymbolTableRecord
100
AcDbBlockTableRecord
  2
*D14
340
0
  0
BLOCK_RECORD
  5
8D8
330
1
100
AcDbSymbolTableRecord
100
AcDbBlockTableRecord
  2
*D15
340
0
  0
BLOCK_RECORD
  5
8E4
330
1
100
AcDbSymbolTableRecord
100
AcDbBlockTableRecord
  2
*D16
340
0
  0
BLOCK_RECORD
  5
8F2
330
1
100
AcDbSymbolTableRecord
100
AcDbBlockTableRecord
  2
*D17
340
0
  0
BLOCK_RECORD
  5
8FE
330
1
100
AcDbSymbolTableRecord
100
AcDbBlockTableRecord
  2
*D18
340
0
  0
BLOCK_RECORD
  5
90A
330
1
100
AcDbSymbolTableRecord
100
AcDbBlockTableRecord
  2
*D19
340
0
  0
BLOCK_RECORD
  5
916
330
1
100
AcDbSymbolTableRecord
100
AcDbBlockTableRecord
  2
*D20
340
0
  0
BLOCK_RECORD
  5
922
330
1
100
AcDbSymbolTableRecord
100
AcDbBlockTableRecord
  2
*D21
340
0
  0
BLOCK_RECORD
  5
92E
330
1
100
AcDbSymbolTableRecord
100
AcDbBlockTableRecord
  2
*D22
340
0
  0
BLOCK_RECORD
  5
93A
330
1
100
AcDbSymbolTableRecord
100
AcDbBlockTableRecord
  2
*D23
340
0
  0
BLOCK_RECORD
  5
948
330
1
100
AcDbSymbolTableRecord
100
AcDbBlockTableRecord
  2
*D24
340
0
  0
BLOCK_RECORD
  5
956
330
1
100
AcDbSymbolTableRecord
100
AcDbBlockTableRecord
  2
*D25
340
0
  0
BLOCK_RECORD
  5
962
330
1
100
AcDbSymbolTableRecord
100
AcDbBlockTableRecord
  2
*D26
340
0
  0
BLOCK_RECORD
  5
96E
330
1
100
AcDbSymbolTableRecord
100
AcDbBlockTableRecord
  2
*D27
340
0
  0
BLOCK_RECORD
  5
97C
330
1
100
AcDbSymbolTableRecord
100
AcDbBlockTableRecord
  2
*D28
340
0
  0
BLOCK_RECORD
  5
988
330
1
100
AcDbSymbolTableRecord
100
AcDbBlockTableRecord
  2
*D29
340
0
  0
BLOCK_RECORD
  5
994
330
1
100
AcDbSymbolTableRecord
100
AcDbBlockTableRecord
  2
*D30
340
0
  0
BLOCK_RECORD
  5
9A2
330
1
100
AcDbSymbolTableRecord
100
AcDbBlockTableRecord
  2
*D31
340
0
  0
BLOCK_RECORD
  5
9B0
330
1
100
AcDbSymbolTableRecord
100
AcDbBlockTableRecord
  2
*D32
340
0
  0
BLOCK_RECORD
  5
9BC
330
1
100
AcDbSymbolTableRecord
100
AcDbBlockTableRecord
  2
*D33
340
0
  0
BLOCK_RECORD
  5
9C8
330
1
100
AcDbSymbolTableRecord
100
AcDbBlockTableRecord
  2
*D34
340
0
  0
BLOCK_RECORD
  5
9D4
330
1
100
AcDbSymbolTableRecord
100
AcDbBlockTableRecord
  2
*D35
340
0
  0
BLOCK_RECORD
  5
9E2
330
1
100
AcDbSymbolTableRecord
100
AcDbBlockTableRecord
  2
*D36
340
0
  0
BLOCK_RECORD
  5
9EE
330
1
100
AcDbSymbolTableRecord
100
AcDbBlockTableRecord
  2
*D37
340
0
  0
BLOCK_RECORD
  5
9FC
330
1
100
AcDbSymbolTableRecord
100
AcDbBlockTableRecord
  2
*D38
340
0
  0
BLOCK_RECORD
  5
A0A
330
1
100
AcDbSymbolTableRecord
100
AcDbBlockTableRecord
  2
*D39
340
0
  0
ENDTAB
  0
ENDSEC
  0
SECTION
  2
BLOCKS
  0
BLOCK
  5
20
330
1F
100
AcDbEntity
  8
0
100
AcDbBlockBegin
  2
*Model_Space
 70
     0
 10
0.0
 20
0.0
 30
0.0
  3
*Model_Space
  1

  0
ENDBLK
  5
21
330
1F
100
AcDbEntity
  8
0
100
AcDbBlockEnd
  0
BLOCK
  5
52
330
50
100
AcDbEntity
 67
     1
  8
0
100
AcDbBlockBegin
  2
*Paper_Space
 70
     0
 10
0.0
 20
0.0
 30
0.0
  3
*Paper_Space
  1

  0
ENDBLK
  5
53
330
50
100
AcDbEntity
 67
     1
  8
0
100
AcDbBlockEnd
  0
BLOCK
  5
57
330
55
100
AcDbEntity
  8
0
100
AcDbBlockBegin
  2
*Paper_Space0
 70
     0
 10
0.0
 20
0.0
 30
0.0
  3
*Paper_Space0
  1

  0
ENDBLK
  5
58
330
55
100
AcDbEntity
  8
0
100
AcDbBlockEnd
  0
BLOCK
  5
88
330
87
100
AcDbEntity
  8
0
100
AcDbBlockBegin
  2
_ORIGIN
 70
     0
 10
0.0
 20
0.0
 30
0.0
  3
_ORIGIN
  1

  0
CIRCLE
  5
89
330
87
100
AcDbEntity
  8
0
  6
ByBlock
 62
     0
100
AcDbCircle
 10
0.0
 20
0.0
 30
0.0
 40
0.5
  0
LINE
  5
8A
330
87
100
AcDbEntity
  8
0
  6
ByBlock
 62
     0
100
AcDbLine
 10
0.0
 20
0.0
 30
0.0
 11
-1.0
 21
0.0
 31
0.0
  0
ENDBLK
  5
8B
330
87
100
AcDbEntity
  8
0
100
AcDbBlockEnd
  0
BLOCK
  5
8D
330
8C
100
AcDbEntity
  8
0
100
AcDbBlockBegin
  2
sai450
 70
     0
 10
0.0
 20
0.0
 30
0.0
  3
sai450
  1

  0
LINE
  5
8E
330
8C
100
AcDbEntity
  8
ﾊｯﾁﾝｸﾞ
  6
Continuous
100
AcDbLine
 10
184.9591232701205
 20
0.0
 30
0.0
 11
201.0662565772654
 21
-21.8430756283924
 31
0.0
  0
LINE
  5
8F
330
8C
100
AcDbEntity
  8
ﾊｯﾁﾝｸﾞ
  6
Continuous
100
AcDbLine
 10
168.7806191118434
 20
-77.76344007329317
 30
0.0
 11
181.6189029712695
 21
-100.0
 31
0.0
  0
LINE
  5
90
330
8C
100
AcDbEntity
  8
ﾊｯﾁﾝｸﾞ
  6
Continuous
100
AcDbLine
 10
155.9423352523008
 20
-100.0
 30
0.0
 11
213.6773621712346
 21
0.0
 31
0.0
  0
LINE
  5
91
330
8C
100
AcDbEntity
  8
ﾊｯﾁﾝｸﾞ
  6
Continuous
100
AcDbLine
 10
64.33979487384203
 20
-100.0
 30
0.0
 11
122.0748217927758
 21
0.0
 31
0.0
  0
LINE
  5
92
330
8C
100
AcDbEntity
  8
ﾊｯﾁﾝｸﾞ
  6
Continuous
100
AcDbLine
 10
-27.26274550461676
 20
-100.0
 30
0.0
 11
30.47228141431697
 21
0.0
 31
0.0
  0
LINE
  5
93
330
8C
100
AcDbEntity
  8
ﾊｯﾁﾝｸﾞ
  6
Continuous
100
AcDbLine
 10
77.17807873338461
 20
-77.76344007329317
 30
0.0
 11
90.01636259281076
 21
-100.0
 31
0.0
  0
LINE
  5
94
330
8C
100
AcDbEntity
  8
ﾊｯﾁﾝｸﾞ
  6
Continuous
100
AcDbLine
 10
-14.4244616451906
 20
-77.76344007329317
 30
0.0
 11
-1.586177785531615
 21
-100.0
 31
0.0
  0
LINE
  5
95
330
8C
100
AcDbEntity
  8
ﾊｯﾁﾝｸﾞ
  6
Continuous
100
AcDbLine
 10
1.754042513202874
 20
0.0
 30
0.0
 11
17.86117582034785
 21
-21.8430756283924
 31
0.0
  0
LINE
  5
96
330
8C
100
AcDbEntity
  8
ﾊｯﾁﾝｸﾞ
  6
Continuous
100
AcDbLine
 10
93.35658289166168
 20
0.0
 30
0.0
 11
109.4637161988066
 21
-21.8430756283924
 31
0.0
  0
LINE
  5
97
330
8C
100
AcDbEntity
  8
ﾊｯﾁﾝｸﾞ
  6
Continuous
100
AcDbLine
 10
-181.4510382437146
 20
0.0
 30
0.0
 11
-165.3439049364533
 21
-21.8430756283924
 31
0.0
  0
LINE
  5
98
330
8C
100
AcDbEntity
  8
ﾊｯﾁﾝｸﾞ
  6
Continuous
100
AcDbLine
 10
-197.6295424019918
 20
-77.76344007329317
 30
0.0
 11
-184.7912585424492
 21
-100.0
 31
0.0
  0
LINE
  5
99
330
8C
100
AcDbEntity
  8
ﾊｯﾁﾝｸﾞ
  6
Continuous
100
AcDbLine
 10
-210.4678262615343
 20
-100.0
 30
0.0
 11
-152.7327993426006
 21
0.0
 31
0.0
  0
LINE
  5
9A
330
8C
100
AcDbEntity
  8
ﾊｯﾁﾝｸﾞ
  6
Continuous
100
AcDbLine
 10
-118.8652858830755
 20
-100.0
 30
0.0
 11
-61.13025896414182
 21
0.0
 31
0.0
  0
LINE
  5
9B
330
8C
100
AcDbEntity
  8
ﾊｯﾁﾝｸﾞ
  6
Continuous
100
AcDbLine
 10
-106.027002023533
 20
-77.76344007329317
 30
0.0
 11
-93.18871816399042
 21
-100.0
 31
0.0
  0
LINE
  5
9C
330
8C
100
AcDbEntity
  8
ﾊｯﾁﾝｸﾞ
  6
Continuous
100
AcDbLine
 10
-89.84849786525591
 20
0.0
 30
0.0
 11
-73.74136455799453
 21
-21.8430756283924
 31
0.0
  0
ENDBLK
  5
9D
330
8C
100
AcDbEntity
  8
0
100
AcDbBlockEnd
  0
BLOCK
  5
84E
330
844
100
AcDbEntity
  8
0
100
AcDbBlockBegin
  2
*D3
 70
     1
 10
0.0
 20
0.0
 30
0.0
  3
*D3
  1

  0
LINE
  5
A16
330
844
100
AcDbEntity
  8
寸法
  6
Continuous
370
    -2
100
AcDbLine
 10
8887.796933391321
 20
8592.068860078734
 30
0.0
 11
8887.796933391321
 21
8454.568860078735
 31
0.0
  0
LINE
  5
A17
330
844
100
AcDbEntity
  8
寸法
  6
Continuous
370
    -2
100
AcDbLine
 10
10887.79693339132
 20
9461.662894336429
 30
0.0
 11
10887.79693339132
 21
8454.568860078735
 31
0.0
  0
LINE
  5
A18
330
844
100
AcDbEntity
  8
寸法
  6
Continuous
370
    -2
100
AcDbLine
 10
8947.796933391321
 20
8454.568860078735
 30
0.0
 11
10827.79693339132
 21
8454.568860078735
 31
0.0
  0
INSERT
  5
A19
330
844
100
AcDbEntity
  8
寸法
  6
Continuous
370
    -2
100
AcDbBlockReference
  2
_ORIGIN
 10
8887.796933391321
 20
8454.568860078735
 30
0.0
 41
60.0
 42
60.0
 43
60.0
 50
180.0
  0
INSERT
  5
A1A
330
844
100
AcDbEntity
  8
寸法
  6
Continuous
370
    -2
100
AcDbBlockReference
  2
_ORIGIN
 10
10887.79693339132
 20
8454.568860078735
 30
0.0
 41
60.0
 42
60.0
 43
60.0
  0
MTEXT
  5
A1B
330
844
100
AcDbEntity
  8
寸法
  6
Continuous
100
AcDbMText
 10
9887.796933391319
 20
8733.140288650163
 30
0.0
 40
300.0
 41
0.0
 71
     5
 72
     1
  1
\A1;2,000
  7
1_100
 73
     1
 44
1.0
1001
ACAD
1000
MTEXTBEGIN
1070
    73
1070
     1
1070
    44
1040
1.0
1070
    74
1070
     0
1000
MTEXTEND
  0
POINT
  5
A1C
330
844
100
AcDbEntity
  8
DEFPOINTS
  6
Continuous
 62
     0
100
AcDbPoint
 10
8887.796933391321
 20
8892.068860078735
 30
0.0
  0
POINT
  5
A1D
330
844
100
AcDbEntity
  8
DEFPOINTS
  6
Continuous
 62
     0
100
AcDbPoint
 10
10887.79693339132
 20
9761.662894336431
 30
0.0
  0
POINT
  5
A1E
330
844
100
AcDbEntity
  8
DEFPOINTS
  6
Continuous
 62
     0
100
AcDbPoint
 10
10887.79693339132
 20
8454.568860078735
 30
0.0
  0
ENDBLK
  5
84F
330
844
100
AcDbEntity
  8
0
100
AcDbBlockEnd
  0
BLOCK
  5
85A
330
850
100
AcDbEntity
  8
0
100
AcDbBlockBegin
  2
*D4
 70
     1
 10
0.0
 20
0.0
 30
0.0
  3
*D4
  1

  0
LINE
  5
A1F
330
850
100
AcDbEntity
  8
寸法
  6
Continuous
370
    -2
100
AcDbLine
 10
8887.796933391321
 20
9054.568860078969
 30
0.0
 11
8887.796933391321
 21
7654.568860078734
 31
0.0
  0
LINE
  5
A20
330
850
100
AcDbEntity
  8
寸法
  6
Continuous
370
    -2
100
AcDbLine
 10
18887.79693339132
 20
10212.10138828579
 30
0.0
 11
18887.79693339132
 21
7654.568860078734
 31
0.0
  0
LINE
  5
A21
330
850
100
AcDbEntity
  8
寸法
  6
Continuous
370
    -2
100
AcDbLine
 10
8947.796933391321
 20
7654.568860078734
 30
0.0
 11
18827.79693339132
 21
7654.568860078734
 31
0.0
  0
INSERT
  5
A22
330
850
100
AcDbEntity
  8
寸法
  6
Continuous
370
    -2
100
AcDbBlockReference
  2
_ORIGIN
 10
8887.796933391321
 20
7654.568860078734
 30
0.0
 41
60.0
 42
60.0
 43
60.0
 50
180.0
  0
INSERT
  5
A23
330
850
100
AcDbEntity
  8
寸法
  6
Continuous
370
    -2
100
AcDbBlockReference
  2
_ORIGIN
 10
18887.79693339132
 20
7654.568860078734
 30
0.0
 41
60.0
 42
60.0
 43
60.0
  0
MTEXT
  5
A24
330
850
100
AcDbEntity
  8
寸法
  6
Continuous
100
AcDbMText
 10
13887.79693339132
 20
7933.140288650164
 30
0.0
 40
300.0
 41
0.0
 71
     5
 72
     1
  1
\A1;10,000
  7
1_100
 73
     1
 44
1.0
1001
ACAD
1000
MTEXTBEGIN
1070
    73
1070
     1
1070
    44
1040
1.0
1070
    74
1070
     0
1000
MTEXTEND
  0
POINT
  5
A25
330
850
100
AcDbEntity
  8
DEFPOINTS
  6
Continuous
 62
     0
100
AcDbPoint
 10
8887.796933391321
 20
9354.568860078968
 30
0.0
  0
POINT
  5
A26
330
850
100
AcDbEntity
  8
DEFPOINTS
  6
Continuous
 62
     0
100
AcDbPoint
 10
18887.79693339132
 20
10512.10138828579
 30
0.0
  0
POINT
  5
A27
330
850
100
AcDbEntity
  8
DEFPOINTS
  6
Continuous
 62
     0
100
AcDbPoint
 10
18887.79693339132
 20
7654.568860078734
 30
0.0
  0
ENDBLK
  5
85B
330
850
100
AcDbEntity
  8
0
100
AcDbBlockEnd
  0
BLOCK
  5
866
330
85C
100
AcDbEntity
  8
0
100
AcDbBlockBegin
  2
*D5
 70
     1
 10
0.0
 20
0.0
 30
0.0
  3
*D5
  1

  0
LINE
  5
A28
330
85C
100
AcDbEntity
  8
寸法
  6
Continuous
370
    -2
100
AcDbLine
 10
8662.796933391321
 20
10354.56886007908
 30
0.0
 11
8662.796933391321
 21
10054.56886007908
 31
0.0
  0
LINE
  5
A29
330
85C
100
AcDbEntity
  8
寸法
  6
Continuous
370
    -2
100
AcDbLine
 10
9112.796933391319
 20
10354.56886007908
 30
0.0
 11
9112.796933391319
 21
10054.56886007908
 31
0.0
  0
LINE
  5
A2A
330
85C
100
AcDbEntity
  8
寸法
  6
Continuous
370
    -2
100
AcDbLine
 10
8722.79693339132
 20
10054.56886007908
 30
0.0
 11
9052.79693339132
 21
10054.56886007908
 31
0.0
  0
MTEXT
  5
A2B
330
85C
100
AcDbEntity
  8
寸法
  6
Continuous
100
AcDbMText
 10
8086.406697197075
 20
10235.90252166792
 30
0.0
 40
300.0
 41
0.0
 71
     5
 72
     1
  1
\A1;φ450
  7
1_100
 73
     1
 44
1.0
1001
ACAD
1000
MTEXTBEGIN
1070
    73
1070
     1
1070
    44
1040
1.0
1070
    74
1070
     0
1000
MTEXTEND
  0
INSERT
  5
A2C
330
85C
100
AcDbEntity
  8
寸法
  6
Continuous
370
    -2
100
AcDbBlockReference
  2
_ORIGIN
 10
8662.796933391321
 20
10054.56886007908
 30
0.0
 41
60.0
 42
60.0
 43
60.0
 50
180.0
  0
INSERT
  5
A2D
330
85C
100
AcDbEntity
  8
寸法
  6
Continuous
370
    -2
100
AcDbBlockReference
  2
_ORIGIN
 10
9112.796933391319
 20
10054.56886007908
 30
0.0
 41
60.0
 42
60.0
 43
60.0
  0
POINT
  5
A2E
330
85C
100
AcDbEntity
  8
DEFPOINTS
  6
Continuous
 62
     0
100
AcDbPoint
 10
8662.796933391321
 20
10654.56886007908
 30
0.0
  0
POINT
  5
A2F
330
85C
100
AcDbEntity
  8
DEFPOINTS
  6
Continuous
 62
     0
100
AcDbPoint
 10
9112.796933391319
 20
10654.56886007908
 30
0.0
  0
POINT
  5
A30
330
85C
100
AcDbEntity
  8
DEFPOINTS
  6
Continuous
 62
     0
100
AcDbPoint
 10
9112.796933391319
 20
10054.56886007908
 30
0.0
  0
ENDBLK
  5
867
330
85C
100
AcDbEntity
  8
0
100
AcDbBlockEnd
  0
BLOCK
  5
874
330
868
100
AcDbEntity
  8
0
100
AcDbBlockBegin
  2
*D6
 70
     1
 10
0.0
 20
0.0
 30
0.0
  3
*D6
  1

  0
LINE
  5
A31
330
868
100
AcDbEntity
  8
寸法
  6
Continuous
370
    -2
100
AcDbLine
 10
8637.796933391321
 20
10354.56886007908
 30
0.0
 11
8637.796933391321
 21
9654.568860078969
 31
0.0
  0
LINE
  5
A32
330
868
100
AcDbEntity
  8
寸法
  6
Continuous
370
    -2
100
AcDbLine
 10
9137.796933391319
 20
10354.56886007908
 30
0.0
 11
9137.796933391319
 21
9654.568860078969
 31
0.0
  0
LINE
  5
A33
330
868
100
AcDbEntity
  8
寸法
  6
Continuous
370
    -2
100
AcDbLine
 10
8577.79693339132
 20
9654.568860078969
 30
0.0
 11
8517.796933391322
 21
9654.568860078969
 31
0.0
  0
LINE
  5
A34
330
868
100
AcDbEntity
  8
寸法
  6
Continuous
370
    -2
100
AcDbLine
 10
9197.796933391321
 20
9654.568860078969
 30
0.0
 11
9257.79693339132
 21
9654.568860078969
 31
0.0
  0
LINE
  5
A35
330
868
100
AcDbEntity
  8
寸法
  6
Continuous
370
    -2
100
AcDbLine
 10
8637.796933391321
 20
9654.568860078969
 30
0.0
 11
9137.796933391319
 21
9654.568860078969
 31
0.0
  0
INSERT
  5
A36
330
868
100
AcDbEntity
  8
寸法
  6
Continuous
370
    -2
100
AcDbBlockReference
  2
_ORIGIN
 10
8637.796933391321
 20
9654.568860078969
 30
0.0
 41
60.0
 42
60.0
 43
60.0
  0
INSERT
  5
A37
330
868
100
AcDbEntity
  8
寸法
  6
Continuous
370
    -2
100
AcDbBlockReference
  2
_ORIGIN
 10
9137.796933391319
 20
9654.568860078969
 30
0.0
 41
60.0
 42
60.0
 43
60.0
 50
180.0
  0
MTEXT
  5
A38
330
868
100
AcDbEntity
  8
寸法
  6
Continuous
100
AcDbMText
 10
8887.796933391321
 20
9404.568860078969
 30
0.0
 40
300.0
 41
0.0
 71
     5
 72
     1
  1
\A1;□500
  7
1_100
 73
     1
 44
1.0
1001
ACAD
1000
MTEXTBEGIN
1070
    73
1070
     1
1070
    44
1040
1.0
1070
    74
1070
     0
1000
MTEXTEND
  0
POINT
  5
A39
330
868
100
AcDbEntity
  8
DEFPOINTS
  6
Continuous
 62
     0
100
AcDbPoint
 10
8637.796933391321
 20
10654.56886007908
 30
0.0
  0
POINT
  5
A3A
330
868
100
AcDbEntity
  8
DEFPOINTS
  6
Continuous
 62
     0
100
AcDbPoint
 10
9137.796933391319
 20
10654.56886007908
 30
0.0
  0
POINT
  5
A3B
330
868
100
AcDbEntity
  8
DEFPOINTS
  6
Continuous
 62
     0
100
AcDbPoint
 10
9137.796933391319
 20
9654.568860078969
 30
0.0
  0
ENDBLK
  5
875
330
868
100
AcDbEntity
  8
0
100
AcDbBlockEnd
  0
BLOCK
  5
882
330
876
100
AcDbEntity
  8
0
100
AcDbBlockBegin
  2
*D7
 70
     1
 10
0.0
 20
0.0
 30
0.0
  3
*D7
  1

  0
LINE
  5
A3C
330
876
100
AcDbEntity
  8
寸法
  6
Continuous
370
    -2
100
AcDbLine
 10
8779.646933391417
 20
22054.5688600791
 30
0.0
 11
8779.646933391417
 21
22354.56886007908
 31
0.0
  0
LINE
  5
A3D
330
876
100
AcDbEntity
  8
寸法
  6
Continuous
370
    -2
100
AcDbLine
 10
8995.946933391229
 20
22054.5688600791
 30
0.0
 11
8995.946933391229
 21
22354.56886007908
 31
0.0
  0
LINE
  5
A3E
330
876
100
AcDbEntity
  8
寸法
  6
Continuous
370
    -2
100
AcDbLine
 10
8719.646933391414
 20
22354.56886007908
 30
0.0
 11
8659.646933391414
 21
22354.56886007908
 31
0.0
  0
LINE
  5
A3F
330
876
100
AcDbEntity
  8
寸法
  6
Continuous
370
    -2
100
AcDbLine
 10
9055.946933391227
 20
22354.56886007908
 30
0.0
 11
9115.946933391226
 21
22354.56886007908
 31
0.0
  0
MTEXT
  5
A40
330
876
100
AcDbEntity
  8
寸法
  6
Continuous
100
AcDbMText
 10
8887.796933391321
 20
22654.56886007909
 30
0.0
 40
300.0
 41
0.0
 71
     5
 72
     1
  1
\A1;φ216.3
  7
1_100
 73
     1
 44
1.0
1001
ACAD
1000
MTEXTBEGIN
1070
    73
1070
     1
1070
    44
1040
1.0
1070
    74
1070
     0
1000
MTEXTEND
  0
LINE
  5
A41
330
876
100
AcDbEntity
  8
寸法
  6
Continuous
370
    -2
100
AcDbLine
 10
8779.646933391417
 20
22354.56886007908
 30
0.0
 11
8995.946933391229
 21
22354.56886007908
 31
0.0
  0
INSERT
  5
A42
330
876
100
AcDbEntity
  8
寸法
  6
Continuous
370
    -2
100
AcDbBlockReference
  2
_ORIGIN
 10
8779.646933391417
 20
22354.56886007908
 30
0.0
 41
60.0
 42
60.0
 43
60.0
  0
INSERT
  5
A43
330
876
100
AcDbEntity
  8
寸法
  6
Continuous
370
    -2
100
AcDbBlockReference
  2
_ORIGIN
 10
8995.946933391229
 20
22354.56886007908
 30
0.0
 41
60.0
 42
60.0
 43
60.0
 50
180.0
  0
POINT
  5
A44
330
876
100
AcDbEntity
  8
DEFPOINTS
  6
Continuous
 62
     0
100
AcDbPoint
 10
8779.646933391417
 20
21754.56886007908
 30
0.0
  0
POINT
  5
A45
330
876
100
AcDbEntity
  8
DEFPOINTS
  6
Continuous
 62
     0
100
AcDbPoint
 10
8995.946933391229
 20
21754.56886007908
 30
0.0
  0
POINT
  5
A46
330
876
100
AcDbEntity
  8
DEFPOINTS
  6
Continuous
 62
     0
100
AcDbPoint
 10
8995.946933391229
 20
22354.56886007908
 30
0.0
  0
ENDBLK
  5
883
330
876
100
AcDbEntity
  8
0
100
AcDbBlockEnd
  0
BLOCK
  5
88E
330
884
100
AcDbEntity
  8
0
100
AcDbBlockBegin
  2
*D8
 70
     1
 10
0.0
 20
0.0
 30
0.0
  3
*D8
  1

  0
LINE
  5
A47
330
884
100
AcDbEntity
  8
寸法
  6
Continuous
370
    -2
100
AcDbLine
 10
26587.79693339132
 20
17064.56886007978
 30
0.0
 11
27287.79693339132
 21
17064.56886007978
 31
0.0
  0
LINE
  5
A48
330
884
100
AcDbEntity
  8
寸法
  6
Continuous
370
    -2
100
AcDbLine
 10
26587.79693339132
 20
19374.56886007978
 30
0.0
 11
27287.79693339132
 21
19374.56886007978
 31
0.0
  0
LINE
  5
A49
330
884
100
AcDbEntity
  8
寸法
  6
Continuous
370
    -2
100
AcDbLine
 10
27287.79693339132
 20
17124.56886007978
 30
0.0
 11
27287.79693339132
 21
19314.56886007978
 31
0.0
  0
INSERT
  5
A4A
330
884
100
AcDbEntity
  8
寸法
  6
Continuous
370
    -2
100
AcDbBlockReference
  2
_ORIGIN
 10
27287.79693339132
 20
17064.56886007978
 30
0.0
 41
60.0
 42
60.0
 43
60.0
 50
270.0
  0
INSERT
  5
A4B
330
884
100
AcDbEntity
  8
寸法
  6
Continuous
370
    -2
100
AcDbBlockReference
  2
_ORIGIN
 10
27287.79693339132
 20
19374.56886007978
 30
0.0
 41
60.0
 42
60.0
 43
60.0
 50
90.0
  0
MTEXT
  5
A4C
330
884
100
AcDbEntity
  8
寸法
  6
Continuous
100
AcDbMText
 10
27009.2255048199
 20
18219.56886007979
 30
0.0
 40
300.0
 41
0.0
 71
     5
 72
     1
  1
\A1;2,310
  7
1_100
 11
0.0000000000000001
 21
1.0
 31
0.0
 73
     1
 44
1.0
1001
ACAD
1000
MTEXTBEGIN
1070
    73
1070
     1
1070
    44
1040
1.0
1070
    74
1070
     0
1000
MTEXTEND
  0
POINT
  5
A4D
330
884
100
AcDbEntity
  8
DEFPOINTS
  6
Continuous
 62
     0
100
AcDbPoint
 10
26287.79693339132
 20
17064.56886007978
 30
0.0
  0
POINT
  5
A4E
330
884
100
AcDbEntity
  8
DEFPOINTS
  6
Continuous
 62
     0
100
AcDbPoint
 10
26287.79693339132
 20
19374.56886007978
 30
0.0
  0
POINT
  5
A4F
330
884
100
AcDbEntity
  8
DEFPOINTS
  6
Continuous
 62
     0
100
AcDbPoint
 10
27287.79693339132
 20
19374.56886007978
 30
0.0
  0
ENDBLK
  5
88F
330
884
100
AcDbEntity
  8
0
100
AcDbBlockEnd
  0
BLOCK
  5
89A
330
890
100
AcDbEntity
  8
0
100
AcDbBlockBegin
  2
*D9
 70
     1
 10
0.0
 20
0.0
 30
0.0
  3
*D9
  1

  0
LINE
  5
A50
330
890
100
AcDbEntity
  8
寸法
  6
Continuous
370
    -2
100
AcDbLine
 10
32687.79693339132
 20
17064.56886008036
 30
0.0
 11
33487.79693339132
 21
17064.56886008036
 31
0.0
  0
LINE
  5
A51
330
890
100
AcDbEntity
  8
寸法
  6
Continuous
370
    -2
100
AcDbLine
 10
32727.79693339132
 20
19374.56886007955
 30
0.0
 11
33487.79693339132
 21
19374.56886007955
 31
0.0
  0
LINE
  5
A52
330
890
100
AcDbEntity
  8
寸法
  6
Continuous
370
    -2
100
AcDbLine
 10
33487.79693339132
 20
17124.56886008036
 30
0.0
 11
33487.79693339132
 21
19314.56886007955
 31
0.0
  0
INSERT
  5
A53
330
890
100
AcDbEntity
  8
寸法
  6
Continuous
370
    -2
100
AcDbBlockReference
  2
_ORIGIN
 10
33487.79693339132
 20
17064.56886008036
 30
0.0
 41
60.0
 42
60.0
 43
60.0
 50
270.0
  0
INSERT
  5
A54
330
890
100
AcDbEntity
  8
寸法
  6
Continuous
370
    -2
100
AcDbBlockReference
  2
_ORIGIN
 10
33487.79693339132
 20
19374.56886007955
 30
0.0
 41
60.0
 42
60.0
 43
60.0
 50
90.0
  0
MTEXT
  5
A55
330
890
100
AcDbEntity
  8
寸法
  6
Continuous
100
AcDbMText
 10
33209.22550481989
 20
18219.56886007996
 30
0.0
 40
300.0
 41
0.0
 71
     5
 72
     1
  1
\A1;2,310
  7
1_100
 11
0.0000000000000001
 21
1.0
 31
0.0
 73
     1
 44
1.0
1001
ACAD
1000
MTEXTBEGIN
1070
    73
1070
     1
1070
    44
1040
1.0
1070
    74
1070
     0
1000
MTEXTEND
  0
POINT
  5
A56
330
890
100
AcDbEntity
  8
DEFPOINTS
  6
Continuous
 62
     0
100
AcDbPoint
 10
32387.79693339132
 20
17064.56886008036
 30
0.0
  0
POINT
  5
A57
330
890
100
AcDbEntity
  8
DEFPOINTS
  6
Continuous
 62
     0
100
AcDbPoint
 10
32427.79693339132
 20
19374.56886007955
 30
0.0
  0
POINT
  5
A58
330
890
100
AcDbEntity
  8
DEFPOINTS
  6
Continuous
 62
     0
100
AcDbPoint
 10
33487.79693339132
 20
19374.56886007955
 30
0.0
  0
ENDBLK
  5
89B
330
890
100
AcDbEntity
  8
0
100
AcDbBlockEnd
  0
BLOCK
  5
8A6
330
89C
100
AcDbEntity
  8
0
100
AcDbBlockBegin
  2
*D10
 70
     1
 10
0.0
 20
0.0
 30
0.0
  3
*D10
  1

  0
LINE
  5
A59
330
89C
100
AcDbEntity
  8
寸法
  6
Continuous
370
    -2
100
AcDbLine
 10
26587.79693339132
 20
21754.56886007885
 30
0.0
 11
28287.79693339132
 21
21754.56886007885
 31
0.0
  0
LINE
  5
A5A
330
89C
100
AcDbEntity
  8
寸法
  6
Continuous
370
    -2
100
AcDbLine
 10
26587.79693339132
 20
12754.56886007885
 30
0.0
 11
28287.79693339132
 21
12754.56886007885
 31
0.0
  0
LINE
  5
A5B
330
89C
100
AcDbEntity
  8
寸法
  6
Continuous
370
    -2
100
AcDbLine
 10
28287.79693339132
 20
21694.56886007885
 30
0.0
 11
28287.79693339132
 21
12814.56886007885
 31
0.0
  0
INSERT
  5
A5C
330
89C
100
AcDbEntity
  8
寸法
  6
Continuous
370
    -2
100
AcDbBlockReference
  2
_ORIGIN
 10
28287.79693339132
 20
21754.56886007885
 30
0.0
 41
60.0
 42
60.0
 43
60.0
 50
90.0
  0
INSERT
  5
A5D
330
89C
100
AcDbEntity
  8
寸法
  6
Continuous
370
    -2
100
AcDbBlockReference
  2
_ORIGIN
 10
28287.79693339132
 20
12754.56886007885
 30
0.0
 41
60.0
 42
60.0
 43
60.0
 50
270.0
  0
MTEXT
  5
A5E
330
89C
100
AcDbEntity
  8
寸法
  6
Continuous
100
AcDbMText
 10
28009.22550481989
 20
17254.56886007885
 30
0.0
 40
300.0
 41
0.0
 71
     5
 72
     1
  1
\A1;9,000
  7
1_100
 11
0.0000000000000001
 21
1.0
 31
0.0
 73
     1
 44
1.0
1001
ACAD
1000
MTEXTBEGIN
1070
    73
1070
     1
1070
    44
1040
1.0
1070
    74
1070
     0
1000
MTEXTEND
  0
POINT
  5
A5F
330
89C
100
AcDbEntity
  8
DEFPOINTS
  6
Continuous
 62
     0
100
AcDbPoint
 10
26287.79693339132
 20
21754.56886007885
 30
0.0
  0
POINT
  5
A60
330
89C
100
AcDbEntity
  8
DEFPOINTS
  6
Continuous
 62
     0
100
AcDbPoint
 10
26287.79693339132
 20
12754.56886007885
 30
0.0
  0
POINT
  5
A61
330
89C
100
AcDbEntity
  8
DEFPOINTS
  6
Continuous
 62
     0
100
AcDbPoint
 10
28287.79693339132
 20
12754.56886007885
 30
0.0
  0
ENDBLK
  5
8A7
330
89C
100
AcDbEntity
  8
0
100
AcDbBlockEnd
  0
BLOCK
  5
8B2
330
8A8
100
AcDbEntity
  8
0
100
AcDbBlockBegin
  2
*D11
 70
     1
 10
0.0
 20
0.0
 30
0.0
  3
*D11
  1

  0
LINE
  5
A62
330
8A8
100
AcDbEntity
  8
寸法
  6
Continuous
370
    -2
100
AcDbLine
 10
32687.79693339132
 20
21754.56886008037
 30
0.0
 11
34487.79693339134
 21
21754.56886008037
 31
0.0
  0
LINE
  5
A63
330
8A8
100
AcDbEntity
  8
寸法
  6
Continuous
370
    -2
100
AcDbLine
 10
32687.79693339132
 20
12754.56886008036
 30
0.0
 11
34487.79693339132
 21
12754.56886008036
 31
0.0
  0
LINE
  5
A64
330
8A8
100
AcDbEntity
  8
寸法
  6
Continuous
370
    -2
100
AcDbLine
 10
34487.79693339134
 20
21694.56886008036
 30
0.0
 11
34487.79693339132
 21
12814.56886008036
 31
0.0
  0
INSERT
  5
A65
330
8A8
100
AcDbEntity
  8
寸法
  6
Continuous
370
    -2
100
AcDbBlockReference
  2
_ORIGIN
 10
34487.79693339134
 20
21754.56886008037
 30
0.0
 41
60.0
 42
60.0
 43
60.0
 50
90.0
  0
INSERT
  5
A66
330
8A8
100
AcDbEntity
  8
寸法
  6
Continuous
370
    -2
100
AcDbBlockReference
  2
_ORIGIN
 10
34487.79693339132
 20
12754.56886008036
 30
0.0
 41
60.0
 42
60.0
 43
60.0
 50
270.0
  0
MTEXT
  5
A67
330
8A8
100
AcDbEntity
  8
寸法
  6
Continuous
100
AcDbMText
 10
34209.22550481989
 20
17254.56886008037
 30
0.0
 40
300.0
 41
0.0
 71
     5
 72
     1
  1
\A1;9,000
  7
1_100
 11
0.0000000000000001
 21
1.0
 31
0.0
 73
     1
 44
1.0
1001
ACAD
1000
MTEXTBEGIN
1070
    73
1070
     1
1070
    44
1040
1.0
1070
    74
1070
     0
1000
MTEXTEND
  0
POINT
  5
A68
330
8A8
100
AcDbEntity
  8
DEFPOINTS
  6
Continuous
 62
     0
100
AcDbPoint
 10
32387.79693339132
 20
21754.56886008037
 30
0.0
  0
POINT
  5
A69
330
8A8
100
AcDbEntity
  8
DEFPOINTS
  6
Continuous
 62
     0
100
AcDbPoint
 10
32387.79693339132
 20
12754.56886008036
 30
0.0
  0
POINT
  5
A6A
330
8A8
100
AcDbEntity
  8
DEFPOINTS
  6
Continuous
 62
     0
100
AcDbPoint
 10
34487.79693339132
 20
12754.56886008036
 30
0.0
  0
ENDBLK
  5
8B3
330
8A8
100
AcDbEntity
  8
0
100
AcDbBlockEnd
  0
BLOCK
  5
8BE
330
8B4
100
AcDbEntity
  8
0
100
AcDbBlockBegin
  2
*D12
 70
     1
 10
0.0
 20
0.0
 30
0.0
  3
*D12
  1

  0
LINE
  5
A6B
330
8B4
100
AcDbEntity
  8
寸法
  6
Continuous
370
    -2
100
AcDbLine
 10
22887.79693339132
 20
9461.662894336429
 30
0.0
 11
22887.79693339132
 21
8454.568860078735
 31
0.0
  0
LINE
  5
A6C
330
8B4
100
AcDbEntity
  8
寸法
  6
Continuous
370
    -2
100
AcDbLine
 10
24887.79693339132
 20
9484.568860078734
 30
0.0
 11
24887.79693339132
 21
8454.568860078735
 31
0.0
  0
LINE
  5
A6D
330
8B4
100
AcDbEntity
  8
寸法
  6
Continuous
370
    -2
100
AcDbLine
 10
22947.79693339132
 20
8454.568860078735
 30
0.0
 11
24827.79693339132
 21
8454.568860078735
 31
0.0
  0
INSERT
  5
A6E
330
8B4
100
AcDbEntity
  8
寸法
  6
Continuous
370
    -2
100
AcDbBlockReference
  2
_ORIGIN
 10
22887.79693339132
 20
8454.568860078735
 30
0.0
 41
60.0
 42
60.0
 43
60.0
 50
180.0
  0
INSERT
  5
A6F
330
8B4
100
AcDbEntity
  8
寸法
  6
Continuous
370
    -2
100
AcDbBlockReference
  2
_ORIGIN
 10
24887.79693339132
 20
8454.568860078735
 30
0.0
 41
60.0
 42
60.0
 43
60.0
  0
MTEXT
  5
A70
330
8B4
100
AcDbEntity
  8
寸法
  6
Continuous
100
AcDbMText
 10
23887.79693339132
 20
8733.140288650163
 30
0.0
 40
300.0
 41
0.0
 71
     5
 72
     1
  1
\A1;2,000
  7
1_100
 73
     1
 44
1.0
1001
ACAD
1000
MTEXTBEGIN
1070
    73
1070
     1
1070
    44
1040
1.0
1070
    74
1070
     0
1000
MTEXTEND
  0
POINT
  5
A71
330
8B4
100
AcDbEntity
  8
DEFPOINTS
  6
Continuous
 62
     0
100
AcDbPoint
 10
22887.79693339132
 20
9761.662894336431
 30
0.0
  0
POINT
  5
A72
330
8B4
100
AcDbEntity
  8
DEFPOINTS
  6
Continuous
 62
     0
100
AcDbPoint
 10
24887.79693339132
 20
9784.568860078737
 30
0.0
  0
POINT
  5
A73
330
8B4
100
AcDbEntity
  8
DEFPOINTS
  6
Continuous
 62
     0
100
AcDbPoint
 10
24887.79693339132
 20
8454.568860078735
 30
0.0
  0
ENDBLK
  5
8BF
330
8B4
100
AcDbEntity
  8
0
100
AcDbBlockEnd
  0
BLOCK
  5
8CA
330
8C0
100
AcDbEntity
  8
0
100
AcDbBlockBegin
  2
*D13
 70
     1
 10
0.0
 20
0.0
 30
0.0
  3
*D13
  1

  0
LINE
  5
A74
330
8C0
100
AcDbEntity
  8
寸法
  6
Continuous
370
    -2
100
AcDbLine
 10
20887.79693339132
 20
9461.662894336429
 30
0.0
 11
20887.79693339132
 21
8454.568860078735
 31
0.0
  0
LINE
  5
A75
330
8C0
100
AcDbEntity
  8
寸法
  6
Continuous
370
    -2
100
AcDbLine
 10
22887.79693339132
 20
9484.568860078734
 30
0.0
 11
22887.79693339132
 21
8454.568860078735
 31
0.0
  0
LINE
  5
A76
330
8C0
100
AcDbEntity
  8
寸法
  6
Continuous
370
    -2
100
AcDbLine
 10
20947.79693339132
 20
8454.568860078735
 30
0.0
 11
22827.79693339132
 21
8454.568860078735
 31
0.0
  0
INSERT
  5
A77
330
8C0
100
AcDbEntity
  8
寸法
  6
Continuous
370
    -2
100
AcDbBlockReference
  2
_ORIGIN
 10
20887.79693339132
 20
8454.568860078735
 30
0.0
 41
60.0
 42
60.0
 43
60.0
 50
180.0
  0
INSERT
  5
A78
330
8C0
100
AcDbEntity
  8
寸法
  6
Continuous
370
    -2
100
AcDbBlockReference
  2
_ORIGIN
 10
22887.79693339132
 20
8454.568860078735
 30
0.0
 41
60.0
 42
60.0
 43
60.0
  0
MTEXT
  5
A79
330
8C0
100
AcDbEntity
  8
寸法
  6
Continuous
100
AcDbMText
 10
21887.79693339132
 20
8733.140288650163
 30
0.0
 40
300.0
 41
0.0
 71
     5
 72
     1
  1
\A1;2,000
  7
1_100
 73
     1
 44
1.0
1001
ACAD
1000
MTEXTBEGIN
1070
    73
1070
     1
1070
    44
1040
1.0
1070
    74
1070
     0
1000
MTEXTEND
  0
POINT
  5
A7A
330
8C0
100
AcDbEntity
  8
DEFPOINTS
  6
Continuous
 62
     0
100
AcDbPoint
 10
20887.79693339132
 20
9761.662894336431
 30
0.0
  0
POINT
  5
A7B
330
8C0
100
AcDbEntity
  8
DEFPOINTS
  6
Continuous
 62
     0
100
AcDbPoint
 10
22887.79693339132
 20
9784.568860078737
 30
0.0
  0
POINT
  5
A7C
330
8C0
100
AcDbEntity
  8
DEFPOINTS
  6
Continuous
 62
     0
100
AcDbPoint
 10
22887.79693339132
 20
8454.568860078735
 30
0.0
  0
ENDBLK
  5
8CB
330
8C0
100
AcDbEntity
  8
0
100
AcDbBlockEnd
  0
BLOCK
  5
8D6
330
8CC
100
AcDbEntity
  8
0
100
AcDbBlockBegin
  2
*D14
 70
     1
 10
0.0
 20
0.0
 30
0.0
  3
*D14
  1

  0
LINE
  5
A7D
330
8CC
100
AcDbEntity
  8
寸法
  6
Continuous
370
    -2
100
AcDbLine
 10
18887.79693339132
 20
9461.662894336429
 30
0.0
 11
18887.79693339132
 21
8454.568860078735
 31
0.0
  0
LINE
  5
A7E
330
8CC
100
AcDbEntity
  8
寸法
  6
Continuous
370
    -2
100
AcDbLine
 10
20887.79693339132
 20
9484.568860078734
 30
0.0
 11
20887.79693339132
 21
8454.568860078735
 31
0.0
  0
LINE
  5
A7F
330
8CC
100
AcDbEntity
  8
寸法
  6
Continuous
370
    -2
100
AcDbLine
 10
18947.79693339132
 20
8454.568860078735
 30
0.0
 11
20827.79693339132
 21
8454.568860078735
 31
0.0
  0
INSERT
  5
A80
330
8CC
100
AcDbEntity
  8
寸法
  6
Continuous
370
    -2
100
AcDbBlockReference
  2
_ORIGIN
 10
18887.79693339132
 20
8454.568860078735
 30
0.0
 41
60.0
 42
60.0
 43
60.0
 50
180.0
  0
INSERT
  5
A81
330
8CC
100
AcDbEntity
  8
寸法
  6
Continuous
370
    -2
100
AcDbBlockReference
  2
_ORIGIN
 10
20887.79693339132
 20
8454.568860078735
 30
0.0
 41
60.0
 42
60.0
 43
60.0
  0
MTEXT
  5
A82
330
8CC
100
AcDbEntity
  8
寸法
  6
Continuous
100
AcDbMText
 10
19887.79693339131
 20
8733.140288650163
 30
0.0
 40
300.0
 41
0.0
 71
     5
 72
     1
  1
\A1;2,000
  7
1_100
 73
     1
 44
1.0
1001
ACAD
1000
MTEXTBEGIN
1070
    73
1070
     1
1070
    44
1040
1.0
1070
    74
1070
     0
1000
MTEXTEND
  0
POINT
  5
A83
330
8CC
100
AcDbEntity
  8
DEFPOINTS
  6
Continuous
 62
     0
100
AcDbPoint
 10
18887.79693339132
 20
9761.662894336431
 30
0.0
  0
POINT
  5
A84
330
8CC
100
AcDbEntity
  8
DEFPOINTS
  6
Continuous
 62
     0
100
AcDbPoint
 10
20887.79693339132
 20
9784.568860078737
 30
0.0
  0
POINT
  5
A85
330
8CC
100
AcDbEntity
  8
DEFPOINTS
  6
Continuous
 62
     0
100
AcDbPoint
 10
20887.79693339132
 20
8454.568860078735
 30
0.0
  0
ENDBLK
  5
8D7
330
8CC
100
AcDbEntity
  8
0
100
AcDbBlockEnd
  0
BLOCK
  5
8E2
330
8D8
100
AcDbEntity
  8
0
100
AcDbBlockBegin
  2
*D15
 70
     1
 10
0.0
 20
0.0
 30
0.0
  3
*D15
  1

  0
LINE
  5
A86
330
8D8
100
AcDbEntity
  8
寸法
  6
Continuous
370
    -2
100
AcDbLine
 10
16887.79693339131
 20
9461.662894336429
 30
0.0
 11
16887.79693339131
 21
8454.568860078735
 31
0.0
  0
LINE
  5
A87
330
8D8
100
AcDbEntity
  8
寸法
  6
Continuous
370
    -2
100
AcDbLine
 10
18887.79693339132
 20
9461.662894336429
 30
0.0
 11
18887.79693339132
 21
8454.568860078735
 31
0.0
  0
LINE
  5
A88
330
8D8
100
AcDbEntity
  8
寸法
  6
Continuous
370
    -2
100
AcDbLine
 10
16947.79693339131
 20
8454.568860078735
 30
0.0
 11
18827.79693339132
 21
8454.568860078735
 31
0.0
  0
INSERT
  5
A89
330
8D8
100
AcDbEntity
  8
寸法
  6
Continuous
370
    -2
100
AcDbBlockReference
  2
_ORIGIN
 10
16887.79693339131
 20
8454.568860078735
 30
0.0
 41
60.0
 42
60.0
 43
60.0
 50
180.0
  0
INSERT
  5
A8A
330
8D8
100
AcDbEntity
  8
寸法
  6
Continuous
370
    -2
100
AcDbBlockReference
  2
_ORIGIN
 10
18887.79693339132
 20
8454.568860078735
 30
0.0
 41
60.0
 42
60.0
 43
60.0
  0
MTEXT
  5
A8B
330
8D8
100
AcDbEntity
  8
寸法
  6
Continuous
100
AcDbMText
 10
17887.79693339131
 20
8733.140288650163
 30
0.0
 40
300.0
 41
0.0
 71
     5
 72
     1
  1
\A1;2,000
  7
1_100
 73
     1
 44
1.0
1001
ACAD
1000
MTEXTBEGIN
1070
    73
1070
     1
1070
    44
1040
1.0
1070
    74
1070
     0
1000
MTEXTEND
  0
POINT
  5
A8C
330
8D8
100
AcDbEntity
  8
DEFPOINTS
  6
Continuous
 62
     0
100
AcDbPoint
 10
16887.79693339131
 20
9761.662894336431
 30
0.0
  0
POINT
  5
A8D
330
8D8
100
AcDbEntity
  8
DEFPOINTS
  6
Continuous
 62
     0
100
AcDbPoint
 10
18887.79693339132
 20
9761.662894336431
 30
0.0
  0
POINT
  5
A8E
330
8D8
100
AcDbEntity
  8
DEFPOINTS
  6
Continuous
 62
     0
100
AcDbPoint
 10
18887.79693339132
 20
8454.568860078735
 30
0.0
  0
ENDBLK
  5
8E3
330
8D8
100
AcDbEntity
  8
0
100
AcDbBlockEnd
  0
BLOCK
  5
8F0
330
8E4
100
AcDbEntity
  8
0
100
AcDbBlockBegin
  2
*D16
 70
     1
 10
0.0
 20
0.0
 30
0.0
  3
*D16
  1

  0
LINE
  5
A8F
330
8E4
100
AcDbEntity
  8
画層3-寸法
  6
Continuous
370
    -2
100
AcDbLine
 10
12762.79693339132
 20
12104.56886007897
 30
0.0
 11
12762.79693339132
 21
11924.56886007897
 31
0.0
  0
LINE
  5
A90
330
8E4
100
AcDbEntity
  8
画層3-寸法
  6
Continuous
370
    -2
100
AcDbLine
 10
13012.79693339132
 20
12104.56886007897
 30
0.0
 11
13012.79693339132
 21
11924.56886007897
 31
0.0
  0
LINE
  5
A91
330
8E4
100
AcDbEntity
  8
画層3-寸法
  6
Continuous
370
    -2
100
AcDbLine
 10
12682.79693339132
 20
11924.56886007897
 30
0.0
 11
12602.79693339132
 21
11924.56886007897
 31
0.0
  0
LINE
  5
A92
330
8E4
100
AcDbEntity
  8
画層3-寸法
  6
Continuous
370
    -2
100
AcDbLine
 10
13092.79693339132
 20
11924.56886007897
 30
0.0
 11
13172.79693339132
 21
11924.56886007897
 31
0.0
  0
LINE
  5
A93
330
8E4
100
AcDbEntity
  8
画層3-寸法
  6
Continuous
370
    -2
100
AcDbLine
 10
12762.79693339132
 20
11924.56886007897
 30
0.0
 11
13012.79693339132
 21
11924.56886007897
 31
0.0
  0
INSERT
  5
A94
330
8E4
100
AcDbEntity
  8
画層3-寸法
  6
Continuous
370
    -2
100
AcDbBlockReference
  2
_ORIGIN
 10
12762.79693339132
 20
11924.56886007897
 30
0.0
 41
80.0
 42
80.0
 43
80.0
  0
INSERT
  5
A95
330
8E4
100
AcDbEntity
  8
画層3-寸法
  6
Continuous
370
    -2
100
AcDbBlockReference
  2
_ORIGIN
 10
13012.79693339132
 20
11924.56886007897
 30
0.0
 41
80.0
 42
80.0
 43
80.0
 50
180.0
  0
MTEXT
  5
A96
330
8E4
100
AcDbEntity
  8
画層3-寸法
  6
Continuous
100
AcDbMText
 10
12887.79693339132
 20
11724.56886007896
 30
0.0
 40
300.0
 41
0.0
 71
     5
 72
     1
  1
\A1;□250
  7
1_100
 73
     1
 44
1.0
1001
ACAD
1000
MTEXTBEGIN
1070
    73
1070
     1
1070
    44
1040
1.0
1070
    74
1070
     0
1000
MTEXTEND
  0
POINT
  5
A97
330
8E4
100
AcDbEntity
  8
DEFPOINTS
  6
Continuous
 62
     0
100
AcDbPoint
 10
12762.79693339132
 20
12304.56886007897
 30
0.0
  0
POINT
  5
A98
330
8E4
100
AcDbEntity
  8
DEFPOINTS
  6
Continuous
 62
     0
100
AcDbPoint
 10
13012.79693339132
 20
12304.56886007897
 30
0.0
  0
POINT
  5
A99
330
8E4
100
AcDbEntity
  8
DEFPOINTS
  6
Continuous
 62
     0
100
AcDbPoint
 10
13012.79693339132
 20
11924.56886007897
 30
0.0
  0
ENDBLK
  5
8F1
330
8E4
100
AcDbEntity
  8
0
100
AcDbBlockEnd
  0
BLOCK
  5
8FC
330
8F2
100
AcDbEntity
  8
0
100
AcDbBlockBegin
  2
*D17
 70
     1
 10
0.0
 20
0.0
 30
0.0
  3
*D17
  1

  0
LINE
  5
A9A
330
8F2
100
AcDbEntity
  8
寸法
  6
Continuous
370
    -2
100
AcDbLine
 10
12887.79693339132
 20
9461.662894336429
 30
0.0
 11
12887.79693339132
 21
8454.568860078735
 31
0.0
  0
LINE
  5
A9B
330
8F2
100
AcDbEntity
  8
寸法
  6
Continuous
370
    -2
100
AcDbLine
 10
14887.79693339132
 20
9461.662894336429
 30
0.0
 11
14887.79693339132
 21
8454.568860078735
 31
0.0
  0
LINE
  5
A9C
330
8F2
100
AcDbEntity
  8
寸法
  6
Continuous
370
    -2
100
AcDbLine
 10
12947.79693339132
 20
8454.568860078735
 30
0.0
 11
14827.79693339132
 21
8454.568860078735
 31
0.0
  0
INSERT
  5
A9D
330
8F2
100
AcDbEntity
  8
寸法
  6
Continuous
370
    -2
100
AcDbBlockReference
  2
_ORIGIN
 10
12887.79693339132
 20
8454.568860078735
 30
0.0
 41
60.0
 42
60.0
 43
60.0
 50
180.0
  0
INSERT
  5
A9E
330
8F2
100
AcDbEntity
  8
寸法
  6
Continuous
370
    -2
100
AcDbBlockReference
  2
_ORIGIN
 10
14887.79693339132
 20
8454.568860078735
 30
0.0
 41
60.0
 42
60.0
 43
60.0
  0
MTEXT
  5
A9F
330
8F2
100
AcDbEntity
  8
寸法
  6
Continuous
100
AcDbMText
 10
13887.79693339132
 20
8733.140288650163
 30
0.0
 40
300.0
 41
0.0
 71
     5
 72
     1
  1
\A1;2,000
  7
1_100
 73
     1
 44
1.0
1001
ACAD
1000
MTEXTBEGIN
1070
    73
1070
     1
1070
    44
1040
1.0
1070
    74
1070
     0
1000
MTEXTEND
  0
POINT
  5
AA0
330
8F2
100
AcDbEntity
  8
DEFPOINTS
  6
Continuous
 62
     0
100
AcDbPoint
 10
12887.79693339132
 20
9761.662894336431
 30
0.0
  0
POINT
  5
AA1
330
8F2
100
AcDbEntity
  8
DEFPOINTS
  6
Continuous
 62
     0
100
AcDbPoint
 10
14887.79693339132
 20
9761.662894336431
 30
0.0
  0
POINT
  5
AA2
330
8F2
100
AcDbEntity
  8
DEFPOINTS
  6
Continuous
 62
     0
100
AcDbPoint
 10
14887.79693339132
 20
8454.568860078735
 30
0.0
  0
ENDBLK
  5
8FD
330
8F2
100
AcDbEntity
  8
0
100
AcDbBlockEnd
  0
BLOCK
  5
908
330
8FE
100
AcDbEntity
  8
0
100
AcDbBlockBegin
  2
*D18
 70
     1
 10
0.0
 20
0.0
 30
0.0
  3
*D18
  1

  0
LINE
  5
AA3
330
8FE
100
AcDbEntity
  8
寸法
  6
Continuous
370
    -2
100
AcDbLine
 10
10887.79693339132
 20
9461.662894336429
 30
0.0
 11
10887.79693339132
 21
8454.568860078735
 31
0.0
  0
LINE
  5
AA4
330
8FE
100
AcDbEntity
  8
寸法
  6
Continuous
370
    -2
100
AcDbLine
 10
12887.79693339132
 20
9461.662894336429
 30
0.0
 11
12887.79693339132
 21
8454.568860078735
 31
0.0
  0
LINE
  5
AA5
330
8FE
100
AcDbEntity
  8
寸法
  6
Continuous
370
    -2
100
AcDbLine
 10
10947.79693339132
 20
8454.568860078735
 30
0.0
 11
12827.79693339132
 21
8454.568860078735
 31
0.0
  0
INSERT
  5
AA6
330
8FE
100
AcDbEntity
  8
寸法
  6
Continuous
370
    -2
100
AcDbBlockReference
  2
_ORIGIN
 10
10887.79693339132
 20
8454.568860078735
 30
0.0
 41
60.0
 42
60.0
 43
60.0
 50
180.0
  0
INSERT
  5
AA7
330
8FE
100
AcDbEntity
  8
寸法
  6
Continuous
370
    -2
100
AcDbBlockReference
  2
_ORIGIN
 10
12887.79693339132
 20
8454.568860078735
 30
0.0
 41
60.0
 42
60.0
 43
60.0
  0
MTEXT
  5
AA8
330
8FE
100
AcDbEntity
  8
寸法
  6
Continuous
100
AcDbMText
 10
11887.79693339132
 20
8733.140288650163
 30
0.0
 40
300.0
 41
0.0
 71
     5
 72
     1
  1
\A1;2,000
  7
1_100
 73
     1
 44
1.0
1001
ACAD
1000
MTEXTBEGIN
1070
    73
1070
     1
1070
    44
1040
1.0
1070
    74
1070
     0
1000
MTEXTEND
  0
POINT
  5
AA9
330
8FE
100
AcDbEntity
  8
DEFPOINTS
  6
Continuous
 62
     0
100
AcDbPoint
 10
10887.79693339132
 20
9761.662894336431
 30
0.0
  0
POINT
  5
AAA
330
8FE
100
AcDbEntity
  8
DEFPOINTS
  6
Continuous
 62
     0
100
AcDbPoint
 10
12887.79693339132
 20
9761.662894336431
 30
0.0
  0
POINT
  5
AAB
330
8FE
100
AcDbEntity
  8
DEFPOINTS
  6
Continuous
 62
     0
100
AcDbPoint
 10
12887.79693339132
 20
8454.568860078735
 30
0.0
  0
ENDBLK
  5
909
330
8FE
100
AcDbEntity
  8
0
100
AcDbBlockEnd
  0
BLOCK
  5
914
330
90A
100
AcDbEntity
  8
0
100
AcDbBlockBegin
  2
*D19
 70
     1
 10
0.0
 20
0.0
 30
0.0
  3
*D19
  1

  0
LINE
  5
AAC
330
90A
100
AcDbEntity
  8
画層3-寸法
  6
Continuous
370
    -2
100
AcDbLine
 10
12562.79693339132
 20
12754.56886007896
 30
0.0
 11
12403.0396987807
 21
12754.56886007896
 31
0.0
  0
LINE
  5
AAD
330
90A
100
AcDbEntity
  8
画層3-寸法
  6
Continuous
370
    -2
100
AcDbLine
 10
12562.79693339132
 20
12304.56886007897
 30
0.0
 11
12403.0396987807
 21
12304.56886007897
 31
0.0
  0
LINE
  5
AAE
330
90A
100
AcDbEntity
  8
画層3-寸法
  6
Continuous
370
    -2
100
AcDbLine
 10
12403.0396987807
 20
12674.56886007896
 30
0.0
 11
12403.0396987807
 21
12384.56886007897
 31
0.0
  0
MTEXT
  5
AAF
330
90A
100
AcDbEntity
  8
画層3-寸法
  6
Continuous
100
AcDbMText
 10
12132.67467662478
 20
12389.94275330511
 30
0.0
 40
300.0
 41
0.0
 71
     5
 72
     1
  1
\A1;450
  7
1_100
 11
0.0000000000000001
 21
1.0
 31
0.0
 73
     1
 44
1.0
1001
ACAD
1000
MTEXTBEGIN
1070
    73
1070
     1
1070
    44
1040
1.0
1070
    74
1070
     0
1000
MTEXTEND
  0
INSERT
  5
AB0
330
90A
100
AcDbEntity
  8
画層3-寸法
  6
Continuous
370
    -2
100
AcDbBlockReference
  2
_ORIGIN
 10
12403.0396987807
 20
12754.56886007896
 30
0.0
 41
80.0
 42
80.0
 43
80.0
 50
90.0
  0
INSERT
  5
AB1
330
90A
100
AcDbEntity
  8
画層3-寸法
  6
Continuous
370
    -2
100
AcDbBlockReference
  2
_ORIGIN
 10
12403.0396987807
 20
12304.56886007897
 30
0.0
 41
80.0
 42
80.0
 43
80.0
 50
270.0
  0
POINT
  5
AB2
330
90A
100
AcDbEntity
  8
DEFPOINTS
  6
Continuous
 62
     0
100
AcDbPoint
 10
12762.79693339132
 20
12754.56886007896
 30
0.0
  0
POINT
  5
AB3
330
90A
100
AcDbEntity
  8
DEFPOINTS
  6
Continuous
 62
     0
100
AcDbPoint
 10
12762.79693339132
 20
12304.56886007897
 30
0.0
  0
POINT
  5
AB4
330
90A
100
AcDbEntity
  8
DEFPOINTS
  6
Continuous
 62
     0
100
AcDbPoint
 10
12403.0396987807
 20
12304.56886007897
 30
0.0
  0
ENDBLK
  5
915
330
90A
100
AcDbEntity
  8
0
100
AcDbBlockEnd
  0
BLOCK
  5
920
330
916
100
AcDbEntity
  8
0
100
AcDbBlockBegin
  2
*D20
 70
     1
 10
0.0
 20
0.0
 30
0.0
  3
*D20
  1

  0
LINE
  5
AB5
330
916
100
AcDbEntity
  8
寸法
  6
Continuous
370
    -2
100
AcDbLine
 10
14887.79693339132
 20
9461.662894336429
 30
0.0
 11
14887.79693339132
 21
8454.568860078735
 31
0.0
  0
LINE
  5
AB6
330
916
100
AcDbEntity
  8
寸法
  6
Continuous
370
    -2
100
AcDbLine
 10
16887.79693339131
 20
9461.662894336429
 30
0.0
 11
16887.79693339131
 21
8454.568860078735
 31
0.0
  0
LINE
  5
AB7
330
916
100
AcDbEntity
  8
寸法
  6
Continuous
370
    -2
100
AcDbLine
 10
14947.79693339132
 20
8454.568860078735
 30
0.0
 11
16827.79693339131
 21
8454.568860078735
 31
0.0
  0
INSERT
  5
AB8
330
916
100
AcDbEntity
  8
寸法
  6
Continuous
370
    -2
100
AcDbBlockReference
  2
_ORIGIN
 10
14887.79693339132
 20
8454.568860078735
 30
0.0
 41
60.0
 42
60.0
 43
60.0
 50
180.0
  0
INSERT
  5
AB9
330
916
100
AcDbEntity
  8
寸法
  6
Continuous
370
    -2
100
AcDbBlockReference
  2
_ORIGIN
 10
16887.79693339131
 20
8454.568860078735
 30
0.0
 41
60.0
 42
60.0
 43
60.0
  0
MTEXT
  5
ABA
330
916
100
AcDbEntity
  8
寸法
  6
Continuous
100
AcDbMText
 10
15887.79693339132
 20
8733.140288650163
 30
0.0
 40
300.0
 41
0.0
 71
     5
 72
     1
  1
\A1;2,000
  7
1_100
 73
     1
 44
1.0
1001
ACAD
1000
MTEXTBEGIN
1070
    73
1070
     1
1070
    44
1040
1.0
1070
    74
1070
     0
1000
MTEXTEND
  0
POINT
  5
ABB
330
916
100
AcDbEntity
  8
DEFPOINTS
  6
Continuous
 62
     0
100
AcDbPoint
 10
14887.79693339132
 20
9761.662894336431
 30
0.0
  0
POINT
  5
ABC
330
916
100
AcDbEntity
  8
DEFPOINTS
  6
Continuous
 62
     0
100
AcDbPoint
 10
16887.79693339131
 20
9761.662894336431
 30
0.0
  0
POINT
  5
ABD
330
916
100
AcDbEntity
  8
DEFPOINTS
  6
Continuous
 62
     0
100
AcDbPoint
 10
16887.79693339131
 20
8454.568860078735
 30
0.0
  0
ENDBLK
  5
921
330
916
100
AcDbEntity
  8
0
100
AcDbBlockEnd
  0
BLOCK
  5
92C
330
922
100
AcDbEntity
  8
0
100
AcDbBlockBegin
  2
*D21
 70
     1
 10
0.0
 20
0.0
 30
0.0
  3
*D21
  1

  0
LINE
  5
ABE
330
922
100
AcDbEntity
  8
寸法
  6
Continuous
370
    -2
100
AcDbLine
 10
26587.79693339132
 20
12754.56886007885
 30
0.0
 11
28287.79693339132
 21
12754.56886007885
 31
0.0
  0
LINE
  5
ABF
330
922
100
AcDbEntity
  8
寸法
  6
Continuous
370
    -2
100
AcDbLine
 10
26587.79693339132
 20
10754.56886007885
 30
0.0
 11
28287.79693339132
 21
10754.56886007885
 31
0.0
  0
LINE
  5
AC0
330
922
100
AcDbEntity
  8
寸法
  6
Continuous
370
    -2
100
AcDbLine
 10
28287.79693339132
 20
12694.56886007885
 30
0.0
 11
28287.79693339132
 21
10814.56886007885
 31
0.0
  0
INSERT
  5
AC1
330
922
100
AcDbEntity
  8
寸法
  6
Continuous
370
    -2
100
AcDbBlockReference
  2
_ORIGIN
 10
28287.79693339132
 20
12754.56886007885
 30
0.0
 41
60.0
 42
60.0
 43
60.0
 50
90.0
  0
INSERT
  5
AC2
330
922
100
AcDbEntity
  8
寸法
  6
Continuous
370
    -2
100
AcDbBlockReference
  2
_ORIGIN
 10
28287.79693339132
 20
10754.56886007885
 30
0.0
 41
60.0
 42
60.0
 43
60.0
 50
270.0
  0
MTEXT
  5
AC3
330
922
100
AcDbEntity
  8
寸法
  6
Continuous
100
AcDbMText
 10
28009.22550481989
 20
11754.56886007885
 30
0.0
 40
300.0
 41
0.0
 71
     5
 72
     1
  1
\A1;2,000
  7
1_100
 11
0.0000000000000001
 21
1.0
 31
0.0
 73
     1
 44
1.0
1001
ACAD
1000
MTEXTBEGIN
1070
    73
1070
     1
1070
    44
1040
1.0
1070
    74
1070
     0
1000
MTEXTEND
  0
POINT
  5
AC4
330
922
100
AcDbEntity
  8
DEFPOINTS
  6
Continuous
 62
     0
100
AcDbPoint
 10
26287.79693339132
 20
12754.56886007885
 30
0.0
  0
POINT
  5
AC5
330
922
100
AcDbEntity
  8
DEFPOINTS
  6
Continuous
 62
     0
100
AcDbPoint
 10
26287.79693339132
 20
10754.56886007885
 30
0.0
  0
POINT
  5
AC6
330
922
100
AcDbEntity
  8
DEFPOINTS
  6
Continuous
 62
     0
100
AcDbPoint
 10
28287.79693339132
 20
10754.56886007885
 30
0.0
  0
ENDBLK
  5
92D
330
922
100
AcDbEntity
  8
0
100
AcDbBlockEnd
  0
BLOCK
  5
938
330
92E
100
AcDbEntity
  8
0
100
AcDbBlockBegin
  2
*D22
 70
     1
 10
0.0
 20
0.0
 30
0.0
  3
*D22
  1

  0
LINE
  5
AC7
330
92E
100
AcDbEntity
  8
寸法
  6
Continuous
370
    -2
100
AcDbLine
 10
26587.79693339132
 20
10754.56886007885
 30
0.0
 11
27287.79693339132
 21
10754.56886007885
 31
0.0
  0
LINE
  5
AC8
330
92E
100
AcDbEntity
  8
寸法
  6
Continuous
370
    -2
100
AcDbLine
 10
26587.79693339132
 20
12454.56886007885
 30
0.0
 11
27287.79693339132
 21
12454.56886007885
 31
0.0
  0
LINE
  5
AC9
330
92E
100
AcDbEntity
  8
寸法
  6
Continuous
370
    -2
100
AcDbLine
 10
27287.79693339132
 20
10814.56886007885
 30
0.0
 11
27287.79693339132
 21
12394.56886007885
 31
0.0
  0
INSERT
  5
ACA
330
92E
100
AcDbEntity
  8
寸法
  6
Continuous
370
    -2
100
AcDbBlockReference
  2
_ORIGIN
 10
27287.79693339132
 20
10754.56886007885
 30
0.0
 41
60.0
 42
60.0
 43
60.0
 50
270.0
  0
INSERT
  5
ACB
330
92E
100
AcDbEntity
  8
寸法
  6
Continuous
370
    -2
100
AcDbBlockReference
  2
_ORIGIN
 10
27287.79693339132
 20
12454.56886007885
 30
0.0
 41
60.0
 42
60.0
 43
60.0
 50
90.0
  0
MTEXT
  5
ACC
330
92E
100
AcDbEntity
  8
寸法
  6
Continuous
100
AcDbMText
 10
27009.2255048199
 20
11604.56886007885
 30
0.0
 40
300.0
 41
0.0
 71
     5
 72
     1
  1
\A1;1,700
  7
1_100
 11
0.0000000000000001
 21
1.0
 31
0.0
 73
     1
 44
1.0
1001
ACAD
1000
MTEXTBEGIN
1070
    73
1070
     1
1070
    44
1040
1.0
1070
    74
1070
     0
1000
MTEXTEND
  0
POINT
  5
ACD
330
92E
100
AcDbEntity
  8
DEFPOINTS
  6
Continuous
 62
     0
100
AcDbPoint
 10
26287.79693339132
 20
10754.56886007885
 30
0.0
  0
POINT
  5
ACE
330
92E
100
AcDbEntity
  8
DEFPOINTS
  6
Continuous
 62
     0
100
AcDbPoint
 10
26287.79693339132
 20
12454.56886007885
 30
0.0
  0
POINT
  5
ACF
330
92E
100
AcDbEntity
  8
DEFPOINTS
  6
Continuous
 62
     0
100
AcDbPoint
 10
27287.79693339132
 20
12454.56886007885
 30
0.0
  0
ENDBLK
  5
939
330
92E
100
AcDbEntity
  8
0
100
AcDbBlockEnd
  0
BLOCK
  5
946
330
93A
100
AcDbEntity
  8
0
100
AcDbBlockBegin
  2
*D23
 70
     1
 10
0.0
 20
0.0
 30
0.0
  3
*D23
  1

  0
LINE
  5
AD0
330
93A
100
AcDbEntity
  8
寸法
  6
Continuous
370
    -2
100
AcDbLine
 10
26587.79693339132
 20
10654.56886007885
 30
0.0
 11
27287.79693339132
 21
10654.56886007885
 31
0.0
  0
LINE
  5
AD1
330
93A
100
AcDbEntity
  8
寸法
  6
Continuous
370
    -2
100
AcDbLine
 10
26587.79693339132
 20
10754.56886007885
 30
0.0
 11
27287.79693339132
 21
10754.56886007885
 31
0.0
  0
LINE
  5
AD2
330
93A
100
AcDbEntity
  8
寸法
  6
Continuous
370
    -2
100
AcDbLine
 10
27287.79693339132
 20
10594.56886007885
 30
0.0
 11
27287.79693339132
 21
10534.56886007885
 31
0.0
  0
LINE
  5
AD3
330
93A
100
AcDbEntity
  8
寸法
  6
Continuous
370
    -2
100
AcDbLine
 10
27287.79693339132
 20
10814.56886007885
 30
0.0
 11
27287.79693339132
 21
10874.56886007885
 31
0.0
  0
MTEXT
  5
AD4
330
93A
100
AcDbEntity
  8
寸法
  6
Continuous
100
AcDbMText
 10
26998.98600939354
 20
10237.15893732143
 30
0.0
 40
300.0
 41
0.0
 71
     5
 72
     1
  1
\A1;100
  7
1_100
 11
0.0000000000000001
 21
1.0
 31
0.0
 73
     1
 44
1.0
1001
ACAD
1000
MTEXTBEGIN
1070
    73
1070
     1
1070
    44
1040
1.0
1070
    74
1070
     0
1000
MTEXTEND
  0
LINE
  5
AD5
330
93A
100
AcDbEntity
  8
寸法
  6
Continuous
370
    -2
100
AcDbLine
 10
27287.79693339132
 20
10654.56886007885
 30
0.0
 11
27287.79693339132
 21
10754.56886007885
 31
0.0
  0
INSERT
  5
AD6
330
93A
100
AcDbEntity
  8
寸法
  6
Continuous
370
    -2
100
AcDbBlockReference
  2
_ORIGIN
 10
27287.79693339132
 20
10654.56886007885
 30
0.0
 41
60.0
 42
60.0
 43
60.0
 50
90.0
  0
INSERT
  5
AD7
330
93A
100
AcDbEntity
  8
寸法
  6
Continuous
370
    -2
100
AcDbBlockReference
  2
_ORIGIN
 10
27287.79693339132
 20
10754.56886007885
 30
0.0
 41
60.0
 42
60.0
 43
60.0
 50
270.0
  0
POINT
  5
AD8
330
93A
100
AcDbEntity
  8
DEFPOINTS
  6
Continuous
 62
     0
100
AcDbPoint
 10
26287.79693339132
 20
10654.56886007885
 30
0.0
  0
POINT
  5
AD9
330
93A
100
AcDbEntity
  8
DEFPOINTS
  6
Continuous
 62
     0
100
AcDbPoint
 10
26287.79693339132
 20
10754.56886007885
 30
0.0
  0
POINT
  5
ADA
330
93A
100
AcDbEntity
  8
DEFPOINTS
  6
Continuous
 62
     0
100
AcDbPoint
 10
27287.79693339132
 20
10754.56886007885
 30
0.0
  0
ENDBLK
  5
947
330
93A
100
AcDbEntity
  8
0
100
AcDbBlockEnd
  0
BLOCK
  5
954
330
948
100
AcDbEntity
  8
0
100
AcDbBlockBegin
  2
*D24
 70
     1
 10
0.0
 20
0.0
 30
0.0
  3
*D24
  1

  0
LINE
  5
ADB
330
948
100
AcDbEntity
  8
寸法
  6
Continuous
370
    -2
100
AcDbLine
 10
26587.79693339132
 20
12454.56886007885
 30
0.0
 11
27287.79693339132
 21
12454.56886007885
 31
0.0
  0
LINE
  5
ADC
330
948
100
AcDbEntity
  8
寸法
  6
Continuous
370
    -2
100
AcDbLine
 10
26587.79693339132
 20
12754.56886007885
 30
0.0
 11
27287.79693339132
 21
12754.56886007885
 31
0.0
  0
LINE
  5
ADD
330
948
100
AcDbEntity
  8
寸法
  6
Continuous
370
    -2
100
AcDbLine
 10
27287.79693339132
 20
12394.56886007885
 30
0.0
 11
27287.79693339132
 21
12334.56886007885
 31
0.0
  0
LINE
  5
ADE
330
948
100
AcDbEntity
  8
寸法
  6
Continuous
370
    -2
100
AcDbLine
 10
27287.79693339132
 20
12814.56886007885
 30
0.0
 11
27287.79693339132
 21
12874.56886007885
 31
0.0
  0
MTEXT
  5
ADF
330
948
100
AcDbEntity
  8
寸法
  6
Continuous
100
AcDbMText
 10
27540.46166834813
 20
12397.672073609
 30
0.0
 40
300.0
 41
0.0
 71
     5
 72
     1
  1
\A1;300
  7
1_100
 11
0.0000000000000001
 21
1.0
 31
0.0
 73
     1
 44
1.0
1001
ACAD
1000
MTEXTBEGIN
1070
    73
1070
     1
1070
    44
1040
1.0
1070
    74
1070
     0
1000
MTEXTEND
  0
LINE
  5
AE0
330
948
100
AcDbEntity
  8
寸法
  6
Continuous
370
    -2
100
AcDbLine
 10
27287.79693339132
 20
12454.56886007885
 30
0.0
 11
27287.79693339132
 21
12754.56886007885
 31
0.0
  0
INSERT
  5
AE1
330
948
100
AcDbEntity
  8
寸法
  6
Continuous
370
    -2
100
AcDbBlockReference
  2
_ORIGIN
 10
27287.79693339132
 20
12454.56886007885
 30
0.0
 41
60.0
 42
60.0
 43
60.0
 50
90.0
  0
INSERT
  5
AE2
330
948
100
AcDbEntity
  8
寸法
  6
Continuous
370
    -2
100
AcDbBlockReference
  2
_ORIGIN
 10
27287.79693339132
 20
12754.56886007885
 30
0.0
 41
60.0
 42
60.0
 43
60.0
 50
270.0
  0
POINT
  5
AE3
330
948
100
AcDbEntity
  8
DEFPOINTS
  6
Continuous
 62
     0
100
AcDbPoint
 10
26287.79693339132
 20
12454.56886007885
 30
0.0
  0
POINT
  5
AE4
330
948
100
AcDbEntity
  8
DEFPOINTS
  6
Continuous
 62
     0
100
AcDbPoint
 10
26287.79693339132
 20
12754.56886007885
 30
0.0
  0
POINT
  5
AE5
330
948
100
AcDbEntity
  8
DEFPOINTS
  6
Continuous
 62
     0
100
AcDbPoint
 10
27287.79693339132
 20
12754.56886007885
 30
0.0
  0
ENDBLK
  5
955
330
948
100
AcDbEntity
  8
0
100
AcDbBlockEnd
  0
BLOCK
  5
960
330
956
100
AcDbEntity
  8
0
100
AcDbBlockBegin
  2
*D25
 70
     1
 10
0.0
 20
0.0
 30
0.0
  3
*D25
  1

  0
LINE
  5
AE6
330
956
100
AcDbEntity
  8
寸法
  6
Continuous
370
    -2
100
AcDbLine
 10
26587.79693339132
 20
12754.56886007978
 30
0.0
 11
27287.79693339132
 21
12754.56886007978
 31
0.0
  0
LINE
  5
AE7
330
956
100
AcDbEntity
  8
寸法
  6
Continuous
370
    -2
100
AcDbLine
 10
26587.79693339132
 20
14754.56886007978
 30
0.0
 11
27287.79693339132
 21
14754.56886007978
 31
0.0
  0
LINE
  5
AE8
330
956
100
AcDbEntity
  8
寸法
  6
Continuous
370
    -2
100
AcDbLine
 10
27287.79693339132
 20
12814.56886007978
 30
0.0
 11
27287.79693339132
 21
14694.56886007978
 31
0.0
  0
INSERT
  5
AE9
330
956
100
AcDbEntity
  8
寸法
  6
Continuous
370
    -2
100
AcDbBlockReference
  2
_ORIGIN
 10
27287.79693339132
 20
12754.56886007978
 30
0.0
 41
60.0
 42
60.0
 43
60.0
 50
270.0
  0
INSERT
  5
AEA
330
956
100
AcDbEntity
  8
寸法
  6
Continuous
370
    -2
100
AcDbBlockReference
  2
_ORIGIN
 10
27287.79693339132
 20
14754.56886007978
 30
0.0
 41
60.0
 42
60.0
 43
60.0
 50
90.0
  0
MTEXT
  5
AEB
330
956
100
AcDbEntity
  8
寸法
  6
Continuous
100
AcDbMText
 10
27009.2255048199
 20
13754.56886007978
 30
0.0
 40
300.0
 41
0.0
 71
     5
 72
     1
  1
\A1;2,000
  7
1_100
 11
0.0000000000000001
 21
1.0
 31
0.0
 73
     1
 44
1.0
1001
ACAD
1000
MTEXTBEGIN
1070
    73
1070
     1
1070
    44
1040
1.0
1070
    74
1070
     0
1000
MTEXTEND
  0
POINT
  5
AEC
330
956
100
AcDbEntity
  8
DEFPOINTS
  6
Continuous
 62
     0
100
AcDbPoint
 10
26287.79693339132
 20
12754.56886007978
 30
0.0
  0
POINT
  5
AED
330
956
100
AcDbEntity
  8
DEFPOINTS
  6
Continuous
 62
     0
100
AcDbPoint
 10
26287.79693339132
 20
14754.56886007978
 30
0.0
  0
POINT
  5
AEE
330
956
100
AcDbEntity
  8
DEFPOINTS
  6
Continuous
 62
     0
100
AcDbPoint
 10
27287.79693339132
 20
14754.56886007978
 30
0.0
  0
ENDBLK
  5
961
330
956
100
AcDbEntity
  8
0
100
AcDbBlockEnd
  0
BLOCK
  5
96C
330
962
100
AcDbEntity
  8
0
100
AcDbBlockBegin
  2
*D26
 70
     1
 10
0.0
 20
0.0
 30
0.0
  3
*D26
  1

  0
LINE
  5
AEF
330
962
100
AcDbEntity
  8
寸法
  6
Continuous
370
    -2
100
AcDbLine
 10
30662.79693339132
 20
10354.5688600799
 30
0.0
 11
30662.79693339132
 21
10054.5688600799
 31
0.0
  0
LINE
  5
AF0
330
962
100
AcDbEntity
  8
寸法
  6
Continuous
370
    -2
100
AcDbLine
 10
31112.79693339132
 20
10354.5688600799
 30
0.0
 11
31112.79693339132
 21
10054.5688600799
 31
0.0
  0
LINE
  5
AF1
330
962
100
AcDbEntity
  8
寸法
  6
Continuous
370
    -2
100
AcDbLine
 10
30722.79693339132
 20
10054.5688600799
 30
0.0
 11
31052.79693339132
 21
10054.5688600799
 31
0.0
  0
MTEXT
  5
AF2
330
962
100
AcDbEntity
  8
寸法
  6
Continuous
100
AcDbMText
 10
30088.27019961616
 20
10228.62429856198
 30
0.0
 40
300.0
 41
0.0
 71
     5
 72
     1
  1
\A1;φ450
  7
1_100
 73
     1
 44
1.0
1001
ACAD
1000
MTEXTBEGIN
1070
    73
1070
     1
1070
    44
1040
1.0
1070
    74
1070
     0
1000
MTEXTEND
  0
INSERT
  5
AF3
330
962
100
AcDbEntity
  8
寸法
  6
Continuous
370
    -2
100
AcDbBlockReference
  2
_ORIGIN
 10
30662.79693339132
 20
10054.5688600799
 30
0.0
 41
60.0
 42
60.0
 43
60.0
 50
180.0
  0
INSERT
  5
AF4
330
962
100
AcDbEntity
  8
寸法
  6
Continuous
370
    -2
100
AcDbBlockReference
  2
_ORIGIN
 10
31112.79693339132
 20
10054.5688600799
 30
0.0
 41
60.0
 42
60.0
 43
60.0
  0
POINT
  5
AF5
330
962
100
AcDbEntity
  8
DEFPOINTS
  6
Continuous
 62
     0
100
AcDbPoint
 10
30662.79693339132
 20
10654.5688600799
 30
0.0
  0
POINT
  5
AF6
330
962
100
AcDbEntity
  8
DEFPOINTS
  6
Continuous
 62
     0
100
AcDbPoint
 10
31112.79693339132
 20
10654.5688600799
 30
0.0
  0
POINT
  5
AF7
330
962
100
AcDbEntity
  8
DEFPOINTS
  6
Continuous
 62
     0
100
AcDbPoint
 10
31112.79693339132
 20
10054.5688600799
 30
0.0
  0
ENDBLK
  5
96D
330
962
100
AcDbEntity
  8
0
100
AcDbBlockEnd
  0
BLOCK
  5
97A
330
96E
100
AcDbEntity
  8
0
100
AcDbBlockBegin
  2
*D27
 70
     1
 10
0.0
 20
0.0
 30
0.0
  3
*D27
  1

  0
LINE
  5
AF8
330
96E
100
AcDbEntity
  8
寸法
  6
Continuous
370
    -2
100
AcDbLine
 10
30637.79693339132
 20
10354.5688600799
 30
0.0
 11
30637.79693339132
 21
9654.568860079434
 31
0.0
  0
LINE
  5
AF9
330
96E
100
AcDbEntity
  8
寸法
  6
Continuous
370
    -2
100
AcDbLine
 10
31137.79693339132
 20
10354.56886007978
 30
0.0
 11
31137.79693339132
 21
9654.568860079434
 31
0.0
  0
LINE
  5
AFA
330
96E
100
AcDbEntity
  8
寸法
  6
Continuous
370
    -2
100
AcDbLine
 10
30577.79693339132
 20
9654.568860079434
 30
0.0
 11
30517.79693339132
 21
9654.568860079434
 31
0.0
  0
LINE
  5
AFB
330
96E
100
AcDbEntity
  8
寸法
  6
Continuous
370
    -2
100
AcDbLine
 10
31197.79693339132
 20
9654.568860079434
 30
0.0
 11
31257.79693339132
 21
9654.568860079434
 31
0.0
  0
LINE
  5
AFC
330
96E
100
AcDbEntity
  8
寸法
  6
Continuous
370
    -2
100
AcDbLine
 10
30637.79693339132
 20
9654.568860079434
 30
0.0
 11
31137.79693339132
 21
9654.568860079434
 31
0.0
  0
INSERT
  5
AFD
330
96E
100
AcDbEntity
  8
寸法
  6
Continuous
370
    -2
100
AcDbBlockReference
  2
_ORIGIN
 10
30637.79693339132
 20
9654.568860079434
 30
0.0
 41
60.0
 42
60.0
 43
60.0
  0
INSERT
  5
AFE
330
96E
100
AcDbEntity
  8
寸法
  6
Continuous
370
    -2
100
AcDbBlockReference
  2
_ORIGIN
 10
31137.79693339132
 20
9654.568860079434
 30
0.0
 41
60.0
 42
60.0
 43
60.0
 50
180.0
  0
MTEXT
  5
AFF
330
96E
100
AcDbEntity
  8
寸法
  6
Continuous
100
AcDbMText
 10
30887.79693339132
 20
9404.568860079434
 30
0.0
 40
300.0
 41
0.0
 71
     5
 72
     1
  1
\A1;□500
  7
1_100
 73
     1
 44
1.0
1001
ACAD
1000
MTEXTBEGIN
1070
    73
1070
     1
1070
    44
1040
1.0
1070
    74
1070
     0
1000
MTEXTEND
  0
POINT
  5
B00
330
96E
100
AcDbEntity
  8
DEFPOINTS
  6
Continuous
 62
     0
100
AcDbPoint
 10
30637.79693339132
 20
10654.5688600799
 30
0.0
  0
POINT
  5
B01
330
96E
100
AcDbEntity
  8
DEFPOINTS
  6
Continuous
 62
     0
100
AcDbPoint
 10
31137.79693339132
 20
10654.56886007978
 30
0.0
  0
POINT
  5
B02
330
96E
100
AcDbEntity
  8
DEFPOINTS
  6
Continuous
 62
     0
100
AcDbPoint
 10
31137.79693339132
 20
9654.568860079434
 30
0.0
  0
ENDBLK
  5
97B
330
96E
100
AcDbEntity
  8
0
100
AcDbBlockEnd
  0
BLOCK
  5
986
330
97C
100
AcDbEntity
  8
0
100
AcDbBlockBegin
  2
*D28
 70
     1
 10
0.0
 20
0.0
 30
0.0
  3
*D28
  1

  0
LINE
  5
B03
330
97C
100
AcDbEntity
  8
寸法
  6
Continuous
370
    -2
100
AcDbLine
 10
32687.79693339132
 20
10754.56886008036
 30
0.0
 11
33487.79693339132
 21
10754.56886008036
 31
0.0
  0
LINE
  5
B04
330
97C
100
AcDbEntity
  8
寸法
  6
Continuous
370
    -2
100
AcDbLine
 10
32687.79693339132
 20
12454.56886008036
 30
0.0
 11
33487.79693339132
 21
12454.56886008036
 31
0.0
  0
LINE
  5
B05
330
97C
100
AcDbEntity
  8
寸法
  6
Continuous
370
    -2
100
AcDbLine
 10
33487.79693339132
 20
10814.56886008036
 30
0.0
 11
33487.79693339132
 21
12394.56886008036
 31
0.0
  0
INSERT
  5
B06
330
97C
100
AcDbEntity
  8
寸法
  6
Continuous
370
    -2
100
AcDbBlockReference
  2
_ORIGIN
 10
33487.79693339132
 20
10754.56886008036
 30
0.0
 41
60.0
 42
60.0
 43
60.0
 50
270.0
  0
INSERT
  5
B07
330
97C
100
AcDbEntity
  8
寸法
  6
Continuous
370
    -2
100
AcDbBlockReference
  2
_ORIGIN
 10
33487.79693339132
 20
12454.56886008036
 30
0.0
 41
60.0
 42
60.0
 43
60.0
 50
90.0
  0
MTEXT
  5
B08
330
97C
100
AcDbEntity
  8
寸法
  6
Continuous
100
AcDbMText
 10
33209.22550481989
 20
11604.56886008037
 30
0.0
 40
300.0
 41
0.0
 71
     5
 72
     1
  1
\A1;1,700
  7
1_100
 11
0.0000000000000001
 21
1.0
 31
0.0
 73
     1
 44
1.0
1001
ACAD
1000
MTEXTBEGIN
1070
    73
1070
     1
1070
    44
1040
1.0
1070
    74
1070
     0
1000
MTEXTEND
  0
POINT
  5
B09
330
97C
100
AcDbEntity
  8
DEFPOINTS
  6
Continuous
 62
     0
100
AcDbPoint
 10
32387.79693339132
 20
10754.56886008036
 30
0.0
  0
POINT
  5
B0A
330
97C
100
AcDbEntity
  8
DEFPOINTS
  6
Continuous
 62
     0
100
AcDbPoint
 10
32387.79693339132
 20
12454.56886008036
 30
0.0
  0
POINT
  5
B0B
330
97C
100
AcDbEntity
  8
DEFPOINTS
  6
Continuous
 62
     0
100
AcDbPoint
 10
33487.79693339132
 20
12454.56886008036
 30
0.0
  0
ENDBLK
  5
987
330
97C
100
AcDbEntity
  8
0
100
AcDbBlockEnd
  0
BLOCK
  5
992
330
988
100
AcDbEntity
  8
0
100
AcDbBlockBegin
  2
*D29
 70
     1
 10
0.0
 20
0.0
 30
0.0
  3
*D29
  1

  0
LINE
  5
B0C
330
988
100
AcDbEntity
  8
寸法
  6
Continuous
370
    -2
100
AcDbLine
 10
32687.79693339132
 20
12754.56886008036
 30
0.0
 11
34487.79693339132
 21
12754.56886008036
 31
0.0
  0
LINE
  5
B0D
330
988
100
AcDbEntity
  8
寸法
  6
Continuous
370
    -2
100
AcDbLine
 10
32687.79693339132
 20
10754.56886008036
 30
0.0
 11
34487.79693339132
 21
10754.56886008036
 31
0.0
  0
LINE
  5
B0E
330
988
100
AcDbEntity
  8
寸法
  6
Continuous
370
    -2
100
AcDbLine
 10
34487.79693339132
 20
12694.56886008036
 30
0.0
 11
34487.79693339132
 21
10814.56886008036
 31
0.0
  0
INSERT
  5
B0F
330
988
100
AcDbEntity
  8
寸法
  6
Continuous
370
    -2
100
AcDbBlockReference
  2
_ORIGIN
 10
34487.79693339132
 20
12754.56886008036
 30
0.0
 41
60.0
 42
60.0
 43
60.0
 50
90.0
  0
INSERT
  5
B10
330
988
100
AcDbEntity
  8
寸法
  6
Continuous
370
    -2
100
AcDbBlockReference
  2
_ORIGIN
 10
34487.79693339132
 20
10754.56886008036
 30
0.0
 41
60.0
 42
60.0
 43
60.0
 50
270.0
  0
MTEXT
  5
B11
330
988
100
AcDbEntity
  8
寸法
  6
Continuous
100
AcDbMText
 10
34209.22550481989
 20
11754.56886008037
 30
0.0
 40
300.0
 41
0.0
 71
     5
 72
     1
  1
\A1;2,000
  7
1_100
 11
0.0000000000000001
 21
1.0
 31
0.0
 73
     1
 44
1.0
1001
ACAD
1000
MTEXTBEGIN
1070
    73
1070
     1
1070
    44
1040
1.0
1070
    74
1070
     0
1000
MTEXTEND
  0
POINT
  5
B12
330
988
100
AcDbEntity
  8
DEFPOINTS
  6
Continuous
 62
     0
100
AcDbPoint
 10
32387.79693339132
 20
12754.56886008036
 30
0.0
  0
POINT
  5
B13
330
988
100
AcDbEntity
  8
DEFPOINTS
  6
Continuous
 62
     0
100
AcDbPoint
 10
32387.79693339132
 20
10754.56886008036
 30
0.0
  0
POINT
  5
B14
330
988
100
AcDbEntity
  8
DEFPOINTS
  6
Continuous
 62
     0
100
AcDbPoint
 10
34487.79693339132
 20
10754.56886008036
 30
0.0
  0
ENDBLK
  5
993
330
988
100
AcDbEntity
  8
0
100
AcDbBlockEnd
  0
BLOCK
  5
9A0
330
994
100
AcDbEntity
  8
0
100
AcDbBlockBegin
  2
*D30
 70
     1
 10
0.0
 20
0.0
 30
0.0
  3
*D30
  1

  0
LINE
  5
B15
330
994
100
AcDbEntity
  8
寸法
  6
Continuous
370
    -2
100
AcDbLine
 10
32687.79693339132
 20
10654.56886008036
 30
0.0
 11
33487.79693339132
 21
10654.56886008036
 31
0.0
  0
LINE
  5
B16
330
994
100
AcDbEntity
  8
寸法
  6
Continuous
370
    -2
100
AcDbLine
 10
32687.79693339132
 20
10754.56886008036
 30
0.0
 11
33487.79693339132
 21
10754.56886008036
 31
0.0
  0
LINE
  5
B17
330
994
100
AcDbEntity
  8
寸法
  6
Continuous
370
    -2
100
AcDbLine
 10
33487.79693339132
 20
10594.56886008036
 30
0.0
 11
33487.79693339132
 21
10534.56886008036
 31
0.0
  0
LINE
  5
B18
330
994
100
AcDbEntity
  8
寸法
  6
Continuous
370
    -2
100
AcDbLine
 10
33487.79693339132
 20
10814.56886008036
 30
0.0
 11
33487.79693339132
 21
10874.56886008036
 31
0.0
  0
MTEXT
  5
B19
330
994
100
AcDbEntity
  8
寸法
  6
Continuous
100
AcDbMText
 10
33193.11916093966
 20
10284.78693006971
 30
0.0
 40
300.0
 41
0.0
 71
     5
 72
     1
  1
\A1;100
  7
1_100
 11
0.0000000000000001
 21
1.0
 31
0.0
 73
     1
 44
1.0
1001
ACAD
1000
MTEXTBEGIN
1070
    73
1070
     1
1070
    44
1040
1.0
1070
    74
1070
     0
1000
MTEXTEND
  0
LINE
  5
B1A
330
994
100
AcDbEntity
  8
寸法
  6
Continuous
370
    -2
100
AcDbLine
 10
33487.79693339132
 20
10654.56886008036
 30
0.0
 11
33487.79693339132
 21
10754.56886008036
 31
0.0
  0
INSERT
  5
B1B
330
994
100
AcDbEntity
  8
寸法
  6
Continuous
370
    -2
100
AcDbBlockReference
  2
_ORIGIN
 10
33487.79693339132
 20
10654.56886008036
 30
0.0
 41
60.0
 42
60.0
 43
60.0
 50
90.0
  0
INSERT
  5
B1C
330
994
100
AcDbEntity
  8
寸法
  6
Continuous
370
    -2
100
AcDbBlockReference
  2
_ORIGIN
 10
33487.79693339132
 20
10754.56886008036
 30
0.0
 41
60.0
 42
60.0
 43
60.0
 50
270.0
  0
POINT
  5
B1D
330
994
100
AcDbEntity
  8
DEFPOINTS
  6
Continuous
 62
     0
100
AcDbPoint
 10
32387.79693339132
 20
10654.56886008036
 30
0.0
  0
POINT
  5
B1E
330
994
100
AcDbEntity
  8
DEFPOINTS
  6
Continuous
 62
     0
100
AcDbPoint
 10
32387.79693339132
 20
10754.56886008036
 30
0.0
  0
POINT
  5
B1F
330
994
100
AcDbEntity
  8
DEFPOINTS
  6
Continuous
 62
     0
100
AcDbPoint
 10
33487.79693339132
 20
10754.56886008036
 30
0.0
  0
ENDBLK
  5
9A1
330
994
100
AcDbEntity
  8
0
100
AcDbBlockEnd
  0
BLOCK
  5
9AE
330
9A2
100
AcDbEntity
  8
0
100
AcDbBlockBegin
  2
*D31
 70
     1
 10
0.0
 20
0.0
 30
0.0
  3
*D31
  1

  0
LINE
  5
B20
330
9A2
100
AcDbEntity
  8
寸法
  6
Continuous
370
    -2
100
AcDbLine
 10
32687.79693339132
 20
12454.56886008036
 30
0.0
 11
33487.79693339132
 21
12454.56886008036
 31
0.0
  0
LINE
  5
B21
330
9A2
100
AcDbEntity
  8
寸法
  6
Continuous
370
    -2
100
AcDbLine
 10
32687.79693339132
 20
12754.56886008036
 30
0.0
 11
33487.79693339132
 21
12754.56886008036
 31
0.0
  0
LINE
  5
B22
330
9A2
100
AcDbEntity
  8
寸法
  6
Continuous
370
    -2
100
AcDbLine
 10
33487.79693339132
 20
12394.56886008036
 30
0.0
 11
33487.79693339132
 21
12334.56886008036
 31
0.0
  0
LINE
  5
B23
330
9A2
100
AcDbEntity
  8
寸法
  6
Continuous
370
    -2
100
AcDbLine
 10
33487.79693339132
 20
12814.56886008036
 30
0.0
 11
33487.79693339132
 21
12874.56886008036
 31
0.0
  0
MTEXT
  5
B24
330
9A2
100
AcDbEntity
  8
寸法
  6
Continuous
100
AcDbMText
 10
33762.44656208875
 20
12397.67207361051
 30
0.0
 40
300.0
 41
0.0
 71
     5
 72
     1
  1
\A1;300
  7
1_100
 11
0.0000000000000001
 21
1.0
 31
0.0
 73
     1
 44
1.0
1001
ACAD
1000
MTEXTBEGIN
1070
    73
1070
     1
1070
    44
1040
1.0
1070
    74
1070
     0
1000
MTEXTEND
  0
LINE
  5
B25
330
9A2
100
AcDbEntity
  8
寸法
  6
Continuous
370
    -2
100
AcDbLine
 10
33487.79693339132
 20
12454.56886008036
 30
0.0
 11
33487.79693339132
 21
12754.56886008036
 31
0.0
  0
INSERT
  5
B26
330
9A2
100
AcDbEntity
  8
寸法
  6
Continuous
370
    -2
100
AcDbBlockReference
  2
_ORIGIN
 10
33487.79693339132
 20
12454.56886008036
 30
0.0
 41
60.0
 42
60.0
 43
60.0
 50
90.0
  0
INSERT
  5
B27
330
9A2
100
AcDbEntity
  8
寸法
  6
Continuous
370
    -2
100
AcDbBlockReference
  2
_ORIGIN
 10
33487.79693339132
 20
12754.56886008036
 30
0.0
 41
60.0
 42
60.0
 43
60.0
 50
270.0
  0
POINT
  5
B28
330
9A2
100
AcDbEntity
  8
DEFPOINTS
  6
Continuous
 62
     0
100
AcDbPoint
 10
32387.79693339132
 20
12454.56886008036
 30
0.0
  0
POINT
  5
B29
330
9A2
100
AcDbEntity
  8
DEFPOINTS
  6
Continuous
 62
     0
100
AcDbPoint
 10
32387.79693339132
 20
12754.56886008036
 30
0.0
  0
POINT
  5
B2A
330
9A2
100
AcDbEntity
  8
DEFPOINTS
  6
Continuous
 62
     0
100
AcDbPoint
 10
33487.79693339132
 20
12754.56886008036
 30
0.0
  0
ENDBLK
  5
9AF
330
9A2
100
AcDbEntity
  8
0
100
AcDbBlockEnd
  0
BLOCK
  5
9BA
330
9B0
100
AcDbEntity
  8
0
100
AcDbBlockBegin
  2
*D32
 70
     1
 10
0.0
 20
0.0
 30
0.0
  3
*D32
  1

  0
LINE
  5
B2B
330
9B0
100
AcDbEntity
  8
寸法
  6
Continuous
370
    -2
100
AcDbLine
 10
32687.79693339132
 20
12754.56886008036
 30
0.0
 11
33487.79693339132
 21
12754.56886008036
 31
0.0
  0
LINE
  5
B2C
330
9B0
100
AcDbEntity
  8
寸法
  6
Continuous
370
    -2
100
AcDbLine
 10
32687.79693339132
 20
14754.56886008036
 30
0.0
 11
33487.79693339132
 21
14754.56886008036
 31
0.0
  0
LINE
  5
B2D
330
9B0
100
AcDbEntity
  8
寸法
  6
Continuous
370
    -2
100
AcDbLine
 10
33487.79693339132
 20
12814.56886008036
 30
0.0
 11
33487.79693339132
 21
14694.56886008036
 31
0.0
  0
INSERT
  5
B2E
330
9B0
100
AcDbEntity
  8
寸法
  6
Continuous
370
    -2
100
AcDbBlockReference
  2
_ORIGIN
 10
33487.79693339132
 20
12754.56886008036
 30
0.0
 41
60.0
 42
60.0
 43
60.0
 50
270.0
  0
INSERT
  5
B2F
330
9B0
100
AcDbEntity
  8
寸法
  6
Continuous
370
    -2
100
AcDbBlockReference
  2
_ORIGIN
 10
33487.79693339132
 20
14754.56886008036
 30
0.0
 41
60.0
 42
60.0
 43
60.0
 50
90.0
  0
MTEXT
  5
B30
330
9B0
100
AcDbEntity
  8
寸法
  6
Continuous
100
AcDbMText
 10
33209.22550481989
 20
13754.56886008037
 30
0.0
 40
300.0
 41
0.0
 71
     5
 72
     1
  1
\A1;2,000
  7
1_100
 11
0.0000000000000001
 21
1.0
 31
0.0
 73
     1
 44
1.0
1001
ACAD
1000
MTEXTBEGIN
1070
    73
1070
     1
1070
    44
1040
1.0
1070
    74
1070
     0
1000
MTEXTEND
  0
POINT
  5
B31
330
9B0
100
AcDbEntity
  8
DEFPOINTS
  6
Continuous
 62
     0
100
AcDbPoint
 10
32387.79693339132
 20
12754.56886008036
 30
0.0
  0
POINT
  5
B32
330
9B0
100
AcDbEntity
  8
DEFPOINTS
  6
Continuous
 62
     0
100
AcDbPoint
 10
32387.79693339132
 20
14754.56886008036
 30
0.0
  0
POINT
  5
B33
330
9B0
100
AcDbEntity
  8
DEFPOINTS
  6
Continuous
 62
     0
100
AcDbPoint
 10
33487.79693339132
 20
14754.56886008036
 30
0.0
  0
ENDBLK
  5
9BB
330
9B0
100
AcDbEntity
  8
0
100
AcDbBlockEnd
  0
BLOCK
  5
9C6
330
9BC
100
AcDbEntity
  8
0
100
AcDbBlockBegin
  2
*D33
 70
     1
 10
0.0
 20
0.0
 30
0.0
  3
*D33
  1

  0
LINE
  5
B34
330
9BC
100
AcDbEntity
  8
寸法
  6
Continuous
370
    -2
100
AcDbLine
 10
26587.79693339132
 20
14754.56886007978
 30
0.0
 11
27287.79693339132
 21
14754.56886007978
 31
0.0
  0
LINE
  5
B35
330
9BC
100
AcDbEntity
  8
寸法
  6
Continuous
370
    -2
100
AcDbLine
 10
26587.79693339132
 20
17064.56886007978
 30
0.0
 11
27287.79693339132
 21
17064.56886007978
 31
0.0
  0
LINE
  5
B36
330
9BC
100
AcDbEntity
  8
寸法
  6
Continuous
370
    -2
100
AcDbLine
 10
27287.79693339132
 20
14814.56886007978
 30
0.0
 11
27287.79693339132
 21
17004.56886007978
 31
0.0
  0
INSERT
  5
B37
330
9BC
100
AcDbEntity
  8
寸法
  6
Continuous
370
    -2
100
AcDbBlockReference
  2
_ORIGIN
 10
27287.79693339132
 20
14754.56886007978
 30
0.0
 41
60.0
 42
60.0
 43
60.0
 50
270.0
  0
INSERT
  5
B38
330
9BC
100
AcDbEntity
  8
寸法
  6
Continuous
370
    -2
100
AcDbBlockReference
  2
_ORIGIN
 10
27287.79693339132
 20
17064.56886007978
 30
0.0
 41
60.0
 42
60.0
 43
60.0
 50
90.0
  0
MTEXT
  5
B39
330
9BC
100
AcDbEntity
  8
寸法
  6
Continuous
100
AcDbMText
 10
27009.2255048199
 20
15909.56886007979
 30
0.0
 40
300.0
 41
0.0
 71
     5
 72
     1
  1
\A1;2,310
  7
1_100
 11
0.0000000000000001
 21
1.0
 31
0.0
 73
     1
 44
1.0
1001
ACAD
1000
MTEXTBEGIN
1070
    73
1070
     1
1070
    44
1040
1.0
1070
    74
1070
     0
1000
MTEXTEND
  0
POINT
  5
B3A
330
9BC
100
AcDbEntity
  8
DEFPOINTS
  6
Continuous
 62
     0
100
AcDbPoint
 10
26287.79693339132
 20
14754.56886007978
 30
0.0
  0
POINT
  5
B3B
330
9BC
100
AcDbEntity
  8
DEFPOINTS
  6
Continuous
 62
     0
100
AcDbPoint
 10
26287.79693339132
 20
17064.56886007978
 30
0.0
  0
POINT
  5
B3C
330
9BC
100
AcDbEntity
  8
DEFPOINTS
  6
Continuous
 62
     0
100
AcDbPoint
 10
27287.79693339132
 20
17064.56886007978
 30
0.0
  0
ENDBLK
  5
9C7
330
9BC
100
AcDbEntity
  8
0
100
AcDbBlockEnd
  0
BLOCK
  5
9D2
330
9C8
100
AcDbEntity
  8
0
100
AcDbBlockBegin
  2
*D34
 70
     1
 10
0.0
 20
0.0
 30
0.0
  3
*D34
  1

  0
LINE
  5
B3D
330
9C8
100
AcDbEntity
  8
寸法
  6
Continuous
370
    -2
100
AcDbLine
 10
32687.79693339132
 20
14754.56886008036
 30
0.0
 11
33487.79693339131
 21
14754.56886008036
 31
0.0
  0
LINE
  5
B3E
330
9C8
100
AcDbEntity
  8
寸法
  6
Continuous
370
    -2
100
AcDbLine
 10
32727.79693339132
 20
17064.56886007955
 30
0.0
 11
33487.79693339132
 21
17064.56886007955
 31
0.0
  0
LINE
  5
B3F
330
9C8
100
AcDbEntity
  8
寸法
  6
Continuous
370
    -2
100
AcDbLine
 10
33487.79693339131
 20
14814.56886008036
 30
0.0
 11
33487.79693339132
 21
17004.56886007955
 31
0.0
  0
INSERT
  5
B40
330
9C8
100
AcDbEntity
  8
寸法
  6
Continuous
370
    -2
100
AcDbBlockReference
  2
_ORIGIN
 10
33487.79693339131
 20
14754.56886008036
 30
0.0
 41
60.0
 42
60.0
 43
60.0
 50
270.0
  0
INSERT
  5
B41
330
9C8
100
AcDbEntity
  8
寸法
  6
Continuous
370
    -2
100
AcDbBlockReference
  2
_ORIGIN
 10
33487.79693339132
 20
17064.56886007955
 30
0.0
 41
60.0
 42
60.0
 43
60.0
 50
90.0
  0
MTEXT
  5
B42
330
9C8
100
AcDbEntity
  8
寸法
  6
Continuous
100
AcDbMText
 10
33209.22550481989
 20
15909.56886007996
 30
0.0
 40
300.0
 41
0.0
 71
     5
 72
     1
  1
\A1;2,310
  7
1_100
 11
0.0000000000000001
 21
1.0
 31
0.0
 73
     1
 44
1.0
1001
ACAD
1000
MTEXTBEGIN
1070
    73
1070
     1
1070
    44
1040
1.0
1070
    74
1070
     0
1000
MTEXTEND
  0
POINT
  5
B43
330
9C8
100
AcDbEntity
  8
DEFPOINTS
  6
Continuous
 62
     0
100
AcDbPoint
 10
32387.79693339132
 20
14754.56886008036
 30
0.0
  0
POINT
  5
B44
330
9C8
100
AcDbEntity
  8
DEFPOINTS
  6
Continuous
 62
     0
100
AcDbPoint
 10
32427.79693339132
 20
17064.56886007955
 30
0.0
  0
POINT
  5
B45
330
9C8
100
AcDbEntity
  8
DEFPOINTS
  6
Continuous
 62
     0
100
AcDbPoint
 10
33487.79693339132
 20
17064.56886007955
 30
0.0
  0
ENDBLK
  5
9D3
330
9C8
100
AcDbEntity
  8
0
100
AcDbBlockEnd
  0
BLOCK
  5
9E0
330
9D4
100
AcDbEntity
  8
0
100
AcDbBlockBegin
  2
*D35
 70
     1
 10
0.0
 20
0.0
 30
0.0
  3
*D35
  1

  0
LINE
  5
B46
330
9D4
100
AcDbEntity
  8
寸法
  6
Continuous
370
    -2
100
AcDbLine
 10
26587.79693339132
 20
21694.56886007885
 30
0.0
 11
27287.79693339132
 21
21694.56886007885
 31
0.0
  0
LINE
  5
B47
330
9D4
100
AcDbEntity
  8
寸法
  6
Continuous
370
    -2
100
AcDbLine
 10
26587.79693339132
 20
21754.56886007885
 30
0.0
 11
27287.79693339132
 21
21754.56886007885
 31
0.0
  0
LINE
  5
B48
330
9D4
100
AcDbEntity
  8
寸法
  6
Continuous
370
    -2
100
AcDbLine
 10
27287.79693339132
 20
21634.56886007885
 30
0.0
 11
27287.79693339132
 21
21574.56886007885
 31
0.0
  0
LINE
  5
B49
330
9D4
100
AcDbEntity
  8
寸法
  6
Continuous
370
    -2
100
AcDbLine
 10
27287.79693339132
 20
21814.56886007886
 30
0.0
 11
27287.79693339132
 21
21874.56886007885
 31
0.0
  0
MTEXT
  5
B4A
330
9D4
100
AcDbEntity
  8
寸法
  6
Continuous
100
AcDbMText
 10
27005.16576774717
 20
22062.41688148879
 30
0.0
 40
300.0
 41
0.0
 71
     5
 72
     1
  1
\A1;60
  7
1_100
 11
0.0000000000000001
 21
1.0
 31
0.0
 73
     1
 44
1.0
1001
ACAD
1000
MTEXTBEGIN
1070
    73
1070
     1
1070
    44
1040
1.0
1070
    74
1070
     0
1000
MTEXTEND
  0
LINE
  5
B4B
330
9D4
100
AcDbEntity
  8
寸法
  6
Continuous
370
    -2
100
AcDbLine
 10
27287.79693339132
 20
21694.56886007885
 30
0.0
 11
27287.79693339132
 21
21754.56886007885
 31
0.0
  0
INSERT
  5
B4C
330
9D4
100
AcDbEntity
  8
寸法
  6
Continuous
370
    -2
100
AcDbBlockReference
  2
_ORIGIN
 10
27287.79693339132
 20
21694.56886007885
 30
0.0
 41
60.0
 42
60.0
 43
60.0
 50
90.0
  0
INSERT
  5
B4D
330
9D4
100
AcDbEntity
  8
寸法
  6
Continuous
370
    -2
100
AcDbBlockReference
  2
_ORIGIN
 10
27287.79693339132
 20
21754.56886007885
 30
0.0
 41
60.0
 42
60.0
 43
60.0
 50
270.0
  0
POINT
  5
B4E
330
9D4
100
AcDbEntity
  8
DEFPOINTS
  6
Continuous
 62
     0
100
AcDbPoint
 10
26287.79693339132
 20
21694.56886007885
 30
0.0
  0
POINT
  5
B4F
330
9D4
100
AcDbEntity
  8
DEFPOINTS
  6
Continuous
 62
     0
100
AcDbPoint
 10
26287.79693339132
 20
21754.56886007885
 30
0.0
  0
POINT
  5
B50
330
9D4
100
AcDbEntity
  8
DEFPOINTS
  6
Continuous
 62
     0
100
AcDbPoint
 10
27287.79693339132
 20
21754.56886007885
 30
0.0
  0
ENDBLK
  5
9E1
330
9D4
100
AcDbEntity
  8
0
100
AcDbBlockEnd
  0
BLOCK
  5
9EC
330
9E2
100
AcDbEntity
  8
0
100
AcDbBlockBegin
  2
*D36
 70
     1
 10
0.0
 20
0.0
 30
0.0
  3
*D36
  1

  0
LINE
  5
B51
330
9E2
100
AcDbEntity
  8
寸法
  6
Continuous
370
    -2
100
AcDbLine
 10
26587.79693339132
 20
19374.56886007978
 30
0.0
 11
27287.79693339132
 21
19374.56886007978
 31
0.0
  0
LINE
  5
B52
330
9E2
100
AcDbEntity
  8
寸法
  6
Continuous
370
    -2
100
AcDbLine
 10
26587.79693339132
 20
21694.56886007978
 30
0.0
 11
27287.79693339132
 21
21694.56886007978
 31
0.0
  0
LINE
  5
B53
330
9E2
100
AcDbEntity
  8
寸法
  6
Continuous
370
    -2
100
AcDbLine
 10
27287.79693339132
 20
19434.56886007978
 30
0.0
 11
27287.79693339132
 21
21634.56886007979
 31
0.0
  0
INSERT
  5
B54
330
9E2
100
AcDbEntity
  8
寸法
  6
Continuous
370
    -2
100
AcDbBlockReference
  2
_ORIGIN
 10
27287.79693339132
 20
19374.56886007978
 30
0.0
 41
60.0
 42
60.0
 43
60.0
 50
270.0
  0
INSERT
  5
B55
330
9E2
100
AcDbEntity
  8
寸法
  6
Continuous
370
    -2
100
AcDbBlockReference
  2
_ORIGIN
 10
27287.79693339132
 20
21694.56886007978
 30
0.0
 41
60.0
 42
60.0
 43
60.0
 50
90.0
  0
MTEXT
  5
B56
330
9E2
100
AcDbEntity
  8
寸法
  6
Continuous
100
AcDbMText
 10
27009.2255048199
 20
20534.56886007979
 30
0.0
 40
300.0
 41
0.0
 71
     5
 72
     1
  1
\A1;2,320
  7
1_100
 11
0.0000000000000001
 21
1.0
 31
0.0
 73
     1
 44
1.0
1001
ACAD
1000
MTEXTBEGIN
1070
    73
1070
     1
1070
    44
1040
1.0
1070
    74
1070
     0
1000
MTEXTEND
  0
POINT
  5
B57
330
9E2
100
AcDbEntity
  8
DEFPOINTS
  6
Continuous
 62
     0
100
AcDbPoint
 10
26287.79693339132
 20
19374.56886007978
 30
0.0
  0
POINT
  5
B58
330
9E2
100
AcDbEntity
  8
DEFPOINTS
  6
Continuous
 62
     0
100
AcDbPoint
 10
26287.79693339132
 20
21694.56886007978
 30
0.0
  0
POINT
  5
B59
330
9E2
100
AcDbEntity
  8
DEFPOINTS
  6
Continuous
 62
     0
100
AcDbPoint
 10
27287.79693339132
 20
21694.56886007978
 30
0.0
  0
ENDBLK
  5
9ED
330
9E2
100
AcDbEntity
  8
0
100
AcDbBlockEnd
  0
BLOCK
  5
9FA
330
9EE
100
AcDbEntity
  8
0
100
AcDbBlockBegin
  2
*D37
 70
     1
 10
0.0
 20
0.0
 30
0.0
  3
*D37
  1

  0
LINE
  5
B5A
330
9EE
100
AcDbEntity
  8
寸法
  6
Continuous
370
    -2
100
AcDbLine
 10
30779.64693339141
 20
22054.56886008002
 30
0.0
 11
30779.64693339141
 21
22354.56886007955
 31
0.0
  0
LINE
  5
B5B
330
9EE
100
AcDbEntity
  8
寸法
  6
Continuous
370
    -2
100
AcDbLine
 10
30995.94693339123
 20
22054.56886008002
 30
0.0
 11
30995.94693339123
 21
22354.56886007955
 31
0.0
  0
LINE
  5
B5C
330
9EE
100
AcDbEntity
  8
寸法
  6
Continuous
370
    -2
100
AcDbLine
 10
30719.64693339142
 20
22354.56886007955
 30
0.0
 11
30659.64693339141
 21
22354.56886007955
 31
0.0
  0
LINE
  5
B5D
330
9EE
100
AcDbEntity
  8
寸法
  6
Continuous
370
    -2
100
AcDbLine
 10
31055.94693339123
 20
22354.56886007955
 30
0.0
 11
31115.94693339123
 21
22354.56886007955
 31
0.0
  0
MTEXT
  5
B5E
330
9EE
100
AcDbEntity
  8
寸法
  6
Continuous
100
AcDbMText
 10
30887.79693339132
 20
22654.56886007955
 30
0.0
 40
300.0
 41
0.0
 71
     5
 72
     1
  1
\A1;φ216.3
  7
1_100
 73
     1
 44
1.0
1001
ACAD
1000
MTEXTBEGIN
1070
    73
1070
     1
1070
    44
1040
1.0
1070
    74
1070
     0
1000
MTEXTEND
  0
LINE
  5
B5F
330
9EE
100
AcDbEntity
  8
寸法
  6
Continuous
370
    -2
100
AcDbLine
 10
30779.64693339141
 20
22354.56886007955
 30
0.0
 11
30995.94693339123
 21
22354.56886007955
 31
0.0
  0
INSERT
  5
B60
330
9EE
100
AcDbEntity
  8
寸法
  6
Continuous
370
    -2
100
AcDbBlockReference
  2
_ORIGIN
 10
30779.64693339141
 20
22354.56886007955
 30
0.0
 41
60.0
 42
60.0
 43
60.0
  0
INSERT
  5
B61
330
9EE
100
AcDbEntity
  8
寸法
  6
Continuous
370
    -2
100
AcDbBlockReference
  2
_ORIGIN
 10
30995.94693339123
 20
22354.56886007955
 30
0.0
 41
60.0
 42
60.0
 43
60.0
 50
180.0
  0
POINT
  5
B62
330
9EE
100
AcDbEntity
  8
DEFPOINTS
  6
Continuous
 62
     0
100
AcDbPoint
 10
30779.64693339141
 20
21754.56886008002
 30
0.0
  0
POINT
  5
B63
330
9EE
100
AcDbEntity
  8
DEFPOINTS
  6
Continuous
 62
     0
100
AcDbPoint
 10
30995.94693339123
 20
21754.56886008002
 30
0.0
  0
POINT
  5
B64
330
9EE
100
AcDbEntity
  8
DEFPOINTS
  6
Continuous
 62
     0
100
AcDbPoint
 10
30995.94693339123
 20
22354.56886007955
 30
0.0
  0
ENDBLK
  5
9FB
330
9EE
100
AcDbEntity
  8
0
100
AcDbBlockEnd
  0
BLOCK
  5
A08
330
9FC
100
AcDbEntity
  8
0
100
AcDbBlockBegin
  2
*D38
 70
     1
 10
0.0
 20
0.0
 30
0.0
  3
*D38
  1

  0
LINE
  5
B65
330
9FC
100
AcDbEntity
  8
寸法
  6
Continuous
370
    -2
100
AcDbLine
 10
32687.79693339132
 20
21694.56886008036
 30
0.0
 11
33487.79693339132
 21
21694.56886008036
 31
0.0
  0
LINE
  5
B66
330
9FC
100
AcDbEntity
  8
寸法
  6
Continuous
370
    -2
100
AcDbLine
 10
32687.79693339132
 20
21754.56886008037
 30
0.0
 11
33487.79693339132
 21
21754.56886008037
 31
0.0
  0
LINE
  5
B67
330
9FC
100
AcDbEntity
  8
寸法
  6
Continuous
370
    -2
100
AcDbLine
 10
33487.79693339132
 20
21634.56886008037
 30
0.0
 11
33487.79693339132
 21
21574.56886008036
 31
0.0
  0
LINE
  5
B68
330
9FC
100
AcDbEntity
  8
寸法
  6
Continuous
370
    -2
100
AcDbLine
 10
33487.79693339132
 20
21814.56886008036
 30
0.0
 11
33487.79693339132
 21
21874.56886008037
 31
0.0
  0
MTEXT
  5
B69
330
9FC
100
AcDbEntity
  8
寸法
  6
Continuous
100
AcDbMText
 10
33188.74929458993
 20
22059.32912237551
 30
0.0
 40
300.0
 41
0.0
 71
     5
 72
     1
  1
\A1;60
  7
1_100
 11
0.0000000000000001
 21
1.0
 31
0.0
 73
     1
 44
1.0
1001
ACAD
1000
MTEXTBEGIN
1070
    73
1070
     1
1070
    44
1040
1.0
1070
    74
1070
     0
1000
MTEXTEND
  0
LINE
  5
B6A
330
9FC
100
AcDbEntity
  8
寸法
  6
Continuous
370
    -2
100
AcDbLine
 10
33487.79693339132
 20
21694.56886008036
 30
0.0
 11
33487.79693339132
 21
21754.56886008037
 31
0.0
  0
INSERT
  5
B6B
330
9FC
100
AcDbEntity
  8
寸法
  6
Continuous
370
    -2
100
AcDbBlockReference
  2
_ORIGIN
 10
33487.79693339132
 20
21694.56886008036
 30
0.0
 41
60.0
 42
60.0
 43
60.0
 50
90.0
  0
INSERT
  5
B6C
330
9FC
100
AcDbEntity
  8
寸法
  6
Continuous
370
    -2
100
AcDbBlockReference
  2
_ORIGIN
 10
33487.79693339132
 20
21754.56886008037
 30
0.0
 41
60.0
 42
60.0
 43
60.0
 50
270.0
  0
POINT
  5
B6D
330
9FC
100
AcDbEntity
  8
DEFPOINTS
  6
Continuous
 62
     0
100
AcDbPoint
 10
32387.79693339132
 20
21694.56886008036
 30
0.0
  0
POINT
  5
B6E
330
9FC
100
AcDbEntity
  8
DEFPOINTS
  6
Continuous
 62
     0
100
AcDbPoint
 10
32387.79693339132
 20
21754.56886008037
 30
0.0
  0
POINT
  5
B6F
330
9FC
100
AcDbEntity
  8
DEFPOINTS
  6
Continuous
 62
     0
100
AcDbPoint
 10
33487.79693339132
 20
21754.56886008037
 30
0.0
  0
ENDBLK
  5
A09
330
9FC
100
AcDbEntity
  8
0
100
AcDbBlockEnd
  0
BLOCK
  5
A14
330
A0A
100
AcDbEntity
  8
0
100
AcDbBlockBegin
  2
*D39
 70
     1
 10
0.0
 20
0.0
 30
0.0
  3
*D39
  1

  0
LINE
  5
B70
330
A0A
100
AcDbEntity
  8
寸法
  6
Continuous
370
    -2
100
AcDbLine
 10
32727.79693339132
 20
19374.56886007955
 30
0.0
 11
33487.79693339132
 21
19374.56886007955
 31
0.0
  0
LINE
  5
B71
330
A0A
100
AcDbEntity
  8
寸法
  6
Continuous
370
    -2
100
AcDbLine
 10
32687.79693339132
 20
21694.56886008036
 30
0.0
 11
33487.79693339132
 21
21694.56886008036
 31
0.0
  0
LINE
  5
B72
330
A0A
100
AcDbEntity
  8
寸法
  6
Continuous
370
    -2
100
AcDbLine
 10
33487.79693339132
 20
19434.56886007955
 30
0.0
 11
33487.79693339132
 21
21634.56886008037
 31
0.0
  0
INSERT
  5
B73
330
A0A
100
AcDbEntity
  8
寸法
  6
Continuous
370
    -2
100
AcDbBlockReference
  2
_ORIGIN
 10
33487.79693339132
 20
19374.56886007955
 30
0.0
 41
60.0
 42
60.0
 43
60.0
 50
270.0
  0
INSERT
  5
B74
330
A0A
100
AcDbEntity
  8
寸法
  6
Continuous
370
    -2
100
AcDbBlockReference
  2
_ORIGIN
 10
33487.79693339132
 20
21694.56886008036
 30
0.0
 41
60.0
 42
60.0
 43
60.0
 50
90.0
  0
MTEXT
  5
B75
330
A0A
100
AcDbEntity
  8
寸法
  6
Continuous
100
AcDbMText
 10
33209.22550481989
 20
20534.56886007996
 30
0.0
 40
300.0
 41
0.0
 71
     5
 72
     1
  1
\A1;2,320
  7
1_100
 11
0.0000000000000001
 21
1.0
 31
0.0
 73
     1
 44
1.0
1001
ACAD
1000
MTEXTBEGIN
1070
    73
1070
     1
1070
    44
1040
1.0
1070
    74
1070
     0
1000
MTEXTEND
  0
POINT
  5
B76
330
A0A
100
AcDbEntity
  8
DEFPOINTS
  6
Continuous
 62
     0
100
AcDbPoint
 10
32427.79693339132
 20
19374.56886007955
 30
0.0
  0
POINT
  5
B77
330
A0A
100
AcDbEntity
  8
DEFPOINTS
  6
Continuous
 62
     0
100
AcDbPoint
 10
32387.79693339132
 20
21694.56886008036
 30
0.0
  0
POINT
  5
B78
330
A0A
100
AcDbEntity
  8
DEFPOINTS
  6
Continuous
 62
     0
100
AcDbPoint
 10
33487.79693339132
 20
21694.56886008036
 30
0.0
  0
ENDBLK
  5
A15
330
A0A
100
AcDbEntity
  8
0
100
AcDbBlockEnd
  0
ENDSEC
  0
SECTION
  2
ENTITIES
  0
LWPOLYLINE
  5
56C
330
1F
100
AcDbEntity
  8
画層1
100
AcDbPolyline
 90
        4
 70
     1
 43
0.0
 10
18679.64693339141
 20
21701.71886007911
 10
9095.946933391228
 20
21701.71886007911
 10
9095.946933391228
 20
21587.41886007906
 10
18679.64693339141
 20
21587.41886007906
  0
LEADER
  5
56D
330
1F
100
AcDbEntity
  8
寸法引出
  6
Continuous
100
AcDbLeader
  3
1_100
 71
     0
 73
     0
 74
     0
 75
     1
 40
300.0
 41
495.0
 76
     3
 10
9112.796933391319
 20
10704.56886007908
 30
0.0
 10
9545.515587201531
 20
10972.59148771773
 30
0.0
 10
9605.515587201532
 20
10972.59148771773
 30
0.0
340
56E
  0
MTEXT
  5
56E
102
{ACAD_REACTORS
330
56D
102
}
330
1F
100
AcDbEntity
  8
寸法文字
  6
Continuous
100
AcDbMText
 10
9705.515587201531
 20
11072.59148771774
 30
0.0
 40
300.0
 41
0.75
 71
     7
 72
     1
  1
砕石
  7
1_100
 73
     1
 44
1.0
1001
ACAD
1000
MTEXTBEGIN
1070
    73
1070
     1
1070
    44
1040
1.0
1070
    74
1070
     0
1000
MTEXTEND
  0
LEADER
  5
56F
330
1F
100
AcDbEntity
  8
寸法引出
  6
Continuous
100
AcDbLeader
  3
1_100
 71
     0
 73
     0
 74
     0
 75
     1
 40
300.0
 41
1547.142857142856
 76
     3
 10
9112.796933391319
 20
11334.06366119386
 30
0.0
 10
9580.2866540134
 20
11624.66688364387
 30
0.0
 10
9640.286654013401
 20
11624.66688364387
 30
0.0
340
570
  0
MTEXT
  5
570
102
{ACAD_REACTORS
330
56F
102
}
330
1F
100
AcDbEntity
  8
寸法文字
  6
Continuous
100
AcDbMText
 10
9740.2866540134
 20
11724.66688364387
 30
0.0
 40
300.0
 41
0.75
 71
     7
 72
     1
  1
コンクリート
  7
1_100
 73
     1
 44
1.0
1001
ACAD
1000
MTEXTBEGIN
1070
    73
1070
     1
1070
    44
1040
1.0
1070
    74
1070
     0
1000
MTEXTEND
  0
HATCH
  5
571
330
1F
100
AcDbEntity
  8
画層3-3
 62
   230
370
    13
100
AcDbHatch
 10
0.0
 20
0.0
 30
0.0
210
0.0
220
0.0
230
1.0
  2
NET
 70
     0
 71
     0
 91
        3
 92
        7
 72
     0
 73
     1
 93
       12
 10
8938.5969333916
 20
14691.46886007899
 10
8923.5969333916
 20
14676.46886007899
 10
8913.196933391228
 20
14676.46886007911
 10
8913.196933391228
 20
14109.56886007908
 10
8968.146933391414
 20
14109.56886007908
 10
8968.146933391414
 20
14094.56886007908
 10
10807.44693339169
 20
14094.56886007908
 10
10807.44693339169
 20
14109.56886007896
 10
10862.39693339141
 20
14109.56886007885
 10
10862.39693339141
 20
14676.46886007899
 10
10851.9969333915
 20
14676.46886007899
 10
10836.9969333915
 20
14691.46886007899
 97
        0
 92
        7
 72
     0
 73
     1
 93
       12
 10
8968.146933391414
 20
14094.56886007908
 10
8968.146933391414
 20
14079.56886007908
 10
8913.196933391228
 20
14079.56886007908
 10
8913.196933391228
 20
13449.56886007908
 10
8968.146933391414
 20
13449.56886007908
 10
8968.146933391414
 20
13434.56886007908
 10
10807.44693339169
 20
13434.56886007908
 10
10807.44693339169
 20
13449.56886007897
 10
10862.39693339141
 20
13449.56886007908
 10
10862.39693339141
 20
14079.56886007908
 10
10807.44693339169
 20
14079.56886007885
 10
10807.44693339169
 20
14094.56886007908
 97
        0
 92
        7
 72
     0
 73
     1
 93
        8
 10
8968.146933391414
 20
13434.56886007908
 10
8968.146933391414
 20
13419.56886007908
 10
8913.196933391228
 20
13419.56886007908
 10
8913.196933391228
 20
12812.66886007906
 10
10862.39693339141
 20
12812.66886007917
 10
10862.39693339141
 20
13419.56886007896
 10
10807.44693339169
 20
13419.56886007908
 10
10807.44693339169
 20
13434.56886007908
 97
        0
 75
     0
 76
     1
 52
45.0
 41
1200.0
 77
     0
 78
     2
 53
45.0
 43
-40275.28627812471
 44
31004.27017184921
 45
-106.0660171779821
 46
106.0660171779821
 79
     0
 53
135.0
 43
-40275.28627812471
 44
31004.27017184921
 45
-106.0660171779821
 46
-106.0660171779821
 79
     0
 47
8.784363265905074
 98
        3
 10
10171.09679878242
 20
14437.56796323337
 10
10127.14059875226
 20
13796.3093310092
 10
10162.30561428862
 20
13128.69766170081
  0
LINE
  5
572
330
1F
100
AcDbEntity
  8
画層3-1
  6
Continuous
100
AcDbLine
 10
8862.396933391414
 20
12812.66886007906
 30
0.0
 11
10862.39693339141
 21
12812.66886007906
 31
0.0
  0
LINE
  5
573
330
1F
100
AcDbEntity
  8
画層3-1
  6
Continuous
100
AcDbLine
 10
8862.396933391414
 20
12774.56886007908
 30
0.0
 11
10862.39693339141
 21
12774.56886007908
 31
0.0
  0
LINE
  5
574
330
1F
100
AcDbEntity
  8
画層3-1
  6
Continuous
100
AcDbLine
 10
8928.196933391227
 20
14691.46886007899
 30
0.0
 11
10847.39693339141
 21
14691.46886007899
 31
0.0
  0
LINE
  5
575
330
1F
100
AcDbEntity
  8
画層3-2
  6
Continuous
100
AcDbLine
 10
8968.146933391414
 20
14094.56886007908
 30
0.0
 11
10807.44693339169
 21
14094.56886007908
 31
0.0
  0
LINE
  5
576
330
1F
100
AcDbEntity
  8
画層3-2
  6
Continuous
100
AcDbLine
 10
10807.44693339169
 20
13434.56886007908
 30
0.0
 11
8968.146933391414
 21
13434.56886007908
 31
0.0
  0
DIMENSION
  5
577
330
1F
100
AcDbEntity
  8
寸法
  6
Continuous
100
AcDbDimension
  2
*D3
 10
10887.79693339132
 20
8454.568860078735
 30
0.0
 11
9887.796933391319
 21
8733.140288650163
 31
0.0
 70
    32
 71
     5
 42
2000.0
  3
1_100
100
AcDbAlignedDimension
 13
8887.796933391321
 23
8892.068860078735
 33
0.0
 14
10887.79693339132
 24
9761.662894336431
 34
0.0
100
AcDbRotatedDimension
  0
DIMENSION
  5
578
330
1F
100
AcDbEntity
  8
寸法
  6
Continuous
100
AcDbDimension
  2
*D4
 10
18887.79693339132
 20
7654.568860078734
 30
0.0
 11
13887.79693339132
 21
7933.140288650164
 31
0.0
 70
    32
 71
     5
 42
10000.0
  3
1_100
100
AcDbAlignedDimension
 13
8887.796933391321
 23
9354.568860078968
 33
0.0
 14
18887.79693339132
 24
10512.10138828579
 34
0.0
100
AcDbRotatedDimension
  0
HATCH
  5
579
330
1F
100
AcDbEntity
  8
ﾈｯﾄ
 62
   230
370
    13
100
AcDbHatch
 10
0.0
 20
0.0
 30
0.0
210
0.0
220
0.0
230
1.0
  2
NET
 70
     0
 71
     0
 91
        6
 92
       23
 72
     0
 73
     1
 93
        3
 10
10695.86478887377
 20
21587.41886007906
 10
9101.684372433183
 20
21587.41886007906
 10
10931.41649262626
 20
20292.24289327026
 97
        0
 92
        7
 72
     0
 73
     1
 93
       14
 10
10931.41649262626
 20
20292.24289327026
 10
9101.684372433183
 20
21587.41886007906
 10
9095.946933391228
 20
21587.41886007906
 10
9095.946933391228
 20
21591.48010657324
 10
9056.265148195162
 20
21619.56886007909
 10
8995.946933391229
 20
21619.56886007909
 10
8995.946933391229
 20
19399.56886007908
 10
9045.946933391228
 20
19399.56886007908
 10
9045.946933391228
 20
19374.56886007908
 10
9121.396933391414
 20
19374.56886007908
 10
9121.396933391414
 20
19394.56985439306
 10
9275.946933391228
 20
19394.56985439306
 10
9275.946933391228
 20
19374.56886007908
 10
11098.31248787856
 20
19374.56886007908
 97
        0
 92
        7
 72
     0
 73
     1
 93
       15
 10
11518.4287111654
 20
17064.56886007908
 10
9275.946933391228
 20
17064.56886007908
 10
9275.946933391228
 20
17044.56985439306
 10
9121.396933391414
 20
17044.56985439306
 10
9121.396933391414
 20
17064.56886007908
 10
9045.946933391228
 20
17064.56886007908
 10
9045.946933391228
 20
17039.56886007908
 10
8995.946933391229
 20
17039.56886007908
 10
8995.946933391229
 20
14779.56886007908
 10
9056.245220764264
 20
14779.56886007908
 10
9088.099110242636
 20
14802.11659090632
 10
9076.463754059936
 20
14818.43579828137
 10
9202.303610085236
 20
14908.1577751631
 10
9214.245264293348
 20
14891.4089684772
 10
11605.78261286085
 20
16584.25531413235
 97
        0
 92
        7
 72
     0
 73
     1
 93
       16
 10
11098.31248787856
 20
19374.56886007908
 10
9275.946933391228
 20
19374.56886007908
 10
9275.946933391228
 20
19354.56985439306
 10
9121.396933391414
 20
19354.56985439306
 10
9121.396933391414
 20
19374.56886007908
 10
9045.946933391228
 20
19374.56886007908
 10
9045.946933391228
 20
19349.56886007908
 10
8995.946933391229
 20
19349.56886007908
 10
8995.946933391229
 20
17089.56886007908
 10
9045.946933391228
 20
17089.56886007908
 10
9045.946933391228
 20
17064.56886007908
 10
9121.396933391414
 20
17064.56886007908
 10
9121.396933391414
 20
17084.56985439306
 10
9275.946933391228
 20
17084.56985439306
 10
9275.946933391228
 20
17064.56886007908
 10
11518.4287111654
 20
17064.56886007908
 97
        0
 92
        7
 72
     0
 73
     1
 93
       12
 10
11605.78261286085
 20
16584.25531413235
 10
9214.245264293348
 20
14891.4089684772
 10
9225.525085822868
 20
14875.58841740832
 10
9099.685229798037
 20
14785.8664405266
 10
9088.099110242636
 20
14802.11659090632
 10
9045.926933391209
 20
14772.265074887
 10
9045.926933391209
 20
14754.56886007908
 10
9108.596933391137
 20
14754.56886007908
 10
9108.596933391137
 20
14774.34513941772
 10
9263.146933391414
 20
14774.34513941772
 10
9263.146933391414
 20
14754.56886007908
 10
11938.5449344527
 20
14754.56886007908
 97
        0
 92
        7
 72
     0
 73
     1
 93
        9
 10
10676.37757964218
 20
21694.56886007909
 10
9275.946933391228
 20
21694.56886007909
 10
9275.946933391228
 20
21674.34513941772
 10
9121.396933391414
 20
21674.34513941772
 10
9121.396933391414
 20
21694.56886007909
 10
9095.946933391228
 20
21694.56886007909
 10
9095.946933391228
 20
21591.48010657324
 10
9101.684372433183
 20
21587.41886007918
 10
10695.86478887377
 20
21587.41886007918
 97
        0
 75
     0
 76
     1
 52
0.0
 41
1000.0
 77
     0
 78
     2
 53
0.0
 43
2107.79745313032
 44
-23840.18177339
 45
0.0
 46
125.0
 79
     0
 53
90.0
 43
2107.79745313032
 44
-23840.18177339
 45
-125.0
 46
0.0000000000000077
 79
     0
 47
11.1692552315706
 98
        6
 10
10353.31571636647
 20
21305.40684807852
 10
10099.58997146012
 20
20088.60684493083
 10
10124.96248406423
 20
16995.90674504164
 10
10429.43337795204
 20
17300.10677825978
 10
11241.35576165253
 20
15221.40670261454
 10
10250.34793790262
 20
21662.97139480679
  0
LINE
  5
57A
330
1F
100
AcDbEntity
  8
画層1-1
  6
Continuous
100
AcDbLine
 10
18754.64693339141
 20
21644.56886007909
 30
0.0
 11
9020.926933391208
 21
14754.56886007908
 31
0.0
  0
LINE
  5
57B
330
1F
100
AcDbEntity
  8
画層1-1
  6
Continuous
100
AcDbLine
 10
9020.946933391227
 20
21644.56886007909
 30
0.0
 11
18754.64693339141
 21
14754.56886007908
 31
0.0
  0
LINE
  5
57C
330
1F
100
AcDbEntity
  8
画層1
  6
Continuous
100
AcDbLine
 10
25787.79693339132
 20
14754.56886007908
 30
0.0
 11
8887.796933391321
 21
14754.56886007908
 31
0.0
  0
LINE
  5
57D
330
1F
100
AcDbEntity
  8
画層1-1
  6
Continuous
100
AcDbLine
 10
8887.796933391321
 20
17064.56886007908
 30
0.0
 11
25787.79693339132
 21
17064.56886007897
 31
0.0
  0
LINE
  5
57E
330
1F
100
AcDbEntity
  8
画層3-1
  6
Continuous
100
AcDbLine
 10
8887.796933391321
 20
14729.56886007908
 30
0.0
 11
25787.79693339132
 21
14729.56886007908
 31
0.0
  0
LINE
  5
57F
330
1F
100
AcDbEntity
  8
画層1
  6
Continuous
100
AcDbLine
 10
25787.79693339132
 20
21694.56886007909
 30
0.0
 11
8887.796933391321
 21
21694.56886007909
 31
0.0
  0
LINE
  5
580
330
1F
100
AcDbEntity
  8
画層1-1
  6
Continuous
100
AcDbLine
 10
8887.796933391321
 20
19374.56886007908
 30
0.0
 11
25787.79693339132
 21
19374.56886007897
 31
0.0
  0
LINE
  5
581
330
1F
100
AcDbEntity
  8
画層2
  6
Continuous
100
AcDbLine
 10
25787.79693339132
 20
12754.56886007896
 30
0.0
 11
4708.317477565914
 21
12754.56886007908
 31
0.0
  0
LINE
  5
582
330
1F
100
AcDbEntity
  8
画層1
  6
Continuous
100
AcDbLine
 10
8995.946933391229
 20
10754.56886007908
 30
0.0
 11
8995.946933391229
 21
21754.56886007908
 31
0.0
  0
LINE
  5
583
330
1F
100
AcDbEntity
  8
通り芯
  6
DASHDOT
 48
100.0
100
AcDbLine
 10
8887.796933391321
 20
10512.10138828555
 30
0.0
 11
8887.796933391321
 21
21815.03151978172
 31
0.0
  0
LINE
  5
584
330
1F
100
AcDbEntity
  8
画層1
  6
Continuous
100
AcDbLine
 10
8779.646933391417
 20
21754.56886007908
 30
0.0
 11
8779.646933391417
 21
10754.56886007908
 31
0.0
  0
LINE
  5
585
330
1F
100
AcDbEntity
  8
画層1
  6
Continuous
100
AcDbLine
 10
8887.796933391321
 20
21719.56886007909
 30
0.0
 11
8887.796933391321
 21
14729.56886007908
 31
0.0
  0
TEXT
  5
586
330
1F
100
AcDbEntity
  8
図面枠
  6
Continuous
 62
     3
100
AcDbText
 10
2417.870467263027
 20
430.0102303882396
 30
0.0
 40
300.0
  1
KS2-H09-1
 41
0.75
  7
1_100
 11
2417.870467263027
 21
430.0102303882396
 31
0.0
100
AcDbText
 73
     1
  0
TEXT
  5
587
330
1F
100
AcDbEntity
  8
図面枠
  6
Continuous
 62
     3
100
AcDbText
 10
695.49796816356
 20
429.7909828967915
 30
0.0
 40
300.0
  1
1/100
 41
0.75
  7
1_100
 11
695.49796816356
 21
429.7909828967915
 31
0.0
100
AcDbText
 73
     1
  0
LINE
  5
588
330
1F
100
AcDbEntity
  8
画層1
  6
Continuous
100
AcDbLine
 10
9045.946933391228
 20
17039.56886007908
 30
0.0
 11
9045.946933391228
 21
17089.56886007908
 31
0.0
  0
LWPOLYLINE
  5
589
330
1F
100
AcDbEntity
  8
画層1-1
100
AcDbPolyline
 90
        4
 70
     1
 43
0.0
 10
9121.396933391414
 20
17084.56985439306
 10
9275.946933391228
 20
17084.56985439306
 10
9275.946933391228
 20
17044.56985439306
 10
9121.396933391414
 20
17044.56985439306
  0
CIRCLE
  5
58A
330
1F
100
AcDbEntity
  8
画層1
  6
Continuous
100
AcDbCircle
 10
9020.946933391227
 20
17064.56886007908
 30
0.0
 40
10.9509940156
  0
CIRCLE
  5
58B
330
1F
100
AcDbEntity
  8
画層1
  6
Continuous
100
AcDbCircle
 10
8754.646933391414
 20
17064.56886007908
 30
0.0
 40
10.9509940156
  0
LINE
  5
58C
330
1F
100
AcDbEntity
  8
画層1
  6
Continuous
100
AcDbLine
 10
8729.646933391414
 20
17089.56886007908
 30
0.0
 11
8729.646933391414
 21
17039.56886007908
 31
0.0
  0
LINE
  5
58D
330
1F
100
AcDbEntity
  8
画層1
  6
Continuous
100
AcDbLine
 10
8862.796933391321
 20
17039.56886007908
 30
0.0
 11
8862.796933391321
 21
17089.56886007908
 31
0.0
  0
LINE
  5
58E
330
1F
100
AcDbEntity
  8
画層1
  6
Continuous
100
AcDbLine
 10
8912.796933391321
 20
17039.56886007908
 30
0.0
 11
8912.796933391321
 21
17089.56886007908
 31
0.0
  0
LINE
  5
58F
330
1F
100
AcDbEntity
  8
画層1
  6
Continuous
100
AcDbLine
 10
9045.946933391228
 20
17089.56886007908
 30
0.0
 11
8729.646933391414
 21
17089.56886007908
 31
0.0
  0
LINE
  5
590
330
1F
100
AcDbEntity
  8
画層1
  6
Continuous
100
AcDbLine
 10
8729.646933391414
 20
17039.56886007908
 30
0.0
 11
9045.946933391228
 21
17039.56886007908
 31
0.0
  0
LINE
  5
591
330
1F
100
AcDbEntity
  8
画層1
  6
Continuous
100
AcDbLine
 10
9045.926933391209
 20
14729.56886007908
 30
0.0
 11
9045.926933391209
 21
14779.56886007908
 31
0.0
  0
LWPOLYLINE
  5
592
330
1F
100
AcDbEntity
  8
画層1
100
AcDbPolyline
 90
        4
 70
     1
 43
0.0
 10
9108.596933391137
 20
14774.34513941772
 10
9263.146933391414
 20
14774.34513941772
 10
9263.146933391414
 20
14734.34513941772
 10
9108.596933391137
 20
14734.34513941772
  0
LWPOLYLINE
  5
593
330
1F
100
AcDbEntity
  8
画層1-1
100
AcDbPolyline
 90
        4
 70
     1
 43
0.0
 10
9076.463754059936
 20
14818.43579828137
 10
9202.303610085236
 20
14908.1577751631
 10
9225.525085822868
 20
14875.58841740832
 10
9099.685229798037
 20
14785.8664405266
  0
CIRCLE
  5
594
330
1F
100
AcDbEntity
  8
画層1
  6
Continuous
100
AcDbCircle
 10
9020.926933391208
 20
14754.56886007908
 30
0.0
 40
10.9509940156
  0
LWPOLYLINE
  5
595
330
1F
100
AcDbEntity
  8
画層2
100
AcDbPolyline
 90
        3
 70
     0
 43
0.0
 10
9137.796933391319
 20
12754.56886007955
 10
9137.796933391319
 20
12454.56886007955
 10
9112.796933391319
 20
12454.56886007943
  0
LINE
  5
596
330
1F
100
AcDbEntity
  8
画層3-1
  6
Continuous
100
AcDbLine
 10
8913.196933391228
 20
14676.46886007899
 30
0.0
 11
8913.196933391228
 21
14109.56886007908
 31
0.0
  0
LINE
  5
597
330
1F
100
AcDbEntity
  8
画層3-2
  6
Continuous
100
AcDbLine
 10
8953.146933391414
 20
14691.4688600791
 30
0.0
 11
8953.146933391414
 21
14109.56886007908
 31
0.0
  0
LINE
  5
598
330
1F
100
AcDbEntity
  8
画層3-1
  6
Continuous
100
AcDbLine
 10
8968.146933391414
 20
14109.56886007908
 30
0.0
 11
8862.396933391414
 21
14109.56886007908
 31
0.0
  0
LINE
  5
599
330
1F
100
AcDbEntity
  8
画層3-1
  6
Continuous
100
AcDbLine
 10
8923.5969333916
 20
14676.46886007899
 30
0.0
 11
8938.5969333916
 21
14691.46886007899
 31
0.0
  0
LINE
  5
59A
330
1F
100
AcDbEntity
  8
画層3-1
  6
Continuous
100
AcDbLine
 10
8923.5969333916
 20
14676.46886007899
 30
0.0
 11
8862.396933391414
 21
14676.46886007911
 31
0.0
  0
CIRCLE
  5
59B
330
1F
100
AcDbEntity
  8
画層1
  6
Continuous
100
AcDbCircle
 10
8754.646933391414
 20
14754.56886007908
 30
0.0
 40
10.9509940156
  0
LINE
  5
59C
330
1F
100
AcDbEntity
  8
画層1
  6
Continuous
100
AcDbLine
 10
8729.646933391414
 20
14779.56886007908
 30
0.0
 11
8729.646933391414
 21
14729.56886007908
 31
0.0
  0
ARC
  5
59D
330
1F
100
AcDbEntity
  8
画層3-1
  6
Continuous
100
AcDbCircle
 10
8900.003974421139
 20
14693.91416605926
 30
0.0
 40
37.68645720078001
100
AcDbArc
 50
108.8995839705432
 51
183.72028097296
  0
LINE
  5
59E
330
1F
100
AcDbEntity
  8
画層1
  6
Continuous
100
AcDbLine
 10
8862.796933391321
 20
14729.56886007908
 30
0.0
 11
8862.796933391321
 21
14779.56886007908
 31
0.0
  0
ARC
  5
59F
330
1F
100
AcDbEntity
  8
画層3-1
  6
Continuous
100
AcDbCircle
 10
8928.196933391227
 20
14676.46886007899
 30
0.0
 40
15.0
100
AcDbArc
 50
90.0
 51
180.0
  0
LINE
  5
5A0
330
1F
100
AcDbEntity
  8
画層3-1
  6
Continuous
100
AcDbLine
 10
8938.5969333916
 20
14691.46886007899
 30
0.0
 11
8938.5969333916
 21
14729.56886007908
 31
0.0
  0
LINE
  5
5A1
330
1F
100
AcDbEntity
  8
画層1
  6
Continuous
100
AcDbLine
 10
8912.796933391321
 20
14729.56886007908
 30
0.0
 11
8912.796933391321
 21
14779.56886007908
 31
0.0
  0
LINE
  5
5A2
330
1F
100
AcDbEntity
  8
画層3-1
  6
Continuous
100
AcDbLine
 10
8862.396933391414
 20
14079.56886007908
 30
0.0
 11
8968.146933391414
 21
14079.56886007908
 31
0.0
  0
LINE
  5
5A3
330
1F
100
AcDbEntity
  8
画層3-1
  6
Continuous
100
AcDbLine
 10
8913.196933391228
 20
14079.56886007908
 30
0.0
 11
8913.196933391228
 21
13449.56886007908
 31
0.0
  0
LINE
  5
5A4
330
1F
100
AcDbEntity
  8
画層3-1
  6
Continuous
100
AcDbLine
 10
8968.146933391414
 20
13449.56886007908
 30
0.0
 11
8862.396933391414
 21
13449.56886007908
 31
0.0
  0
LINE
  5
5A5
330
1F
100
AcDbEntity
  8
画層3-1
  6
Continuous
100
AcDbLine
 10
8968.146933391414
 20
13419.56886007908
 30
0.0
 11
8968.146933391414
 21
13449.56886007908
 31
0.0
  0
LINE
  5
5A6
330
1F
100
AcDbEntity
  8
画層3-1
  6
Continuous
100
AcDbLine
 10
8862.396933391414
 20
13419.56886007908
 30
0.0
 11
8968.146933391414
 21
13419.56886007908
 31
0.0
  0
LINE
  5
5A7
330
1F
100
AcDbEntity
  8
画層3-2
  6
Continuous
100
AcDbLine
 10
8953.146933391414
 20
14079.56886007908
 30
0.0
 11
8953.146933391414
 21
13449.56886007908
 31
0.0
  0
LINE
  5
5A8
330
1F
100
AcDbEntity
  8
画層3-1
  6
Continuous
100
AcDbLine
 10
8968.146933391414
 20
14079.56886007908
 30
0.0
 11
8968.146933391414
 21
14109.56886007908
 31
0.0
  0
LWPOLYLINE
  5
5A9
330
1F
100
AcDbEntity
  8
画層2
100
AcDbPolyline
 90
        3
 70
     0
 43
0.0
 10
8662.796933391321
 20
12454.56886007955
 10
8637.796933391321
 20
12454.56886007955
 10
8637.796933391321
 20
12754.56886007955
  0
LINE
  5
5AA
330
1F
100
AcDbEntity
  8
画層2-1
  6
Continuous
100
AcDbLine
 10
8779.646933391417
 20
12854.56886007908
 30
0.0
 11
8995.946933391229
 21
12854.56886007908
 31
0.0
  0
LINE
  5
5AB
330
1F
100
AcDbEntity
  8
画層2-1
  6
Continuous
100
AcDbLine
 10
8779.646933391417
 20
12604.56886007908
 30
0.0
 11
8995.946933391229
 21
12604.56886007908
 31
0.0
  0
LINE
  5
5AC
330
1F
100
AcDbEntity
  8
画層3-1
  6
Continuous
100
AcDbLine
 10
8862.396933391414
 20
12554.56886007908
 30
0.0
 11
8913.196933391228
 21
12554.56886007908
 31
0.0
  0
LINE
  5
5AD
330
1F
100
AcDbEntity
  8
画層3-1
  6
Continuous
100
AcDbLine
 10
8913.196933391228
 20
12774.56886007896
 30
0.0
 11
8913.196933391228
 21
12554.56886007908
 31
0.0
  0
LINE
  5
5AE
330
1F
100
AcDbEntity
  8
画層3-1
  6
Continuous
100
AcDbLine
 10
8913.196933391228
 20
13419.56886007908
 30
0.0
 11
8913.196933391228
 21
12812.66886007917
 31
0.0
  0
LINE
  5
5AF
330
1F
100
AcDbEntity
  8
画層3-1
  6
Continuous
100
AcDbLine
 10
8862.396933391414
 20
14691.46886007921
 30
0.0
 11
8862.396933391414
 21
12554.56886007908
 31
0.0
  0
LINE
  5
5B0
330
1F
100
AcDbEntity
  8
画層3-2
  6
Continuous
100
AcDbLine
 10
8953.146933391414
 20
13419.56886007908
 30
0.0
 11
8953.146933391414
 21
12754.56886007908
 31
0.0
  0
LWPOLYLINE
  5
5B1
330
1F
100
AcDbEntity
  8
画層2
100
AcDbPolyline
 90
        4
 70
     0
 43
0.0
 10
9112.796933391319
 20
12454.56886007943
 10
9112.796933391319
 20
10654.56886007897
 10
8662.796933391321
 20
10654.56886007897
 10
8662.796933391321
 20
12454.56886007955
  0
LINE
  5
5B2
330
1F
100
AcDbEntity
  8
画層2
  6
Continuous
100
AcDbLine
 10
9112.796933391319
 20
10754.56886007908
 30
0.0
 11
8662.796933391321
 21
10754.56886007908
 31
0.0
  0
LINE
  5
5B3
330
1F
100
AcDbEntity
  8
画層1
  6
Continuous
100
AcDbLine
 10
9045.926933391209
 20
14779.56886007908
 30
0.0
 11
8729.646933391414
 21
14779.56886007908
 31
0.0
  0
LINE
  5
5B4
330
1F
100
AcDbEntity
  8
ﾊｯﾁﾝｸﾞ
  6
Continuous
100
AcDbLine
 10
8581.94123317553
 20
12754.56886007896
 30
0.0
 11
8637.796933391321
 21
12698.71315986341
 31
0.0
  0
LINE
  5
5B5
330
1F
100
AcDbEntity
  8
ﾊｯﾁﾝｸﾞ
  6
Continuous
100
AcDbLine
 10
9431.240512086734
 20
12754.5688600792
 30
0.0
 11
9379.168230305614
 21
12702.49657829854
 31
0.0
  0
LINE
  5
5B6
330
1F
100
AcDbEntity
  8
ﾊｯﾁﾝｸﾞ
  6
Continuous
100
AcDbLine
 10
9339.570250559322
 20
12742.09455804496
 30
0.0
 11
9447.095948524962
 21
12634.56886007908
 31
0.0
  0
LINE
  5
5B7
330
1F
100
AcDbEntity
  8
ﾊｯﾁﾝｸﾞ
  6
Continuous
100
AcDbLine
 10
9299.972270812563
 20
12702.49657829854
 30
0.0
 11
9367.89998903191
 21
12634.56886007908
 31
0.0
  0
LINE
  5
5B8
330
1F
100
AcDbEntity
  8
ﾊｯﾁﾝｸﾞ
  6
Continuous
100
AcDbLine
 10
9260.374291066272
 20
12662.89859855202
 30
0.0
 11
9288.704029538861
 21
12634.56886007896
 31
0.0
  0
LINE
  5
5B9
330
1F
100
AcDbEntity
  8
ﾊｯﾁﾝｸﾞ
  6
Continuous
100
AcDbLine
 10
9352.044552593218
 20
12754.56886007908
 30
0.0
 11
9232.04455259275
 21
12634.56886007896
 31
0.0
  0
LINE
  5
5BA
330
1F
100
AcDbEntity
  8
ﾊｯﾁﾝｸﾞ
  6
Continuous
100
AcDbLine
 10
9272.848593100627
 20
12754.56886007908
 30
0.0
 11
9152.848593099696
 21
12634.56886007896
 31
0.0
  0
LINE
  5
5BB
330
1F
100
AcDbEntity
  8
ﾊｯﾁﾝｸﾞ
  6
Continuous
100
AcDbLine
 10
9193.652633607111
 20
12754.56886007896
 30
0.0
 11
9137.796933391319
 21
12698.71315986341
 31
0.0
  0
LINE
  5
5BC
330
1F
100
AcDbEntity
  8
ﾊｯﾁﾝｸﾞ
  6
Continuous
100
AcDbLine
 10
9577.158129038478
 20
12742.09455804496
 30
0.0
 11
9630.920978021531
 21
12688.33170906202
 31
0.0
  0
LINE
  5
5BD
330
1F
100
AcDbEntity
  8
ﾊｯﾁﾝｸﾞ
  6
Continuous
100
AcDbLine
 10
9589.632431072836
 20
12754.56886007908
 30
0.0
 11
9469.632431071905
 21
12634.56886007908
 31
0.0
  0
LINE
  5
5BE
330
1F
100
AcDbEntity
  8
ﾊｯﾁﾝｸﾞ
  6
Continuous
100
AcDbLine
 10
9510.436471579785
 20
12754.56886007908
 30
0.0
 11
9418.766210051909
 21
12662.89859855202
 31
0.0
  0
LINE
  5
5BF
330
1F
100
AcDbEntity
  8
ﾊｯﾁﾝｸﾞ
  6
Continuous
100
AcDbLine
 10
9537.560149292188
 20
12702.49657829854
 30
0.0
 11
9605.487867511534
 21
12634.56886007908
 31
0.0
  0
LINE
  5
5C0
330
1F
100
AcDbEntity
  8
ﾊｯﾁﾝｸﾞ
  6
Continuous
100
AcDbLine
 10
9497.962169545429
 20
12662.89859855202
 30
0.0
 11
9526.291908018016
 21
12634.56886007896
 31
0.0
  0
HATCH
  5
5C1
330
1F
100
AcDbEntity
  8
ﾊｯﾁﾝｸﾞ
100
AcDbHatch
 10
0.0
 20
0.0
 30
0.0
210
0.0
220
0.0
230
1.0
  2
PLAST
 70
     0
 71
     0
 91
        2
 92
        7
 72
     0
 73
     1
 93
        6
 10
8887.796933391321
 20
12754.56886007908
 10
8637.796933391321
 20
12754.56886007908
 10
8637.796933391321
 20
12454.56886007955
 10
8662.796933391321
 20
12454.56886007955
 10
8662.796933391321
 20
10754.56886007908
 10
8887.796933391321
 20
10754.56886007908
 97
        0
 92
        7
 72
     0
 73
     1
 93
        6
 10
9112.796933391319
 20
12454.56886007943
 10
9137.796933391319
 20
12454.56886007955
 10
9137.796933391319
 20
12754.56886007908
 10
8887.796933391321
 20
12754.56886007908
 10
8887.796933391321
 20
10754.56886007908
 10
9112.796933391319
 20
10754.56886007908
 97
        0
 75
     0
 76
     1
 52
45.0
 41
2000.0
 77
     0
 78
     3
 53
45.0
 43
-309591.9702046931
 44
-241065.2404873822
 45
-353.5533905932737
 46
353.5533905932738
 79
     0
 53
45.0
 43
-309636.1643785172
 44
-241021.046313558
 45
-353.5533905932737
 46
353.5533905932738
 79
     0
 53
45.0
 43
-309680.3585523414
 44
-240976.8521397338
 45
-353.5533905932737
 46
353.5533905932738
 79
     0
 47
8.868493179427627
 98
        2
 10
8756.181483184176
 20
12239.46990713562
 10
9022.419701988066
 20
12319.28552600338
  0
INSERT
  5
5C2
330
1F
100
AcDbEntity
  8
ﾊｯﾁﾝｸﾞ
100
AcDbBlockReference
  2
sai450
 10
8887.796933391321
 20
10754.56886007908
 30
0.0
  0
LWPOLYLINE
  5
5C3
330
1F
100
AcDbEntity
  8
画層1
100
AcDbPolyline
 90
        4
 70
     1
 43
0.0
 10
8868.915794932007
 20
15109.56886007908
 10
8908.915794932005
 20
15109.56886007908
 10
8908.915794932005
 20
14929.56886007908
 10
8868.915794932007
 20
14929.56886007908
  0
MTEXT
  5
5C4
330
1F
100
AcDbEntity
  8
寸法文字
  6
Continuous
100
AcDbMText
 10
7613.72738168454
 20
13378.46215753366
 30
0.0
 40
300.0
 41
0.0
 71
     3
 72
     1
  1
（250）
  7
1_100
 73
     1
 44
1.0
1001
ACAD
1000
MTEXTBEGIN
1070
    73
1070
     1
1070
    44
1040
1.0
1070
    74
1070
     0
1000
MTEXTEND
  0
TEXT
  5
5C5
330
1F
100
AcDbEntity
  8
寸法
  6
Continuous
100
AcDbText
 10
5118.681968480139
 20
12810.43430883429
 30
0.0
 40
300.0
  1
▽GL
 41
0.75
  7
1_100
 72
     2
 11
5785.110539908711
 21
12810.43430883429
 31
0.0
100
AcDbText
 73
     1
  0
LINE
  5
5C6
330
1F
100
AcDbEntity
  8
ﾊｯﾁﾝｸﾞ
  6
Continuous
100
AcDbLine
 10
8423.549314189425
 20
12754.56886007908
 30
0.0
 11
8543.549314189894
 21
12634.56886007896
 31
0.0
  0
LINE
  5
5C7
330
1F
100
AcDbEntity
  8
ﾊｯﾁﾝｸﾞ
  6
Continuous
100
AcDbLine
 10
8475.621595970078
 20
12702.49657829854
 30
0.0
 11
8407.693877750729
 21
12634.56886007908
 31
0.0
  0
LINE
  5
5C8
330
1F
100
AcDbEntity
  8
ﾊｯﾁﾝｸﾞ
  6
Continuous
100
AcDbLine
 10
8436.023616223319
 20
12742.09455804496
 30
0.0
 11
8328.49791825768
 21
12634.56886007908
 31
0.0
  0
LINE
  5
5C9
330
1F
100
AcDbEntity
  8
ﾊｯﾁﾝｸﾞ
  6
Continuous
100
AcDbLine
 10
8277.631697237216
 20
12662.89859855202
 30
0.0
 11
8249.301958764627
 21
12634.56886007896
 31
0.0
  0
LINE
  5
5CA
330
1F
100
AcDbEntity
  8
ﾊｯﾁﾝｸﾞ
  6
Continuous
100
AcDbLine
 10
8238.033717490457
 20
12702.49657829854
 30
0.0
 11
8170.105999271108
 21
12634.56886007908
 31
0.0
  0
LINE
  5
5CB
330
1F
100
AcDbEntity
  8
ﾊｯﾁﾝｸﾞ
  6
Continuous
100
AcDbLine
 10
8344.353354695908
 20
12754.5688600792
 30
0.0
 11
8396.425636477026
 21
12702.49657829854
 31
0.0
  0
LINE
  5
5CC
330
1F
100
AcDbEntity
  8
ﾊｯﾁﾝｸﾞ
  6
Continuous
100
AcDbLine
 10
8265.157395202855
 20
12754.56886007908
 30
0.0
 11
8356.827656730734
 21
12662.89859855202
 31
0.0
  0
LINE
  5
5CD
330
1F
100
AcDbEntity
  8
ﾊｯﾁﾝｸﾞ
  6
Continuous
100
AcDbLine
 10
8185.961435709804
 20
12754.56886007908
 30
0.0
 11
8305.961435710733
 21
12634.56886007908
 31
0.0
  0
LINE
  5
5CE
330
1F
100
AcDbEntity
  8
ﾊｯﾁﾝｸﾞ
  6
Continuous
100
AcDbLine
 10
8198.435737744162
 20
12742.09455804496
 30
0.0
 11
8144.67288876111
 21
12688.33170906202
 31
0.0
  0
LINE
  5
5CF
330
1F
100
AcDbEntity
  8
ﾊｯﾁﾝｸﾞ
  6
Continuous
100
AcDbLine
 10
8515.219575716372
 20
12662.89859855202
 30
0.0
 11
8486.889837243785
 21
12634.56886007896
 31
0.0
  0
MTEXT
  5
5D0
102
{ACAD_REACTORS
330
5D1
102
}
330
1F
100
AcDbEntity
  8
寸法文字
  6
Continuous
100
AcDbMText
 10
7681.708982264345
 20
13531.86097742935
 30
0.0
 40
300.0
 41
0.0
 71
     9
 72
     1
  1
FRP被覆
  7
1_100
 73
     1
 44
1.0
1001
ACAD
1000
MTEXTBEGIN
1070
    73
1070
     1
1070
    44
1040
1.0
1070
    74
1070
     0
1000
MTEXTEND
  0
LEADER
  5
5D1
330
1F
100
AcDbEntity
  8
寸法引出
  6
Continuous
100
AcDbLeader
  3
1_100
 71
     0
 73
     0
 75
     1
 40
300.0
 41
1095.0
 76
     3
 10
8801.418811589201
 20
12813.91639048249
 30
0.0
 10
7841.708982264346
 20
13431.86097742935
 30
0.0
 10
7781.708982264347
 20
13431.86097742935
 30
0.0
340
5D0
  0
DIMENSION
  5
5D2
330
1F
100
AcDbEntity
  8
寸法
  6
Continuous
100
AcDbDimension
  2
*D5
 10
9112.796933391319
 20
10054.56886007908
 30
0.0
 11
8086.406697197075
 21
10235.90252166792
 31
0.0
 70
   160
  1
φ<>
 71
     5
 42
450.0
  3
1_100
100
AcDbAlignedDimension
 13
8662.796933391321
 23
10654.56886007908
 33
0.0
 14
9112.796933391319
 24
10654.56886007908
 34
0.0
100
AcDbRotatedDimension
  0
DIMENSION
  5
5D3
330
1F
100
AcDbEntity
  8
寸法
  6
Continuous
100
AcDbDimension
  2
*D6
 10
9137.796933391319
 20
9654.568860078969
 30
0.0
 11
8887.796933391321
 21
9404.568860078969
 31
0.0
 70
    32
  1
□<>
 71
     5
 42
500.0
  3
1_100
100
AcDbAlignedDimension
 13
8637.796933391321
 23
10654.56886007908
 33
0.0
 14
9137.796933391319
 24
10654.56886007908
 34
0.0
100
AcDbRotatedDimension
1001
ACAD
1000
DSTYLE
1002
{
1070
    77
1070
     2
1070
   174
1070
     1
1002
}
  0
LEADER
  5
5D4
330
1F
100
AcDbEntity
  8
寸法引出
  6
Continuous
100
AcDbLeader
  3
1_100
 71
     0
 73
     0
 75
     1
 40
346.6666666666666
 41
3117.142857142858
 76
     3
 10
8887.796933391321
 20
16295.81678196966
 30
0.0
 10
7737.688714467644
 20
17077.92518093965
 30
0.0
 10
7677.688714467644
 20
17077.92518093965
 30
0.0
340
5D5
  0
MTEXT
  5
5D5
102
{ACAD_REACTORS
330
5D4
102
}
330
1F
100
AcDbEntity
  8
寸法文字
  6
Continuous
100
AcDbMText
 10
7577.688714467644
 20
17177.92518093965
 30
0.0
 40
300.0
 41
0.0
 71
     9
 72
     1
  1
メッセンワイヤー22m㎡
  7
1_100
 73
     1
 44
1.0
1001
ACAD
1000
MTEXTBEGIN
1070
    73
1070
     1
1070
    44
1040
1.0
1070
    74
1070
     0
1000
MTEXTEND
  0
LINE
  5
5D6
330
1F
100
AcDbEntity
  8
ﾊｯﾁﾝｸﾞ
  6
Continuous
100
AcDbLine
 10
8502.745273682013
 20
12754.56886007908
 30
0.0
 11
8622.745273682943
 21
12634.56886007896
 31
0.0
  0
LINE
  5
5D7
330
1F
100
AcDbEntity
  8
画層1
  6
Continuous
100
AcDbLine
 10
9121.396933391414
 20
21694.56886007909
 30
0.0
 11
9045.946933391228
 21
21694.56886007909
 31
0.0
  0
LINE
  5
5D8
330
1F
100
AcDbEntity
  8
画層1
  6
Continuous
100
AcDbLine
 10
9045.946933391228
 20
21669.5688600791
 30
0.0
 11
9045.946933391228
 21
21719.56886007909
 31
0.0
  0
LWPOLYLINE
  5
5D9
330
1F
100
AcDbEntity
  8
画層1
100
AcDbPolyline
 90
        4
 70
     1
 43
0.0
 10
9121.396933391414
 20
21714.34513941772
 10
9275.946933391228
 20
21714.34513941772
 10
9275.946933391228
 20
21674.34513941772
 10
9121.396933391414
 20
21674.34513941772
  0
CIRCLE
  5
5DA
330
1F
100
AcDbEntity
  8
画層1
  6
Continuous
100
AcDbCircle
 10
9020.946933391227
 20
21694.56886007909
 30
0.0
 40
10.9509940156
  0
CIRCLE
  5
5DB
330
1F
100
AcDbEntity
  8
画層1
  6
Continuous
100
AcDbCircle
 10
9020.946933391227
 20
21644.56886007909
 30
0.0
 40
10.9509940156
  0
LINE
  5
5DC
330
1F
100
AcDbEntity
  8
画層1
  6
Continuous
100
AcDbLine
 10
9045.946933391228
 20
21619.56886007909
 30
0.0
 11
9045.946933391228
 21
21669.5688600791
 31
0.0
  0
LWPOLYLINE
  5
5DD
330
1F
100
AcDbEntity
  8
画層1-1
100
AcDbPolyline
 90
        4
 70
     1
 43
0.0
 10
9121.396933391414
 20
19394.56985439306
 10
9275.946933391228
 20
19394.56985439306
 10
9275.946933391228
 20
19354.56985439306
 10
9121.396933391414
 20
19354.56985439306
  0
LINE
  5
5DE
330
1F
100
AcDbEntity
  8
画層1
  6
Continuous
100
AcDbLine
 10
9045.946933391228
 20
19349.56886007908
 30
0.0
 11
9045.946933391228
 21
19399.56886007908
 31
0.0
  0
CIRCLE
  5
5DF
330
1F
100
AcDbEntity
  8
画層1
  6
Continuous
100
AcDbCircle
 10
9020.946933391227
 20
19374.56886007908
 30
0.0
 40
10.9509940156
  0
LINE
  5
5E0
330
1F
100
AcDbEntity
  8
画層1
  6
Continuous
100
AcDbLine
 10
8779.646933391417
 20
21754.56886007908
 30
0.0
 11
8995.946933391229
 21
21754.56886007908
 31
0.0
  0
LINE
  5
5E1
330
1F
100
AcDbEntity
  8
画層1
  6
Continuous
100
AcDbLine
 10
8779.646933391417
 20
21734.56886007909
 30
0.0
 11
8995.946933391229
 21
21734.56886007909
 31
0.0
  0
LINE
  5
5E2
330
1F
100
AcDbEntity
  8
画層1
  6
Continuous
100
AcDbLine
 10
8729.646933391414
 20
21719.56886007909
 30
0.0
 11
8729.646933391414
 21
21669.5688600791
 31
0.0
  0
CIRCLE
  5
5E3
330
1F
100
AcDbEntity
  8
画層1
  6
Continuous
100
AcDbCircle
 10
8754.646933391414
 20
21694.56886007909
 30
0.0
 40
10.9509940156
  0
LINE
  5
5E4
330
1F
100
AcDbEntity
  8
画層1
  6
Continuous
100
AcDbLine
 10
8862.796933391321
 20
21669.5688600791
 30
0.0
 11
8862.796933391321
 21
21719.56886007909
 31
0.0
  0
LINE
  5
5E5
330
1F
100
AcDbEntity
  8
画層1
  6
Continuous
100
AcDbLine
 10
8912.796933391321
 20
21669.5688600791
 30
0.0
 11
8912.796933391321
 21
21719.56886007909
 31
0.0
  0
LINE
  5
5E6
330
1F
100
AcDbEntity
  8
画層1
  6
Continuous
100
AcDbLine
 10
8912.796933391321
 20
21619.56886007909
 30
0.0
 11
8912.796933391321
 21
21669.5688600791
 31
0.0
  0
LINE
  5
5E7
330
1F
100
AcDbEntity
  8
画層1
  6
Continuous
100
AcDbLine
 10
8862.796933391321
 20
21619.56886007909
 30
0.0
 11
8862.796933391321
 21
21669.5688600791
 31
0.0
  0
CIRCLE
  5
5E8
330
1F
100
AcDbEntity
  8
画層1
  6
Continuous
100
AcDbCircle
 10
8754.646933391414
 20
21644.56886007909
 30
0.0
 40
10.9509940156
  0
LINE
  5
5E9
330
1F
100
AcDbEntity
  8
画層1
  6
Continuous
100
AcDbLine
 10
8729.646933391414
 20
21669.5688600791
 30
0.0
 11
8729.646933391414
 21
21619.56886007909
 31
0.0
  0
CIRCLE
  5
5EA
330
1F
100
AcDbEntity
  8
画層1
  6
Continuous
100
AcDbCircle
 10
8754.646933391414
 20
19374.56886007908
 30
0.0
 40
10.9509940156
  0
LINE
  5
5EB
330
1F
100
AcDbEntity
  8
画層1
  6
Continuous
100
AcDbLine
 10
8729.646933391414
 20
19399.56886007908
 30
0.0
 11
8729.646933391414
 21
19349.56886007908
 31
0.0
  0
LINE
  5
5EC
330
1F
100
AcDbEntity
  8
画層1
  6
Continuous
100
AcDbLine
 10
8862.796933391321
 20
19349.56886007908
 30
0.0
 11
8862.796933391321
 21
19399.56886007908
 31
0.0
  0
LINE
  5
5ED
330
1F
100
AcDbEntity
  8
画層1
  6
Continuous
100
AcDbLine
 10
8912.796933391321
 20
19349.56886007908
 30
0.0
 11
8912.796933391321
 21
19399.56886007908
 31
0.0
  0
LINE
  5
5EE
330
1F
100
AcDbEntity
  8
画層1
  6
Continuous
100
AcDbLine
 10
8729.646933391414
 20
21669.5688600791
 30
0.0
 11
9045.946933391228
 21
21669.5688600791
 31
0.0
  0
LINE
  5
5EF
330
1F
100
AcDbEntity
  8
画層1
  6
Continuous
100
AcDbLine
 10
9045.946933391228
 20
21719.56886007909
 30
0.0
 11
8729.646933391414
 21
21719.56886007909
 31
0.0
  0
LINE
  5
5F0
330
1F
100
AcDbEntity
  8
画層1
  6
Continuous
100
AcDbLine
 10
9045.946933391228
 20
19399.56886007908
 30
0.0
 11
8729.646933391414
 21
19399.56886007908
 31
0.0
  0
LINE
  5
5F1
330
1F
100
AcDbEntity
  8
画層1
  6
Continuous
100
AcDbLine
 10
8729.646933391414
 20
19349.56886007908
 30
0.0
 11
9045.946933391228
 21
19349.56886007908
 31
0.0
  0
LINE
  5
5F2
330
1F
100
AcDbEntity
  8
画層1
  6
Continuous
100
AcDbLine
 10
9045.946933391228
 20
21669.5688600791
 30
0.0
 11
8729.646933391414
 21
21669.5688600791
 31
0.0
  0
LINE
  5
5F3
330
1F
100
AcDbEntity
  8
画層1
  6
Continuous
100
AcDbLine
 10
8729.646933391414
 20
21619.56886007909
 30
0.0
 11
9045.946933391228
 21
21619.56886007909
 31
0.0
  0
MTEXT
  5
5F4
330
1F
100
AcDbEntity
  8
寸法文字
  6
Continuous
100
AcDbMText
 10
6698.832436497513
 20
20396.60507577814
 30
0.0
 40
300.0
 41
0.0
 71
     3
 72
     1
  1
（STKT-590鋼管）
  7
1_100
 73
     1
 44
1.0
1001
ACAD
1000
MTEXTBEGIN
1070
    73
1070
     1
1070
    44
1040
1.0
1070
    74
1070
     0
1000
MTEXTEND
  0
DIMENSION
  5
5F5
330
1F
100
AcDbEntity
  8
寸法
  6
Continuous
100
AcDbDimension
  2
*D7
 10
8995.946933391229
 20
22354.56886007908
 30
0.0
 11
8887.796933391321
 21
22654.56886007909
 31
0.0
 70
    32
  1
φ<>
 71
     5
 42
216.2999999998137
  3
1_100
100
AcDbAlignedDimension
 13
8779.646933391417
 23
21754.56886007908
 33
0.0
 14
8995.946933391229
 24
21754.56886007908
 34
0.0
100
AcDbRotatedDimension
  0
MTEXT
  5
5F6
102
{ACAD_REACTORS
330
5F7
102
}
330
1F
100
AcDbEntity
  8
寸法文字
  6
Continuous
100
AcDbMText
 10
7629.593349313087
 20
22687.09348690386
 30
0.0
 40
300.0
 41
0.0
 71
     9
 72
     1
  1
上部ネット下り防止付き
  7
1_100
 73
     1
 44
1.0
1001
ACAD
1000
MTEXTBEGIN
1070
    73
1070
     1
1070
    44
1040
1.0
1070
    74
1070
     0
1000
MTEXTEND
  0
LEADER
  5
5F7
330
1F
100
AcDbEntity
  8
寸法引出
  6
Continuous
100
AcDbLeader
  3
1_100
 71
     0
 73
     0
 75
     1
 40
300.0
 41
2940.000000000001
 76
     3
 10
8887.796933391321
 20
21754.56886007908
 30
0.0
 10
7789.59334931309
 20
22587.09348690386
 30
0.0
 10
7729.59334931309
 20
22587.09348690386
 30
0.0
340
5F6
  0
MTEXT
  5
5F8
102
{ACAD_REACTORS
330
5F9
102
}
330
1F
100
AcDbEntity
  8
寸法文字
  6
Continuous
100
AcDbMText
 10
7567.078661463878
 20
20748.85009027102
 30
0.0
 40
300.0
 41
0.0
 71
     9
 72
     1
  1
主柱KSポールφ216.3厚さ4.0mm
  7
1_100
 73
     1
 44
1.0
1001
ACAD
1000
ACAD_MTEXT_DEFINED_HEIGHT_BEGIN
1070
    46
1040
0.0
1000
ACAD_MTEXT_DEFINED_HEIGHT_END
1000
MTEXTBEGIN
1070
    73
1070
     1
1070
    44
1040
1.0
1070
    74
1070
     0
1000
MTEXTEND
  0
LEADER
  5
5F9
330
1F
100
AcDbEntity
  8
寸法引出
  6
Continuous
100
AcDbLeader
  3
1_100
 71
     0
 73
     0
 75
     1
 40
300.0
 41
4699.285714285712
 76
     3
 10
8779.646933391417
 20
19829.1867562293
 30
0.0
 10
7727.078661463879
 20
20648.85009027102
 30
0.0
 10
7667.07866146388
 20
20648.85009027102
 30
0.0
340
5F8
  0
DIMENSION
  5
5FA
330
1F
100
AcDbEntity
  8
寸法
  6
Continuous
100
AcDbDimension
  2
*D8
 10
27287.79693339132
 20
19374.56886007978
 30
0.0
 11
27009.2255048199
 21
18219.56886007979
 31
0.0
 70
    32
 71
     5
 42
2310.0
  3
1_100
100
AcDbAlignedDimension
 13
26287.79693339132
 23
17064.56886007978
 33
0.0
 14
26287.79693339132
 24
19374.56886007978
 34
0.0
 50
90.0
100
AcDbRotatedDimension
  0
LINE
  5
5FB
330
1F
100
AcDbEntity
  8
画層1
  6
Continuous
100
AcDbLine
 10
30887.79693339132
 20
21734.56886007955
 30
0.0
 11
30887.79693339132
 21
15109.79357505465
 31
0.0
  0
DIMENSION
  5
5FC
330
1F
100
AcDbEntity
  8
寸法
  6
Continuous
100
AcDbDimension
  2
*D9
 10
33487.79693339132
 20
19374.56886007955
 30
0.0
 11
33209.22550481989
 21
18219.56886007996
 31
0.0
 70
    32
 71
     5
 42
2309.999999999185
  3
1_100
100
AcDbAlignedDimension
 13
32387.79693339132
 23
17064.56886008036
 33
0.0
 14
32427.79693339132
 24
19374.56886007955
 34
0.0
 50
90.0
100
AcDbRotatedDimension
  0
DIMENSION
  5
5FD
330
1F
100
AcDbEntity
  8
寸法
  6
Continuous
100
AcDbDimension
  2
*D10
 10
28287.79693339132
 20
12754.56886007885
 30
0.0
 11
28009.22550481989
 21
17254.56886007885
 31
0.0
 70
    32
 71
     5
 42
9000.000000000005
  3
1_100
100
AcDbAlignedDimension
 13
26287.79693339132
 23
21754.56886007885
 33
0.0
 14
26287.79693339132
 24
12754.56886007885
 34
0.0
 50
90.0
100
AcDbRotatedDimension
  0
LINE
  5
5FE
330
1F
100
AcDbEntity
  8
DEFPOINTS
100
AcDbLine
 10
25787.79693339132
 20
21694.56886007885
 30
0.0
 11
25787.79693339132
 21
12754.56886007908
 31
0.0
  0
DIMENSION
  5
5FF
330
1F
100
AcDbEntity
  8
寸法
  6
Continuous
100
AcDbDimension
  2
*D11
 10
34487.79693339132
 20
12754.56886008036
 30
0.0
 11
34209.22550481989
 21
17254.56886008037
 31
0.0
 70
    32
 71
     5
 42
9000.000000000001
  3
1_100
100
AcDbAlignedDimension
 13
32387.79693339132
 23
21754.56886008037
 33
0.0
 14
32387.79693339132
 24
12754.56886008036
 34
0.0
 50
90.0
100
AcDbRotatedDimension
  0
LINE
  5
600
330
1F
100
AcDbEntity
  8
通り芯
  6
DASHDOT
 48
100.0
100
AcDbLine
 10
30887.79693339132
 20
10512.10138828602
 30
0.0
 11
30887.79693339132
 21
21815.03151978207
 31
0.0
  0
LINE
  5
601
330
1F
100
AcDbEntity
  8
画層1
  6
Continuous
100
AcDbLine
 10
30995.94693339123
 20
10754.56886007908
 30
0.0
 11
30995.94693339123
 21
21754.56886007897
 31
0.0
  0
LINE
  5
602
330
1F
100
AcDbEntity
  8
画層1
  6
Continuous
100
AcDbLine
 10
30779.64693339141
 20
21754.56886007897
 30
0.0
 11
30779.64693339141
 21
10754.56886007908
 31
0.0
  0
LINE
  5
603
330
1F
100
AcDbEntity
  8
画層1-1
  6
DASHED
 48
100.0
100
AcDbLine
 10
30754.64693339141
 20
21694.56886007897
 30
0.0
 11
30754.64693339141
 21
14754.56886007908
 31
0.0
  0
LINE
  5
604
330
1F
100
AcDbEntity
  8
寸法引出
  6
Continuous
100
AcDbLine
 10
19791.28704587668
 20
19374.56886007908
 30
0.0
 11
20641.96503605945
 21
15249.79378252876
 31
0.0
  0
LINE
  5
605
330
1F
100
AcDbEntity
  8
画層1
  6
Continuous
100
AcDbLine
 10
18995.94693339123
 20
10754.56886007908
 30
0.0
 11
18995.94693339123
 21
21754.56886007908
 31
0.0
  0
LINE
  5
606
330
1F
100
AcDbEntity
  8
通り芯
  6
DASHDOT
 48
100.0
100
AcDbLine
 10
18887.79693339132
 20
10512.10138828555
 30
0.0
 11
18887.79693339132
 21
21815.03151978172
 31
0.0
  0
LINE
  5
607
330
1F
100
AcDbEntity
  8
画層1
  6
Continuous
100
AcDbLine
 10
18779.64693339141
 20
21754.56886007908
 30
0.0
 11
18779.64693339141
 21
10754.56886007908
 31
0.0
  0
LINE
  5
608
330
1F
100
AcDbEntity
  8
DEFPOINTS
100
AcDbLine
 10
10665.98379515689
 20
21751.71886007899
 30
0.0
 11
11950.02083648248
 21
14691.46886007899
 31
0.0
  0
LINE
  5
609
330
1F
100
AcDbEntity
  8
DEFPOINTS
100
AcDbLine
 10
23420.64998897138
 20
21694.56886007885
 30
0.0
 11
24692.57817061125
 21
14691.4688600791
 31
0.0
  0
LINE
  5
60A
330
1F
100
AcDbEntity
  8
画層1-1
  6
Continuous
100
AcDbLine
 10
19020.94693339122
 20
21644.56886007909
 30
0.0
 11
25787.79693339132
 21
16869.89386495894
 31
0.0
  0
LINE
  5
60B
330
1F
100
AcDbEntity
  8
画層1-1
  6
Continuous
100
AcDbLine
 10
25787.79693339132
 20
19579.24820158483
 30
0.0
 11
19020.92693339121
 21
14754.56886007908
 31
0.0
  0
HATCH
  5
60C
330
1F
100
AcDbEntity
  8
ﾈｯﾄ
 62
   230
370
    13
100
AcDbHatch
 10
0.0
 20
0.0
 30
0.0
210
0.0
220
0.0
230
1.0
  2
NET
 70
     0
 71
     0
 91
        1
 92
        7
 72
     0
 73
     1
 93
        4
 10
25787.79693339132
 20
21694.56886007909
 10
23420.64998897138
 20
21694.56886007909
 10
24681.11772191543
 20
14754.56886007908
 10
25787.79693339132
 20
14754.56886007908
 97
        0
 75
     0
 76
     1
 52
0.0
 41
1000.0
 77
     0
 78
     2
 53
0.0
 43
2107.79745313032
 44
-23840.18177339
 45
0.0
 46
125.0
 79
     0
 53
90.0
 43
2107.79745313032
 44
-23840.18177339
 45
-125.0
 46
0.0000000000000077
 79
     0
 47
47.09376350338521
 98
        1
 10
24785.57928168979
 20
19712.46812629413
  0
LINE
  5
60D
330
1F
100
AcDbEntity
  8
画層3-1
  6
Continuous
100
AcDbLine
 10
24968.14693339141
 20
14109.56886007908
 30
0.0
 11
24807.44693339169
 21
14109.56886007908
 31
0.0
  0
ARC
  5
60E
330
1F
100
AcDbEntity
  8
画層3-1
  6
Continuous
100
AcDbCircle
 10
24847.39693339141
 20
14676.46886007911
 30
0.0
 40
15.0
100
AcDbArc
 50
0.0
 51
90.0
  0
LINE
  5
60F
330
1F
100
AcDbEntity
  8
画層3-1
  6
Continuous
100
AcDbLine
 10
24923.5969333916
 20
14676.46886007899
 30
0.0
 11
24851.99693339151
 21
14676.46886007911
 31
0.0
  0
LINE
  5
610
330
1F
100
AcDbEntity
  8
画層3-1
  6
Continuous
100
AcDbLine
 10
24807.44693339169
 20
14079.56886007908
 30
0.0
 11
24968.14693339141
 21
14079.56886007908
 31
0.0
  0
LINE
  5
611
330
1F
100
AcDbEntity
  8
画層3-1
  6
Continuous
100
AcDbLine
 10
24807.44693339169
 20
13419.56886007908
 30
0.0
 11
24968.14693339141
 21
13419.56886007908
 31
0.0
  0
LINE
  5
612
330
1F
100
AcDbEntity
  8
画層3-1
  6
Continuous
100
AcDbLine
 10
24968.14693339141
 20
13449.56886007908
 30
0.0
 11
24807.44693339169
 21
13449.56886007908
 31
0.0
  0
LINE
  5
613
330
1F
100
AcDbEntity
  8
画層3-1
  6
Continuous
100
AcDbLine
 10
24822.44693339169
 20
12832.66886007917
 30
0.0
 11
24953.14693339142
 21
12832.66886007917
 31
0.0
  0
LINE
  5
614
330
1F
100
AcDbEntity
  8
画層3-1
  6
Continuous
100
AcDbLine
 10
24862.39693339141
 20
12554.56886007908
 30
0.0
 11
24913.19693339123
 21
12554.56886007908
 31
0.0
  0
HATCH
  5
615
330
1F
100
AcDbEntity
  8
画層3-3
100
AcDbHatch
 10
0.0
 20
0.0
 30
0.0
210
0.0
220
0.0
230
1.0
  2
PLAST
 70
     0
 71
     0
 91
        1
 92
        7
 72
     0
 73
     1
 93
        4
 10
25012.79693339132
 20
12754.56886007908
 10
24762.79693339132
 20
12754.56886007908
 10
24762.79693339132
 20
12304.56886007908
 10
25012.79693339132
 20
12304.56886007908
 97
        0
 75
     0
 76
     1
 52
45.0
 41
1800.0
 77
     0
 78
     3
 53
45.0
 43
18745.45427762503
 44
6312.901843567884
 45
-318.1980515339463
 46
318.1980515339464
 79
     0
 53
45.0
 43
18705.67952118367
 44
6352.676600009591
 45
-318.1980515339463
 46
318.1980515339464
 79
     0
 53
45.0
 43
18665.90476474185
 44
6392.451356451415
 45
-318.1980515339463
 46
318.1980515339464
 79
     0
 47
2.4753793195157
 98
        1
 10
25001.69013115457
 20
12513.77630808685
  0
LWPOLYLINE
  5
616
330
1F
100
AcDbEntity
  8
画層3-2
100
AcDbPolyline
 90
        4
 70
     0
 43
0.0
 10
25012.79693339132
 20
12754.56886007908
 10
25012.79693339132
 20
12304.56886007908
 10
24762.79693339132
 20
12304.56886007908
 10
24762.79693339132
 20
12754.56886007908
  0
DIMENSION
  5
617
330
1F
100
AcDbEntity
  8
寸法
  6
Continuous
100
AcDbDimension
  2
*D12
 10
24887.79693339132
 20
8454.568860078735
 30
0.0
 11
23887.79693339132
 21
8733.140288650163
 31
0.0
 70
    32
 71
     5
 42
2000.0
  3
1_100
100
AcDbAlignedDimension
 13
22887.79693339132
 23
9761.662894336431
 33
0.0
 14
24887.79693339132
 24
9784.568860078737
 34
0.0
100
AcDbRotatedDimension
  0
HATCH
  5
618
330
1F
100
AcDbEntity
  8
画層3-3
 62
   230
370
    13
100
AcDbHatch
 10
0.0
 20
0.0
 30
0.0
210
0.0
220
0.0
230
1.0
  2
NET
 70
     0
 71
     0
 91
        9
 92
        7
 72
     0
 73
     1
 93
       12
 10
22807.44693339169
 20
14094.56886007908
 10
22807.44693339169
 20
14109.56886007908
 10
22862.39693339141
 20
14109.56886007908
 10
22862.39693339141
 20
14676.46886007899
 10
22851.99693339151
 20
14676.46886007899
 10
22836.99693339151
 20
14691.46886007921
 10
20938.5969333916
 20
14691.46886007899
 10
20923.5969333916
 20
14676.46886007899
 10
20913.1969333917
 20
14676.46886007899
 10
20913.1969333917
 20
14109.56886007908
 10
20968.14693339141
 20
14109.56886007908
 10
20968.14693339141
 20
14094.56886007908
 97
        0
 92
        7
 72
     0
 73
     1
 93
       12
 10
22807.44693339169
 20
13434.5688600792
 10
22807.44693339169
 20
13449.56886007908
 10
22862.39693339141
 20
13449.56886007908
 10
22862.39693339141
 20
14079.56886007908
 10
22807.44693339169
 20
14079.56886007908
 10
22807.44693339169
 20
14094.56886007908
 10
20968.14693339141
 20
14094.56886007908
 10
20968.14693339141
 20
14079.56886007908
 10
20913.1969333917
 20
14079.56886007908
 10
20913.1969333917
 20
13449.56886007908
 10
20968.14693339141
 20
13449.56886007908
 10
20968.14693339141
 20
13434.56886007908
 97
        0
 92
        7
 72
     0
 73
     1
 93
        8
 10
20968.14693339141
 20
13434.56886007908
 10
20968.14693339141
 20
13419.56886007908
 10
20913.1969333917
 20
13419.56886007908
 10
20913.1969333917
 20
12812.66886007906
 10
22862.39693339141
 20
12812.66886007917
 10
22862.39693339141
 20
13419.56886007908
 10
22807.44693339169
 20
13419.56886007908
 10
22807.44693339169
 20
13434.56886007908
 97
        0
 92
        7
 72
     0
 73
     1
 93
        8
 10
24862.39693339141
 20
12812.66886007894
 10
24862.39693339141
 20
13419.56886007908
 10
24807.44693339169
 20
13419.56886007908
 10
24807.44693339169
 20
13434.56886007908
 10
22968.14693339142
 20
13434.56886007908
 10
22968.14693339142
 20
13419.56886007908
 10
22913.19693339169
 20
13419.56886007908
 10
22913.19693339169
 20
12812.66886007906
 97
        0
 92
        7
 72
     0
 73
     1
 93
       12
 10
24807.44693339169
 20
13434.56886007908
 10
24807.44693339169
 20
13449.56886007908
 10
24862.39693339141
 20
13449.56886007908
 10
24862.39693339141
 20
14079.56886007908
 10
24807.44693339169
 20
14079.56886007908
 10
24807.44693339169
 20
14094.56886007908
 10
22968.14693339142
 20
14094.56886007908
 10
22968.14693339142
 20
14079.56886007908
 10
22913.19693339169
 20
14079.56886007908
 10
22913.19693339169
 20
13449.56886007908
 10
22968.14693339142
 20
13449.56886007908
 10
22968.14693339142
 20
13434.56886007908
 97
        0
 92
        7
 72
     0
 73
     1
 93
       12
 10
22938.5969333916
 20
14691.4688600791
 10
22923.5969333916
 20
14676.46886007899
 10
22913.19693339169
 20
14676.46886007899
 10
22913.19693339169
 20
14109.56886007908
 10
22968.14693339142
 20
14109.56886007908
 10
22968.14693339142
 20
14094.56886007908
 10
24807.44693339169
 20
14094.56886007908
 10
24807.44693339169
 20
14109.56886007908
 10
24862.39693339188
 20
14109.56886007908
 10
24862.39693339188
 20
14676.46886007911
 10
24851.99693339151
 20
14676.46886007911
 10
24836.99693339197
 20
14691.46886007899
 97
        0
 92
        7
 72
     0
 73
     1
 93
        8
 10
24913.19693339169
 20
14109.56886007908
 10
24968.14693339188
 20
14109.56886007908
 10
24968.14693339188
 20
14094.56886007908
 10
25787.79693339132
 20
14094.56886007908
 10
25787.79693339132
 20
14691.46886007921
 10
24938.5969333916
 20
14691.4688600791
 10
24923.5969333916
 20
14676.46886007899
 10
24913.19693339169
 20
14676.46886007899
 97
        0
 92
        7
 72
     0
 73
     1
 93
        8
 10
24913.19693339169
 20
13449.56886007908
 10
24968.14693339188
 20
13449.56886007908
 10
24968.14693339188
 20
13434.56886007908
 10
25787.79693339132
 20
13434.56886007908
 10
25787.79693339132
 20
14094.56886007908
 10
24968.14693339188
 20
14094.56886007908
 10
24968.14693339188
 20
14079.56886007908
 10
24913.19693339169
 20
14079.56886007908
 97
        0
 92
        7
 72
     0
 73
     1
 93
        6
 10
24968.14693339188
 20
13434.56886007908
 10
24968.14693339188
 20
13419.56886007908
 10
24913.19693339169
 20
13419.56886007908
 10
24913.19693339169
 20
12812.66886007906
 10
25787.79693339132
 20
12812.66886007917
 10
25787.79693339132
 20
13434.56886007908
 97
        0
 75
     0
 76
     1
 52
45.0
 41
1200.0
 77
     0
 78
     2
 53
45.0
 43
2107.79745313032
 44
-23840.18177339
 45
-106.0660171779821
 46
106.0660171779821
 79
     0
 53
135.0
 43
2107.79745313032
 44
-23840.18177339
 45
-106.0660171779821
 46
-106.0660171779821
 79
     0
 47
10.47656177152982
 98
        9
 10
22494.05900067762
 20
14329.54310752048
 10
22441.63530002227
 20
13732.37907513875
 10
22389.21159936693
 20
13156.16816817495
 10
23500.59366235854
 20
13072.35570852846
 10
23511.07844592277
 20
13753.33220055645
 10
23636.8952695841
 20
14497.16811086253
 10
25094.27359764483
 20
14476.21498544483
 10
25073.30417529373
 20
13858.0978276454
 10
25220.09049369507
 20
13198.07441901035
  0
LINE
  5
619
330
1F
100
AcDbEntity
  8
画層3-1
  6
Continuous
100
AcDbLine
 10
24862.39693339141
 20
14676.46886007911
 30
0.0
 11
24862.39693339141
 21
14109.56886007908
 31
0.0
  0
LINE
  5
61A
330
1F
100
AcDbEntity
  8
画層3-2
  6
Continuous
100
AcDbLine
 10
24822.44693339169
 20
14109.56886007908
 30
0.0
 11
24822.44693339123
 21
14691.4688600791
 31
0.0
  0
LINE
  5
61B
330
1F
100
AcDbEntity
  8
画層3-1
  6
Continuous
100
AcDbLine
 10
24836.99693339151
 20
14729.56886007908
 30
0.0
 11
24836.99693339151
 21
14691.4688600791
 31
0.0
  0
LINE
  5
61C
330
1F
100
AcDbEntity
  8
画層3-1
  6
Continuous
100
AcDbLine
 10
24836.99693339151
 20
14691.4688600791
 30
0.0
 11
24851.99693339151
 21
14676.46886007911
 31
0.0
  0
LINE
  5
61D
330
1F
100
AcDbEntity
  8
画層3-1
  6
Continuous
100
AcDbLine
 10
24807.44693339169
 20
13449.56886007908
 30
0.0
 11
24807.44693339169
 21
13419.56886007908
 31
0.0
  0
LINE
  5
61E
330
1F
100
AcDbEntity
  8
画層3-1
  6
Continuous
100
AcDbLine
 10
24862.39693339141
 20
14079.56886007908
 30
0.0
 11
24862.39693339141
 21
13449.56886007908
 31
0.0
  0
LINE
  5
61F
330
1F
100
AcDbEntity
  8
画層3-2
  6
Continuous
100
AcDbLine
 10
24822.44693339169
 20
13449.56886007908
 30
0.0
 11
24822.44693339169
 21
14079.56886007908
 31
0.0
  0
LINE
  5
620
330
1F
100
AcDbEntity
  8
画層3-1
  6
Continuous
100
AcDbLine
 10
24807.44693339169
 20
14109.56886007908
 30
0.0
 11
24807.44693339169
 21
14079.56886007908
 31
0.0
  0
LINE
  5
621
330
1F
100
AcDbEntity
  8
画層3-1
  6
Continuous
100
AcDbLine
 10
24862.39693339141
 20
12774.56886007931
 30
0.0
 11
24862.39693339141
 21
12554.56886007908
 31
0.0
  0
LINE
  5
622
330
1F
100
AcDbEntity
  8
画層3-2
  6
Continuous
100
AcDbLine
 10
24822.44693339169
 20
12754.56886007908
 30
0.0
 11
24822.44693339169
 21
13419.56886007908
 31
0.0
  0
LINE
  5
623
330
1F
100
AcDbEntity
  8
画層3-1
  6
Continuous
100
AcDbLine
 10
24862.39693339141
 20
13419.56886007908
 30
0.0
 11
24862.39693339141
 21
12812.66886007906
 31
0.0
  0
LINE
  5
624
330
1F
100
AcDbEntity
  8
画層1
  6
Continuous
100
AcDbLine
 10
18729.64693339141
 20
17039.56886007908
 30
0.0
 11
19045.94693339123
 21
17039.56886007908
 31
0.0
  0
LINE
  5
625
330
1F
100
AcDbEntity
  8
画層1
  6
Continuous
100
AcDbLine
 10
19045.94693339123
 20
17089.56886007908
 30
0.0
 11
18729.64693339141
 21
17089.56886007908
 31
0.0
  0
LINE
  5
626
330
1F
100
AcDbEntity
  8
画層1
  6
Continuous
100
AcDbLine
 10
18862.79693339131
 20
17039.56886007908
 30
0.0
 11
18862.79693339131
 21
17089.56886007908
 31
0.0
  0
LINE
  5
627
330
1F
100
AcDbEntity
  8
画層1
  6
Continuous
100
AcDbLine
 10
18729.64693339141
 20
17089.56886007908
 30
0.0
 11
18729.64693339141
 21
17039.56886007908
 31
0.0
  0
CIRCLE
  5
628
330
1F
100
AcDbEntity
  8
画層1
  6
Continuous
100
AcDbCircle
 10
18754.64693339141
 20
17064.56886007908
 30
0.0
 40
10.9509940156
  0
LINE
  5
629
330
1F
100
AcDbEntity
  8
画層1
  6
Continuous
100
AcDbLine
 10
18912.79693339131
 20
17039.56886007908
 30
0.0
 11
18912.79693339131
 21
17089.56886007908
 31
0.0
  0
LINE
  5
62A
330
1F
100
AcDbEntity
  8
画層1
  6
Continuous
100
AcDbLine
 10
19045.94693339123
 20
17039.56886007908
 30
0.0
 11
19045.94693339123
 21
17089.56886007908
 31
0.0
  0
CIRCLE
  5
62B
330
1F
100
AcDbEntity
  8
画層1
  6
Continuous
100
AcDbCircle
 10
19020.94693339122
 20
17064.56886007908
 30
0.0
 40
10.9509940156
  0
LINE
  5
62C
330
1F
100
AcDbEntity
  8
寸法引出
  6
Continuous
100
AcDbLine
 10
19820.21656341125
 20
17064.56886007908
 30
0.0
 11
20641.96503605945
 21
15249.79378252876
 31
0.0
  0
LEADER
  5
62D
330
1F
100
AcDbEntity
  8
寸法引出
  6
Continuous
100
AcDbLeader
  3
1_100
 71
     0
 73
     0
 75
     1
 40
300.0
 41
1319.999999999999
 76
     3
 10
18755.11566243479
 20
17039.56886007908
 30
0.0
 10
18426.86813578634
 20
16268.57575932195
 30
0.0
 10
18366.86813578634
 20
16268.57575932195
 30
0.0
340
62E
  0
MTEXT
  5
62E
102
{ACAD_REACTORS
330
62D
102
}
330
1F
100
AcDbEntity
  8
寸法文字
  6
Continuous
100
AcDbMText
 10
18266.86813578634
 20
16368.57575932195
 30
0.0
 40
300.0
 41
0.0
 71
     9
 72
     1
  1
バンド金具
  7
1_100
 73
     1
 44
1.0
1001
ACAD
1000
MTEXTBEGIN
1070
    73
1070
     1
1070
    44
1040
1.0
1070
    74
1070
     0
1000
MTEXTEND
  0
LINE
  5
62F
330
1F
100
AcDbEntity
  8
画層3-1
  6
Continuous
100
AcDbLine
 10
22862.39693339141
 20
14676.46886007911
 30
0.0
 11
22862.39693339141
 21
14109.56886007908
 31
0.0
  0
LINE
  5
630
330
1F
100
AcDbEntity
  8
画層3-2
  6
Continuous
100
AcDbLine
 10
22822.4469333917
 20
14109.56886007908
 30
0.0
 11
22822.44693339123
 21
14691.4688600791
 31
0.0
  0
LINE
  5
631
330
1F
100
AcDbEntity
  8
画層3-1
  6
Continuous
100
AcDbLine
 10
22913.19693339123
 20
14676.46886007899
 30
0.0
 11
22913.19693339123
 21
14109.56886007908
 31
0.0
  0
LINE
  5
632
330
1F
100
AcDbEntity
  8
画層3-2
  6
Continuous
100
AcDbLine
 10
22953.14693339141
 20
14691.4688600791
 30
0.0
 11
22953.14693339141
 21
14109.56886007908
 31
0.0
  0
LINE
  5
633
330
1F
100
AcDbEntity
  8
画層3-1
  6
Continuous
100
AcDbLine
 10
22968.14693339142
 20
14109.56886007908
 30
0.0
 11
22807.44693339169
 21
14109.56886007908
 31
0.0
  0
LINE
  5
634
330
1F
100
AcDbEntity
  8
画層3-1
  6
Continuous
100
AcDbLine
 10
22923.5969333916
 20
14676.46886007899
 30
0.0
 11
22851.99693339151
 21
14676.46886007911
 31
0.0
  0
LINE
  5
635
330
1F
100
AcDbEntity
  8
画層3-1
  6
Continuous
100
AcDbLine
 10
22836.99693339151
 20
14691.4688600791
 30
0.0
 11
22851.99693339151
 21
14676.46886007911
 31
0.0
  0
LINE
  5
636
330
1F
100
AcDbEntity
  8
画層3-1
  6
Continuous
100
AcDbLine
 10
22836.99693339151
 20
14729.56886007908
 30
0.0
 11
22836.99693339151
 21
14691.4688600791
 31
0.0
  0
ARC
  5
637
330
1F
100
AcDbEntity
  8
画層3-1
  6
Continuous
100
AcDbCircle
 10
22847.39693339141
 20
14676.46886007911
 30
0.0
 40
15.0
100
AcDbArc
 50
0.0
 51
90.0
  0
LINE
  5
638
330
1F
100
AcDbEntity
  8
画層3-1
  6
Continuous
100
AcDbLine
 10
22923.5969333916
 20
14676.46886007899
 30
0.0
 11
22938.5969333916
 21
14691.46886007899
 31
0.0
  0
LINE
  5
639
330
1F
100
AcDbEntity
  8
画層3-1
  6
Continuous
100
AcDbLine
 10
22938.5969333916
 20
14691.46886007899
 30
0.0
 11
22938.5969333916
 21
14729.56886007908
 31
0.0
  0
ARC
  5
63A
330
1F
100
AcDbEntity
  8
画層3-1
  6
Continuous
100
AcDbCircle
 10
22928.19693339123
 20
14676.46886007899
 30
0.0
 40
15.0
100
AcDbArc
 50
90.0
 51
180.0
  0
LINE
  5
63B
330
1F
100
AcDbEntity
  8
画層3-1
  6
Continuous
100
AcDbLine
 10
22807.44693339169
 20
14079.56886007908
 30
0.0
 11
22968.14693339142
 21
14079.56886007908
 31
0.0
  0
LINE
  5
63C
330
1F
100
AcDbEntity
  8
画層3-1
  6
Continuous
100
AcDbLine
 10
22968.14693339142
 20
13449.56886007908
 30
0.0
 11
22807.44693339169
 21
13449.56886007908
 31
0.0
  0
LINE
  5
63D
330
1F
100
AcDbEntity
  8
画層3-1
  6
Continuous
100
AcDbLine
 10
22807.44693339169
 20
13419.56886007908
 30
0.0
 11
22968.14693339142
 21
13419.56886007908
 31
0.0
  0
LINE
  5
63E
330
1F
100
AcDbEntity
  8
画層3-1
  6
Continuous
100
AcDbLine
 10
22807.44693339169
 20
13449.56886007908
 30
0.0
 11
22807.44693339169
 21
13419.56886007908
 31
0.0
  0
LINE
  5
63F
330
1F
100
AcDbEntity
  8
画層3-1
  6
Continuous
100
AcDbLine
 10
22862.39693339141
 20
14079.56886007908
 30
0.0
 11
22862.39693339141
 21
13449.56886007908
 31
0.0
  0
LINE
  5
640
330
1F
100
AcDbEntity
  8
画層3-1
  6
Continuous
100
AcDbLine
 10
22913.19693339123
 20
14079.56886007908
 30
0.0
 11
22913.19693339123
 21
13449.56886007908
 31
0.0
  0
LINE
  5
641
330
1F
100
AcDbEntity
  8
画層3-2
  6
Continuous
100
AcDbLine
 10
22953.14693339141
 20
14079.56886007908
 30
0.0
 11
22953.14693339141
 21
13449.56886007908
 31
0.0
  0
LINE
  5
642
330
1F
100
AcDbEntity
  8
画層3-2
  6
Continuous
100
AcDbLine
 10
22822.4469333917
 20
13449.56886007908
 30
0.0
 11
22822.4469333917
 21
14079.56886007908
 31
0.0
  0
LINE
  5
643
330
1F
100
AcDbEntity
  8
画層3-1
  6
Continuous
100
AcDbLine
 10
22968.14693339142
 20
13419.56886007908
 30
0.0
 11
22968.14693339142
 21
13449.56886007908
 31
0.0
  0
LINE
  5
644
330
1F
100
AcDbEntity
  8
画層3-1
  6
Continuous
100
AcDbLine
 10
22807.44693339169
 20
14109.56886007908
 30
0.0
 11
22807.44693339169
 21
14079.56886007908
 31
0.0
  0
LINE
  5
645
330
1F
100
AcDbEntity
  8
画層3-1
  6
Continuous
100
AcDbLine
 10
22968.14693339142
 20
14079.56886007908
 30
0.0
 11
22968.14693339142
 21
14109.56886007908
 31
0.0
  0
HATCH
  5
646
330
1F
100
AcDbEntity
  8
画層3-3
100
AcDbHatch
 10
0.0
 20
0.0
 30
0.0
210
0.0
220
0.0
230
1.0
  2
PLAST
 70
     0
 71
     0
 91
        1
 92
        7
 72
     0
 73
     1
 93
        4
 10
23012.79693339132
 20
12754.56886007908
 10
22762.79693339132
 20
12754.56886007908
 10
22762.79693339132
 20
12304.56886007908
 10
23012.79693339132
 20
12304.56886007908
 97
        0
 75
     0
 76
     1
 52
45.0
 41
1800.0
 77
     0
 78
     3
 53
45.0
 43
16745.45427762503
 44
6312.901843567884
 45
-318.1980515339463
 46
318.1980515339464
 79
     0
 53
45.0
 43
16705.67952118367
 44
6352.676600009591
 45
-318.1980515339463
 46
318.1980515339464
 79
     0
 53
45.0
 43
16665.90476474185
 44
6392.451356451415
 45
-318.1980515339463
 46
318.1980515339464
 79
     0
 47
2.4753793195157
 98
        1
 10
23001.69013115457
 20
12513.77630808685
  0
LWPOLYLINE
  5
647
330
1F
100
AcDbEntity
  8
画層3-2
100
AcDbPolyline
 90
        4
 70
     0
 43
0.0
 10
23012.79693339132
 20
12754.56886007908
 10
23012.79693339132
 20
12304.56886007908
 10
22762.79693339132
 20
12304.56886007908
 10
22762.79693339132
 20
12754.56886007908
  0
LINE
  5
648
330
1F
100
AcDbEntity
  8
画層3-1
  6
Continuous
100
AcDbLine
 10
22862.39693339141
 20
12554.56886007908
 30
0.0
 11
22913.19693339123
 21
12554.56886007908
 31
0.0
  0
LINE
  5
649
330
1F
100
AcDbEntity
  8
画層3-1
  6
Continuous
100
AcDbLine
 10
22822.4469333917
 20
12832.66886007917
 30
0.0
 11
22953.14693339141
 21
12832.66886007917
 31
0.0
  0
LINE
  5
64A
330
1F
100
AcDbEntity
  8
画層3-1
  6
Continuous
100
AcDbLine
 10
22862.39693339141
 20
12774.56886007931
 30
0.0
 11
22862.39693339141
 21
12554.56886007908
 31
0.0
  0
LINE
  5
64B
330
1F
100
AcDbEntity
  8
画層3-1
  6
Continuous
100
AcDbLine
 10
22913.19693339123
 20
12774.56886007896
 30
0.0
 11
22913.19693339123
 21
12554.56886007908
 31
0.0
  0
LINE
  5
64C
330
1F
100
AcDbEntity
  8
画層3-1
  6
Continuous
100
AcDbLine
 10
22862.39693339141
 20
13419.56886007908
 30
0.0
 11
22862.39693339141
 21
12812.66886007906
 31
0.0
  0
LINE
  5
64D
330
1F
100
AcDbEntity
  8
画層3-2
  6
Continuous
100
AcDbLine
 10
22822.4469333917
 20
12754.56886007908
 30
0.0
 11
22822.4469333917
 21
13419.56886007908
 31
0.0
  0
LINE
  5
64E
330
1F
100
AcDbEntity
  8
画層3-1
  6
Continuous
100
AcDbLine
 10
22913.19693339123
 20
13419.56886007908
 30
0.0
 11
22913.19693339123
 21
12812.66886007917
 31
0.0
  0
LINE
  5
64F
330
1F
100
AcDbEntity
  8
画層3-2
  6
Continuous
100
AcDbLine
 10
22953.14693339141
 20
13419.56886007908
 30
0.0
 11
22953.14693339141
 21
12754.56886007908
 31
0.0
  0
LINE
  5
650
330
1F
100
AcDbEntity
  8
画層3-通り芯
  6
DASHDOT
 48
100.0
100
AcDbLine
 10
22887.79693339132
 20
12208.19930494732
 30
0.0
 11
22887.79693339132
 21
14754.5688600792
 31
0.0
  0
LINE
  5
651
330
1F
100
AcDbEntity
  8
画層3-2
  6
Continuous
100
AcDbLine
 10
20953.14693339141
 20
14691.4688600791
 30
0.0
 11
20953.14693339141
 21
14109.56886007908
 31
0.0
  0
LINE
  5
652
330
1F
100
AcDbEntity
  8
画層3-1
  6
Continuous
100
AcDbLine
 10
20913.19693339123
 20
14676.46886007899
 30
0.0
 11
20913.19693339123
 21
14109.56886007908
 31
0.0
  0
LINE
  5
653
330
1F
100
AcDbEntity
  8
画層3-2
  6
Continuous
100
AcDbLine
 10
20822.44693339169
 20
14109.56886007908
 30
0.0
 11
20822.44693339123
 21
14691.4688600791
 31
0.0
  0
LINE
  5
654
330
1F
100
AcDbEntity
  8
画層3-1
  6
Continuous
100
AcDbLine
 10
20862.39693339142
 20
14676.46886007911
 30
0.0
 11
20862.39693339142
 21
14109.56886007908
 31
0.0
  0
LINE
  5
655
330
1F
100
AcDbEntity
  8
画層3-1
  6
Continuous
100
AcDbLine
 10
20968.14693339141
 20
14109.56886007908
 30
0.0
 11
20807.44693339169
 21
14109.56886007908
 31
0.0
  0
ARC
  5
656
330
1F
100
AcDbEntity
  8
画層3-1
  6
Continuous
100
AcDbCircle
 10
20928.19693339123
 20
14676.46886007899
 30
0.0
 40
15.0
100
AcDbArc
 50
90.0
 51
180.0
  0
LINE
  5
657
330
1F
100
AcDbEntity
  8
画層3-1
  6
Continuous
100
AcDbLine
 10
20938.5969333916
 20
14691.46886007899
 30
0.0
 11
20938.5969333916
 21
14729.56886007908
 31
0.0
  0
LINE
  5
658
330
1F
100
AcDbEntity
  8
画層3-1
  6
Continuous
100
AcDbLine
 10
20923.5969333916
 20
14676.46886007899
 30
0.0
 11
20938.5969333916
 21
14691.46886007899
 31
0.0
  0
ARC
  5
659
330
1F
100
AcDbEntity
  8
画層3-1
  6
Continuous
100
AcDbCircle
 10
20847.39693339141
 20
14676.46886007911
 30
0.0
 40
15.0
100
AcDbArc
 50
0.0
 51
90.0
  0
LINE
  5
65A
330
1F
100
AcDbEntity
  8
画層3-1
  6
Continuous
100
AcDbLine
 10
20836.99693339151
 20
14729.56886007908
 30
0.0
 11
20836.99693339151
 21
14691.4688600791
 31
0.0
  0
LINE
  5
65B
330
1F
100
AcDbEntity
  8
画層3-1
  6
Continuous
100
AcDbLine
 10
20836.99693339151
 20
14691.4688600791
 30
0.0
 11
20851.99693339151
 21
14676.46886007911
 31
0.0
  0
LINE
  5
65C
330
1F
100
AcDbEntity
  8
画層3-1
  6
Continuous
100
AcDbLine
 10
20923.5969333916
 20
14676.46886007899
 30
0.0
 11
20851.99693339151
 21
14676.46886007911
 31
0.0
  0
LINE
  5
65D
330
1F
100
AcDbEntity
  8
画層3-2
  6
Continuous
100
AcDbLine
 10
20822.44693339169
 20
13449.56886007908
 30
0.0
 11
20822.44693339169
 21
14079.56886007908
 31
0.0
  0
LINE
  5
65E
330
1F
100
AcDbEntity
  8
画層3-2
  6
Continuous
100
AcDbLine
 10
20953.14693339141
 20
14079.56886007908
 30
0.0
 11
20953.14693339141
 21
13449.56886007908
 31
0.0
  0
LINE
  5
65F
330
1F
100
AcDbEntity
  8
画層3-1
  6
Continuous
100
AcDbLine
 10
20913.19693339123
 20
14079.56886007908
 30
0.0
 11
20913.19693339123
 21
13449.56886007908
 31
0.0
  0
LINE
  5
660
330
1F
100
AcDbEntity
  8
画層3-1
  6
Continuous
100
AcDbLine
 10
20862.39693339142
 20
14079.56886007908
 30
0.0
 11
20862.39693339142
 21
13449.56886007908
 31
0.0
  0
LINE
  5
661
330
1F
100
AcDbEntity
  8
画層3-1
  6
Continuous
100
AcDbLine
 10
20968.14693339141
 20
13419.56886007908
 30
0.0
 11
20968.14693339141
 21
13449.56886007908
 31
0.0
  0
LINE
  5
662
330
1F
100
AcDbEntity
  8
画層3-1
  6
Continuous
100
AcDbLine
 10
20807.44693339169
 20
13449.56886007908
 30
0.0
 11
20807.44693339169
 21
13419.56886007908
 31
0.0
  0
LINE
  5
663
330
1F
100
AcDbEntity
  8
画層3-1
  6
Continuous
100
AcDbLine
 10
20807.44693339169
 20
13419.56886007908
 30
0.0
 11
20968.14693339141
 21
13419.56886007908
 31
0.0
  0
LINE
  5
664
330
1F
100
AcDbEntity
  8
画層3-1
  6
Continuous
100
AcDbLine
 10
20968.14693339141
 20
13449.56886007908
 30
0.0
 11
20807.44693339169
 21
13449.56886007908
 31
0.0
  0
LINE
  5
665
330
1F
100
AcDbEntity
  8
画層3-1
  6
Continuous
100
AcDbLine
 10
20807.44693339169
 20
14079.56886007908
 30
0.0
 11
20968.14693339141
 21
14079.56886007908
 31
0.0
  0
LINE
  5
666
330
1F
100
AcDbEntity
  8
画層3-1
  6
Continuous
100
AcDbLine
 10
20968.14693339141
 20
14079.56886007908
 30
0.0
 11
20968.14693339141
 21
14109.56886007908
 31
0.0
  0
LINE
  5
667
330
1F
100
AcDbEntity
  8
画層3-1
  6
Continuous
100
AcDbLine
 10
20807.44693339169
 20
14109.56886007908
 30
0.0
 11
20807.44693339169
 21
14079.56886007908
 31
0.0
  0
LINE
  5
668
330
1F
100
AcDbEntity
  8
画層3-1
  6
Continuous
100
AcDbLine
 10
18862.39693339141
 20
14676.46886007911
 30
0.0
 11
18862.39693339141
 21
14109.56886007908
 31
0.0
  0
LINE
  5
669
330
1F
100
AcDbEntity
  8
画層3-2
  6
Continuous
100
AcDbLine
 10
18822.44693339169
 20
14109.56886007908
 30
0.0
 11
18822.44693339123
 21
14691.4688600791
 31
0.0
  0
LINE
  5
66A
330
1F
100
AcDbEntity
  8
画層3-2
  6
Continuous
100
AcDbLine
 10
18953.14693339141
 20
14691.4688600791
 30
0.0
 11
18953.14693339141
 21
14109.56886007908
 31
0.0
  0
LINE
  5
66B
330
1F
100
AcDbEntity
  8
画層3-1
  6
Continuous
100
AcDbLine
 10
18913.19693339123
 20
14676.46886007899
 30
0.0
 11
18913.19693339123
 21
14109.56886007908
 31
0.0
  0
LINE
  5
66C
330
1F
100
AcDbEntity
  8
画層3-1
  6
Continuous
100
AcDbLine
 10
18968.14693339141
 20
14109.56886007908
 30
0.0
 11
18807.44693339169
 21
14109.56886007908
 31
0.0
  0
LINE
  5
66D
330
1F
100
AcDbEntity
  8
画層1
  6
Continuous
100
AcDbLine
 10
19033.14693339141
 20
14779.56886007908
 30
0.0
 11
18729.64693339141
 21
14779.56886007908
 31
0.0
  0
LINE
  5
66E
330
1F
100
AcDbEntity
  8
画層3-1
  6
Continuous
100
AcDbLine
 10
18923.5969333916
 20
14676.46886007899
 30
0.0
 11
18851.99693339151
 21
14676.46886007911
 31
0.0
  0
ARC
  5
66F
330
1F
100
AcDbEntity
  8
画層3-1
  6
Continuous
100
AcDbCircle
 10
18847.39693339141
 20
14676.46886007911
 30
0.0
 40
15.0
100
AcDbArc
 50
0.0
 51
90.0
  0
LINE
  5
670
330
1F
100
AcDbEntity
  8
画層3-1
  6
Continuous
100
AcDbLine
 10
18836.99693339151
 20
14729.56886007908
 30
0.0
 11
18836.99693339151
 21
14691.4688600791
 31
0.0
  0
LINE
  5
671
330
1F
100
AcDbEntity
  8
画層3-1
  6
Continuous
100
AcDbLine
 10
18836.99693339151
 20
14691.4688600791
 30
0.0
 11
18851.99693339151
 21
14676.46886007911
 31
0.0
  0
LINE
  5
672
330
1F
100
AcDbEntity
  8
画層1
  6
Continuous
100
AcDbLine
 10
18862.79693339131
 20
14729.56886007908
 30
0.0
 11
18862.79693339131
 21
14779.56886007908
 31
0.0
  0
LINE
  5
673
330
1F
100
AcDbEntity
  8
画層1
  6
Continuous
100
AcDbLine
 10
18729.64693339141
 20
14779.56886007908
 30
0.0
 11
18729.64693339141
 21
14729.56886007908
 31
0.0
  0
CIRCLE
  5
674
330
1F
100
AcDbEntity
  8
画層1
  6
Continuous
100
AcDbCircle
 10
18754.64693339141
 20
14754.56886007908
 30
0.0
 40
10.9509940156
  0
ARC
  5
675
330
1F
100
AcDbEntity
  8
画層3-1
  6
Continuous
100
AcDbCircle
 10
18928.19693339123
 20
14676.46886007899
 30
0.0
 40
15.0
100
AcDbArc
 50
90.0
 51
180.0
  0
LINE
  5
676
330
1F
100
AcDbEntity
  8
画層3-1
  6
Continuous
100
AcDbLine
 10
18923.5969333916
 20
14676.46886007899
 30
0.0
 11
18938.5969333916
 21
14691.46886007899
 31
0.0
  0
LINE
  5
677
330
1F
100
AcDbEntity
  8
画層3-1
  6
Continuous
100
AcDbLine
 10
18938.5969333916
 20
14691.46886007899
 30
0.0
 11
18938.5969333916
 21
14729.56886007908
 31
0.0
  0
LINE
  5
678
330
1F
100
AcDbEntity
  8
画層1
  6
Continuous
100
AcDbLine
 10
18912.79693339131
 20
14729.56886007908
 30
0.0
 11
18912.79693339131
 21
14779.56886007908
 31
0.0
  0
CIRCLE
  5
679
330
1F
100
AcDbEntity
  8
画層1
  6
Continuous
100
AcDbCircle
 10
19008.14693339141
 20
14754.56886007908
 30
0.0
 40
10.9509940156
  0
LINE
  5
67A
330
1F
100
AcDbEntity
  8
画層1
  6
Continuous
100
AcDbLine
 10
19033.14693339141
 20
14729.56886007908
 30
0.0
 11
19033.14693339141
 21
14779.56886007908
 31
0.0
  0
LWPOLYLINE
  5
67B
330
1F
100
AcDbEntity
  8
画層1-1
100
AcDbPolyline
 90
        4
 70
     1
 43
0.0
 10
19076.46375405994
 20
14818.43579828137
 10
19202.30361008523
 20
14908.1577751631
 10
19225.52508582287
 20
14875.58841740832
 10
19099.68522979804
 20
14785.8664405266
  0
LINE
  5
67C
330
1F
100
AcDbEntity
  8
画層3-1
  6
Continuous
100
AcDbLine
 10
18807.44693339169
 20
13419.56886007908
 30
0.0
 11
18968.14693339141
 21
13419.56886007908
 31
0.0
  0
LINE
  5
67D
330
1F
100
AcDbEntity
  8
画層3-1
  6
Continuous
100
AcDbLine
 10
18968.14693339141
 20
13449.56886007908
 30
0.0
 11
18807.44693339169
 21
13449.56886007908
 31
0.0
  0
LINE
  5
67E
330
1F
100
AcDbEntity
  8
画層3-1
  6
Continuous
100
AcDbLine
 10
18807.44693339169
 20
14079.56886007908
 30
0.0
 11
18968.14693339141
 21
14079.56886007908
 31
0.0
  0
LINE
  5
67F
330
1F
100
AcDbEntity
  8
画層3-1
  6
Continuous
100
AcDbLine
 10
18862.39693339141
 20
14079.56886007908
 30
0.0
 11
18862.39693339141
 21
13449.56886007908
 31
0.0
  0
LINE
  5
680
330
1F
100
AcDbEntity
  8
画層3-2
  6
Continuous
100
AcDbLine
 10
18953.14693339141
 20
14079.56886007908
 30
0.0
 11
18953.14693339141
 21
13449.56886007908
 31
0.0
  0
LINE
  5
681
330
1F
100
AcDbEntity
  8
画層3-2
  6
Continuous
100
AcDbLine
 10
18822.44693339169
 20
13449.56886007908
 30
0.0
 11
18822.44693339169
 21
14079.56886007908
 31
0.0
  0
LINE
  5
682
330
1F
100
AcDbEntity
  8
画層3-1
  6
Continuous
100
AcDbLine
 10
18913.19693339123
 20
14079.56886007908
 30
0.0
 11
18913.19693339123
 21
13449.56886007908
 31
0.0
  0
LINE
  5
683
330
1F
100
AcDbEntity
  8
画層3-1
  6
Continuous
100
AcDbLine
 10
18807.44693339169
 20
13449.56886007908
 30
0.0
 11
18807.44693339169
 21
13419.56886007908
 31
0.0
  0
LINE
  5
684
330
1F
100
AcDbEntity
  8
画層3-1
  6
Continuous
100
AcDbLine
 10
18968.14693339141
 20
13419.56886007908
 30
0.0
 11
18968.14693339141
 21
13449.56886007908
 31
0.0
  0
LINE
  5
685
330
1F
100
AcDbEntity
  8
画層3-1
  6
Continuous
100
AcDbLine
 10
18807.44693339169
 20
14109.56886007908
 30
0.0
 11
18807.44693339169
 21
14079.56886007908
 31
0.0
  0
LINE
  5
686
330
1F
100
AcDbEntity
  8
画層3-1
  6
Continuous
100
AcDbLine
 10
18968.14693339141
 20
14079.56886007908
 30
0.0
 11
18968.14693339141
 21
14109.56886007908
 31
0.0
  0
LINE
  5
687
330
1F
100
AcDbEntity
  8
画層3-2
  6
Continuous
100
AcDbLine
 10
18968.14693339141
 20
14094.56886007908
 30
0.0
 11
20807.44693339169
 21
14094.56886007908
 31
0.0
  0
LINE
  5
688
330
1F
100
AcDbEntity
  8
画層3-2
  6
Continuous
100
AcDbLine
 10
20807.44693339169
 20
13434.56886007908
 30
0.0
 11
18968.14693339141
 21
13434.56886007908
 31
0.0
  0
LINE
  5
689
330
1F
100
AcDbEntity
  8
画層3-1
  6
Continuous
100
AcDbLine
 10
18928.19693339123
 20
14691.46886007899
 30
0.0
 11
20847.39693339141
 21
14691.4688600791
 31
0.0
  0
LWPOLYLINE
  5
68A
330
1F
100
AcDbEntity
  8
画層3-2
100
AcDbPolyline
 90
        4
 70
     0
 43
0.0
 10
21012.79693339132
 20
12754.56886007908
 10
21012.79693339132
 20
12304.56886007908
 10
20762.79693339132
 20
12304.56886007908
 10
20762.79693339132
 20
12754.56886007908
  0
HATCH
  5
68B
330
1F
100
AcDbEntity
  8
画層3-3
100
AcDbHatch
 10
0.0
 20
0.0
 30
0.0
210
0.0
220
0.0
230
1.0
  2
PLAST
 70
     0
 71
     0
 91
        1
 92
        7
 72
     0
 73
     1
 93
        4
 10
21012.79693339132
 20
12754.56886007908
 10
20762.79693339132
 20
12754.56886007908
 10
20762.79693339132
 20
12304.56886007908
 10
21012.79693339132
 20
12304.56886007908
 97
        0
 75
     0
 76
     1
 52
45.0
 41
1800.0
 77
     0
 78
     3
 53
45.0
 43
14745.45427762503
 44
6312.901843567884
 45
-318.1980515339463
 46
318.1980515339464
 79
     0
 53
45.0
 43
14705.67952118367
 44
6352.676600009591
 45
-318.1980515339463
 46
318.1980515339464
 79
     0
 53
45.0
 43
14665.90476474185
 44
6392.451356451415
 45
-318.1980515339463
 46
318.1980515339464
 79
     0
 47
2.4753793195157
 98
        1
 10
21001.69013115457
 20
12513.77630808685
  0
LINE
  5
68C
330
1F
100
AcDbEntity
  8
画層3-1
  6
Continuous
100
AcDbLine
 10
20913.19693339123
 20
12774.56886007896
 30
0.0
 11
20913.19693339123
 21
12554.56886007908
 31
0.0
  0
LINE
  5
68D
330
1F
100
AcDbEntity
  8
画層3-1
  6
Continuous
100
AcDbLine
 10
20862.39693339142
 20
12774.56886007931
 30
0.0
 11
20862.39693339142
 21
12554.56886007908
 31
0.0
  0
LINE
  5
68E
330
1F
100
AcDbEntity
  8
画層3-1
  6
Continuous
100
AcDbLine
 10
20822.44693339169
 20
12832.66886007917
 30
0.0
 11
20953.14693339141
 21
12832.66886007917
 31
0.0
  0
LINE
  5
68F
330
1F
100
AcDbEntity
  8
画層3-1
  6
Continuous
100
AcDbLine
 10
20862.39693339142
 20
12554.56886007908
 30
0.0
 11
20913.19693339123
 21
12554.56886007908
 31
0.0
  0
LWPOLYLINE
  5
690
330
1F
100
AcDbEntity
  8
画層2
100
AcDbPolyline
 90
        3
 70
     0
 43
0.0
 10
19137.79693339131
 20
12754.56886007955
 10
19137.79693339131
 20
12454.56886007955
 10
19112.79693339132
 20
12454.56886007943
  0
LINE
  5
691
330
1F
100
AcDbEntity
  8
画層2-1
  6
Continuous
100
AcDbLine
 10
18779.64693339141
 20
12854.56886007908
 30
0.0
 11
18983.14693339141
 21
12854.56886007908
 31
0.0
  0
LINE
  5
692
330
1F
100
AcDbEntity
  8
画層2-1
  6
Continuous
100
AcDbLine
 10
18779.64693339141
 20
12604.56886007908
 30
0.0
 11
18983.14693339141
 21
12604.56886007908
 31
0.0
  0
LINE
  5
693
330
1F
100
AcDbEntity
  8
画層3-1
  6
Continuous
100
AcDbLine
 10
18822.44693339169
 20
12832.66886007917
 30
0.0
 11
18953.14693339141
 21
12832.66886007917
 31
0.0
  0
LINE
  5
694
330
1F
100
AcDbEntity
  8
画層3-1
  6
Continuous
100
AcDbLine
 10
18862.39693339141
 20
12554.56886007908
 30
0.0
 11
18913.19693339123
 21
12554.56886007908
 31
0.0
  0
LINE
  5
695
330
1F
100
AcDbEntity
  8
画層3-1
  6
Continuous
100
AcDbLine
 10
18862.39693339141
 20
12774.56886007931
 30
0.0
 11
18862.39693339141
 21
12554.56886007908
 31
0.0
  0
LINE
  5
696
330
1F
100
AcDbEntity
  8
画層3-1
  6
Continuous
100
AcDbLine
 10
18913.19693339123
 20
12774.56886007896
 30
0.0
 11
18913.19693339123
 21
12554.56886007908
 31
0.0
  0
LINE
  5
697
330
1F
100
AcDbEntity
  8
画層3-1
  6
Continuous
100
AcDbLine
 10
18913.19693339123
 20
12774.56886007908
 30
0.0
 11
20862.39693339142
 21
12774.56886007908
 31
0.0
  0
LINE
  5
698
330
1F
100
AcDbEntity
  8
画層3-1
  6
Continuous
100
AcDbLine
 10
18913.19693339123
 20
12812.66886007917
 30
0.0
 11
20862.39693339142
 21
12812.66886007917
 31
0.0
  0
HATCH
  5
699
330
1F
100
AcDbEntity
  8
画層3-3
 62
   230
370
    13
100
AcDbHatch
 10
0.0
 20
0.0
 30
0.0
210
0.0
220
0.0
230
1.0
  2
NET
 70
     0
 71
     0
 91
        6
 92
        7
 72
     0
 73
     1
 93
        8
 10
18983.14693339141
 20
14691.46886007899
 10
18938.5969333916
 20
14691.46886007899
 10
18923.5969333916
 20
14676.46886007899
 10
18913.19693339169
 20
14676.46886007899
 10
18913.19693339169
 20
14109.56886007908
 10
18968.14693339188
 20
14109.56886007908
 10
18968.14693339188
 20
14094.56886007908
 10
18983.14693339141
 20
14094.56886007908
 97
        0
 92
        7
 72
     0
 73
     1
 93
        8
 10
18983.14693339141
 20
14094.56886007908
 10
18968.14693339188
 20
14094.56886007908
 10
18968.14693339188
 20
14079.56886007908
 10
18913.19693339169
 20
14079.56886007908
 10
18913.19693339169
 20
13449.56886007908
 10
18968.14693339188
 20
13449.56886007908
 10
18968.14693339188
 20
13434.56886007908
 10
18983.14693339141
 20
13434.56886007908
 97
        0
 92
        7
 72
     0
 73
     1
 93
        6
 10
18983.14693339141
 20
13434.56886007908
 10
18968.14693339188
 20
13434.56886007908
 10
18968.14693339188
 20
13419.56886007908
 10
18913.19693339169
 20
13419.56886007908
 10
18913.19693339169
 20
12854.56886007908
 10
18983.14693339141
 20
12854.56886007908
 97
        0
 92
        7
 72
     0
 73
     1
 93
        6
 10
18983.14693339141
 20
13434.56886007908
 10
18983.14693339141
 20
12812.66886007917
 10
20862.39693339142
 20
12812.66886007917
 10
20862.39693339142
 20
13419.56886007908
 10
20807.44693339169
 20
13419.56886007908
 10
20807.44693339169
 20
13434.56886007908
 97
        0
 92
        7
 72
     0
 73
     1
 93
        8
 10
18983.14693339141
 20
14094.56886007908
 10
18983.14693339141
 20
13434.56886007908
 10
20807.44693339169
 20
13434.56886007908
 10
20807.44693339169
 20
13449.56886007908
 10
20862.39693339142
 20
13449.56886007908
 10
20862.39693339142
 20
14079.56886007908
 10
20807.44693339169
 20
14079.56886007908
 10
20807.44693339169
 20
14094.56886007908
 97
        0
 92
        7
 72
     0
 73
     1
 93
        8
 10
20807.44693339169
 20
14094.56886007908
 10
20807.44693339169
 20
14109.56886007908
 10
20862.39693339142
 20
14109.56886007908
 10
20862.39693339142
 20
14676.46886007899
 10
20851.99693339151
 20
14676.46886007899
 10
20836.99693339151
 20
14691.4688600791
 10
18983.14693339141
 20
14691.46886007899
 10
18983.14693339141
 20
14094.56886007908
 97
        0
 75
     0
 76
     1
 52
45.0
 41
1200.0
 77
     0
 78
     2
 53
45.0
 43
2107.79745313032
 44
-23840.18177339
 45
-106.0660171779821
 46
106.0660171779821
 79
     0
 53
135.0
 43
2107.79745313032
 44
-23840.18177339
 45
-106.0660171779821
 46
-106.0660171779821
 79
     0
 47
10.47656177152982
 98
        6
 10
18951.11215466792
 20
14333.33221284129
 10
18951.11215466792
 20
13834.23672652889
 10
18951.11215466792
 20
13240.37624733119
 10
19646.59751338763
 20
13170.8819444301
 10
19621.30713539077
 20
13783.69538858525
 10
19671.88789138449
 20
14383.87350876051
  0
LINE
  5
69A
330
1F
100
AcDbEntity
  8
画層3-通り芯
  6
DASHDOT
 48
100.0
100
AcDbLine
 10
20887.79693339132
 20
12208.19930494732
 30
0.0
 11
20887.79693339132
 21
14754.5688600792
 31
0.0
  0
LINE
  5
69B
330
1F
100
AcDbEntity
  8
画層3-2
  6
Continuous
100
AcDbLine
 10
20953.14693339141
 20
13419.56886007908
 30
0.0
 11
20953.14693339141
 21
12754.56886007908
 31
0.0
  0
LINE
  5
69C
330
1F
100
AcDbEntity
  8
画層3-1
  6
Continuous
100
AcDbLine
 10
20913.19693339123
 20
13419.56886007908
 30
0.0
 11
20913.19693339123
 21
12812.66886007917
 31
0.0
  0
LINE
  5
69D
330
1F
100
AcDbEntity
  8
画層3-2
  6
Continuous
100
AcDbLine
 10
20822.44693339169
 20
12754.56886007908
 30
0.0
 11
20822.44693339169
 21
13419.56886007908
 31
0.0
  0
LINE
  5
69E
330
1F
100
AcDbEntity
  8
画層3-1
  6
Continuous
100
AcDbLine
 10
20862.39693339142
 20
13419.56886007908
 30
0.0
 11
20862.39693339142
 21
12812.66886007906
 31
0.0
  0
LINE
  5
69F
330
1F
100
AcDbEntity
  8
画層3-1
  6
Continuous
100
AcDbLine
 10
18862.39693339141
 20
13419.56886007908
 30
0.0
 11
18862.39693339141
 21
12812.66886007906
 31
0.0
  0
LINE
  5
6A0
330
1F
100
AcDbEntity
  8
画層3-2
  6
Continuous
100
AcDbLine
 10
18953.14693339141
 20
13419.56886007908
 30
0.0
 11
18953.14693339141
 21
12754.56886007908
 31
0.0
  0
LINE
  5
6A1
330
1F
100
AcDbEntity
  8
画層3-2
  6
Continuous
100
AcDbLine
 10
18822.44693339169
 20
12754.56886007908
 30
0.0
 11
18822.44693339169
 21
13419.56886007908
 31
0.0
  0
LINE
  5
6A2
330
1F
100
AcDbEntity
  8
画層3-1
  6
Continuous
100
AcDbLine
 10
18913.19693339123
 20
13419.56886007908
 30
0.0
 11
18913.19693339123
 21
12812.66886007917
 31
0.0
  0
LINE
  5
6A3
330
1F
100
AcDbEntity
  8
画層3-1
  6
Continuous
100
AcDbLine
 10
20928.19693339123
 20
14691.4688600791
 30
0.0
 11
22847.39693339141
 21
14691.4688600791
 31
0.0
  0
LINE
  5
6A4
330
1F
100
AcDbEntity
  8
画層3-2
  6
Continuous
100
AcDbLine
 10
20968.14693339141
 20
14094.56886007908
 30
0.0
 11
22807.44693339169
 21
14094.56886007908
 31
0.0
  0
LINE
  5
6A5
330
1F
100
AcDbEntity
  8
画層3-2
  6
Continuous
100
AcDbLine
 10
22807.44693339169
 20
13434.5688600792
 30
0.0
 11
20968.14693339141
 21
13434.56886007908
 31
0.0
  0
LINE
  5
6A6
330
1F
100
AcDbEntity
  8
画層3-1
  6
Continuous
100
AcDbLine
 10
20913.1969333917
 20
12774.56886007908
 30
0.0
 11
22862.39693339141
 21
12774.56886007908
 31
0.0
  0
LINE
  5
6A7
330
1F
100
AcDbEntity
  8
画層3-1
  6
Continuous
100
AcDbLine
 10
20913.19693339123
 20
12812.66886007906
 30
0.0
 11
22862.39693339141
 21
12812.66886007917
 31
0.0
  0
TEXT
  5
6A8
330
1F
100
AcDbEntity
  8
寸法
  6
Continuous
100
AcDbText
 10
21709.99091353706
 20
7798.930359831236
 30
0.0
 40
300.0
  1
10,000
 41
0.75
  7
1_100
 11
21709.99091353706
 21
7798.930359831236
 31
0.0
100
AcDbText
 73
     1
  0
DIMENSION
  5
6A9
330
1F
100
AcDbEntity
  8
寸法
  6
Continuous
100
AcDbDimension
  2
*D13
 10
22887.79693339132
 20
8454.568860078735
 30
0.0
 11
21887.79693339132
 21
8733.140288650163
 31
0.0
 70
    32
 71
     5
 42
2000.0
  3
1_100
100
AcDbAlignedDimension
 13
20887.79693339132
 23
9761.662894336431
 33
0.0
 14
22887.79693339132
 24
9784.568860078737
 34
0.0
100
AcDbRotatedDimension
  0
DIMENSION
  5
6AA
330
1F
100
AcDbEntity
  8
寸法
  6
Continuous
100
AcDbDimension
  2
*D14
 10
20887.79693339132
 20
8454.568860078735
 30
0.0
 11
19887.79693339131
 21
8733.140288650163
 31
0.0
 70
    32
 71
     5
 42
2000.0
  3
1_100
100
AcDbAlignedDimension
 13
18887.79693339132
 23
9761.662894336431
 33
0.0
 14
20887.79693339132
 24
9784.568860078737
 34
0.0
100
AcDbRotatedDimension
  0
LINE
  5
6AB
330
1F
100
AcDbEntity
  8
画層3-1
  6
Continuous
100
AcDbLine
 10
16968.14693339141
 20
14109.56886007896
 30
0.0
 11
16807.44693339169
 21
14109.56886007896
 31
0.0
  0
LINE
  5
6AC
330
1F
100
AcDbEntity
  8
画層3-1
  6
Continuous
100
AcDbLine
 10
16923.5969333916
 20
14676.46886007899
 30
0.0
 11
16851.99693339151
 21
14676.46886007899
 31
0.0
  0
LINE
  5
6AD
330
1F
100
AcDbEntity
  8
画層3-1
  6
Continuous
100
AcDbLine
 10
16862.39693339141
 20
14138.84025439775
 30
0.0
 11
16862.39693339141
 21
14109.56886007896
 31
0.0
  0
LINE
  5
6AE
330
1F
100
AcDbEntity
  8
画層3-2
  6
Continuous
100
AcDbLine
 10
16822.44693339169
 20
14109.56886007896
 30
0.0
 11
16822.44693339169
 21
14138.84025439775
 31
0.0
  0
LINE
  5
6AF
330
1F
100
AcDbEntity
  8
画層3-2
  6
Continuous
100
AcDbLine
 10
16822.44693339123
 20
14632.86321492601
 30
0.0
 11
16822.44693339123
 21
14691.46886007899
 31
0.0
  0
ARC
  5
6B0
330
1F
100
AcDbEntity
  8
画層3-1
  6
Continuous
100
AcDbCircle
 10
16847.39693339141
 20
14676.46886007899
 30
0.0
 40
15.0
100
AcDbArc
 50
0.0
 51
90.0
  0
LINE
  5
6B1
330
1F
100
AcDbEntity
  8
画層3-1
  6
Continuous
100
AcDbLine
 10
16836.99693339151
 20
14691.46886007899
 30
0.0
 11
16851.99693339151
 21
14676.46886007899
 31
0.0
  0
LINE
  5
6B2
330
1F
100
AcDbEntity
  8
画層3-1
  6
Continuous
100
AcDbLine
 10
16862.39693339141
 20
14676.46886007899
 30
0.0
 11
16862.39693339141
 21
14632.86321492601
 31
0.0
  0
LINE
  5
6B3
330
1F
100
AcDbEntity
  8
画層3-通り芯
  6
DASHDOT
 48
100.0
100
AcDbLine
 10
16887.79693339131
 20
14632.86321492601
 30
0.0
 11
16887.79693339131
 21
14754.56886007908
 31
0.0
  0
LINE
  5
6B4
330
1F
100
AcDbEntity
  8
画層3-1
  6
Continuous
100
AcDbLine
 10
16836.99693339151
 20
14729.56886007897
 30
0.0
 11
16836.99693339151
 21
14691.46886007899
 31
0.0
  0
LINE
  5
6B5
330
1F
100
AcDbEntity
  8
画層3-2
  6
Continuous
100
AcDbLine
 10
16953.14693339141
 20
14138.84025439775
 30
0.0
 11
16953.14693339141
 21
14109.56886007896
 31
0.0
  0
LINE
  5
6B6
330
1F
100
AcDbEntity
  8
画層3-1
  6
Continuous
100
AcDbLine
 10
16913.19693339123
 20
14138.84025439775
 30
0.0
 11
16913.19693339123
 21
14109.56886007896
 31
0.0
  0
ARC
  5
6B7
330
1F
100
AcDbEntity
  8
画層3-1
  6
Continuous
100
AcDbCircle
 10
16928.19693339123
 20
14676.46886007899
 30
0.0
 40
15.0
100
AcDbArc
 50
90.0
 51
180.0
  0
LINE
  5
6B8
330
1F
100
AcDbEntity
  8
画層3-1
  6
Continuous
100
AcDbLine
 10
16923.5969333916
 20
14676.46886007899
 30
0.0
 11
16938.5969333916
 21
14691.46886007899
 31
0.0
  0
LINE
  5
6B9
330
1F
100
AcDbEntity
  8
画層3-2
  6
Continuous
100
AcDbLine
 10
16953.14693339141
 20
14691.46886007899
 30
0.0
 11
16953.14693339141
 21
14632.86321492601
 31
0.0
  0
LINE
  5
6BA
330
1F
100
AcDbEntity
  8
画層3-1
  6
Continuous
100
AcDbLine
 10
16913.19693339123
 20
14676.46886007899
 30
0.0
 11
16913.19693339123
 21
14632.86321492601
 31
0.0
  0
LINE
  5
6BB
330
1F
100
AcDbEntity
  8
画層3-1
  6
Continuous
100
AcDbLine
 10
16938.5969333916
 20
14691.46886007899
 30
0.0
 11
16938.5969333916
 21
14729.56886007897
 31
0.0
  0
LINE
  5
6BC
330
1F
100
AcDbEntity
  8
画層3-1
  6
Continuous
100
AcDbLine
 10
16807.44693339169
 20
14079.56886007896
 30
0.0
 11
16968.14693339141
 21
14079.56886007896
 31
0.0
  0
LINE
  5
6BD
330
1F
100
AcDbEntity
  8
画層3-2
  6
Continuous
100
AcDbLine
 10
16822.44693339169
 20
13903.66079534047
 30
0.0
 11
16822.44693339169
 21
14079.56886007896
 31
0.0
  0
LINE
  5
6BE
330
1F
100
AcDbEntity
  8
画層3-1
  6
Continuous
100
AcDbLine
 10
16862.39693339141
 20
14079.56886007896
 30
0.0
 11
16862.39693339141
 21
13903.66079534047
 31
0.0
  0
LINE
  5
6BF
330
1F
100
AcDbEntity
  8
画層3-2
  6
Continuous
100
AcDbLine
 10
16953.14693339141
 20
14079.56886007896
 30
0.0
 11
16953.14693339141
 21
13903.66079534047
 31
0.0
  0
LINE
  5
6C0
330
1F
100
AcDbEntity
  8
画層3-1
  6
Continuous
100
AcDbLine
 10
16913.19693339123
 20
14079.56886007896
 30
0.0
 11
16913.19693339123
 21
13903.66079534047
 31
0.0
  0
LINE
  5
6C1
330
1F
100
AcDbEntity
  8
画層3-通り芯
  6
DASHDOT
 48
100.0
100
AcDbLine
 10
16887.79693339131
 20
13903.66079534047
 30
0.0
 11
16887.79693339131
 21
14138.84025439775
 31
0.0
  0
LINE
  5
6C2
330
1F
100
AcDbEntity
  8
画層3-1
  6
Continuous
100
AcDbLine
 10
16807.44693339169
 20
14109.56886007896
 30
0.0
 11
16807.44693339169
 21
14079.56886007896
 31
0.0
  0
LINE
  5
6C3
330
1F
100
AcDbEntity
  8
画層3-1
  6
Continuous
100
AcDbLine
 10
16968.14693339141
 20
14079.56886007896
 30
0.0
 11
16968.14693339141
 21
14109.56886007896
 31
0.0
  0
LWPOLYLINE
  5
6C4
330
1F
100
AcDbEntity
  8
画層2
100
AcDbPolyline
 90
        3
 70
     0
 43
0.0
 10
18662.79693339131
 20
12454.56886007955
 10
18637.79693339131
 20
12454.56886007955
 10
18637.79693339131
 20
12754.56886007955
  0
LINE
  5
6C5
330
1F
100
AcDbEntity
  8
画層3-1
  6
Continuous
100
AcDbLine
 10
16822.44693339169
 20
12832.66886007894
 30
0.0
 11
16953.14693339141
 21
12832.66886007894
 31
0.0
  0
LINE
  5
6C6
330
1F
100
AcDbEntity
  8
画層3-1
  6
Continuous
100
AcDbLine
 10
16862.39693339141
 20
12554.56886007896
 30
0.0
 11
16913.19693339123
 21
12554.56886007896
 31
0.0
  0
LWPOLYLINE
  5
6C7
330
1F
100
AcDbEntity
  8
画層3-2
100
AcDbPolyline
 90
        4
 70
     0
 43
0.0
 10
17012.79693339132
 20
12754.56886007896
 10
17012.79693339132
 20
12304.56886007897
 10
16762.79693339131
 20
12304.56886007897
 10
16762.79693339131
 20
12754.56886007896
  0
HATCH
  5
6C8
330
1F
100
AcDbEntity
  8
画層3-3
100
AcDbHatch
 10
0.0
 20
0.0
 30
0.0
210
0.0
220
0.0
230
1.0
  2
PLAST
 70
     0
 71
     0
 91
        1
 92
        7
 72
     0
 73
     1
 93
        4
 10
17012.79693339132
 20
12754.56886007896
 10
16762.79693339131
 20
12754.56886007896
 10
16762.79693339131
 20
12304.56886007897
 10
17012.79693339132
 20
12304.56886007897
 97
        0
 75
     0
 76
     1
 52
45.0
 41
1800.0
 77
     0
 78
     3
 53
45.0
 43
10745.45427762503
 44
6312.901843567766
 45
-318.1980515339463
 46
318.1980515339464
 79
     0
 53
45.0
 43
10705.67952118367
 44
6352.676600009591
 45
-318.1980515339463
 46
318.1980515339464
 79
     0
 53
45.0
 43
10665.90476474185
 44
6392.451356451299
 45
-318.1980515339463
 46
318.1980515339464
 79
     0
 47
2.4753793195157
 98
        1
 10
17001.69013115456
 20
12513.77630808674
  0
LINE
  5
6C9
330
1F
100
AcDbEntity
  8
画層3-1
  6
Continuous
100
AcDbLine
 10
16862.39693339141
 20
12774.5688600792
 30
0.0
 11
16862.39693339141
 21
12554.56886007896
 31
0.0
  0
LINE
  5
6CA
330
1F
100
AcDbEntity
  8
画層3-1
  6
Continuous
100
AcDbLine
 10
16862.39693339141
 20
12966.33544532202
 30
0.0
 11
16862.39693339141
 21
12812.66886007894
 31
0.0
  0
LINE
  5
6CB
330
1F
100
AcDbEntity
  8
画層3-2
  6
Continuous
100
AcDbLine
 10
16822.44693339169
 20
12754.56886007896
 30
0.0
 11
16822.44693339169
 21
12966.33544532202
 31
0.0
  0
LINE
  5
6CC
330
1F
100
AcDbEntity
  8
画層3-通り芯
  6
DASHDOT
 48
100.0
100
AcDbLine
 10
16887.79693339131
 20
12208.1993049472
 30
0.0
 11
16887.79693339131
 21
12966.33544532202
 31
0.0
  0
LINE
  5
6CD
330
1F
100
AcDbEntity
  8
画層3-1
  6
Continuous
100
AcDbLine
 10
16913.19693339123
 20
12774.56886007885
 30
0.0
 11
16913.19693339123
 21
12554.56886007896
 31
0.0
  0
LINE
  5
6CE
330
1F
100
AcDbEntity
  8
画層3-2
  6
Continuous
100
AcDbLine
 10
16953.14693339141
 20
12966.33544532202
 30
0.0
 11
16953.14693339141
 21
12754.56886007896
 31
0.0
  0
LINE
  5
6CF
330
1F
100
AcDbEntity
  8
画層3-1
  6
Continuous
100
AcDbLine
 10
16913.19693339123
 20
12966.33544532202
 30
0.0
 11
16913.19693339123
 21
12812.66886007894
 31
0.0
  0
LWPOLYLINE
  5
6D0
330
1F
100
AcDbEntity
  8
画層2
100
AcDbPolyline
 90
        4
 70
     0
 43
0.0
 10
19112.79693339132
 20
12454.56886007943
 10
19112.79693339132
 20
10654.56886007897
 10
18662.79693339131
 20
10654.56886007897
 10
18662.79693339131
 20
12454.56886007955
  0
DIMENSION
  5
6D1
330
1F
100
AcDbEntity
  8
寸法
  6
Continuous
100
AcDbDimension
  2
*D15
 10
18887.79693339132
 20
8454.568860078735
 30
0.0
 11
17887.79693339131
 21
8733.140288650163
 31
0.0
 70
    32
 71
     5
 42
2000.0
  3
1_100
100
AcDbAlignedDimension
 13
16887.79693339131
 23
9761.662894336431
 33
0.0
 14
18887.79693339132
 24
9761.662894336431
 34
0.0
100
AcDbRotatedDimension
  0
LINE
  5
6D2
330
1F
100
AcDbEntity
  8
画層2
  6
Continuous
100
AcDbLine
 10
19112.79693339132
 20
10754.56886007908
 30
0.0
 11
18662.79693339131
 21
10754.56886007908
 31
0.0
  0
LINE
  5
6D3
330
1F
100
AcDbEntity
  8
画層3-1
  6
Continuous
100
AcDbLine
 10
16913.19693339123
 20
12812.66886007917
 30
0.0
 11
18862.39693339141
 21
12812.66886007906
 31
0.0
  0
LINE
  5
6D4
330
1F
100
AcDbEntity
  8
画層3-1
  6
Continuous
100
AcDbLine
 10
16913.19693339123
 20
12774.56886007908
 30
0.0
 11
18862.39693339141
 21
12774.56886007908
 31
0.0
  0
LINE
  5
6D5
330
1F
100
AcDbEntity
  8
画層3-2
  6
Continuous
100
AcDbLine
 10
18807.44693339169
 20
13434.56886007908
 30
0.0
 11
18194.66228767596
 21
13434.56886007908
 31
0.0
  0
LINE
  5
6D6
330
1F
100
AcDbEntity
  8
画層3-2
  6
Continuous
100
AcDbLine
 10
16968.14693339141
 20
14094.56886007908
 30
0.0
 11
18807.44693339169
 21
14094.56886007908
 31
0.0
  0
LINE
  5
6D7
330
1F
100
AcDbEntity
  8
画層3-1
  6
Continuous
100
AcDbLine
 10
16928.19693339123
 20
14691.46886007899
 30
0.0
 11
18822.44693339123
 21
14691.4688600791
 31
0.0
  0
LWPOLYLINE
  5
6D8
330
1F
100
AcDbEntity
  8
画層1-1
100
AcDbPolyline
 90
        4
 70
     1
 43
0.0
 10
18699.22260499671
 20
14818.51984419549
 10
18573.5131615025
 20
14908.4244509534
 10
18550.24441824546
 20
14875.88884603736
 10
18675.95386174014
 20
14785.98423927945
  0
LINE
  5
6D9
330
1F
100
AcDbEntity
  8
ﾊｯﾁﾝｸﾞ
  6
Continuous
100
AcDbLine
 10
18502.74527368201
 20
12754.56886007908
 30
0.0
 11
18622.74527368294
 21
12634.56886007896
 31
0.0
  0
LINE
  5
6DA
330
1F
100
AcDbEntity
  8
ﾊｯﾁﾝｸﾞ
  6
Continuous
100
AcDbLine
 10
18423.54931418942
 20
12754.56886007908
 30
0.0
 11
18543.54931418989
 21
12634.56886007896
 31
0.0
  0
LINE
  5
6DB
330
1F
100
AcDbEntity
  8
ﾊｯﾁﾝｸﾞ
  6
Continuous
100
AcDbLine
 10
18475.62159597008
 20
12702.49657829843
 30
0.0
 11
18407.69387775073
 21
12634.56886007896
 31
0.0
  0
LINE
  5
6DC
330
1F
100
AcDbEntity
  8
ﾊｯﾁﾝｸﾞ
  6
Continuous
100
AcDbLine
 10
18436.02361622332
 20
12742.09455804484
 30
0.0
 11
18328.49791825768
 21
12634.56886007896
 31
0.0
  0
LINE
  5
6DD
330
1F
100
AcDbEntity
  8
ﾊｯﾁﾝｸﾞ
  6
Continuous
100
AcDbLine
 10
18277.63169723721
 20
12662.89859855202
 30
0.0
 11
18249.30195876462
 21
12634.56886007896
 31
0.0
  0
LINE
  5
6DE
330
1F
100
AcDbEntity
  8
ﾊｯﾁﾝｸﾞ
  6
Continuous
100
AcDbLine
 10
18238.03371749045
 20
12702.49657829843
 30
0.0
 11
18170.10599927111
 21
12634.56886007896
 31
0.0
  0
LINE
  5
6DF
330
1F
100
AcDbEntity
  8
ﾊｯﾁﾝｸﾞ
  6
Continuous
100
AcDbLine
 10
18344.3533546959
 20
12754.56886007908
 30
0.0
 11
18396.42563647702
 21
12702.49657829843
 31
0.0
  0
LINE
  5
6E0
330
1F
100
AcDbEntity
  8
ﾊｯﾁﾝｸﾞ
  6
Continuous
100
AcDbLine
 10
18265.15739520285
 20
12754.56886007896
 30
0.0
 11
18356.82765673073
 21
12662.8985985519
 31
0.0
  0
LINE
  5
6E1
330
1F
100
AcDbEntity
  8
ﾊｯﾁﾝｸﾞ
  6
Continuous
100
AcDbLine
 10
18185.9614357098
 20
12754.56886007896
 30
0.0
 11
18305.96143571073
 21
12634.56886007896
 31
0.0
  0
LINE
  5
6E2
330
1F
100
AcDbEntity
  8
ﾊｯﾁﾝｸﾞ
  6
Continuous
100
AcDbLine
 10
18198.43573774416
 20
12742.09455804484
 30
0.0
 11
18144.67288876111
 21
12688.3317090619
 31
0.0
  0
LINE
  5
6E3
330
1F
100
AcDbEntity
  8
ﾊｯﾁﾝｸﾞ
  6
Continuous
100
AcDbLine
 10
18581.94123317553
 20
12754.56886007896
 30
0.0
 11
18637.79693339131
 21
12698.71315986341
 31
0.0
  0
LINE
  5
6E4
330
1F
100
AcDbEntity
  8
ﾊｯﾁﾝｸﾞ
  6
Continuous
100
AcDbLine
 10
18515.21957571637
 20
12662.89859855202
 30
0.0
 11
18486.88983724378
 21
12634.56886007896
 31
0.0
  0
LINE
  5
6E5
330
1F
100
AcDbEntity
  8
ﾊｯﾁﾝｸﾞ
  6
Continuous
100
AcDbLine
 10
19431.24051208673
 20
12754.56886007908
 30
0.0
 11
19379.16823030561
 21
12702.49657829843
 31
0.0
  0
LINE
  5
6E6
330
1F
100
AcDbEntity
  8
ﾊｯﾁﾝｸﾞ
  6
Continuous
100
AcDbLine
 10
19339.57025055932
 20
12742.09455804484
 30
0.0
 11
19447.09594852496
 21
12634.56886007896
 31
0.0
  0
LINE
  5
6E7
330
1F
100
AcDbEntity
  8
ﾊｯﾁﾝｸﾞ
  6
Continuous
100
AcDbLine
 10
19299.97227081256
 20
12702.49657829843
 30
0.0
 11
19367.89998903191
 21
12634.56886007896
 31
0.0
  0
LINE
  5
6E8
330
1F
100
AcDbEntity
  8
ﾊｯﾁﾝｸﾞ
  6
Continuous
100
AcDbLine
 10
19260.37429106627
 20
12662.89859855202
 30
0.0
 11
19288.70402953886
 21
12634.56886007896
 31
0.0
  0
LINE
  5
6E9
330
1F
100
AcDbEntity
  8
ﾊｯﾁﾝｸﾞ
  6
Continuous
100
AcDbLine
 10
19352.04455259322
 20
12754.56886007908
 30
0.0
 11
19232.04455259275
 21
12634.56886007896
 31
0.0
  0
LINE
  5
6EA
330
1F
100
AcDbEntity
  8
ﾊｯﾁﾝｸﾞ
  6
Continuous
100
AcDbLine
 10
19272.84859310063
 20
12754.56886007908
 30
0.0
 11
19152.8485930997
 21
12634.56886007896
 31
0.0
  0
LINE
  5
6EB
330
1F
100
AcDbEntity
  8
ﾊｯﾁﾝｸﾞ
  6
Continuous
100
AcDbLine
 10
19193.65263360711
 20
12754.56886007896
 30
0.0
 11
19137.79693339131
 21
12698.71315986341
 31
0.0
  0
LINE
  5
6EC
330
1F
100
AcDbEntity
  8
ﾊｯﾁﾝｸﾞ
  6
Continuous
100
AcDbLine
 10
19577.15812903848
 20
12742.09455804484
 30
0.0
 11
19630.92097802153
 21
12688.3317090619
 31
0.0
  0
LINE
  5
6ED
330
1F
100
AcDbEntity
  8
ﾊｯﾁﾝｸﾞ
  6
Continuous
100
AcDbLine
 10
19589.63243107284
 20
12754.56886007896
 30
0.0
 11
19469.63243107191
 21
12634.56886007896
 31
0.0
  0
LINE
  5
6EE
330
1F
100
AcDbEntity
  8
ﾊｯﾁﾝｸﾞ
  6
Continuous
100
AcDbLine
 10
19510.43647157978
 20
12754.56886007896
 30
0.0
 11
19418.76621005191
 21
12662.89859855202
 31
0.0
  0
LINE
  5
6EF
330
1F
100
AcDbEntity
  8
ﾊｯﾁﾝｸﾞ
  6
Continuous
100
AcDbLine
 10
19537.56014929218
 20
12702.49657829843
 30
0.0
 11
19605.48786751153
 21
12634.56886007896
 31
0.0
  0
LINE
  5
6F0
330
1F
100
AcDbEntity
  8
ﾊｯﾁﾝｸﾞ
  6
Continuous
100
AcDbLine
 10
19497.96216954542
 20
12662.89859855202
 30
0.0
 11
19526.29190801801
 21
12634.56886007896
 31
0.0
  0
HATCH
  5
6F1
330
1F
100
AcDbEntity
  8
ﾊｯﾁﾝｸﾞ
100
AcDbHatch
 10
0.0
 20
0.0
 30
0.0
210
0.0
220
0.0
230
1.0
  2
PLAST
 70
     0
 71
     0
 91
        2
 92
        7
 72
     0
 73
     1
 93
        6
 10
19112.79693339132
 20
12454.56886007943
 10
19137.79693339131
 20
12454.56886007955
 10
19137.79693339131
 20
12754.56886007896
 10
18887.79693339132
 20
12754.56886007896
 10
18887.79693339132
 20
10754.56886007908
 10
19112.79693339132
 20
10754.56886007908
 97
        0
 92
        7
 72
     0
 73
     1
 93
        6
 10
18887.79693339132
 20
12754.56886007896
 10
18637.79693339131
 20
12754.56886007896
 10
18637.79693339131
 20
12454.56886007955
 10
18662.79693339131
 20
12454.56886007955
 10
18662.79693339131
 20
10754.56886007908
 10
18887.79693339132
 20
10754.56886007908
 97
        0
 75
     0
 76
     1
 52
45.0
 41
2000.0
 77
     0
 78
     3
 53
45.0
 43
-309591.9702046931
 44
-241065.2404873822
 45
-353.5533905932737
 46
353.5533905932738
 79
     0
 53
45.0
 43
-309636.1643785172
 44
-241021.046313558
 45
-353.5533905932737
 46
353.5533905932738
 79
     0
 53
45.0
 43
-309680.3585523414
 44
-240976.8521397338
 45
-353.5533905932737
 46
353.5533905932738
 79
     0
 47
10.49466636233012
 98
        2
 10
19008.60305949412
 20
12003.29561885997
 10
18777.56118263602
 20
11992.80059097979
  0
INSERT
  5
6F2
330
1F
100
AcDbEntity
  8
ﾊｯﾁﾝｸﾞ
100
AcDbBlockReference
  2
sai450
 10
18887.79693339132
 20
10754.56886007908
 30
0.0
  0
LINE
  5
6F3
330
1F
100
AcDbEntity
  8
画層3-2
  6
Continuous
100
AcDbLine
 10
12968.14693339141
 20
14094.56886007897
 30
0.0
 11
14807.44693339169
 21
14094.56886007897
 31
0.0
  0
LINE
  5
6F4
330
1F
100
AcDbEntity
  8
画層3-2
  6
Continuous
100
AcDbLine
 10
14807.44693339169
 20
13434.56886007897
 30
0.0
 11
12968.14693339141
 21
13434.56886007885
 31
0.0
  0
LINE
  5
6F5
330
1F
100
AcDbEntity
  8
画層3-1
  6
Continuous
100
AcDbLine
 10
12928.19693339122
 20
14691.46886007899
 30
0.0
 11
14847.39693339141
 21
14691.46886007899
 31
0.0
  0
DIMENSION
  5
6F6
330
1F
100
AcDbEntity
  8
画層3-寸法
  6
Continuous
100
AcDbDimension
  2
*D16
 10
13012.79693339132
 20
11924.56886007897
 30
0.0
 11
12887.79693339132
 21
11724.56886007896
 31
0.0
 70
    32
  1
□<>
 71
     5
 42
250.0
  3
1_100_B
100
AcDbAlignedDimension
 13
12762.79693339132
 23
12304.56886007897
 33
0.0
 14
13012.79693339132
 24
12304.56886007897
 34
0.0
100
AcDbRotatedDimension
1001
ACAD
1000
DSTYLE
1002
{
1070
    77
1070
     2
1070
   174
1070
     1
1002
}
  0
LINE
  5
6F7
330
1F
100
AcDbEntity
  8
画層3-1
  6
Continuous
100
AcDbLine
 10
12913.19693339123
 20
12774.56886007896
 30
0.0
 11
14862.39693339141
 21
12774.56886007896
 31
0.0
  0
LINE
  5
6F8
330
1F
100
AcDbEntity
  8
画層3-1
  6
Continuous
100
AcDbLine
 10
12913.19693339123
 20
12812.66886007894
 30
0.0
 11
14862.39693339141
 21
12812.66886007894
 31
0.0
  0
DIMENSION
  5
6F9
330
1F
100
AcDbEntity
  8
寸法
  6
Continuous
100
AcDbDimension
  2
*D17
 10
14887.79693339132
 20
8454.568860078735
 30
0.0
 11
13887.79693339132
 21
8733.140288650163
 31
0.0
 70
    32
 71
     5
 42
2000.0
  3
1_100
100
AcDbAlignedDimension
 13
12887.79693339132
 23
9761.662894336431
 33
0.0
 14
14887.79693339132
 24
9761.662894336431
 34
0.0
100
AcDbRotatedDimension
  0
LEADER
  5
6FA
330
1F
100
AcDbEntity
  8
寸法引出
  6
Continuous
100
AcDbLeader
  3
1_100_B
 71
     0
 73
     0
 74
     0
 75
     1
 40
300.0
 41
2635.714285714287
 76
     3
 10
10913.19693339122
 20
14147.88000438401
 30
0.0
 10
11111.74403165532
 20
14244.70103724328
 30
0.0
 10
11191.74403165532
 20
14244.70103724328
 30
0.0
  0
MTEXT
  5
6FB
102
{ACAD_REACTORS
330
6FA
102
}
330
1F
100
AcDbEntity
  8
寸法文字
  6
Continuous
100
AcDbMText
 10
11241.74403165532
 20
14294.70103724328
 30
0.0
 40
300.0
 41
0.0
 71
     7
 72
     1
  1
主柱φ50.8×2.3ｔ
  7
1_100
 73
     1
 44
1.0
1001
ACAD
1000
MTEXTBEGIN
1070
    73
1070
     1
1070
    44
1040
1.0
1070
    74
1070
     0
1000
MTEXTEND
  0
LEADER
  5
6FC
330
1F
100
AcDbEntity
  8
寸法引出
  6
Continuous
100
AcDbLeader
  3
1_100_B
 71
     0
 73
     0
 74
     0
 75
     1
 40
300.0
 41
3098.571428571429
 76
     3
 10
11185.08660266055
 20
12812.66886007894
 30
0.0
 10
11246.66913757259
 20
12901.37008710314
 30
0.0
 10
11326.66913757259
 20
12901.37008710314
 30
0.0
213
69.95590756242018
223
0.0
233
0.0
  0
MTEXT
  5
6FD
102
{ACAD_REACTORS
330
6FC
102
}
330
1F
100
AcDbEntity
  8
寸法文字
  6
Continuous
100
AcDbMText
 10
11306.71323001031
 20
12951.37008710314
 30
0.0
 40
300.0
 41
0.0
 71
     7
 72
     1
  1
φ38.1×1.6ｔ（上下）
  7
1_100
 73
     1
 44
1.0
1001
ACAD
1000
MTEXTBEGIN
1070
    73
1070
     1
1070
    44
1040
1.0
1070
    74
1070
     0
1000
MTEXTEND
  0
LINE
  5
6FE
330
1F
100
AcDbEntity
  8
画層3-1
  6
Continuous
100
AcDbLine
 10
12862.39693339141
 20
14151.28586335961
 30
0.0
 11
12862.39693339141
 21
14109.56886007896
 31
0.0
  0
LINE
  5
6FF
330
1F
100
AcDbEntity
  8
画層3-1
  6
Continuous
100
AcDbLine
 10
12913.19693339123
 20
14151.28586335961
 30
0.0
 11
12913.19693339123
 21
14109.56886007896
 31
0.0
  0
LINE
  5
700
330
1F
100
AcDbEntity
  8
画層3-2
  6
Continuous
100
AcDbLine
 10
12953.14693339141
 20
14151.28586335961
 30
0.0
 11
12953.14693339141
 21
14109.56886007896
 31
0.0
  0
LINE
  5
701
330
1F
100
AcDbEntity
  8
画層3-2
  6
Continuous
100
AcDbLine
 10
12822.44693339169
 20
14109.56886007896
 30
0.0
 11
12822.44693339169
 21
14151.28586335961
 31
0.0
  0
LINE
  5
702
330
1F
100
AcDbEntity
  8
画層3-1
  6
Continuous
100
AcDbLine
 10
12968.14693339141
 20
14109.56886007896
 30
0.0
 11
12807.44693339169
 21
14109.56886007896
 31
0.0
  0
LINE
  5
703
330
1F
100
AcDbEntity
  8
画層3-2
  6
Continuous
100
AcDbLine
 10
12822.44693339122
 20
14617.09974299724
 30
0.0
 11
12822.44693339122
 21
14691.46886007899
 31
0.0
  0
LINE
  5
704
330
1F
100
AcDbEntity
  8
画層3-1
  6
Continuous
100
AcDbLine
 10
12862.39693339141
 20
14676.46886007899
 30
0.0
 11
12862.39693339141
 21
14617.09974299724
 31
0.0
  0
LINE
  5
705
330
1F
100
AcDbEntity
  8
画層3-1
  6
Continuous
100
AcDbLine
 10
12913.19693339123
 20
14676.46886007899
 30
0.0
 11
12913.19693339123
 21
14617.09974299724
 31
0.0
  0
LINE
  5
706
330
1F
100
AcDbEntity
  8
画層3-2
  6
Continuous
100
AcDbLine
 10
12953.14693339141
 20
14691.46886007899
 30
0.0
 11
12953.14693339141
 21
14617.09974299724
 31
0.0
  0
ARC
  5
707
330
1F
100
AcDbEntity
  8
画層3-1
  6
Continuous
100
AcDbCircle
 10
12847.39693339141
 20
14676.46886007899
 30
0.0
 40
15.0
100
AcDbArc
 50
0.0
 51
90.0
  0
LINE
  5
708
330
1F
100
AcDbEntity
  8
画層3-1
  6
Continuous
100
AcDbLine
 10
12923.5969333916
 20
14676.46886007899
 30
0.0
 11
12851.9969333915
 21
14676.46886007899
 31
0.0
  0
LINE
  5
709
330
1F
100
AcDbEntity
  8
画層3-1
  6
Continuous
100
AcDbLine
 10
12836.9969333915
 20
14691.46886007899
 30
0.0
 11
12851.9969333915
 21
14676.46886007899
 31
0.0
  0
LINE
  5
70A
330
1F
100
AcDbEntity
  8
画層3-1
  6
Continuous
100
AcDbLine
 10
12923.5969333916
 20
14676.46886007899
 30
0.0
 11
12938.5969333916
 21
14691.46886007899
 31
0.0
  0
ARC
  5
70B
330
1F
100
AcDbEntity
  8
画層3-1
  6
Continuous
100
AcDbCircle
 10
12928.19693339122
 20
14676.46886007899
 30
0.0
 40
15.0
100
AcDbArc
 50
90.0
 51
180.0
  0
LINE
  5
70C
330
1F
100
AcDbEntity
  8
画層3-通り芯
  6
DASHDOT
 48
100.0
100
AcDbLine
 10
12887.79693339132
 20
14617.09974299724
 30
0.0
 11
12887.79693339132
 21
14754.56886007908
 31
0.0
  0
LINE
  5
70D
330
1F
100
AcDbEntity
  8
画層3-1
  6
Continuous
100
AcDbLine
 10
12836.9969333915
 20
14729.56886007897
 30
0.0
 11
12836.9969333915
 21
14691.46886007899
 31
0.0
  0
LINE
  5
70E
330
1F
100
AcDbEntity
  8
画層3-1
  6
Continuous
100
AcDbLine
 10
12938.5969333916
 20
14691.46886007899
 30
0.0
 11
12938.5969333916
 21
14729.56886007897
 31
0.0
  0
LINE
  5
70F
330
1F
100
AcDbEntity
  8
画層3-1
  6
Continuous
100
AcDbLine
 10
12807.44693339169
 20
14079.56886007896
 30
0.0
 11
12968.14693339141
 21
14079.56886007896
 31
0.0
  0
LINE
  5
710
330
1F
100
AcDbEntity
  8
画層3-1
  6
Continuous
100
AcDbLine
 10
12968.14693339141
 20
13449.56886007897
 30
0.0
 11
12807.44693339169
 21
13449.56886007897
 31
0.0
  0
LINE
  5
711
330
1F
100
AcDbEntity
  8
画層3-1
  6
Continuous
100
AcDbLine
 10
12807.44693339169
 20
13419.56886007896
 30
0.0
 11
12968.14693339141
 21
13419.56886007896
 31
0.0
  0
LINE
  5
712
330
1F
100
AcDbEntity
  8
画層3-2
  6
Continuous
100
AcDbLine
 10
12822.44693339169
 20
13353.80251656651
 30
0.0
 11
12822.44693339169
 21
13419.56886007896
 31
0.0
  0
LINE
  5
713
330
1F
100
AcDbEntity
  8
画層3-1
  6
Continuous
100
AcDbLine
 10
12807.44693339169
 20
13449.56886007897
 30
0.0
 11
12807.44693339169
 21
13419.56886007896
 31
0.0
  0
LINE
  5
714
330
1F
100
AcDbEntity
  8
画層3-1
  6
Continuous
100
AcDbLine
 10
12862.39693339141
 20
13419.56886007896
 30
0.0
 11
12862.39693339141
 21
13353.80251656651
 31
0.0
  0
LINE
  5
715
330
1F
100
AcDbEntity
  8
画層3-1
  6
Continuous
100
AcDbLine
 10
12968.14693339141
 20
13419.56886007896
 30
0.0
 11
12968.14693339141
 21
13449.56886007897
 31
0.0
  0
LINE
  5
716
330
1F
100
AcDbEntity
  8
画層3-1
  6
Continuous
100
AcDbLine
 10
12913.19693339123
 20
13419.56886007896
 30
0.0
 11
12913.19693339123
 21
13353.80251656651
 31
0.0
  0
LINE
  5
717
330
1F
100
AcDbEntity
  8
画層3-2
  6
Continuous
100
AcDbLine
 10
12953.14693339141
 20
13419.56886007896
 30
0.0
 11
12953.14693339141
 21
13353.80251656651
 31
0.0
  0
LINE
  5
718
330
1F
100
AcDbEntity
  8
画層3-1
  6
Continuous
100
AcDbLine
 10
12862.39693339141
 20
14079.56886007896
 30
0.0
 11
12862.39693339141
 21
13449.56886007897
 31
0.0
  0
LINE
  5
719
330
1F
100
AcDbEntity
  8
画層3-2
  6
Continuous
100
AcDbLine
 10
12822.44693339169
 20
13449.56886007897
 30
0.0
 11
12822.44693339169
 21
14079.56886007896
 31
0.0
  0
LINE
  5
71A
330
1F
100
AcDbEntity
  8
画層3-1
  6
Continuous
100
AcDbLine
 10
12913.19693339123
 20
14079.56886007896
 30
0.0
 11
12913.19693339123
 21
13449.56886007897
 31
0.0
  0
LINE
  5
71B
330
1F
100
AcDbEntity
  8
画層3-2
  6
Continuous
100
AcDbLine
 10
12953.14693339141
 20
14079.56886007896
 30
0.0
 11
12953.14693339141
 21
13449.56886007897
 31
0.0
  0
LINE
  5
71C
330
1F
100
AcDbEntity
  8
画層3-通り芯
  6
DASHDOT
 48
100.0
100
AcDbLine
 10
12887.79693339132
 20
13353.80251656651
 30
0.0
 11
12887.79693339132
 21
14151.28586335961
 31
0.0
  0
LINE
  5
71D
330
1F
100
AcDbEntity
  8
画層3-1
  6
Continuous
100
AcDbLine
 10
12807.44693339169
 20
14109.56886007896
 30
0.0
 11
12807.44693339169
 21
14079.56886007896
 31
0.0
  0
LINE
  5
71E
330
1F
100
AcDbEntity
  8
画層3-1
  6
Continuous
100
AcDbLine
 10
12968.14693339141
 20
14079.56886007896
 30
0.0
 11
12968.14693339141
 21
14109.56886007896
 31
0.0
  0
LINE
  5
71F
330
1F
100
AcDbEntity
  8
画層3-1
  6
Continuous
100
AcDbLine
 10
12822.44693339169
 20
12832.66886007894
 30
0.0
 11
12953.14693339141
 21
12832.66886007894
 31
0.0
  0
LINE
  5
720
330
1F
100
AcDbEntity
  8
画層3-2
  6
Continuous
100
AcDbLine
 10
12822.44693339169
 20
12754.56886007896
 30
0.0
 11
12822.44693339169
 21
12855.90235792279
 31
0.0
  0
LINE
  5
721
330
1F
100
AcDbEntity
  8
画層3-1
  6
Continuous
100
AcDbLine
 10
12862.39693339141
 20
12855.90235792279
 30
0.0
 11
12862.39693339141
 21
12812.66886007894
 31
0.0
  0
LINE
  5
722
330
1F
100
AcDbEntity
  8
画層3-1
  6
Continuous
100
AcDbLine
 10
12913.19693339123
 20
12855.90235792279
 30
0.0
 11
12913.19693339123
 21
12812.66886007894
 31
0.0
  0
LINE
  5
723
330
1F
100
AcDbEntity
  8
画層3-2
  6
Continuous
100
AcDbLine
 10
12953.14693339141
 20
12855.90235792279
 30
0.0
 11
12953.14693339141
 21
12754.56886007896
 31
0.0
  0
LINE
  5
724
330
1F
100
AcDbEntity
  8
画層3-1
  6
Continuous
100
AcDbLine
 10
12862.39693339141
 20
12554.56886007896
 30
0.0
 11
12913.19693339123
 21
12554.56886007896
 31
0.0
  0
LINE
  5
725
330
1F
100
AcDbEntity
  8
画層3-1
  6
Continuous
100
AcDbLine
 10
12862.39693339141
 20
12774.5688600792
 30
0.0
 11
12862.39693339141
 21
12554.56886007896
 31
0.0
  0
LINE
  5
726
330
1F
100
AcDbEntity
  8
画層3-1
  6
Continuous
100
AcDbLine
 10
12913.19693339123
 20
12774.56886007885
 30
0.0
 11
12913.19693339123
 21
12554.56886007896
 31
0.0
  0
LWPOLYLINE
  5
727
330
1F
100
AcDbEntity
  8
画層3-2
100
AcDbPolyline
 90
        4
 70
     0
 43
0.0
 10
13012.79693339132
 20
12754.56886007896
 10
13012.79693339132
 20
12304.56886007897
 10
12762.79693339132
 20
12304.56886007897
 10
12762.79693339132
 20
12754.56886007896
  0
HATCH
  5
728
330
1F
100
AcDbEntity
  8
画層3-3
100
AcDbHatch
 10
0.0
 20
0.0
 30
0.0
210
0.0
220
0.0
230
1.0
  2
PLAST
 70
     0
 71
     0
 91
        1
 92
        7
 72
     0
 73
     1
 93
        4
 10
13012.79693339132
 20
12754.56886007896
 10
12762.79693339132
 20
12754.56886007896
 10
12762.79693339132
 20
12304.56886007897
 10
13012.79693339132
 20
12304.56886007897
 97
        0
 75
     0
 76
     1
 52
45.0
 41
1800.0
 77
     0
 78
     3
 53
45.0
 43
6745.454277625031
 44
6312.901843567766
 45
-318.1980515339463
 46
318.1980515339464
 79
     0
 53
45.0
 43
6705.679521183673
 44
6352.676600009591
 45
-318.1980515339463
 46
318.1980515339464
 79
     0
 53
45.0
 43
6665.904764741849
 44
6392.451356451299
 45
-318.1980515339463
 46
318.1980515339464
 79
     0
 47
2.4753793195157
 98
        1
 10
13001.69013115456
 20
12513.77630808674
  0
LINE
  5
729
330
1F
100
AcDbEntity
  8
画層3-通り芯
  6
DASHDOT
 48
100.0
100
AcDbLine
 10
12887.79693339132
 20
12208.1993049472
 30
0.0
 11
12887.79693339132
 21
12855.90235792279
 31
0.0
  0
LINE
  5
72A
330
1F
100
AcDbEntity
  8
画層3-1
  6
Continuous
100
AcDbLine
 10
10862.39693339141
 20
14676.46886007899
 30
0.0
 11
10862.39693339141
 21
14109.56886007896
 31
0.0
  0
LINE
  5
72B
330
1F
100
AcDbEntity
  8
画層3-1
  6
Continuous
100
AcDbLine
 10
10913.19693339122
 20
14676.46886007899
 30
0.0
 11
10913.19693339122
 21
14109.56886007896
 31
0.0
  0
LINE
  5
72C
330
1F
100
AcDbEntity
  8
画層3-2
  6
Continuous
100
AcDbLine
 10
10953.14693339141
 20
14691.46886007899
 30
0.0
 11
10953.14693339141
 21
14109.56886007896
 31
0.0
  0
LINE
  5
72D
330
1F
100
AcDbEntity
  8
画層3-2
  6
Continuous
100
AcDbLine
 10
10822.44693339169
 20
14109.56886007896
 30
0.0
 11
10822.44693339122
 21
14691.46886007899
 31
0.0
  0
LINE
  5
72E
330
1F
100
AcDbEntity
  8
画層3-1
  6
Continuous
100
AcDbLine
 10
10968.14693339141
 20
14109.56886007896
 30
0.0
 11
10807.44693339169
 21
14109.56886007896
 31
0.0
  0
LINE
  5
72F
330
1F
100
AcDbEntity
  8
画層3-1
  6
Continuous
100
AcDbLine
 10
10836.9969333915
 20
14691.46886007899
 30
0.0
 11
10851.9969333915
 21
14676.46886007899
 31
0.0
  0
LINE
  5
730
330
1F
100
AcDbEntity
  8
画層3-1
  6
Continuous
100
AcDbLine
 10
10836.9969333915
 20
14729.56886007897
 30
0.0
 11
10836.9969333915
 21
14691.46886007899
 31
0.0
  0
LINE
  5
731
330
1F
100
AcDbEntity
  8
画層3-1
  6
Continuous
100
AcDbLine
 10
10923.5969333916
 20
14676.46886007899
 30
0.0
 11
10851.9969333915
 21
14676.46886007899
 31
0.0
  0
ARC
  5
732
330
1F
100
AcDbEntity
  8
画層3-1
  6
Continuous
100
AcDbCircle
 10
10928.19693339122
 20
14676.46886007899
 30
0.0
 40
15.0
100
AcDbArc
 50
90.0
 51
180.0
  0
LINE
  5
733
330
1F
100
AcDbEntity
  8
画層3-1
  6
Continuous
100
AcDbLine
 10
10923.5969333916
 20
14676.46886007899
 30
0.0
 11
10938.5969333916
 21
14691.46886007899
 31
0.0
  0
ARC
  5
734
330
1F
100
AcDbEntity
  8
画層3-1
  6
Continuous
100
AcDbCircle
 10
10847.39693339141
 20
14676.46886007899
 30
0.0
 40
15.0
100
AcDbArc
 50
0.0
 51
90.0
  0
LINE
  5
735
330
1F
100
AcDbEntity
  8
画層3-1
  6
Continuous
100
AcDbLine
 10
10938.5969333916
 20
14691.46886007899
 30
0.0
 11
10938.5969333916
 21
14729.56886007897
 31
0.0
  0
LINE
  5
736
330
1F
100
AcDbEntity
  8
画層3-1
  6
Continuous
100
AcDbLine
 10
10807.44693339169
 20
14079.56886007896
 30
0.0
 11
10968.14693339141
 21
14079.56886007896
 31
0.0
  0
LINE
  5
737
330
1F
100
AcDbEntity
  8
画層3-1
  6
Continuous
100
AcDbLine
 10
10968.14693339141
 20
13449.56886007897
 30
0.0
 11
10807.44693339169
 21
13449.56886007897
 31
0.0
  0
LINE
  5
738
330
1F
100
AcDbEntity
  8
画層3-1
  6
Continuous
100
AcDbLine
 10
10807.44693339169
 20
13419.56886007896
 30
0.0
 11
10968.14693339141
 21
13419.56886007896
 31
0.0
  0
LINE
  5
739
330
1F
100
AcDbEntity
  8
画層3-1
  6
Continuous
100
AcDbLine
 10
10807.44693339169
 20
13449.56886007897
 30
0.0
 11
10807.44693339169
 21
13419.56886007896
 31
0.0
  0
LINE
  5
73A
330
1F
100
AcDbEntity
  8
画層3-2
  6
Continuous
100
AcDbLine
 10
10822.44693339169
 20
13449.56886007897
 30
0.0
 11
10822.44693339169
 21
14079.56886007896
 31
0.0
  0
LINE
  5
73B
330
1F
100
AcDbEntity
  8
画層3-1
  6
Continuous
100
AcDbLine
 10
10862.39693339141
 20
14079.56886007896
 30
0.0
 11
10862.39693339141
 21
13449.56886007897
 31
0.0
  0
LINE
  5
73C
330
1F
100
AcDbEntity
  8
画層3-1
  6
Continuous
100
AcDbLine
 10
10968.14693339141
 20
13419.56886007896
 30
0.0
 11
10968.14693339141
 21
13449.56886007897
 31
0.0
  0
LINE
  5
73D
330
1F
100
AcDbEntity
  8
画層3-1
  6
Continuous
100
AcDbLine
 10
10913.19693339122
 20
14079.56886007896
 30
0.0
 11
10913.19693339122
 21
13449.56886007897
 31
0.0
  0
LINE
  5
73E
330
1F
100
AcDbEntity
  8
画層3-2
  6
Continuous
100
AcDbLine
 10
10953.14693339141
 20
14079.56886007896
 30
0.0
 11
10953.14693339141
 21
13449.56886007897
 31
0.0
  0
LINE
  5
73F
330
1F
100
AcDbEntity
  8
画層3-1
  6
Continuous
100
AcDbLine
 10
10807.44693339169
 20
14109.56886007896
 30
0.0
 11
10807.44693339169
 21
14079.56886007896
 31
0.0
  0
LINE
  5
740
330
1F
100
AcDbEntity
  8
寸法引出
  6
Continuous
100
AcDbLine
 10
11251.29155742955
 20
13598.08895934342
 30
0.0
 11
11100.33392133955
 21
14094.56886007897
 31
0.0
  0
LINE
  5
741
330
1F
100
AcDbEntity
  8
画層3-1
  6
Continuous
100
AcDbLine
 10
10968.14693339141
 20
14079.56886007896
 30
0.0
 11
10968.14693339141
 21
14109.56886007896
 31
0.0
  0
LINE
  5
742
330
1F
100
AcDbEntity
  8
画層3-1
  6
Continuous
100
AcDbLine
 10
10822.44693339169
 20
12832.66886007894
 30
0.0
 11
10953.14693339141
 21
12832.66886007894
 31
0.0
  0
LWPOLYLINE
  5
743
330
1F
100
AcDbEntity
  8
画層3-2
100
AcDbPolyline
 90
        4
 70
     0
 43
0.0
 10
11012.79693339132
 20
12754.56886007896
 10
11012.79693339132
 20
12304.56886007897
 10
10762.79693339132
 20
12304.56886007897
 10
10762.79693339132
 20
12754.56886007896
  0
HATCH
  5
744
330
1F
100
AcDbEntity
  8
画層3-3
100
AcDbHatch
 10
0.0
 20
0.0
 30
0.0
210
0.0
220
0.0
230
1.0
  2
PLAST
 70
     0
 71
     0
 91
        1
 92
        7
 72
     0
 73
     1
 93
        4
 10
11012.79693339132
 20
12754.56886007896
 10
10762.79693339132
 20
12754.56886007896
 10
10762.79693339132
 20
12304.56886007897
 10
11012.79693339132
 20
12304.56886007897
 97
        0
 75
     0
 76
     1
 52
45.0
 41
1800.0
 77
     0
 78
     3
 53
45.0
 43
4745.454277625031
 44
6312.901843567766
 45
-318.1980515339463
 46
318.1980515339464
 79
     0
 53
45.0
 43
4705.679521183673
 44
6352.676600009591
 45
-318.1980515339463
 46
318.1980515339464
 79
     0
 53
45.0
 43
4665.904764741848
 44
6392.451356451299
 45
-318.1980515339463
 46
318.1980515339464
 79
     0
 47
2.4753793195157
 98
        1
 10
11001.69013115456
 20
12513.77630808674
  0
LINE
  5
745
330
1F
100
AcDbEntity
  8
画層3-1
  6
Continuous
100
AcDbLine
 10
10862.39693339141
 20
12554.56886007896
 30
0.0
 11
10913.19693339122
 21
12554.56886007896
 31
0.0
  0
LINE
  5
746
330
1F
100
AcDbEntity
  8
画層3-1
  6
Continuous
100
AcDbLine
 10
10913.19693339122
 20
12774.56886007885
 30
0.0
 11
10913.19693339122
 21
12554.56886007896
 31
0.0
  0
LINE
  5
747
330
1F
100
AcDbEntity
  8
画層3-1
  6
Continuous
100
AcDbLine
 10
10862.39693339141
 20
12774.5688600792
 30
0.0
 11
10862.39693339141
 21
12554.56886007896
 31
0.0
  0
LINE
  5
748
330
1F
100
AcDbEntity
  8
画層3-1
  6
Continuous
100
AcDbLine
 10
10862.39693339141
 20
13419.56886007896
 30
0.0
 11
10862.39693339141
 21
12812.66886007894
 31
0.0
  0
LINE
  5
749
330
1F
100
AcDbEntity
  8
画層3-1
  6
Continuous
100
AcDbLine
 10
10913.19693339122
 20
13419.56886007896
 30
0.0
 11
10913.19693339122
 21
12812.66886007894
 31
0.0
  0
LINE
  5
74A
330
1F
100
AcDbEntity
  8
画層3-2
  6
Continuous
100
AcDbLine
 10
10822.44693339169
 20
12754.56886007896
 30
0.0
 11
10822.44693339169
 21
13419.56886007896
 31
0.0
  0
LINE
  5
74B
330
1F
100
AcDbEntity
  8
画層3-2
  6
Continuous
100
AcDbLine
 10
10953.14693339141
 20
13419.56886007896
 30
0.0
 11
10953.14693339141
 21
12754.56886007896
 31
0.0
  0
LINE
  5
74C
330
1F
100
AcDbEntity
  8
画層3-通り芯
  6
DASHDOT
 48
100.0
100
AcDbLine
 10
10887.79693339132
 20
12208.1993049472
 30
0.0
 11
10887.79693339132
 21
14754.56886007908
 31
0.0
  0
DIMENSION
  5
74D
330
1F
100
AcDbEntity
  8
寸法
  6
Continuous
100
AcDbDimension
  2
*D18
 10
12887.79693339132
 20
8454.568860078735
 30
0.0
 11
11887.79693339132
 21
8733.140288650163
 31
0.0
 70
    32
 71
     5
 42
2000.0
  3
1_100
100
AcDbAlignedDimension
 13
10887.79693339132
 23
9761.662894336431
 33
0.0
 14
12887.79693339132
 24
9761.662894336431
 34
0.0
100
AcDbRotatedDimension
  0
LEADER
  5
74E
330
1F
100
AcDbEntity
  8
寸法引出
  6
Continuous
100
AcDbLeader
  3
1_100_B
 71
     0
 73
     0
 74
     0
 75
     1
 40
300.0
 41
1095.0
 76
     3
 10
11094.83336846037
 20
13434.56886007897
 30
0.0
 10
11251.29155742955
 20
13598.08895934342
 30
0.0
 10
11331.29155742955
 20
13598.08895934342
 30
0.0
  0
MTEXT
  5
74F
102
{ACAD_REACTORS
330
74E
102
}
330
1F
100
AcDbEntity
  8
寸法文字
  6
Continuous
100
AcDbMText
 10
11381.29155742954
 20
13648.08895934342
 30
0.0
 40
300.0
 41
0.0
 71
     7
 72
     1
  1
4mm線
  7
1_100
 73
     1
 44
1.0
1001
ACAD
1000
MTEXTBEGIN
1070
    73
1070
     1
1070
    44
1040
1.0
1070
    74
1070
     0
1000
MTEXTEND
  0
LINE
  5
750
330
1F
100
AcDbEntity
  8
画層3-2
  6
Continuous
100
AcDbLine
 10
12807.44693339169
 20
13434.56886007885
 30
0.0
 11
10968.14693339141
 21
13434.56886007897
 31
0.0
  0
LINE
  5
751
330
1F
100
AcDbEntity
  8
画層3-2
  6
Continuous
100
AcDbLine
 10
10968.14693339141
 20
14094.56886007897
 30
0.0
 11
12807.44693339169
 21
14094.56886007897
 31
0.0
  0
LINE
  5
752
330
1F
100
AcDbEntity
  8
画層3-1
  6
Continuous
100
AcDbLine
 10
10928.19693339122
 20
14691.46886007887
 30
0.0
 11
12847.39693339141
 21
14691.46886007887
 31
0.0
  0
LINE
  5
753
330
1F
100
AcDbEntity
  8
画層3-2
  6
Continuous
100
AcDbLine
 10
12807.44693339169
 20
13434.56886007885
 30
0.0
 11
10968.14693339141
 21
13434.56886007897
 31
0.0
  0
LINE
  5
754
330
1F
100
AcDbEntity
  8
画層3-2
  6
Continuous
100
AcDbLine
 10
10968.14693339141
 20
14094.56886007897
 30
0.0
 11
12807.44693339169
 21
14094.56886007897
 31
0.0
  0
LINE
  5
755
330
1F
100
AcDbEntity
  8
画層3-1
  6
Continuous
100
AcDbLine
 10
10913.19693339122
 20
12812.66886007894
 30
0.0
 11
12862.39693339141
 21
12812.66886007894
 31
0.0
  0
LINE
  5
756
330
1F
100
AcDbEntity
  8
画層3-1
  6
Continuous
100
AcDbLine
 10
10913.19693339122
 20
12774.56886007896
 30
0.0
 11
12862.39693339141
 21
12774.56886007896
 31
0.0
  0
DIMENSION
  5
757
330
1F
100
AcDbEntity
  8
画層3-寸法
  6
Continuous
100
AcDbDimension
  2
*D19
 10
12403.0396987807
 20
12304.56886007897
 30
0.0
 11
12132.67467662478
 21
12389.94275330511
 31
0.0
 70
   160
 71
     5
 42
450.0
  3
1_100_B
100
AcDbAlignedDimension
 13
12762.79693339132
 23
12754.56886007896
 33
0.0
 14
12762.79693339132
 24
12304.56886007897
 34
0.0
 50
90.0
100
AcDbRotatedDimension
  0
LINE
  5
758
330
1F
100
AcDbEntity
  8
画層3-2
  6
Continuous
100
AcDbLine
 10
14953.14693339141
 20
14691.46886007899
 30
0.0
 11
14953.14693339141
 21
14109.56886007896
 31
0.0
  0
LINE
  5
759
330
1F
100
AcDbEntity
  8
画層3-1
  6
Continuous
100
AcDbLine
 10
14862.39693339141
 20
14676.46886007899
 30
0.0
 11
14862.39693339141
 21
14109.56886007896
 31
0.0
  0
LINE
  5
75A
330
1F
100
AcDbEntity
  8
画層3-2
  6
Continuous
100
AcDbLine
 10
14822.44693339169
 20
14109.56886007896
 30
0.0
 11
14822.44693339123
 21
14691.46886007899
 31
0.0
  0
LINE
  5
75B
330
1F
100
AcDbEntity
  8
画層3-1
  6
Continuous
100
AcDbLine
 10
14913.19693339123
 20
14676.46886007899
 30
0.0
 11
14913.19693339123
 21
14109.56886007896
 31
0.0
  0
LINE
  5
75C
330
1F
100
AcDbEntity
  8
画層3-1
  6
Continuous
100
AcDbLine
 10
14968.14693339141
 20
14109.56886007896
 30
0.0
 11
14807.44693339169
 21
14109.56886007896
 31
0.0
  0
LINE
  5
75D
330
1F
100
AcDbEntity
  8
画層3-1
  6
Continuous
100
AcDbLine
 10
14923.5969333916
 20
14676.46886007899
 30
0.0
 11
14851.9969333915
 21
14676.46886007899
 31
0.0
  0
ARC
  5
75E
330
1F
100
AcDbEntity
  8
画層3-1
  6
Continuous
100
AcDbCircle
 10
14847.39693339141
 20
14676.46886007899
 30
0.0
 40
15.0
100
AcDbArc
 50
0.0
 51
90.0
  0
LINE
  5
75F
330
1F
100
AcDbEntity
  8
画層3-1
  6
Continuous
100
AcDbLine
 10
14836.99693339151
 20
14691.46886007899
 30
0.0
 11
14851.9969333915
 21
14676.46886007899
 31
0.0
  0
LINE
  5
760
330
1F
100
AcDbEntity
  8
画層3-1
  6
Continuous
100
AcDbLine
 10
14836.99693339151
 20
14729.56886007897
 30
0.0
 11
14836.99693339151
 21
14691.46886007899
 31
0.0
  0
LINE
  5
761
330
1F
100
AcDbEntity
  8
画層3-1
  6
Continuous
100
AcDbLine
 10
14938.5969333916
 20
14691.46886007899
 30
0.0
 11
14938.5969333916
 21
14729.56886007897
 31
0.0
  0
ARC
  5
762
330
1F
100
AcDbEntity
  8
画層3-1
  6
Continuous
100
AcDbCircle
 10
14928.19693339123
 20
14676.46886007899
 30
0.0
 40
15.0
100
AcDbArc
 50
90.0
 51
180.0
  0
LINE
  5
763
330
1F
100
AcDbEntity
  8
画層3-1
  6
Continuous
100
AcDbLine
 10
14923.5969333916
 20
14676.46886007899
 30
0.0
 11
14938.5969333916
 21
14691.46886007899
 31
0.0
  0
LINE
  5
764
330
1F
100
AcDbEntity
  8
画層3-1
  6
Continuous
100
AcDbLine
 10
14807.44693339169
 20
13419.56886007896
 30
0.0
 11
14968.14693339141
 21
13419.56886007896
 31
0.0
  0
LINE
  5
765
330
1F
100
AcDbEntity
  8
画層3-1
  6
Continuous
100
AcDbLine
 10
14968.14693339141
 20
13449.56886007897
 30
0.0
 11
14807.44693339169
 21
13449.56886007897
 31
0.0
  0
LINE
  5
766
330
1F
100
AcDbEntity
  8
画層3-1
  6
Continuous
100
AcDbLine
 10
14807.44693339169
 20
14079.56886007896
 30
0.0
 11
14968.14693339141
 21
14079.56886007896
 31
0.0
  0
LINE
  5
767
330
1F
100
AcDbEntity
  8
画層3-1
  6
Continuous
100
AcDbLine
 10
14807.44693339169
 20
13449.56886007897
 30
0.0
 11
14807.44693339169
 21
13419.56886007896
 31
0.0
  0
LINE
  5
768
330
1F
100
AcDbEntity
  8
画層3-1
  6
Continuous
100
AcDbLine
 10
14862.39693339141
 20
14079.56886007896
 30
0.0
 11
14862.39693339141
 21
13449.56886007897
 31
0.0
  0
LINE
  5
769
330
1F
100
AcDbEntity
  8
画層3-2
  6
Continuous
100
AcDbLine
 10
14822.44693339169
 20
13449.56886007897
 30
0.0
 11
14822.44693339169
 21
14079.56886007896
 31
0.0
  0
LINE
  5
76A
330
1F
100
AcDbEntity
  8
画層3-1
  6
Continuous
100
AcDbLine
 10
14968.14693339141
 20
13419.56886007896
 30
0.0
 11
14968.14693339141
 21
13449.56886007897
 31
0.0
  0
LINE
  5
76B
330
1F
100
AcDbEntity
  8
画層3-2
  6
Continuous
100
AcDbLine
 10
14953.14693339141
 20
14079.56886007896
 30
0.0
 11
14953.14693339141
 21
13449.56886007897
 31
0.0
  0
LINE
  5
76C
330
1F
100
AcDbEntity
  8
画層3-1
  6
Continuous
100
AcDbLine
 10
14913.19693339123
 20
14079.56886007896
 30
0.0
 11
14913.19693339123
 21
13449.56886007897
 31
0.0
  0
LINE
  5
76D
330
1F
100
AcDbEntity
  8
画層3-1
  6
Continuous
100
AcDbLine
 10
14807.44693339169
 20
14109.56886007896
 30
0.0
 11
14807.44693339169
 21
14079.56886007896
 31
0.0
  0
LINE
  5
76E
330
1F
100
AcDbEntity
  8
画層3-1
  6
Continuous
100
AcDbLine
 10
14968.14693339141
 20
14079.56886007896
 30
0.0
 11
14968.14693339141
 21
14109.56886007896
 31
0.0
  0
LINE
  5
76F
330
1F
100
AcDbEntity
  8
画層3-1
  6
Continuous
100
AcDbLine
 10
14862.39693339141
 20
12554.56886007896
 30
0.0
 11
14913.19693339123
 21
12554.56886007896
 31
0.0
  0
LINE
  5
770
330
1F
100
AcDbEntity
  8
画層3-1
  6
Continuous
100
AcDbLine
 10
14822.44693339169
 20
12832.66886007894
 30
0.0
 11
14953.14693339141
 21
12832.66886007894
 31
0.0
  0
LWPOLYLINE
  5
771
330
1F
100
AcDbEntity
  8
画層3-2
100
AcDbPolyline
 90
        4
 70
     0
 43
0.0
 10
15012.79693339132
 20
12754.56886007896
 10
15012.79693339132
 20
12304.56886007897
 10
14762.79693339132
 20
12304.56886007897
 10
14762.79693339132
 20
12754.56886007896
  0
HATCH
  5
772
330
1F
100
AcDbEntity
  8
画層3-3
100
AcDbHatch
 10
0.0
 20
0.0
 30
0.0
210
0.0
220
0.0
230
1.0
  2
PLAST
 70
     0
 71
     0
 91
        1
 92
        7
 72
     0
 73
     1
 93
        4
 10
15012.79693339132
 20
12754.56886007896
 10
14762.79693339132
 20
12754.56886007896
 10
14762.79693339132
 20
12304.56886007897
 10
15012.79693339132
 20
12304.56886007897
 97
        0
 75
     0
 76
     1
 52
45.0
 41
1800.0
 77
     0
 78
     3
 53
45.0
 43
8745.454277625031
 44
6312.901843567766
 45
-318.1980515339463
 46
318.1980515339464
 79
     0
 53
45.0
 43
8705.679521183673
 44
6352.676600009591
 45
-318.1980515339463
 46
318.1980515339464
 79
     0
 53
45.0
 43
8665.904764741851
 44
6392.451356451299
 45
-318.1980515339463
 46
318.1980515339464
 79
     0
 47
2.4753793195157
 98
        1
 10
15001.69013115456
 20
12513.77630808674
  0
LINE
  5
773
330
1F
100
AcDbEntity
  8
画層3-1
  6
Continuous
100
AcDbLine
 10
14862.39693339141
 20
12774.5688600792
 30
0.0
 11
14862.39693339141
 21
12554.56886007896
 31
0.0
  0
LINE
  5
774
330
1F
100
AcDbEntity
  8
画層3-1
  6
Continuous
100
AcDbLine
 10
14913.19693339123
 20
12774.56886007885
 30
0.0
 11
14913.19693339123
 21
12554.56886007896
 31
0.0
  0
LINE
  5
775
330
1F
100
AcDbEntity
  8
画層3-1
  6
Continuous
100
AcDbLine
 10
14862.39693339141
 20
13419.56886007896
 30
0.0
 11
14862.39693339141
 21
12812.66886007894
 31
0.0
  0
LINE
  5
776
330
1F
100
AcDbEntity
  8
画層3-2
  6
Continuous
100
AcDbLine
 10
14953.14693339141
 20
13419.56886007896
 30
0.0
 11
14953.14693339141
 21
12754.56886007896
 31
0.0
  0
LINE
  5
777
330
1F
100
AcDbEntity
  8
画層3-2
  6
Continuous
100
AcDbLine
 10
14822.44693339169
 20
12754.56886007896
 30
0.0
 11
14822.44693339169
 21
13419.56886007896
 31
0.0
  0
LINE
  5
778
330
1F
100
AcDbEntity
  8
画層3-1
  6
Continuous
100
AcDbLine
 10
14913.19693339123
 20
13419.56886007896
 30
0.0
 11
14913.19693339123
 21
12812.66886007894
 31
0.0
  0
LINE
  5
779
330
1F
100
AcDbEntity
  8
画層3-通り芯
  6
DASHDOT
 48
100.0
100
AcDbLine
 10
14887.79693339132
 20
12208.1993049472
 30
0.0
 11
14887.79693339132
 21
14754.56886007908
 31
0.0
  0
LINE
  5
77A
330
1F
100
AcDbEntity
  8
画層3-2
  6
Continuous
100
AcDbLine
 10
15624.65423524678
 20
13434.56886007897
 30
0.0
 11
14968.14693339141
 21
13434.56886007897
 31
0.0
  0
MTEXT
  5
77B
330
1F
100
AcDbEntity
  8
寸法文字
  6
Continuous
100
AcDbMText
 10
16864.25593977999
 20
13469.14510793417
 30
0.0
 40
300.0
 41
0.0
 71
     8
 72
     1
  1
カラーハガネ線
  7
1_100
 73
     1
 44
1.0
1001
ACAD
1000
MTEXTBEGIN
1070
    73
1070
     1
1070
    44
1040
1.0
1070
    74
1070
     0
1000
MTEXTEND
  0
MTEXT
  5
77C
330
1F
100
AcDbEntity
  8
寸法文字
  6
Continuous
100
AcDbMText
 10
16876.30838771975
 20
13065.96369457633
 30
0.0
 40
300.0
 41
0.0
 71
     8
 72
     1
  1
φ2.6×40mm目
  7
1_100
 73
     1
 44
1.0
1001
ACAD
1000
MTEXTBEGIN
1070
    73
1070
     1
1070
    44
1040
1.0
1070
    74
1070
     0
1000
MTEXTEND
  0
LEADER
  5
77D
330
1F
100
AcDbEntity
  8
寸法引出
  6
Continuous
100
AcDbLeader
  3
1_100_B
 71
     0
 73
     0
 74
     0
 75
     1
 40
300.0
 41
1845.0
 76
     3
 10
14953.14693339141
 20
14455.41240340952
 30
0.0
 10
15164.88609860949
 20
14193.85781665418
 30
0.0
 10
15244.88609860949
 20
14193.85781665418
 30
0.0
  0
MTEXT
  5
77E
102
{ACAD_REACTORS
330
77D
102
}
330
1F
100
AcDbEntity
  8
寸法文字
  6
Continuous
100
AcDbMText
 10
15294.88609860949
 20
14243.85781665418
 30
0.0
 40
300.0
 41
0.0
 71
     7
 72
     1
  1
FB-4.5×19
  7
1_100
 73
     1
 44
1.0
1001
ACAD
1000
MTEXTBEGIN
1070
    73
1070
     1
1070
    44
1040
1.0
1070
    74
1070
     0
1000
MTEXTEND
  0
LINE
  5
77F
330
1F
100
AcDbEntity
  8
画層3-1
  6
Continuous
100
AcDbLine
 10
14913.19693339123
 20
12774.56886007896
 30
0.0
 11
16862.39693339141
 21
12774.56886007885
 31
0.0
  0
LINE
  5
780
330
1F
100
AcDbEntity
  8
画層3-1
  6
Continuous
100
AcDbLine
 10
14913.19693339123
 20
12812.66886007894
 30
0.0
 11
16862.39693339141
 21
12812.66886007894
 31
0.0
  0
LINE
  5
781
330
1F
100
AcDbEntity
  8
画層3-2
  6
Continuous
100
AcDbLine
 10
14968.14693339141
 20
14094.56886007897
 30
0.0
 11
16807.44693339169
 21
14094.56886007897
 31
0.0
  0
LINE
  5
782
330
1F
100
AcDbEntity
  8
画層3-1
  6
Continuous
100
AcDbLine
 10
14928.19693339123
 20
14691.46886007899
 30
0.0
 11
16847.39693339141
 21
14691.46886007899
 31
0.0
  0
DIMENSION
  5
783
330
1F
100
AcDbEntity
  8
寸法
  6
Continuous
100
AcDbDimension
  2
*D20
 10
16887.79693339131
 20
8454.568860078735
 30
0.0
 11
15887.79693339132
 21
8733.140288650163
 31
0.0
 70
    32
 71
     5
 42
2000.0
  3
1_100
100
AcDbAlignedDimension
 13
14887.79693339132
 23
9761.662894336431
 33
0.0
 14
16887.79693339131
 24
9761.662894336431
 34
0.0
100
AcDbRotatedDimension
  0
MTEXT
  5
784
102
{ACAD_REACTORS
330
785
102
}
330
1F
100
AcDbEntity
  8
寸法文字
  6
Continuous
100
AcDbMText
 10
20801.96503605945
 20
15349.79378252876
 30
0.0
 40
300.0
 41
0.0
 71
     7
 72
     1
  1
メッセンワイヤー22m㎡
  7
1_100
 73
     1
 44
1.0
1001
ACAD
1000
MTEXTBEGIN
1070
    73
1070
     1
1070
    44
1040
1.0
1070
    74
1070
     0
1000
MTEXTEND
  0
LEADER
  5
785
330
1F
100
AcDbEntity
  8
寸法引出
  6
Continuous
100
AcDbLeader
  3
1_100
 71
     0
 73
     0
 74
     0
 75
     1
 40
346.6666666666666
 41
3117.142857142858
 76
     3
 10
20354.88889465919
 20
14754.56886007908
 30
0.0
 10
20641.96503605945
 20
15249.79378252876
 30
0.0
 10
20701.96503605945
 20
15249.79378252876
 30
0.0
340
784
  0
MTEXT
  5
786
102
{ACAD_REACTORS
330
787
102
}
330
1F
100
AcDbEntity
  8
寸法文字
  6
Continuous
100
AcDbMText
 10
16514.67597210519
 20
15247.86543383779
 30
0.0
 40
300.0
 41
0.0
 71
     9
 72
     1
  1
タンバックル12mm
  7
1_100
 73
     1
 44
1.0
1001
ACAD
1000
MTEXTBEGIN
1070
    73
1070
     1
1070
    44
1040
1.0
1070
    74
1070
     0
1000
MTEXTEND
  0
LEADER
  5
787
330
1F
100
AcDbEntity
  8
寸法引出
  6
Continuous
100
AcDbLeader
  3
1_100
 71
     0
 73
     0
 40
300.0
 41
2603.571428571428
 76
     2
 10
18605.47254222697
 20
14836.39091628374
 30
0.0
 10
16614.67597210519
 20
15147.86543383779
 30
0.0
340
786
  0
LINE
  5
788
330
1F
100
AcDbEntity
  8
画層3-2
  6
Continuous
100
AcDbLine
 10
24807.44693339169
 20
13434.5688600792
 30
0.0
 11
22968.14693339142
 21
13434.56886007908
 31
0.0
  0
LINE
  5
789
330
1F
100
AcDbEntity
  8
画層3-2
  6
Continuous
100
AcDbLine
 10
22968.14693339142
 20
14094.56886007908
 30
0.0
 11
24807.44693339169
 21
14094.56886007908
 31
0.0
  0
LINE
  5
78A
330
1F
100
AcDbEntity
  8
画層3-1
  6
Continuous
100
AcDbLine
 10
22928.19693339123
 20
14691.4688600791
 30
0.0
 11
24847.39693339141
 21
14691.4688600791
 31
0.0
  0
LINE
  5
78B
330
1F
100
AcDbEntity
  8
画層3-1
  6
Continuous
100
AcDbLine
 10
22913.19693339123
 20
12812.66886007906
 30
0.0
 11
24862.39693339141
 21
12812.66886007917
 31
0.0
  0
LINE
  5
78C
330
1F
100
AcDbEntity
  8
画層3-1
  6
Continuous
100
AcDbLine
 10
22913.19693339169
 20
12774.56886007908
 30
0.0
 11
24862.39693339141
 21
12774.56886007908
 31
0.0
  0
LINE
  5
78D
330
1F
100
AcDbEntity
  8
画層1
  6
Continuous
100
AcDbLine
 10
30912.79693339132
 20
17039.56886007908
 30
0.0
 11
30912.79693339132
 21
17089.56886007908
 31
0.0
  0
LINE
  5
78E
330
1F
100
AcDbEntity
  8
画層1
  6
Continuous
100
AcDbLine
 10
30862.79693339132
 20
17039.56886007908
 30
0.0
 11
30862.79693339132
 21
17089.56886007908
 31
0.0
  0
LINE
  5
78F
330
1F
100
AcDbEntity
  8
画層1
  6
Continuous
100
AcDbLine
 10
30837.79693339132
 20
17064.56886007955
 30
0.0
 11
30937.79693339132
 21
17064.56886007955
 31
0.0
  0
LINE
  5
790
330
1F
100
AcDbEntity
  8
画層1
  6
Continuous
100
AcDbLine
 10
30995.94693339123
 20
17089.56886007908
 30
0.0
 11
30912.79693339132
 21
17089.56886007908
 31
0.0
  0
LINE
  5
791
330
1F
100
AcDbEntity
  8
画層1
  6
Continuous
100
AcDbLine
 10
30912.79693339132
 20
17039.56886007908
 30
0.0
 11
30995.94693339123
 21
17039.56886007908
 31
0.0
  0
LINE
  5
792
330
1F
100
AcDbEntity
  8
画層1
  6
Continuous
100
AcDbLine
 10
30729.64693339141
 20
17064.56886007955
 30
0.0
 11
30779.64693339141
 21
17064.56886007955
 31
0.0
  0
LINE
  5
793
330
1F
100
AcDbEntity
  8
画層1
  6
Continuous
100
AcDbLine
 10
30729.64693339141
 20
17089.56886007908
 30
0.0
 11
30729.64693339141
 21
17039.56886007908
 31
0.0
  0
LINE
  5
794
330
1F
100
AcDbEntity
  8
画層1
  6
Continuous
100
AcDbLine
 10
30862.79693339132
 20
17089.56886007908
 30
0.0
 11
30779.64693339141
 21
17089.56886007908
 31
0.0
  0
LINE
  5
795
330
1F
100
AcDbEntity
  8
画層1
  6
Continuous
100
AcDbLine
 10
30779.64693339141
 20
17039.56886007908
 30
0.0
 11
30862.79693339132
 21
17039.56886007908
 31
0.0
  0
DIMENSION
  5
796
330
1F
100
AcDbEntity
  8
寸法
  6
Continuous
100
AcDbDimension
  2
*D21
 10
28287.79693339132
 20
10754.56886007885
 30
0.0
 11
28009.22550481989
 21
11754.56886007885
 31
0.0
 70
    32
 71
     5
 42
2000.0
  3
1_100
100
AcDbAlignedDimension
 13
26287.79693339132
 23
12754.56886007885
 33
0.0
 14
26287.79693339132
 24
10754.56886007885
 34
0.0
 50
90.0
100
AcDbRotatedDimension
  0
DIMENSION
  5
797
330
1F
100
AcDbEntity
  8
寸法
  6
Continuous
100
AcDbDimension
  2
*D22
 10
27287.79693339132
 20
12454.56886007885
 30
0.0
 11
27009.2255048199
 21
11604.56886007885
 31
0.0
 70
    32
 71
     5
 42
1700.0
  3
1_100
100
AcDbAlignedDimension
 13
26287.79693339132
 23
10754.56886007885
 33
0.0
 14
26287.79693339132
 24
12454.56886007885
 34
0.0
 50
90.0
100
AcDbRotatedDimension
  0
DIMENSION
  5
798
330
1F
100
AcDbEntity
  8
寸法
  6
Continuous
100
AcDbDimension
  2
*D23
 10
27287.79693339132
 20
10754.56886007885
 30
0.0
 11
26998.98600939354
 21
10237.15893732143
 31
0.0
 70
   160
 71
     5
 42
100.0
  3
1_100
100
AcDbAlignedDimension
 13
26287.79693339132
 23
10654.56886007885
 33
0.0
 14
26287.79693339132
 24
10754.56886007885
 34
0.0
 50
90.0
100
AcDbRotatedDimension
  0
DIMENSION
  5
799
330
1F
100
AcDbEntity
  8
寸法
  6
Continuous
100
AcDbDimension
  2
*D24
 10
27287.79693339132
 20
12754.56886007885
 30
0.0
 11
27540.46166834813
 21
12397.672073609
 31
0.0
 70
   160
 71
     5
 42
300.0
  3
1_100
100
AcDbAlignedDimension
 13
26287.79693339132
 23
12454.56886007885
 33
0.0
 14
26287.79693339132
 24
12754.56886007885
 34
0.0
 50
90.0
100
AcDbRotatedDimension
  0
DIMENSION
  5
79A
330
1F
100
AcDbEntity
  8
寸法
  6
Continuous
100
AcDbDimension
  2
*D25
 10
27287.79693339132
 20
14754.56886007978
 30
0.0
 11
27009.2255048199
 21
13754.56886007978
 31
0.0
 70
    32
 71
     5
 42
2000.0
  3
1_100
100
AcDbAlignedDimension
 13
26287.79693339132
 23
12754.56886007978
 33
0.0
 14
26287.79693339132
 24
14754.56886007978
 34
0.0
 50
90.0
100
AcDbRotatedDimension
  0
LINE
  5
79B
330
1F
100
AcDbEntity
  8
画層3-1
  6
Continuous
100
AcDbLine
 10
24913.19693339123
 20
14676.46886007899
 30
0.0
 11
24913.19693339123
 21
14109.56886007908
 31
0.0
  0
LINE
  5
79C
330
1F
100
AcDbEntity
  8
画層3-2
  6
Continuous
100
AcDbLine
 10
24953.14693339142
 20
14691.4688600791
 30
0.0
 11
24953.14693339142
 21
14109.56886007908
 31
0.0
  0
LINE
  5
79D
330
1F
100
AcDbEntity
  8
画層3-1
  6
Continuous
100
AcDbLine
 10
24938.5969333916
 20
14691.46886007899
 30
0.0
 11
24938.5969333916
 21
14729.56886007908
 31
0.0
  0
LINE
  5
79E
330
1F
100
AcDbEntity
  8
画層3-1
  6
Continuous
100
AcDbLine
 10
24923.5969333916
 20
14676.46886007899
 30
0.0
 11
24938.5969333916
 21
14691.46886007899
 31
0.0
  0
ARC
  5
79F
330
1F
100
AcDbEntity
  8
画層3-1
  6
Continuous
100
AcDbCircle
 10
24928.19693339123
 20
14676.46886007899
 30
0.0
 40
15.0
100
AcDbArc
 50
90.0
 51
180.0
  0
LINE
  5
7A0
330
1F
100
AcDbEntity
  8
画層3-1
  6
Continuous
100
AcDbLine
 10
24968.14693339141
 20
13419.56886007908
 30
0.0
 11
24968.14693339141
 21
13449.56886007908
 31
0.0
  0
LINE
  5
7A1
330
1F
100
AcDbEntity
  8
画層3-1
  6
Continuous
100
AcDbLine
 10
24913.19693339123
 20
14079.56886007908
 30
0.0
 11
24913.19693339123
 21
13449.56886007908
 31
0.0
  0
LINE
  5
7A2
330
1F
100
AcDbEntity
  8
画層3-2
  6
Continuous
100
AcDbLine
 10
24953.14693339142
 20
14079.56886007908
 30
0.0
 11
24953.14693339142
 21
13449.56886007908
 31
0.0
  0
LINE
  5
7A3
330
1F
100
AcDbEntity
  8
画層3-1
  6
Continuous
100
AcDbLine
 10
24968.14693339141
 20
14079.56886007908
 30
0.0
 11
24968.14693339141
 21
14109.56886007908
 31
0.0
  0
LINE
  5
7A4
330
1F
100
AcDbEntity
  8
画層3-1
  6
Continuous
100
AcDbLine
 10
24913.19693339123
 20
12774.56886007896
 30
0.0
 11
24913.19693339123
 21
12554.56886007908
 31
0.0
  0
LINE
  5
7A5
330
1F
100
AcDbEntity
  8
画層3-2
  6
Continuous
100
AcDbLine
 10
24953.14693339142
 20
13419.56886007908
 30
0.0
 11
24953.14693339142
 21
12754.56886007908
 31
0.0
  0
LINE
  5
7A6
330
1F
100
AcDbEntity
  8
画層3-1
  6
Continuous
100
AcDbLine
 10
24913.19693339123
 20
13419.56886007908
 30
0.0
 11
24913.19693339123
 21
12812.66886007917
 31
0.0
  0
LINE
  5
7A7
330
1F
100
AcDbEntity
  8
画層3-通り芯
  6
DASHDOT
 48
100.0
100
AcDbLine
 10
24887.79693339132
 20
12208.19930494732
 30
0.0
 11
24887.79693339132
 21
14754.5688600792
 31
0.0
  0
LINE
  5
7A8
330
1F
100
AcDbEntity
  8
画層3-1
  6
Continuous
100
AcDbLine
 10
24913.19693339123
 20
12812.66886007917
 30
0.0
 11
25787.79693339132
 21
12812.66886007917
 31
0.0
  0
LINE
  5
7A9
330
1F
100
AcDbEntity
  8
画層3-1
  6
Continuous
100
AcDbLine
 10
24913.19693339123
 20
12774.56886007908
 30
0.0
 11
25787.79693339132
 21
12774.56886007908
 31
0.0
  0
LINE
  5
7AA
330
1F
100
AcDbEntity
  8
画層3-2
  6
Continuous
100
AcDbLine
 10
25787.79693339132
 20
13434.56886007931
 30
0.0
 11
24968.14693339141
 21
13434.5688600792
 31
0.0
  0
LINE
  5
7AB
330
1F
100
AcDbEntity
  8
画層3-2
  6
Continuous
100
AcDbLine
 10
24968.14693339141
 20
14094.56886007908
 30
0.0
 11
25787.79693339132
 21
14094.56886007908
 31
0.0
  0
LINE
  5
7AC
330
1F
100
AcDbEntity
  8
画層3-1
  6
Continuous
100
AcDbLine
 10
24928.19693339123
 20
14691.46886007899
 30
0.0
 11
25787.79693339132
 21
14691.46886007945
 31
0.0
  0
LINE
  5
7AD
330
1F
100
AcDbEntity
  8
画層1
  6
Continuous
100
AcDbLine
 10
30912.79693339132
 20
14729.56886007908
 30
0.0
 11
30912.79693339132
 21
14779.56886007908
 31
0.0
  0
LINE
  5
7AE
330
1F
100
AcDbEntity
  8
画層1
  6
Continuous
100
AcDbLine
 10
30862.79693339132
 20
14729.56886007908
 30
0.0
 11
30862.79693339132
 21
14779.56886007908
 31
0.0
  0
LINE
  5
7AF
330
1F
100
AcDbEntity
  8
画層1
  6
Continuous
100
AcDbLine
 10
30837.79693339132
 20
14754.56886007955
 30
0.0
 11
30937.79693339132
 21
14754.56886007955
 31
0.0
  0
LINE
  5
7B0
330
1F
100
AcDbEntity
  8
画層1
  6
Continuous
100
AcDbLine
 10
30887.79693339132
 20
14929.79357505605
 30
0.0
 11
30887.79693339132
 21
14754.56886007955
 31
0.0
  0
LINE
  5
7B1
330
1F
100
AcDbEntity
  8
画層1
100
AcDbLine
 10
30912.79693339132
 20
14729.56886007908
 30
0.0
 11
30995.94693339123
 21
14729.56886007908
 31
0.0
  0
LINE
  5
7B2
330
1F
100
AcDbEntity
  8
画層1
  6
Continuous
100
AcDbLine
 10
30995.94693339123
 20
14779.56886007908
 30
0.0
 11
30912.79693339132
 21
14779.56886007908
 31
0.0
  0
LINE
  5
7B3
330
1F
100
AcDbEntity
  8
画層1
  6
Continuous
100
AcDbLine
 10
30729.64693339141
 20
14754.56886007955
 30
0.0
 11
30779.64693339141
 21
14754.56886007955
 31
0.0
  0
LINE
  5
7B4
330
1F
100
AcDbEntity
  8
画層1
  6
Continuous
100
AcDbLine
 10
30729.64693339141
 20
14779.56886007908
 30
0.0
 11
30729.64693339141
 21
14729.56886007908
 31
0.0
  0
CIRCLE
  5
7B5
330
1F
100
AcDbEntity
  8
画層3-1
100
AcDbCircle
 10
30731.99693339152
 20
14754.56886007885
 30
0.0
 40
25.40000000002328
  0
LINE
  5
7B6
330
1F
100
AcDbEntity
  8
画層1
  6
Continuous
100
AcDbLine
 10
30862.79693339132
 20
14729.56886007908
 30
0.0
 11
30779.64693339141
 21
14729.56886007908
 31
0.0
  0
LINE
  5
7B7
330
1F
100
AcDbEntity
  8
画層1
  6
Continuous
100
AcDbLine
 10
30862.79693339132
 20
14779.56886007908
 30
0.0
 11
30779.64693339141
 21
14779.56886007908
 31
0.0
  0
LWPOLYLINE
  5
7B8
330
1F
100
AcDbEntity
  8
画層2
100
AcDbPolyline
 90
        3
 70
     0
 43
0.0
 10
31137.79693339132
 20
12754.56886007862
 10
31137.79693339132
 20
12454.56886007862
 10
31112.79693339132
 20
12454.56886007862
  0
LINE
  5
7B9
330
1F
100
AcDbEntity
  8
画層3-1
100
AcDbLine
 10
30757.39693339142
 20
12858.24344598261
 30
0.0
 11
30706.5969333916
 21
12858.24344598261
 31
0.0
  0
LINE
  5
7BA
330
1F
100
AcDbEntity
  8
画層3-1
100
AcDbLine
 10
30757.39693339142
 20
12883.24344598261
 30
0.0
 11
30706.5969333916
 21
12883.24344598261
 31
0.0
  0
LWPOLYLINE
  5
7BB
330
1F
100
AcDbEntity
  8
画層2
100
AcDbPolyline
 90
        3
 70
     0
 43
0.0
 10
30662.79693339132
 20
12454.56886007862
 10
30637.79693339132
 20
12454.56886007862
 10
30637.79693339132
 20
12754.56886007862
  0
LINE
  5
7BC
330
1F
100
AcDbEntity
  8
画層2-1
  6
Continuous
100
AcDbLine
 10
30779.64693339141
 20
12604.56886007908
 30
0.0
 11
30995.94693339123
 21
12604.56886007908
 31
0.0
  0
LINE
  5
7BD
330
1F
100
AcDbEntity
  8
画層2-1
  6
Continuous
100
AcDbLine
 10
30779.64693339141
 20
12854.56886007908
 30
0.0
 11
30995.94693339123
 21
12854.56886007908
 31
0.0
  0
LINE
  5
7BE
330
1F
100
AcDbEntity
  8
画層2
  6
Continuous
100
AcDbLine
 10
31112.79693339132
 20
10754.56886007908
 30
0.0
 11
30662.79693339132
 21
10754.56886007908
 31
0.0
  0
LWPOLYLINE
  5
7BF
330
1F
100
AcDbEntity
  8
画層2
100
AcDbPolyline
 90
        4
 70
     0
 43
0.0
 10
31112.79693339132
 20
12454.56886007862
 10
31112.79693339132
 20
10654.56886007815
 10
30662.79693339132
 20
10654.56886007815
 10
30662.79693339132
 20
12454.56886007862
  0
DIMENSION
  5
7C0
330
1F
100
AcDbEntity
  8
寸法
  6
Continuous
100
AcDbDimension
  2
*D26
 10
31112.79693339132
 20
10054.5688600799
 30
0.0
 11
30088.27019961616
 21
10228.62429856198
 31
0.0
 70
   160
  1
φ<>
 71
     5
 42
450.0
  3
1_100
100
AcDbAlignedDimension
 13
30662.79693339132
 23
10654.5688600799
 33
0.0
 14
31112.79693339132
 24
10654.5688600799
 34
0.0
100
AcDbRotatedDimension
  0
TEXT
  5
7C1
330
1F
100
AcDbEntity
  8
寸法
  6
Continuous
100
AcDbText
 10
29666.29051304541
 20
12793.89065923487
 30
0.0
 40
300.0
  1
▽GL
 41
0.75
  7
1_100
 72
     2
 11
30332.71908447398
 21
12793.89065923487
 31
0.0
100
AcDbText
 73
     1
  0
LINE
  5
7C2
330
1F
100
AcDbEntity
  8
画層3-1
100
AcDbLine
 10
30731.99693339152
 20
12883.24344598261
 30
0.0
 11
30731.99693339152
 21
14729.16886007871
 31
0.0
  0
LWPOLYLINE
  5
7C3
330
1F
100
AcDbEntity
  8
画層3-1
100
AcDbPolyline
 90
        4
 70
     0
 43
0.0
 10
30757.39693339142
 20
14754.56886007885
 10
30757.39693339142
 20
12554.56886007885
 10
30706.5969333916
 20
12554.56886007885
 10
30706.5969333916
 20
14754.56886007885
  0
DIMENSION
  5
7C4
330
1F
100
AcDbEntity
  8
寸法
  6
Continuous
100
AcDbDimension
  2
*D27
 10
31137.79693339132
 20
9654.568860079434
 30
0.0
 11
30887.79693339132
 21
9404.568860079434
 31
0.0
 70
    32
  1
□<>
 71
     5
 42
500.0
  3
1_100
100
AcDbAlignedDimension
 13
30637.79693339132
 23
10654.5688600799
 33
0.0
 14
31137.79693339132
 24
10654.56886007978
 34
0.0
100
AcDbRotatedDimension
1001
ACAD
1000
DSTYLE
1002
{
1070
    77
1070
     2
1070
   174
1070
     1
1002
}
  0
LINE
  5
7C5
330
1F
100
AcDbEntity
  8
画層2
  6
Continuous
100
AcDbLine
 10
29514.55545547111
 20
12754.56886007885
 30
0.0
 11
31613.77479025415
 21
12754.56886007955
 31
0.0
  0
LINE
  5
7C6
330
1F
100
AcDbEntity
  8
ﾊｯﾁﾝｸﾞ
  6
Continuous
100
AcDbLine
 10
30502.74527368201
 20
12754.56886007908
 30
0.0
 11
30622.74527368294
 21
12634.56886007908
 31
0.0
  0
LINE
  5
7C7
330
1F
100
AcDbEntity
  8
ﾊｯﾁﾝｸﾞ
  6
Continuous
100
AcDbLine
 10
30423.54931418943
 20
12754.56886007908
 30
0.0
 11
30543.54931418989
 21
12634.56886007908
 31
0.0
  0
LINE
  5
7C8
330
1F
100
AcDbEntity
  8
ﾊｯﾁﾝｸﾞ
  6
Continuous
100
AcDbLine
 10
30475.62159597008
 20
12702.49657829854
 30
0.0
 11
30407.69387775073
 21
12634.56886007908
 31
0.0
  0
LINE
  5
7C9
330
1F
100
AcDbEntity
  8
ﾊｯﾁﾝｸﾞ
  6
Continuous
100
AcDbLine
 10
30436.02361622332
 20
12742.09455804496
 30
0.0
 11
30328.49791825768
 21
12634.56886007908
 31
0.0
  0
LINE
  5
7CA
330
1F
100
AcDbEntity
  8
ﾊｯﾁﾝｸﾞ
  6
Continuous
100
AcDbLine
 10
30277.63169723721
 20
12662.89859855214
 30
0.0
 11
30249.30195876463
 21
12634.56886007908
 31
0.0
  0
LINE
  5
7CB
330
1F
100
AcDbEntity
  8
ﾊｯﾁﾝｸﾞ
  6
Continuous
100
AcDbLine
 10
30238.03371749047
 20
12702.49657829854
 30
0.0
 11
30170.10599927111
 21
12634.56886007908
 31
0.0
  0
LINE
  5
7CC
330
1F
100
AcDbEntity
  8
ﾊｯﾁﾝｸﾞ
  6
Continuous
100
AcDbLine
 10
30344.35335469591
 20
12754.5688600792
 30
0.0
 11
30396.42563647703
 21
12702.49657829854
 31
0.0
  0
LINE
  5
7CD
330
1F
100
AcDbEntity
  8
ﾊｯﾁﾝｸﾞ
  6
Continuous
100
AcDbLine
 10
30265.15739520287
 20
12754.56886007908
 30
0.0
 11
30356.82765673073
 21
12662.89859855202
 31
0.0
  0
LINE
  5
7CE
330
1F
100
AcDbEntity
  8
ﾊｯﾁﾝｸﾞ
  6
Continuous
100
AcDbLine
 10
30185.9614357098
 20
12754.56886007908
 30
0.0
 11
30305.96143571074
 21
12634.56886007908
 31
0.0
  0
LINE
  5
7CF
330
1F
100
AcDbEntity
  8
ﾊｯﾁﾝｸﾞ
  6
Continuous
100
AcDbLine
 10
30198.43573774416
 20
12742.09455804496
 30
0.0
 11
30144.67288876112
 21
12688.33170906202
 31
0.0
  0
LINE
  5
7D0
330
1F
100
AcDbEntity
  8
ﾊｯﾁﾝｸﾞ
  6
Continuous
100
AcDbLine
 10
30581.94123317553
 20
12754.56886007908
 30
0.0
 11
30637.79693339132
 21
12698.71315986352
 31
0.0
  0
LINE
  5
7D1
330
1F
100
AcDbEntity
  8
ﾊｯﾁﾝｸﾞ
  6
Continuous
100
AcDbLine
 10
30515.21957571637
 20
12662.89859855214
 30
0.0
 11
30486.88983724379
 21
12634.56886007908
 31
0.0
  0
LINE
  5
7D2
330
1F
100
AcDbEntity
  8
ﾊｯﾁﾝｸﾞ
  6
Continuous
100
AcDbLine
 10
31431.24051208673
 20
12754.5688600792
 30
0.0
 11
31379.16823030562
 21
12702.49657829854
 31
0.0
  0
LINE
  5
7D3
330
1F
100
AcDbEntity
  8
ﾊｯﾁﾝｸﾞ
  6
Continuous
100
AcDbLine
 10
31339.57025055932
 20
12742.09455804496
 30
0.0
 11
31447.09594852496
 21
12634.56886007908
 31
0.0
  0
LINE
  5
7D4
330
1F
100
AcDbEntity
  8
ﾊｯﾁﾝｸﾞ
  6
Continuous
100
AcDbLine
 10
31299.97227081256
 20
12702.49657829854
 30
0.0
 11
31367.89998903191
 21
12634.56886007908
 31
0.0
  0
LINE
  5
7D5
330
1F
100
AcDbEntity
  8
ﾊｯﾁﾝｸﾞ
  6
Continuous
100
AcDbLine
 10
31260.37429106627
 20
12662.89859855214
 30
0.0
 11
31288.70402953886
 21
12634.56886007908
 31
0.0
  0
LINE
  5
7D6
330
1F
100
AcDbEntity
  8
ﾊｯﾁﾝｸﾞ
  6
Continuous
100
AcDbLine
 10
31352.04455259322
 20
12754.56886007908
 30
0.0
 11
31232.04455259275
 21
12634.56886007908
 31
0.0
  0
LINE
  5
7D7
330
1F
100
AcDbEntity
  8
ﾊｯﾁﾝｸﾞ
  6
Continuous
100
AcDbLine
 10
31272.84859310063
 20
12754.56886007908
 30
0.0
 11
31152.8485930997
 21
12634.56886007908
 31
0.0
  0
LINE
  5
7D8
330
1F
100
AcDbEntity
  8
ﾊｯﾁﾝｸﾞ
  6
Continuous
100
AcDbLine
 10
31193.65263360712
 20
12754.56886007908
 30
0.0
 11
31137.79693339132
 21
12698.71315986352
 31
0.0
  0
LINE
  5
7D9
330
1F
100
AcDbEntity
  8
ﾊｯﾁﾝｸﾞ
  6
Continuous
100
AcDbLine
 10
31577.15812903848
 20
12742.09455804496
 30
0.0
 11
31630.92097802153
 21
12688.33170906202
 31
0.0
  0
LINE
  5
7DA
330
1F
100
AcDbEntity
  8
ﾊｯﾁﾝｸﾞ
  6
Continuous
100
AcDbLine
 10
31589.63243107284
 20
12754.56886007908
 30
0.0
 11
31469.63243107192
 21
12634.56886007908
 31
0.0
  0
LINE
  5
7DB
330
1F
100
AcDbEntity
  8
ﾊｯﾁﾝｸﾞ
  6
Continuous
100
AcDbLine
 10
31510.43647157979
 20
12754.56886007908
 30
0.0
 11
31418.76621005192
 21
12662.89859855214
 31
0.0
  0
LINE
  5
7DC
330
1F
100
AcDbEntity
  8
ﾊｯﾁﾝｸﾞ
  6
Continuous
100
AcDbLine
 10
31537.56014929219
 20
12702.49657829854
 30
0.0
 11
31605.48786751153
 21
12634.56886007908
 31
0.0
  0
LINE
  5
7DD
330
1F
100
AcDbEntity
  8
ﾊｯﾁﾝｸﾞ
  6
Continuous
100
AcDbLine
 10
31497.96216954543
 20
12662.89859855214
 30
0.0
 11
31526.29190801802
 21
12634.56886007908
 31
0.0
  0
HATCH
  5
7DE
330
1F
100
AcDbEntity
  8
ﾊｯﾁﾝｸﾞ
100
AcDbHatch
 10
0.0
 20
0.0
 30
0.0
210
0.0
220
0.0
230
1.0
  2
PLAST
 70
     0
 71
     0
 91
        2
 92
        7
 72
     0
 73
     1
 93
        6
 10
31112.79693339132
 20
12454.56886007862
 10
31137.79693339132
 20
12454.56886007862
 10
31137.79693339132
 20
12754.56886007943
 10
30887.79693339132
 20
12754.56886007931
 10
30887.79693339132
 20
10754.56886007908
 10
31112.79693339132
 20
10754.56886007908
 97
        0
 92
        7
 72
     0
 73
     1
 93
        6
 10
30887.79693339132
 20
12754.56886007931
 10
30637.79693339132
 20
12754.56886007931
 10
30637.79693339132
 20
12454.56886007862
 10
30662.79693339132
 20
12454.56886007862
 10
30662.79693339132
 20
10754.56886007908
 10
30887.79693339132
 20
10754.56886007908
 97
        0
 75
     0
 76
     1
 52
45.0
 41
2000.0
 77
     0
 78
     3
 53
45.0
 43
-309591.9702046931
 44
-241065.2404873822
 45
-353.5533905932737
 46
353.5533905932738
 79
     0
 53
45.0
 43
-309636.1643785172
 44
-241021.046313558
 45
-353.5533905932737
 46
353.5533905932738
 79
     0
 53
45.0
 43
-309680.3585523414
 44
-240976.8521397338
 45
-353.5533905932737
 46
353.5533905932738
 79
     0
 47
13.48093112978782
 98
        2
 10
30971.77243267205
 20
11859.35963551413
 10
30742.43814361906
 20
11845.87854550072
  0
INSERT
  5
7DF
330
1F
100
AcDbEntity
  8
ﾊｯﾁﾝｸﾞ
100
AcDbBlockReference
  2
sai450
 10
30887.79693339132
 20
10754.56886007908
 30
0.0
  0
DIMENSION
  5
7E0
330
1F
100
AcDbEntity
  8
寸法
  6
Continuous
100
AcDbDimension
  2
*D28
 10
33487.79693339132
 20
12454.56886008036
 30
0.0
 11
33209.22550481989
 21
11604.56886008037
 31
0.0
 70
    32
 71
     5
 42
1700.0
  3
1_100
100
AcDbAlignedDimension
 13
32387.79693339132
 23
10754.56886008036
 33
0.0
 14
32387.79693339132
 24
12454.56886008036
 34
0.0
 50
90.0
100
AcDbRotatedDimension
  0
DIMENSION
  5
7E1
330
1F
100
AcDbEntity
  8
寸法
  6
Continuous
100
AcDbDimension
  2
*D29
 10
34487.79693339132
 20
10754.56886008036
 30
0.0
 11
34209.22550481989
 21
11754.56886008037
 31
0.0
 70
    32
 71
     5
 42
2000.0
  3
1_100
100
AcDbAlignedDimension
 13
32387.79693339132
 23
12754.56886008036
 33
0.0
 14
32387.79693339132
 24
10754.56886008036
 34
0.0
 50
90.0
100
AcDbRotatedDimension
  0
DIMENSION
  5
7E2
330
1F
100
AcDbEntity
  8
寸法
  6
Continuous
100
AcDbDimension
  2
*D30
 10
33487.79693339132
 20
10754.56886008036
 30
0.0
 11
33193.11916093966
 21
10284.78693006971
 31
0.0
 70
   160
 71
     5
 42
100.0
  3
1_100
100
AcDbAlignedDimension
 13
32387.79693339132
 23
10654.56886008036
 33
0.0
 14
32387.79693339132
 24
10754.56886008036
 34
0.0
 50
90.0
100
AcDbRotatedDimension
  0
DIMENSION
  5
7E3
330
1F
100
AcDbEntity
  8
寸法
  6
Continuous
100
AcDbDimension
  2
*D31
 10
33487.79693339132
 20
12754.56886008036
 30
0.0
 11
33762.44656208875
 21
12397.67207361051
 31
0.0
 70
   160
 71
     5
 42
300.0
  3
1_100
100
AcDbAlignedDimension
 13
32387.79693339132
 23
12454.56886008036
 33
0.0
 14
32387.79693339132
 24
12754.56886008036
 34
0.0
 50
90.0
100
AcDbRotatedDimension
  0
DIMENSION
  5
7E4
330
1F
100
AcDbEntity
  8
寸法
  6
Continuous
100
AcDbDimension
  2
*D32
 10
33487.79693339132
 20
14754.56886008036
 30
0.0
 11
33209.22550481989
 21
13754.56886008037
 31
0.0
 70
    32
 71
     5
 42
2000.0
  3
1_100
100
AcDbAlignedDimension
 13
32387.79693339132
 23
12754.56886008036
 33
0.0
 14
32387.79693339132
 24
14754.56886008036
 34
0.0
 50
90.0
100
AcDbRotatedDimension
  0
DIMENSION
  5
7E5
330
1F
100
AcDbEntity
  8
寸法
  6
Continuous
100
AcDbDimension
  2
*D33
 10
27287.79693339132
 20
17064.56886007978
 30
0.0
 11
27009.2255048199
 21
15909.56886007979
 31
0.0
 70
    32
 71
     5
 42
2310.000000000004
  3
1_100
100
AcDbAlignedDimension
 13
26287.79693339132
 23
14754.56886007978
 33
0.0
 14
26287.79693339132
 24
17064.56886007978
 34
0.0
 50
90.0
100
AcDbRotatedDimension
  0
DIMENSION
  5
7E6
330
1F
100
AcDbEntity
  8
寸法
  6
Continuous
100
AcDbDimension
  2
*D34
 10
33487.79693339132
 20
17064.56886007955
 30
0.0
 11
33209.22550481989
 21
15909.56886007996
 31
0.0
 70
    32
 71
     5
 42
2309.999999999187
  3
1_100
100
AcDbAlignedDimension
 13
32387.79693339132
 23
14754.56886008036
 33
0.0
 14
32427.79693339132
 24
17064.56886007955
 34
0.0
 50
90.0
100
AcDbRotatedDimension
  0
LWPOLYLINE
  5
7E7
330
1F
100
AcDbEntity
  8
画層1
100
AcDbPolyline
 90
        4
 70
     1
 43
0.0
 10
30868.91579493201
 20
15109.56886007908
 10
30908.91579493201
 20
15109.56886007908
 10
30908.91579493201
 20
14929.56886007908
 10
30868.91579493201
 20
14929.56886007908
  0
MTEXT
  5
7E8
102
{ACAD_REACTORS
330
7E9
102
}
330
1F
100
AcDbEntity
  8
寸法文字
  6
Continuous
100
AcDbMText
 10
21238.31331557799
 20
22852.82464923027
 30
0.0
 40
300.0
 41
0.0
 71
     7
 72
     1
  1
ネット上下6mm合繊ロープに4mm合繊\Pロープにて38m㎡ワイヤーに巻付
  7
1_100
 73
     1
 44
1.0
1001
ACAD
1000
MTEXTBEGIN
1070
    73
1070
     1
1070
    44
1040
1.0
1070
    74
1070
     0
1000
MTEXTEND
  0
LEADER
  5
7E9
330
1F
100
AcDbEntity
  8
寸法引出
  6
Continuous
100
AcDbLeader
  3
1_100
 71
     0
 73
     0
 74
     0
 75
     1
 40
846.6666666666665
 41
5162.142857142854
 76
     3
 10
20540.19104564814
 20
21694.56886007909
 30
0.0
 10
21078.313315578
 20
22752.82464923027
 30
0.0
 10
21138.313315578
 20
22752.82464923027
 30
0.0
340
7E8
  0
LINE
  5
7EA
330
1F
100
AcDbEntity
  8
画層1
  6
Continuous
100
AcDbLine
 10
18779.64693339141
 20
21754.56886007908
 30
0.0
 11
18995.94693339123
 21
21754.56886007908
 31
0.0
  0
LINE
  5
7EB
330
1F
100
AcDbEntity
  8
画層1
  6
Continuous
100
AcDbLine
 10
18779.64693339141
 20
21734.56886007909
 30
0.0
 11
18995.94693339123
 21
21734.56886007909
 31
0.0
  0
LINE
  5
7EC
330
1F
100
AcDbEntity
  8
画層1
  6
Continuous
100
AcDbLine
 10
18729.64693339141
 20
21669.5688600791
 30
0.0
 11
19045.94693339123
 21
21669.5688600791
 31
0.0
  0
LINE
  5
7ED
330
1F
100
AcDbEntity
  8
画層1
  6
Continuous
100
AcDbLine
 10
19045.94693339123
 20
21719.56886007909
 30
0.0
 11
18729.64693339141
 21
21719.56886007909
 31
0.0
  0
LINE
  5
7EE
330
1F
100
AcDbEntity
  8
画層1
  6
Continuous
100
AcDbLine
 10
18862.79693339131
 20
21669.5688600791
 30
0.0
 11
18862.79693339131
 21
21719.56886007909
 31
0.0
  0
LINE
  5
7EF
330
1F
100
AcDbEntity
  8
画層1
  6
Continuous
100
AcDbLine
 10
18729.64693339141
 20
21719.56886007909
 30
0.0
 11
18729.64693339141
 21
21669.5688600791
 31
0.0
  0
CIRCLE
  5
7F0
330
1F
100
AcDbEntity
  8
画層1
  6
Continuous
100
AcDbCircle
 10
18754.64693339141
 20
21694.56886007909
 30
0.0
 40
10.9509940156
  0
LINE
  5
7F1
330
1F
100
AcDbEntity
  8
画層1
  6
Continuous
100
AcDbLine
 10
18912.79693339131
 20
21669.5688600791
 30
0.0
 11
18912.79693339131
 21
21719.56886007909
 31
0.0
  0
LINE
  5
7F2
330
1F
100
AcDbEntity
  8
画層1
  6
Continuous
100
AcDbLine
 10
19045.94693339123
 20
21669.5688600791
 30
0.0
 11
19045.94693339123
 21
21719.56886007909
 31
0.0
  0
CIRCLE
  5
7F3
330
1F
100
AcDbEntity
  8
画層1
  6
Continuous
100
AcDbCircle
 10
19020.94693339122
 20
21694.56886007909
 30
0.0
 40
10.9509940156
  0
CIRCLE
  5
7F4
330
1F
100
AcDbEntity
  8
画層1
  6
Continuous
100
AcDbCircle
 10
19020.94693339122
 20
21644.56886007909
 30
0.0
 40
10.9509940156
  0
LINE
  5
7F5
330
1F
100
AcDbEntity
  8
画層1
  6
Continuous
100
AcDbLine
 10
19045.94693339123
 20
21619.56886007909
 30
0.0
 11
19045.94693339123
 21
21669.5688600791
 31
0.0
  0
LINE
  5
7F6
330
1F
100
AcDbEntity
  8
画層1
  6
Continuous
100
AcDbLine
 10
18912.79693339131
 20
21619.56886007909
 30
0.0
 11
18912.79693339131
 21
21669.5688600791
 31
0.0
  0
CIRCLE
  5
7F7
330
1F
100
AcDbEntity
  8
画層1
  6
Continuous
100
AcDbCircle
 10
18754.64693339141
 20
21644.56886007909
 30
0.0
 40
10.9509940156
  0
LINE
  5
7F8
330
1F
100
AcDbEntity
  8
画層1
  6
Continuous
100
AcDbLine
 10
18729.64693339141
 20
21669.5688600791
 30
0.0
 11
18729.64693339141
 21
21619.56886007909
 31
0.0
  0
LINE
  5
7F9
330
1F
100
AcDbEntity
  8
画層1
  6
Continuous
100
AcDbLine
 10
18862.79693339131
 20
21619.56886007909
 30
0.0
 11
18862.79693339131
 21
21669.5688600791
 31
0.0
  0
LINE
  5
7FA
330
1F
100
AcDbEntity
  8
画層1
  6
Continuous
100
AcDbLine
 10
19045.94693339123
 20
21669.5688600791
 30
0.0
 11
18729.64693339141
 21
21669.5688600791
 31
0.0
  0
LINE
  5
7FB
330
1F
100
AcDbEntity
  8
画層1
  6
Continuous
100
AcDbLine
 10
18729.64693339141
 20
21619.56886007909
 30
0.0
 11
19045.94693339123
 21
21619.56886007909
 31
0.0
  0
LINE
  5
7FC
330
1F
100
AcDbEntity
  8
画層1
  6
Continuous
100
AcDbLine
 10
18729.64693339141
 20
19349.56886007908
 30
0.0
 11
19045.94693339123
 21
19349.56886007908
 31
0.0
  0
LINE
  5
7FD
330
1F
100
AcDbEntity
  8
画層1
  6
Continuous
100
AcDbLine
 10
19045.94693339123
 20
19399.56886007908
 30
0.0
 11
18729.64693339141
 21
19399.56886007908
 31
0.0
  0
LINE
  5
7FE
330
1F
100
AcDbEntity
  8
画層1
  6
Continuous
100
AcDbLine
 10
18912.79693339131
 20
19349.56886007908
 30
0.0
 11
18912.79693339131
 21
19399.56886007908
 31
0.0
  0
LINE
  5
7FF
330
1F
100
AcDbEntity
  8
画層1
  6
Continuous
100
AcDbLine
 10
18862.79693339131
 20
19349.56886007908
 30
0.0
 11
18862.79693339131
 21
19399.56886007908
 31
0.0
  0
LINE
  5
800
330
1F
100
AcDbEntity
  8
画層1
  6
Continuous
100
AcDbLine
 10
18729.64693339141
 20
19399.56886007908
 30
0.0
 11
18729.64693339141
 21
19349.56886007908
 31
0.0
  0
CIRCLE
  5
801
330
1F
100
AcDbEntity
  8
画層1
  6
Continuous
100
AcDbCircle
 10
18754.64693339141
 20
19374.56886007908
 30
0.0
 40
10.9509940156
  0
LINE
  5
802
330
1F
100
AcDbEntity
  8
画層1
  6
Continuous
100
AcDbLine
 10
19045.94693339123
 20
19349.56886007908
 30
0.0
 11
19045.94693339123
 21
19399.56886007908
 31
0.0
  0
CIRCLE
  5
803
330
1F
100
AcDbEntity
  8
画層1
  6
Continuous
100
AcDbCircle
 10
19020.94693339122
 20
19374.56886007908
 30
0.0
 40
10.9509940156
  0
LINE
  5
804
330
1F
100
AcDbEntity
  8
画層1-1
100
AcDbLine
 10
18729.64693339141
 20
21644.56886007909
 30
0.0
 11
18679.64693339141
 21
21644.56886007909
 31
0.0
  0
LINE
  5
805
330
1F
100
AcDbEntity
  8
寸法引出
  6
Continuous
100
AcDbLine
 10
15045.11322138337
 20
18099.3794920481
 30
0.0
 11
14731.29567735002
 21
17602.49823473874
 31
0.0
  0
MTEXT
  5
809
330
1F
100
AcDbEntity
  8
寸法文字
  6
Continuous
100
AcDbMText
 10
13173.89009794006
 20
22619.6506097167
 30
0.0
 40
300.0
 41
0.0
 71
     1
 72
     1
  1
（STK-540鋼管）
  7
1_100
 73
     1
 44
1.0
1001
ACAD
1000
ACAD_MTEXT_DEFINED_HEIGHT_BEGIN
1070
    46
1040
0.0
1000
ACAD_MTEXT_DEFINED_HEIGHT_END
1000
MTEXTBEGIN
1070
    73
1070
     1
1070
    44
1040
1.0
1070
    74
1070
     0
1000
MTEXTEND
  0
LEADER
  5
80A
330
1F
100
AcDbEntity
  8
寸法引出
  6
Continuous
100
AcDbLeader
  3
1_100
 71
     0
 73
     0
 74
     0
 75
     1
 40
300.0
 41
5880.0
 76
     3
 10
11685.63250417979
 20
21632.08575661962
 30
0.0
 10
12242.06544075227
 20
22810.16539959881
 30
0.0
 10
12302.06544075227
 20
22810.16539959881
 30
0.0
340
80B
  0
MTEXT
  5
80B
102
{ACAD_REACTORS
330
80A
102
}
330
1F
100
AcDbEntity
  8
寸法文字
  6
Continuous
100
AcDbMText
 10
12402.06544075227
 20
22910.16539959881
 30
0.0
 40
300.0
 41
0.0
 71
     7
 72
     1
  1
端末・コーナー補強ポールφ114.3×3.0mm
  7
1_100
 73
     1
 44
1.0
1001
ACAD
1000
ACAD_MTEXT_DEFINED_HEIGHT_BEGIN
1070
    46
1040
0.0
1000
ACAD_MTEXT_DEFINED_HEIGHT_END
1000
MTEXTBEGIN
1070
    73
1070
     1
1070
    44
1040
1.0
1070
    74
1070
     0
1000
MTEXTEND
  0
LEADER
  5
80C
330
1F
100
AcDbEntity
  8
寸法引出
  6
Continuous
100
AcDbLeader
  3
1_100
 71
     0
 73
     0
 74
     0
 75
     1
 40
346.6666666666666
 41
3117.142857142857
 76
     3
 10
13476.78498504749
 20
21694.56886007909
 30
0.0
 10
13750.10621349486
 20
20936.82902572203
 30
0.0
 10
13810.10621349486
 20
20936.82902572203
 30
0.0
340
80D
  0
MTEXT
  5
80D
102
{ACAD_REACTORS
330
80C
102
}
330
1F
100
AcDbEntity
  8
寸法文字
  6
Continuous
100
AcDbMText
 10
13910.10621349486
 20
21036.82902572203
 30
0.0
 40
300.0
 41
0.0
 71
     7
 72
     1
  1
メッセンワイヤー38m㎡
  7
1_100
 73
     1
 44
1.0
1001
ACAD
1000
MTEXTBEGIN
1070
    73
1070
     1
1070
    44
1040
1.0
1070
    74
1070
     0
1000
MTEXTEND
  0
LEADER
  5
80E
330
1F
100
AcDbEntity
  8
寸法引出
  6
Continuous
100
AcDbLeader
  3
1_100
 71
     0
 73
     0
 74
     0
 75
     1
 40
696.6666666666665
 41
3117.142857142857
 76
     3
 10
14464.84326662375
 20
18602.37014504328
 30
0.0
 10
15045.11322138337
 20
18099.3794920481
 30
0.0
 10
15105.11322138337
 20
18099.3794920481
 30
0.0
340
80F
  0
MTEXT
  5
80F
102
{ACAD_REACTORS
330
80E
102
}
330
1F
100
AcDbEntity
  8
寸法文字
  6
Continuous
100
AcDbMText
 10
15205.11322138337
 20
18199.3794920481
 30
0.0
 40
300.0
 41
0.0
 71
     7
 72
     1
  1
筋違\Pメッセンワイヤー38m㎡
  7
1_100
 73
     1
 44
0.7
1001
ACAD
1000
MTEXTBEGIN
1070
    73
1070
     1
1070
    44
1040
0.7
1070
    74
1070
     0
1000
MTEXTEND
  0
MTEXT
  5
810
330
1F
100
AcDbEntity
  8
寸法文字
  6
Continuous
100
AcDbMText
 10
32651.50278323535
 20
23074.98707375109
 30
0.0
 40
300.0
 41
0.0
 71
     1
 72
     1
  1
（溶融亜鉛メッキ450g/㎡）
  7
1_100
 73
     1
 44
1.0
1001
ACAD
1000
MTEXTBEGIN
1070
    73
1070
     1
1070
    44
1040
1.0
1070
    74
1070
     0
1000
MTEXTEND
  0
DIMENSION
  5
811
330
1F
100
AcDbEntity
  8
寸法
  6
Continuous
100
AcDbDimension
  2
*D35
 10
27287.79693339132
 20
21754.56886007885
 30
0.0
 11
27005.16576774717
 21
22062.41688148879
 31
0.0
 70
   160
 71
     5
 42
60.0
  3
1_100
100
AcDbAlignedDimension
 13
26287.79693339132
 23
21694.56886007885
 33
0.0
 14
26287.79693339132
 24
21754.56886007885
 34
0.0
 50
90.0
100
AcDbRotatedDimension
  0
DIMENSION
  5
812
330
1F
100
AcDbEntity
  8
寸法
  6
Continuous
100
AcDbDimension
  2
*D36
 10
27287.79693339132
 20
21694.56886007978
 30
0.0
 11
27009.2255048199
 21
20534.56886007979
 31
0.0
 70
    32
 71
     5
 42
2320.0
  3
1_100
100
AcDbAlignedDimension
 13
26287.79693339132
 23
19374.56886007978
 33
0.0
 14
26287.79693339132
 24
21694.56886007978
 34
0.0
 50
90.0
100
AcDbRotatedDimension
  0
LINE
  5
813
330
1F
100
AcDbEntity
  8
画層1
  6
Continuous
100
AcDbLine
 10
30912.79693339132
 20
21669.56886007897
 30
0.0
 11
30912.79693339132
 21
21719.56886007897
 31
0.0
  0
LINE
  5
814
330
1F
100
AcDbEntity
  8
画層1
  6
Continuous
100
AcDbLine
 10
30862.79693339132
 20
21669.56886007897
 30
0.0
 11
30862.79693339132
 21
21719.56886007897
 31
0.0
  0
LINE
  5
815
330
1F
100
AcDbEntity
  8
画層1
  6
Continuous
100
AcDbLine
 10
30824.99693339152
 20
21694.56886007955
 30
0.0
 11
30937.79693339132
 21
21694.56886007955
 31
0.0
  0
LINE
  5
816
330
1F
100
AcDbEntity
  8
画層1
  6
Continuous
100
AcDbLine
 10
30995.94693339123
 20
21719.56886007897
 30
0.0
 11
30912.79693339132
 21
21719.56886007897
 31
0.0
  0
LINE
  5
817
330
1F
100
AcDbEntity
  8
画層1
  6
Continuous
100
AcDbLine
 10
30912.79693339132
 20
21669.56886007897
 30
0.0
 11
30995.94693339123
 21
21669.56886007897
 31
0.0
  0
LINE
  5
818
330
1F
100
AcDbEntity
  8
画層1
  6
Continuous
100
AcDbLine
 10
30729.64693339141
 20
21694.56886007955
 30
0.0
 11
30779.64693339141
 21
21694.56886007955
 31
0.0
  0
LINE
  5
819
330
1F
100
AcDbEntity
  8
画層1
  6
Continuous
100
AcDbLine
 10
30729.64693339141
 20
21719.56886007897
 30
0.0
 11
30729.64693339141
 21
21669.56886007897
 31
0.0
  0
DIMENSION
  5
81A
330
1F
100
AcDbEntity
  8
寸法
  6
Continuous
100
AcDbDimension
  2
*D37
 10
30995.94693339123
 20
22354.56886007955
 30
0.0
 11
30887.79693339132
 21
22654.56886007955
 31
0.0
 70
    32
  1
φ<>
 71
     5
 42
216.2999999998137
  3
1_100
100
AcDbAlignedDimension
 13
30779.64693339141
 23
21754.56886008002
 33
0.0
 14
30995.94693339123
 24
21754.56886008002
 34
0.0
100
AcDbRotatedDimension
  0
LINE
  5
81B
330
1F
100
AcDbEntity
  8
画層1
  6
Continuous
100
AcDbLine
 10
30862.79693339132
 20
21719.56886007897
 30
0.0
 11
30779.64693339141
 21
21719.56886007897
 31
0.0
  0
LINE
  5
81C
330
1F
100
AcDbEntity
  8
画層1
  6
Continuous
100
AcDbLine
 10
30779.64693339141
 20
21669.56886007897
 30
0.0
 11
30862.79693339132
 21
21669.56886007897
 31
0.0
  0
LINE
  5
81D
330
1F
100
AcDbEntity
  8
画層1
  6
Continuous
100
AcDbLine
 10
30779.64693339141
 20
21734.56886007897
 30
0.0
 11
30995.94693339123
 21
21734.56886007897
 31
0.0
  0
LINE
  5
81E
330
1F
100
AcDbEntity
  8
画層1
  6
Continuous
100
AcDbLine
 10
30779.64693339141
 20
21754.56886007897
 30
0.0
 11
30995.94693339123
 21
21754.56886007897
 31
0.0
  0
LINE
  5
81F
330
1F
100
AcDbEntity
  8
画層1
  6
Continuous
100
AcDbLine
 10
30912.79693339132
 20
19349.56886007908
 30
0.0
 11
30912.79693339132
 21
19399.56886007908
 31
0.0
  0
LINE
  5
820
330
1F
100
AcDbEntity
  8
画層1
  6
Continuous
100
AcDbLine
 10
30862.79693339132
 20
19349.56886007908
 30
0.0
 11
30862.79693339132
 21
19399.56886007908
 31
0.0
  0
LINE
  5
821
330
1F
100
AcDbEntity
  8
画層1
  6
Continuous
100
AcDbLine
 10
30837.79693339132
 20
19374.56886007955
 30
0.0
 11
30937.79693339132
 21
19374.56886007955
 31
0.0
  0
LINE
  5
822
330
1F
100
AcDbEntity
  8
画層1
  6
Continuous
100
AcDbLine
 10
30995.94693339123
 20
19399.56886007908
 30
0.0
 11
30912.79693339132
 21
19399.56886007908
 31
0.0
  0
LINE
  5
823
330
1F
100
AcDbEntity
  8
画層1
  6
Continuous
100
AcDbLine
 10
30912.79693339132
 20
19349.56886007908
 30
0.0
 11
30995.94693339123
 21
19349.56886007908
 31
0.0
  0
LINE
  5
824
330
1F
100
AcDbEntity
  8
画層1
  6
Continuous
100
AcDbLine
 10
30729.64693339141
 20
19374.56886007955
 30
0.0
 11
30779.64693339141
 21
19374.56886007955
 31
0.0
  0
LINE
  5
825
330
1F
100
AcDbEntity
  8
画層1
  6
Continuous
100
AcDbLine
 10
30729.64693339141
 20
19399.56886007908
 30
0.0
 11
30729.64693339141
 21
19349.56886007908
 31
0.0
  0
LINE
  5
826
330
1F
100
AcDbEntity
  8
画層1
  6
Continuous
100
AcDbLine
 10
30862.79693339132
 20
19399.56886007908
 30
0.0
 11
30779.64693339141
 21
19399.56886007908
 31
0.0
  0
LINE
  5
827
330
1F
100
AcDbEntity
  8
画層1
  6
Continuous
100
AcDbLine
 10
30779.64693339141
 20
19349.56886007908
 30
0.0
 11
30862.79693339132
 21
19349.56886007908
 31
0.0
  0
DIMENSION
  5
828
330
1F
100
AcDbEntity
  8
寸法
  6
Continuous
100
AcDbDimension
  2
*D38
 10
33487.79693339132
 20
21754.56886008037
 30
0.0
 11
33188.74929458993
 21
22059.32912237551
 31
0.0
 70
   160
 71
     5
 42
60.0
  3
1_100
100
AcDbAlignedDimension
 13
32387.79693339132
 23
21694.56886008036
 33
0.0
 14
32387.79693339132
 24
21754.56886008037
 34
0.0
 50
90.0
100
AcDbRotatedDimension
  0
DIMENSION
  5
829
330
1F
100
AcDbEntity
  8
寸法
  6
Continuous
100
AcDbDimension
  2
*D39
 10
33487.79693339132
 20
21694.56886008036
 30
0.0
 11
33209.22550481989
 21
20534.56886007996
 31
0.0
 70
    32
 71
     5
 42
2320.000000000815
  3
1_100
100
AcDbAlignedDimension
 13
32427.79693339132
 23
19374.56886007955
 33
0.0
 14
32387.79693339132
 24
21694.56886008036
 34
0.0
 50
90.0
100
AcDbRotatedDimension
  0
MTEXT
  5
82A
102
{ACAD_REACTORS
330
82B
102
}
330
1F
100
AcDbEntity
  8
寸法文字
  6
Continuous
100
AcDbMText
 10
32551.50278323535
 20
23339.28692132833
 30
0.0
 40
300.0
 41
0.0
 71
     7
 72
     1
  1
主柱KSポールφ216.3厚さ4.0mm
  7
1_100
 73
     1
 44
1.0
1001
ACAD
1000
ACAD_MTEXT_DEFINED_HEIGHT_BEGIN
1070
    46
1040
0.0
1000
ACAD_MTEXT_DEFINED_HEIGHT_END
1000
MTEXTBEGIN
1070
    73
1070
     1
1070
    44
1040
1.0
1070
    74
1070
     0
1000
MTEXTEND
  0
LEADER
  5
82B
330
1F
100
AcDbEntity
  8
寸法引出
  6
Continuous
100
AcDbLeader
  3
1_100
 71
     0
 73
     0
 74
     0
 75
     1
 40
300.0
 41
4699.285714285712
 76
     3
 10
30995.94693339123
 20
21330.40000656484
 30
0.0
 10
32391.50278323535
 20
23239.28692132832
 30
0.0
 10
32451.50278323535
 20
23239.28692132832
 30
0.0
340
82A
  0
MTEXT
  5
82C
330
1F
100
AcDbEntity
  8
寸法
  6
Continuous
 62
     3
100
AcDbMText
 10
19854.46360005715
 20
24999.61213807905
 30
0.0
 40
500.0
 41
0.0
 71
     8
 72
     1
  1
防球ネット　ＫＳ－Ⅱ型　Ｈ＝９,０００
  7
MSP明朝
 73
     1
 44
1.0
1001
ACAD
1000
ACAD_MTEXT_DEFINED_HEIGHT_BEGIN
1070
    46
1040
0.0
1000
ACAD_MTEXT_DEFINED_HEIGHT_END
1000
MTEXTBEGIN
1070
    73
1070
     1
1070
    44
1040
1.0
1070
    74
1070
     0
1000
MTEXTEND
  0
LINE
  5
82D
330
1F
100
AcDbEntity
  8
寸法
  6
Continuous
 62
     3
100
AcDbLine
 10
15527.70373345654
 20
24902.06251120793
 30
0.0
 11
24181.22346666011
 21
24902.06251120793
 31
0.0
  0
LINE
  5
82E
330
1F
100
AcDbEntity
  8
寸法
  6
Continuous
 62
     3
100
AcDbLine
 10
15527.70373345654
 20
24842.06251121026
 30
0.0
 11
24181.22346666011
 21
24842.06251121026
 31
0.0
  0
LWPOLYLINE
  5
82F
330
1F
100
AcDbEntity
  8
図面枠
100
AcDbPolyline
 90
        4
 70
     1
 43
0.0
 10
354.463600057396
 20
971.2355267457116
 10
39354.46360005735
 20
971.2355267457116
 10
39354.46360005735
 20
26471.23552674572
 10
354.463600057396
 20
26471.23552674572
  0
LWPOLYLINE
  5
830
330
1F
100
AcDbEntity
  8
図面枠
100
AcDbPolyline
 90
        4
 70
     1
 43
0.0
 10
354.4636000583273
 20
971.2355267457116
 10
39354.46360005828
 20
971.2355267457116
 10
39354.46360005828
 20
26471.23552674572
 10
354.4636000583273
 20
26471.23552674572
  0
MTEXT
  5
831
330
1F
100
AcDbEntity
  8
画層1-1
100
AcDbMText
 10
3171.062040603662
 20
5478.399398126001
 30
0.0
 40
300.0
 41
0.0
 71
     1
 72
     5
  1
{\F|c128;・※印表記のネットを使用する場合標準柱スパンは変更になる場合があります}
  7
1_100
 73
     1
 44
1.0
1001
AcDbBlockRepETag
1070
     1
1071
        0
1005
831
1001
ACAD
1000
MTEXTBEGIN
1070
    73
1070
     1
1070
    44
1040
1.0
1070
    74
1070
     0
1000
MTEXTEND
  0
MTEXT
  5
832
330
1F
100
AcDbEntity
  8
画層1-1
100
AcDbMText
 10
3171.062040603662
 20
1994.843790101838
 30
0.0
 40
300.0
 41
0.0
 71
     1
 72
     5
  1
・速度圧　q=0.6EVo （N/㎡）　・地表面粗度区分　　　・基礎　普通土質 [B] を選定
  7
1_100
 73
     1
 44
1.0
1001
AcDbBlockRepETag
1070
     1
1071
        1
1005
832
1001
ACAD
1000
MTEXTBEGIN
1070
    73
1070
     1
1070
    44
1040
1.0
1070
    74
1070
     0
1000
MTEXTEND
  0
MTEXT
  5
833
330
1F
100
AcDbEntity
  8
画層1-1
100
AcDbMText
 10
3171.062040603662
 20
7278.399398126001
 30
0.0
 40
300.0
 41
0.0
 71
     1
 72
     5
  1
・主柱．端末ポール．バンド金具．ボルトは溶融亜鉛メッキ仕上げとする
  7
1_100
 73
     1
 44
1.0
1001
AcDbBlockRepETag
1070
     1
1071
        2
1005
833
1001
ACAD
1000
MTEXTBEGIN
1070
    73
1070
     1
1070
    44
1040
1.0
1070
    74
1070
     0
1000
MTEXTEND
  0
MTEXT
  5
834
330
1F
100
AcDbEntity
  8
画層1-1
100
AcDbMText
 10
3171.062040603662
 20
6678.399398126001
 30
0.0
 40
300.0
 41
0.0
 71
     1
 72
     5
  1
・主柱ポール基礎部（ＧＬ）はＦＲＰ被覆補強とする
  7
1_100
 73
     1
 44
1.0
1001
AcDbBlockRepETag
1070
     1
1071
        3
1005
834
1001
ACAD
1000
MTEXTBEGIN
1070
    73
1070
     1
1070
    44
1040
1.0
1070
    74
1070
     0
1000
MTEXTEND
  0
MTEXT
  5
835
330
1F
100
AcDbEntity
  8
画層1-1
100
AcDbMText
 10
3171.062040603662
 20
4018.041476110624
 30
0.0
 40
300.0
 41
0.0
 71
     1
 72
     5
  1
・構造計算書．材料承認願いを提出後施工のこと
  7
1_100
 73
     1
 44
1.0
1001
AcDbBlockRepETag
1070
     1
1071
        4
1005
835
1001
ACAD
1000
MTEXTBEGIN
1070
    73
1070
     1
1070
    44
1040
1.0
1070
    74
1070
     0
1000
MTEXTEND
  0
MTEXT
  5
836
330
1F
100
AcDbEntity
  8
画層1-1
100
AcDbMText
 10
3171.062040603662
 20
6078.399398126001
 30
0.0
 40
300.0
 41
0.0
 71
     1
 72
     5
  1
・上部（補強ポール・ネット）下り防止金具付きとする
  7
1_100
 73
     1
 44
1.0
1001
AcDbBlockRepETag
1070
     1
1071
        5
1005
836
1001
ACAD
1000
MTEXTBEGIN
1070
    73
1070
     1
1070
    44
1040
1.0
1070
    74
1070
     0
1000
MTEXTEND
  0
POINT
  5
837
330
1F
100
AcDbEntity
  8
画層1-1
100
AcDbPoint
 10
354.4636381274909
 20
1496.122784277172
 30
0.0
1001
AcDbBlockRepETag
1070
     1
1071
        6
1005
837
  0
MTEXT
  5
838
330
1F
100
AcDbEntity
  8
画層1-1
100
AcDbMText
 10
2671.062040603662
 20
3280.718960744513
 30
0.0
 40
400.0
 41
0.0
 71
     1
 72
     5
  1
設計条件
  7
1_100
 73
     1
 44
1.0
1001
AcDbBlockRepETag
1070
     1
1071
        7
1005
838
1001
ACAD
1000
MTEXTBEGIN
1070
    73
1070
     1
1070
    44
1040
1.0
1070
    74
1070
     0
1000
MTEXTEND
  0
MTEXT
  5
839
330
1F
100
AcDbEntity
  8
画層1-1
100
AcDbMText
 10
2671.062040603662
 20
4669.064577459672
 30
0.0
 40
400.0
 41
0.0
 71
     1
 72
     5
  1
特記
  7
1_100
 73
     1
 44
1.0
1001
AcDbBlockRepETag
1070
     1
1071
        8
1005
839
1001
ACAD
1000
MTEXTBEGIN
1070
    73
1070
     1
1070
    44
1040
1.0
1070
    74
1070
     0
1000
MTEXTEND
  0
MTEXT
  5
83A
330
1F
100
AcDbEntity
  8
画層1-1
100
AcDbMText
 10
2671.062040603662
 20
7949.828366064775
 30
0.0
 40
400.0
 41
0.0
 71
     1
 72
     5
  1
仕様について
  7
1_100
 73
     1
 44
1.0
1001
AcDbBlockRepETag
1070
     1
1071
        9
1005
83A
1001
ACAD
1000
MTEXTBEGIN
1070
    73
1070
     1
1070
    44
1040
1.0
1070
    74
1070
     0
1000
MTEXTEND
  0
MTEXT
  5
83B
330
1F
100
AcDbEntity
  8
画層1-1
100
AcDbMText
 10
10067.78855130668
 20
1932.667308574001
 30
0.0
 40
300.0
 41
0.0
 71
     1
 72
     5
  1
Ⅲ
  7
STYLE1
 73
     1
 44
1.0
1001
AcDbBlockRepETag
1070
     1
1071
       10
1005
83B
1001
ACAD
1000
MTEXTBEGIN
1070
    73
1070
     1
1070
    44
1040
1.0
1070
    74
1070
     0
1000
MTEXTEND
  0
MTEXT
  5
83C
330
1F
100
AcDbEntity
  8
画層1-1
100
AcDbMText
 10
6154.540010615688
 20
1959.330215450694
 30
0.0
 40
120.0
 41
0.0
 71
     1
 72
     5
  1
2
  7
1_100
 73
     1
 44
1.0
1001
AcDbBlockRepETag
1070
     1
1071
       11
1005
83C
1001
ACAD
1000
MTEXTBEGIN
1070
    73
1070
     1
1070
    44
1040
1.0
1070
    74
1070
     0
1000
MTEXTEND
  0
MTEXT
  5
83D
330
1F
100
AcDbEntity
  8
画層1-1
100
AcDbMText
 10
3171.062040603662
 20
2551.915152027131
 30
0.0
 40
300.0
 41
0.0
 71
     1
 72
     5
  1
・設計荷重。建築基準法・同施工令（平成12年6月）に基づく風圧力に依る、基準風速。
  7
1_100
 73
     1
 44
1.0
1001
AcDbBlockRepETag
1070
     1
1071
       12
1005
83D
1001
ACAD
1000
ACAD_MTEXT_DEFINED_HEIGHT_BEGIN
1070
    46
1040
0.0
1000
ACAD_MTEXT_DEFINED_HEIGHT_END
1000
MTEXTBEGIN
1070
    73
1070
     1
1070
    44
1040
1.0
1070
    74
1070
     0
1000
MTEXTEND
  0
LWPOLYLINE
  5
83E
330
1F
100
AcDbEntity
  8
寸法引出
  6
Continuous
100
AcDbPolyline
 90
        2
 70
     0
 43
0.0
 10
25802.67554964423
 20
8454.56886007885
 10
24887.79693339132
 20
8454.568860078735
1001
ACAD
1000
DSTYLE
1002
{
1070
    41
1040
3.0
1070
   341
1005
0
1002
}
  0
LWPOLYLINE
  5
83F
330
1F
100
AcDbEntity
  8
寸法引出
  6
Continuous
100
AcDbPolyline
 90
        2
 70
     0
 43
0.0
 10
25797.83674859135
 20
7654.568860078852
 10
18887.79693339132
 20
7654.568860078734
1001
ACAD
1000
DSTYLE
1002
{
1070
    41
1040
3.0
1070
   341
1005
0
1002
}
  0
LINE
  5
840
330
1F
100
AcDbEntity
  8
寸法引出
  6
ByBlock
100
AcDbLine
 10
25497.83674859135
 20
7734.953617078847
 30
0.0
 11
25797.83674859135
 21
7654.568860078852
 31
0.0
  0
LINE
  5
841
330
1F
100
AcDbEntity
  8
寸法引出
  6
ByBlock
100
AcDbLine
 10
25797.83674859135
 20
7654.568860078852
 30
0.0
 11
25497.83674859135
 21
7574.184103078845
 31
0.0
  0
LINE
  5
842
330
1F
100
AcDbEntity
  8
寸法引出
  6
ByBlock
100
AcDbLine
 10
25502.67554964424
 20
8534.953617078812
 30
0.0
 11
25802.67554964423
 21
8454.56886007885
 31
0.0
  0
LINE
  5
843
330
1F
100
AcDbEntity
  8
寸法引出
  6
ByBlock
100
AcDbLine
 10
25802.67554964423
 20
8454.56886007885
 30
0.0
 11
25502.67554964424
 21
8374.184103078812
 31
0.0
  0
MTEXT
  5
F13
330
1F
100
AcDbEntity
  8
寸法文字
  6
Continuous
100
AcDbMText
 10
11510.03115006342
 20
20339.10006097402
 30
0.0
 40
180.0
 41
0.0
 71
     1
 72
     1
  1
※KRP-40　1100D18本40mm目（再生ポリエステル100%）\P※KSP-24　37.5mm目（ｽｰﾊﾟｰﾎﾟﾘｴﾁﾚﾝ）
  7
1_100
 73
     1
 44
1.0
1001
ACAD
1000
MTEXTBEGIN
1070
    73
1070
     1
1070
    44
1040
1.0
1070
    74
1070
     0
1000
MTEXTEND
  0
MTEXT
  5
F14
330
1F
100
AcDbEntity
  8
寸法文字
  6
Continuous
100
AcDbMText
 10
11487.91918299109
 20
20502.69568729526
 30
0.0
 40
270.0
 41
0.0
 71
     7
 72
     1
  1
ネット\Pクレモナ250D/80本×37.5mm目
  7
1_100
 73
     1
 44
0.6
1001
ACAD
1000
MTEXTBEGIN
1070
    73
1070
     1
1070
    44
1040
0.6
1070
    74
1070
     0
1000
MTEXTEND
  0
LEADER
  5
F15
330
1F
100
AcDbEntity
  8
寸法引出
100
AcDbLeader
  3
1_50
 71
     0
 76
     3
 10
11014.50892507759
 20
19835.36094412487
 30
0.0
 10
11307.91918299109
 20
20412.69568729526
 30
0.0
 10
16635.11600509402
 20
20412.69568729526
 30
0.0
1001
ACAD
1000
DSTYLE
1002
{
1070
    41
1040
1.0
1070
   341
1005
87
1070
   147
1040
0.625
1070
    77
1070
     0
1002
}
  0
ENDSEC
  0
SECTION
  2
OBJECTS
  0
DICTIONARY
  5
C
330
0
100
AcDbDictionary
281
     1
  3
ACAD_COLOR
350
6B
  3
ACAD_GROUP
350
D
  3
ACAD_LAYOUT
350
1A
  3
ACAD_MATERIAL
350
6A
  3
ACAD_MLINESTYLE
350
17
  3
ACAD_PLOTSETTINGS
350
19
  3
ACAD_PLOTSTYLENAME
350
E
  3
ACAD_TABLESTYLE
350
C1E
  3
ACDBHEADERROUNDTRIPXREC
350
1209
  3
AcDbVariableDictionary
350
5E
  3
ADE_QUERY_LIBRARY
350
F1A
  3
AEC_CLASSIFICATION_SYSTEM_DEFS
350
F11
  3
AEC_VARS
350
C4B
  3
ASE_INDEX_DICTIONARY
350
F18
  3
Autodesk_MAP
350
C4D
  3
Root
350
F2F
1001
ADE
1000
ADE02C004
1000
[Query]
1000
CaseSensitiveMatch=0
1000
SaveCurrQueryInSession=1
1000
MkSelSetWithQryObj=0
1000
ShowBlockAsInsPt=0
1000
CreateAssociativeHatchObjects=0
1000
ReferenceBoundaryForAreaLocation=1
1000
ShowImageAsBoundary=1
1000
DefaultJoinOperator=2
1000
ColorForAdd=red
1000
ColorForRemove=red
1000
BlockLocnForQuery=1
1000
TextLocnForQuery=1
1000
IncludeAllObjectsInGroups=0
1000
AlwaysUseLibraryDefinitions=0
1000
PreviewDefinitionsFrom=2
1000
[Save Back]
1000
RedefineBlockDefinitions=1
1000
RedefineLayerDefinitions=1
1000
RedefineTextStyleDefinitions=1
1000
RemoveUnusedGroups=1
1000
EraseSavedBackObjects=1
1000
RemoveLockAfterSave=1
1000
CreateHistoryFileOfChanges=0
1000
CreateBackupFileOfSourceDwg=1
1000
DontAddObjectsToSaveSet=0
1000
MarkObjectsForEditingWithoutPrompting=0
1000
[Coordinate Transformation]
1000
RestoreLastActiveDwgsOnStartup=1
1000
ActivateDwgsOnAttach=1
1000
AdjustSizesAndScalesForChangesInUnits=1
1000
AdjustRotationsForMapDistortions=1
1000
AdjustSizesAndScalesForMapDistortions=1
1000
AdjustElevations=1
1000
AdjustZeroRotationObjects=1
1000
ReconnectDbOnWSOpen=1
1000
NoOfSQLConditionsInHistory=10
  0
DICTIONARY
  5
6B
102
{ACAD_REACTORS
330
C
102
}
330
C
100
AcDbDictionary
281
     1
  0
DICTIONARY
  5
D
102
{ACAD_REACTORS
330
C
102
}
330
C
100
AcDbDictionary
281
     1
  0
DICTIONARY
  5
1A
102
{ACAD_REACTORS
330
C
102
}
330
C
100
AcDbDictionary
281
     1
  3
Model
350
22
  3
レイアウト1
350
51
  3
レイアウト2
350
56
  0
DICTIONARY
  5
6A
102
{ACAD_REACTORS
330
C
102
}
330
C
100
AcDbDictionary
281
     1
  0
DICTIONARY
  5
17
102
{ACAD_REACTORS
330
C
102
}
330
C
100
AcDbDictionary
281
     1
  3
Standard
350
18
  0
DICTIONARY
  5
19
102
{ACAD_REACTORS
330
C
102
}
330
C
100
AcDbDictionary
281
     1
  0
ACDBDICTIONARYWDFLT
  5
E
102
{ACAD_REACTORS
330
C
102
}
330
C
100
AcDbDictionary
281
     1
  3
Normal
350
F
100
AcDbDictionaryWithDefault
340
F
  0
DICTIONARY
  5
C1E
102
{ACAD_REACTORS
330
C
102
}
330
C
100
AcDbDictionary
281
     1
  3
Legend
350
C51
  3
Standard
350
C1F
  0
DICTIONARY
  5
1209
102
{ACAD_REACTORS
330
C
102
}
330
C
100
AcDbDictionary
281
     1
  0
DICTIONARY
  5
5E
102
{ACAD_REACTORS
330
C
102
}
330
C
100
AcDbDictionary
281
     1
  3
CTABLESTYLE
350
F1C
  3
DIMASSOC
350
5F
  3
HIDETEXT
350
63
  3
PROJECTNAME
350
B9F
  0
DICTIONARY
  5
F1A
102
{ACAD_REACTORS
330
C
102
}
330
C
100
AcDbDictionary
281
     1
  3
_CurrQry
350
1207
  0
DICTIONARY
  5
F11
102
{ACAD_REACTORS
330
C
102
}
330
C
100
AcDbDictionary
281
     1
  0
DICTIONARY
  5
C4B
102
{ACAD_REACTORS
330
C
102
}
330
C
100
AcDbDictionary
281
     1
  3
AEC_VARS_DWG_SETUP
350
F54
  0
DICTIONARY
  5
F18
102
{ACAD_REACTORS
330
C
102
}
330
C
100
AcDbDictionary
281
     1
  3
ASEBlockHierarchyIndexRecord
350
F19
1001
DCO15
1040
1621579583.698
  0
DICTIONARY
  5
C4D
102
{ACAD_REACTORS
330
C
102
}
330
C
100
AcDbDictionary
281
     1
  3
MAP_DISPLAY_MANAGEMENT_DICTIONARY
350
C4E
  3
MAP_DISPLAY_STYLELIBRARY_DICTIONARY
350
C4F
  0
LAYOUT
  5
22
102
{ACAD_XDICTIONARY
360
120A
102
}
102
{ACAD_REACTORS
330
1A
102
}
330
1A
100
AcDbPlotSettings
  1

  2
EPSON PM-3000C
  4
A4
  6

 40
3.757083177566528
 41
14.7637300491333
 42
3.757080078125
 43
3.757080078125
 44
209.9733276367186
 45
296.9683227539062
 46
0.0
 47
0.0
 48
0.0
 49
0.0
140
0.0
141
0.0
142
1.0
143
143.6276578894184
 70
 11952
 72
     1
 73
     1
 74
     0
  7
2.ctb
 75
     0
147
0.0069624473078153
148
-184.8481952168731
149
1139.344881856472
100
AcDbLayout
  1
Model
 70
     1
 71
     0
 10
0.0
 20
0.0
 11
12.0
 21
9.0
 12
0.0
 22
0.0
 32
0.0
 14
0.0
 24
0.0
 34
0.0
 15
0.0
 25
0.0
 35
0.0
146
0.0
 13
0.0
 23
0.0
 33
0.0
 16
1.0
 26
0.0
 36
0.0
 17
0.0
 27
1.0
 37
0.0
 76
     0
330
1F
  0
LAYOUT
  5
51
102
{ACAD_XDICTIONARY
360
120C
102
}
102
{ACAD_REACTORS
330
1A
102
}
330
1A
100
AcDbPlotSettings
  1

  2
None
  4

  6

 40
0.0
 41
0.0
 42
0.0
 43
0.0
 44
0.0
 45
0.0
 46
0.0
 47
0.0
 48
0.0
 49
0.0
140
0.0
141
0.0
142
1.0
143
1.0
 70
   688
 72
     0
 73
     0
 74
     5
  7

 75
    16
147
1.0
148
0.0
149
0.0
100
AcDbLayout
  1
レイアウト1
 70
     1
 71
     1
 10
0.0
 20
0.0
 11
12.0
 21
9.0
 12
0.0
 22
0.0
 32
0.0
 14
0.0
 24
0.0
 34
0.0
 15
0.0
 25
0.0
 35
0.0
146
0.0
 13
0.0
 23
0.0
 33
0.0
 16
1.0
 26
0.0
 36
0.0
 17
0.0
 27
1.0
 37
0.0
 76
     0
330
50
  0
LAYOUT
  5
56
102
{ACAD_XDICTIONARY
360
120E
102
}
102
{ACAD_REACTORS
330
1A
102
}
330
1A
100
AcDbPlotSettings
  1

  2
None
  4

  6

 40
0.0
 41
0.0
 42
0.0
 43
0.0
 44
0.0
 45
0.0
 46
0.0
 47
0.0
 48
0.0
 49
0.0
140
0.0
141
0.0
142
1.0
143
1.0
 70
   688
 72
     0
 73
     0
 74
     5
  7

 75
    16
147
1.0
148
0.0
149
0.0
100
AcDbLayout
  1
レイアウト2
 70
     1
 71
     2
 10
0.0
 20
0.0
 11
12.0
 21
9.0
 12
0.0
 22
0.0
 32
0.0
 14
0.0
 24
0.0
 34
0.0
 15
0.0
 25
0.0
 35
0.0
146
0.0
 13
0.0
 23
0.0
 33
0.0
 16
1.0
 26
0.0
 36
0.0
 17
0.0
 27
1.0
 37
0.0
 76
     0
330
55
  0
MLINESTYLE
  5
18
102
{ACAD_REACTORS
330
17
102
}
330
17
100
AcDbMlineStyle
  2
STANDARD
 70
     0
  3

 62
   256
 51
90.0
 52
90.0
 71
     2
 49
0.5
 62
   256
  6
BYLAYER
 49
-0.5
 62
   256
  6
BYLAYER
  0
ACDBPLACEHOLDER
  5
F
102
{ACAD_REACTORS
330
E
102
}
330
E
  0
TABLESTYLE
  5
C51
102
{ACAD_REACTORS
330
C1E
102
}
330
C1E
100
AcDbTableStyle
  3

 70
     0
 71
     1
 40
0.06
 41
0.06
280
     0
281
     0
  7
Standard
140
0.4
170
     4
 62
     0
 63
     7
283
     0
274
    -2
284
     0
 64
     0
275
    -2
285
     0
 65
     0
276
    -2
286
     1
 66
     0
277
    -2
287
     1
 67
     0
278
    -2
288
     0
 68
     0
279
    -2
289
     1
 69
     0
  7
Standard
140
0.5
170
     5
 62
     0
 63
     7
283
     0
274
    -2
284
     1
 64
     0
275
    -2
285
     0
 65
     0
276
    -2
286
     1
 66
     0
277
    -2
287
     1
 67
     0
278
    -2
288
     0
 68
     0
279
    -2
289
     1
 69
     0
  7
Standard
140
0.4
170
     4
 62
     0
 63
     7
283
     0
274
    -2
284
     1
 64
     0
275
    -2
285
     0
 65
     0
276
    -2
286
     1
 66
     0
277
    -2
287
     1
 67
     0
278
    -2
288
     0
 68
     0
279
    -2
289
     1
 69
     0
  0
TABLESTYLE
  5
C1F
102
{ACAD_REACTORS
330
C1E
102
}
330
C1E
100
AcDbTableStyle
  3
Standard
 70
     0
 71
     0
 40
1.5
 41
1.5
280
     0
281
     0
  7
Standard
140
4.5
170
     2
 62
     0
 63
     7
283
     0
274
    -2
284
     1
 64
     0
275
    -2
285
     1
 65
     0
276
    -2
286
     1
 66
     0
277
    -2
287
     1
 67
     0
278
    -2
288
     1
 68
     0
279
    -2
289
     1
 69
     0
  7
Standard
140
6.0
170
     5
 62
     0
 63
     7
283
     0
274
    -2
284
     1
 64
     0
275
    -2
285
     1
 65
     0
276
    -2
286
     1
 66
     0
277
    -2
287
     1
 67
     0
278
    -2
288
     1
 68
     0
279
    -2
289
     1
 69
     0
  7
Standard
140
4.5
170
     5
 62
     0
 63
     7
283
     0
274
    -2
284
     1
 64
     0
275
    -2
285
     1
 65
     0
276
    -2
286
     1
 66
     0
277
    -2
287
     1
 67
     0
278
    -2
288
     1
 68
     0
279
    -2
289
     1
 69
     0
  0
DICTIONARYVAR
  5
F1C
102
{ACAD_REACTORS
330
5E
102
}
330
5E
100
DictionaryVariables
280
     0
  1
STANDARD
  0
DICTIONARYVAR
  5
5F
102
{ACAD_REACTORS
330
5E
102
}
330
5E
100
DictionaryVariables
280
     0
  1
2
  0
DICTIONARYVAR
  5
63
102
{ACAD_REACTORS
330
5E
102
}
330
5E
100
DictionaryVariables
280
     0
  1
1
  0
DICTIONARYVAR
  5
B9F
102
{ACAD_REACTORS
330
5E
102
}
330
5E
100
DictionaryVariables
280
     0
  1

  0
XRECORD
  5
1207
102
{ACAD_REACTORS
330
F1A
102
}
330
F1A
100
AcDbXrecord
280
     1
1000
ADE02C001
1070
     1
1070
     0
1002
{
1002
}
1002
{
1002
}
1002
{
1002
}
1000

  0
XRECORD
  5
F19
102
{ACAD_REACTORS
330
F18
102
}
330
F18
100
AcDbXrecord
280
     1
330
6F2
330
5C2
330
7DF
330
A19
330
A1A
330
A22
330
A23
330
A2C
330
A2D
330
A36
330
A37
330
A42
330
A43
330
A4A
330
A4B
330
A53
330
A54
330
A5C
330
A5D
330
A65
330
A66
330
A6E
330
A6F
330
A77
330
A78
330
A80
330
A81
330
A89
330
A8A
330
A94
330
A95
330
A9D
330
A9E
330
AA6
330
AA7
330
AB0
330
AB1
330
AB8
330
AB9
330
AC1
330
AC2
330
ACA
330
ACB
330
AD6
330
AD7
330
AE1
330
AE2
330
AE9
330
AEA
330
AF3
330
AF4
330
AFD
330
AFE
330
B06
330
B07
330
B0F
330
B10
330
B1B
330
B1C
330
B26
330
B27
330
B2E
330
B2F
330
B37
330
B38
330
B40
330
B41
330
B4C
330
B4D
330
B54
330
B55
330
B60
330
B61
330
B6B
330
B6C
330
B73
330
B74
  0
DMMAPMANAGER
  5
C4E
102
{ACAD_REACTORS
330
C4D
102
}
330
C4D
100
AcDbDictionary
281
     1
  3
DisplayMap1
350
C50
100
AcDbDictionaryWithDefault
340
C50
100
AcMapDMMapManager
 70
     1
340
C50
  0
DMSTYLELIBRARY
  5
C4F
102
{ACAD_REACTORS
330
C4D
102
}
330
C4D
100
AcMapDMStyleLibrary
 70
     1
 70
     1
360
C55
  0
DICTIONARY
  5
120A
330
22
100
AcDbDictionary
280
     1
281
     1
  3
ACAD_XREC_ROUNDTRIP
360
120B
  0
DICTIONARY
  5
120C
330
51
100
AcDbDictionary
280
     1
281
     1
  3
ACAD_XREC_ROUNDTRIP
360
120D
  0
DICTIONARY
  5
120E
330
56
100
AcDbDictionary
280
     1
281
     1
  3
ACAD_XREC_ROUNDTRIP
360
120F
  0
DMMAP
  5
C50
102
{ACAD_REACTORS
330
C4E
330
C52
102
}
330
C4E
100
AcMapDMMap
 70
     1
  1
既定値
 70
     1
330
0
100
AcMapDMMap
 70
     1
 90
        1
360
C52
 90
        1
 40
1.797693134862314E+99
 70
     1
100
AcMapDMMap
 70
     2
 70
     0
 40
1.797693134862314E+99
290
     0
290
     1
 40
1.0
 40
3.0
  1
Legend
 90
        1
 40
1.797693134862314E+99
  1

 70
     0
 40
1.0
 70
     1
 90
        0
 90
        1
360
C53
  0
DMSTYLECATEGORY
  5
C55
102
{ACAD_REACTORS
330
C4F
102
}
330
C4F
100
AcMapDMStyleCategory
 70
     1
  1
スタイルを表示
 70
     0
  0
XRECORD
  5
120B
102
{ACAD_REACTORS
330
120A
102
}
330
120A
100
AcDbXrecord
280
     1
102
SHADEPLOT
 70
     0
102
SHADEPLOTRESLEVEL
 70
     2
102
SHADEPLOTCUSTOMDPI
 70
   300
  0
XRECORD
  5
120D
102
{ACAD_REACTORS
330
120C
102
}
330
120C
100
AcDbXrecord
280
     1
102
SHADEPLOT
 70
     0
102
SHADEPLOTRESLEVEL
 70
     2
102
SHADEPLOTCUSTOMDPI
 70
   300
  0
XRECORD
  5
120F
102
{ACAD_REACTORS
330
120E
102
}
330
120E
100
AcDbXrecord
280
     1
102
SHADEPLOT
 70
     0
102
SHADEPLOTRESLEVEL
 70
     2
102
SHADEPLOTCUSTOMDPI
 70
   300
  0
DMBASEELEMENT
  5
C52
102
{ACAD_REACTORS
330
C50
102
}
330
C50
100
AcMapDMBaseElement
 70
     1
  1
マップ ベース
 70
     1
330
C50
100
AcMapDMBaseElement
 70
     1
  1

 70
     2
  1

 70
     1
 40
1.797693134862314E+99
 70
     1
 70
     1
 70
     1
 70
     1
360
C54
100
AcMapDMBaseElement
 70
     1
  0
DMDEFAULTSTYLE
  5
C53
102
{ACAD_REACTORS
330
C50
102
}
330
C50
100
AcMapDMDefaultStyle
 70
     1
 90
        1
  1
既定値
100
AcMapDMDefaultStyle
 70
     1
280
   100
 90
     0
  0
DMSTYLEREFERENCE
  5
C54
330
C52
100
AcMapDMStyleReference
 70
     1
 70
     0
340
C53
330
C50
  0
ENDSEC
  0
EOF
