  0
SECTION
  2
HEADER
  9
$ACADVER
  1
AC1015
  9
$ACADMAINTVER
 70
    20
  9
$DWGCODEPAGE
  3
ANSI_932
  9
$INSBASE
 10
0.0
 20
0.0
 30
0.0
  9
$EXTMIN
 10
572.4652593931387
 20
542.7929192667943
 30
-0.0000000349181948
  9
$EXTMAX
 10
39576.18372883683
 20
26686.84044428372
 30
0.0000000814935747
  9
$LIMMIN
 10
0.0
 20
0.0
  9
$LIMMAX
 10
420.0
 20
297.0
  9
$ORTHOMODE
 70
     0
  9
$REGENMODE
 70
     1
  9
$FILLMODE
 70
     1
  9
$QTEXTMODE
 70
     0
  9
$MIRRTEXT
 70
     0
  9
$LTSCALE
 40
1.0
  9
$ATTMODE
 70
     1
  9
$TEXTSIZE
 40
2.5
  9
$TRACEWID
 40
1.0
  9
$TEXTSTYLE
  7
Standard
  9
$CLAYER
  8
0
  9
$CELTYPE
  6
ByLayer
  9
$CECOLOR
 62
   256
  9
$CELTSCALE
 40
1.0
  9
$DISPSILH
 70
     0
  9
$DIMSCALE
 40
500.0
  9
$DIMASZ
 40
2.5
  9
$DIMEXO
 40
0.625
  9
$DIMDLI
 40
3.75
  9
$DIMRND
 40
0.0
  9
$DIMDLE
 40
0.0
  9
$DIMEXE
 40
1.25
  9
$DIMTP
 40
0.0
  9
$DIMTM
 40
0.0
  9
$DIMTXT
 40
2.5
  9
$DIMCEN
 40
2.5
  9
$DIMTSZ
 40
0.0
  9
$DIMTOL
 70
     0
  9
$DIMLIM
 70
     0
  9
$DIMTIH
 70
     0
  9
$DIMTOH
 70
     0
  9
$DIMSE1
 70
     0
  9
$DIMSE2
 70
     0
  9
$DIMTAD
 70
     1
  9
$DIMZIN
 70
     8
  9
$DIMBLK
  1

  9
$DIMASO
 70
     1
  9
$DIMSHO
 70
     1
  9
$DIMPOST
  1

  9
$DIMAPOST
  1

  9
$DIMALT
 70
     0
  9
$DIMALTD
 70
     3
  9
$DIMALTF
 40
0.03937007874016
  9
$DIMLFAC
 40
1.0
  9
$DIMTOFL
 70
     1
  9
$DIMTVP
 40
0.0
  9
$DIMTIX
 70
     0
  9
$DIMSOXD
 70
     0
  9
$DIMSAH
 70
     0
  9
$DIMBLK1
  1

  9
$DIMBLK2
  1

  9
$DIMSTYLE
  2
ISO-25
  9
$DIMCLRD
 70
     0
  9
$DIMCLRE
 70
     0
  9
$DIMCLRT
 70
     0
  9
$DIMTFAC
 40
1.0
  9
$DIMGAP
 40
0.625
  9
$DIMJUST
 70
     0
  9
$DIMSD1
 70
     0
  9
$DIMSD2
 70
     0
  9
$DIMTOLJ
 70
     0
  9
$DIMTZIN
 70
     8
  9
$DIMALTZ
 70
     0
  9
$DIMALTTZ
 70
     0
  9
$DIMUPT
 70
     0
  9
$DIMDEC
 70
     2
  9
$DIMTDEC
 70
     2
  9
$DIMALTU
 70
     2
  9
$DIMALTTD
 70
     3
  9
$DIMTXSTY
  7
Standard
  9
$DIMAUNIT
 70
     0
  9
$DIMADEC
 70
     0
  9
$DIMALTRND
 40
0.0
  9
$DIMAZIN
 70
     0
  9
$DIMDSEP
 70
    44
  9
$DIMATFIT
 70
     3
  9
$DIMFRAC
 70
     0
  9
$DIMLDRBLK
  1

  9
$DIMLUNIT
 70
     2
  9
$DIMLWD
 70
    -2
  9
$DIMLWE
 70
    -2
  9
$DIMTMOVE
 70
     0
  9
$LUNITS
 70
     2
  9
$LUPREC
 70
     4
  9
$SKETCHINC
 40
1.0
  9
$FILLETRAD
 40
0.0
  9
$AUNITS
 70
     0
  9
$AUPREC
 70
     0
  9
$MENU
  1
.
  9
$ELEVATION
 40
0.0
  9
$PELEVATION
 40
0.0
  9
$THICKNESS
 40
0.0
  9
$LIMCHECK
 70
     0
  9
$CHAMFERA
 40
0.0
  9
$CHAMFERB
 40
0.0
  9
$CHAMFERC
 40
0.0
  9
$CHAMFERD
 40
0.0
  9
$SKPOLY
 70
     0
  9
$TDCREATE
 40
2454361.409427257
  9
$TDUCREATE
 40
2454361.034427257
  9
$TDUPDATE
 40
2454571.494467755
  9
$TDUUPDATE
 40
2454571.119467755
  9
$TDINDWG
 40
0.0248101620
  9
$TDUSRTIMER
 40
0.0248083565
  9
$USRTIMER
 70
     1
  9
$ANGBASE
 50
0.0
  9
$ANGDIR
 70
     0
  9
$PDMODE
 70
     0
  9
$PDSIZE
 40
0.0
  9
$PLINEWID
 40
0.0
  9
$SPLFRAME
 70
     0
  9
$SPLINETYPE
 70
     6
  9
$SPLINESEGS
 70
     8
  9
$HANDSEED
  5
11EC
  9
$SURFTAB1
 70
     6
  9
$SURFTAB2
 70
     6
  9
$SURFTYPE
 70
     6
  9
$SURFU
 70
     6
  9
$SURFV
 70
     6
  9
$UCSBASE
  2

  9
$UCSNAME
  2

  9
$UCSORG
 10
0.0
 20
0.0
 30
0.0
  9
$UCSXDIR
 10
1.0
 20
0.0
 30
0.0
  9
$UCSYDIR
 10
0.0
 20
1.0
 30
0.0
  9
$UCSORTHOREF
  2

  9
$UCSORTHOVIEW
 70
     0
  9
$UCSORGTOP
 10
0.0
 20
0.0
 30
0.0
  9
$UCSORGBOTTOM
 10
0.0
 20
0.0
 30
0.0
  9
$UCSORGLEFT
 10
0.0
 20
0.0
 30
0.0
  9
$UCSORGRIGHT
 10
0.0
 20
0.0
 30
0.0
  9
$UCSORGFRONT
 10
0.0
 20
0.0
 30
0.0
  9
$UCSORGBACK
 10
0.0
 20
0.0
 30
0.0
  9
$PUCSBASE
  2

  9
$PUCSNAME
  2

  9
$PUCSORG
 10
0.0
 20
0.0
 30
0.0
  9
$PUCSXDIR
 10
1.0
 20
0.0
 30
0.0
  9
$PUCSYDIR
 10
0.0
 20
1.0
 30
0.0
  9
$PUCSORTHOREF
  2

  9
$PUCSORTHOVIEW
 70
     0
  9
$PUCSORGTOP
 10
0.0
 20
0.0
 30
0.0
  9
$PUCSORGBOTTOM
 10
0.0
 20
0.0
 30
0.0
  9
$PUCSORGLEFT
 10
0.0
 20
0.0
 30
0.0
  9
$PUCSORGRIGHT
 10
0.0
 20
0.0
 30
0.0
  9
$PUCSORGFRONT
 10
0.0
 20
0.0
 30
0.0
  9
$PUCSORGBACK
 10
0.0
 20
0.0
 30
0.0
  9
$USERI1
 70
     0
  9
$USERI2
 70
     0
  9
$USERI3
 70
     0
  9
$USERI4
 70
     0
  9
$USERI5
 70
     0
  9
$USERR1
 40
0.0
  9
$USERR2
 40
0.0
  9
$USERR3
 40
0.0
  9
$USERR4
 40
0.0
  9
$USERR5
 40
0.0
  9
$WORLDVIEW
 70
     1
  9
$SHADEDGE
 70
     3
  9
$SHADEDIF
 70
    70
  9
$TILEMODE
 70
     1
  9
$MAXACTVP
 70
    64
  9
$PINSBASE
 10
0.0
 20
0.0
 30
0.0
  9
$PLIMCHECK
 70
     0
  9
$PEXTMIN
 10
0.0
 20
0.0
 30
0.0
  9
$PEXTMAX
 10
0.0
 20
0.0
 30
0.0
  9
$PLIMMIN
 10
0.0
 20
0.0
  9
$PLIMMAX
 10
12.0
 20
9.0
  9
$UNITMODE
 70
     0
  9
$VISRETAIN
 70
     1
  9
$PLINEGEN
 70
     0
  9
$PSLTSCALE
 70
     1
  9
$TREEDEPTH
 70
  3020
  9
$CMLSTYLE
  2
Standard
  9
$CMLJUST
 70
     0
  9
$CMLSCALE
 40
20.0
  9
$PROXYGRAPHICS
 70
     1
  9
$MEASUREMENT
 70
     1
  9
$CELWEIGHT
370
    -1
  9
$ENDCAPS
280
     0
  9
$JOINSTYLE
280
     0
  9
$LWDISPLAY
290
     0
  9
$INSUNITS
 70
     6
  9
$HYPERLINKBASE
  1

  9
$STYLESHEET
  1
2.CTB
  9
$XEDIT
290
     1
  9
$CEPSNTYPE
380
     0
  9
$PSTYLEMODE
290
     1
  9
$FINGERPRINTGUID
  2
{FDEAD578-A652-11D2-9A35-0060089B3A3F}
  9
$VERSIONGUID
  2
{41FBCAE1-D787-46F9-AAEB-D462A673EACF}
  9
$EXTNAMES
290
     1
  9
$PSVPSCALE
 40
0.0
  9
$OLESTARTUP
290
     0
  0
ENDSEC
  0
SECTION
  2
CLASSES
  0
CLASS
  1
ACDBDICTIONARYWDFLT
  2
AcDbDictionaryWithDefault
  3
ObjectDBX Classes
 90
        0
280
     0
281
     0
  0
CLASS
  1
ACDBPLACEHOLDER
  2
AcDbPlaceHolder
  3
ObjectDBX Classes
 90
        0
280
     0
281
     0
  0
CLASS
  1
LAYOUT
  2
AcDbLayout
  3
ObjectDBX Classes
 90
        0
280
     0
281
     0
  0
CLASS
  1
DICTIONARYVAR
  2
AcDbDictionaryVar
  3
ObjectDBX Classes
 90
        0
280
     0
281
     0
  0
CLASS
  1
SORTENTSTABLE
  2
AcDbSortentsTable
  3
ObjectDBX Classes
 90
    32768
280
     0
281
     0
  0
CLASS
  1
TABLESTYLE
  2
AcDbTableStyle
  3
ObjectDBX Classes
 90
     2047
280
     0
281
     0
  0
CLASS
  1
AECC_TREE_NODE
  2
AeccDbTreeNode
  3
AeccvBase10|Product Desc: Autodesk Civil 3D |Company: Autodesk,Inc. |WEB Address: www.autodesk.com
 90
     1023
280
     0
281
     0
  0
CLASS
  1
AECC_CLASS_NODE
  2
AeccDbClassNode
  3
AeccLand10|Product Desc: Autodesk Civil 3D |Company: Autodesk,Inc. |WEB Address: www.autodesk.com
 90
     1023
280
     0
281
     0
  0
CLASS
  1
AECC_ROOT_SETTINGS_NODE
  2
AeccDbRootSettingsNode
  3
AeccvBase10|Product Desc: Autodesk Civil 3D |Company: Autodesk,Inc. |WEB Address: www.autodesk.com
 90
     1023
280
     0
281
     0
  0
CLASS
  1
AEC_VARS_DWG_SETUP
  2
AecDbVarsDwgSetup
  3
AecBase40|Product Desc: Autodesk Architectural Desktop 2005 |Company: Autodesk,Inc. |WEB Address: www.autodesk.com
 90
      129
280
     0
281
     0
  0
CLASS
  1
DMMAPMANAGER
  2
AcMapDMMapManager
  3
AcMapDisplayManagement
 90
     1024
280
     0
281
     0
  0
CLASS
  1
DMSTYLELIBRARY
  2
AcMapDMStyleLibrary
  3
AcMapDisplayManagement
 90
     1024
280
     0
281
     0
  0
CLASS
  1
DMMAP
  2
AcMapDMMap
  3
AcMapDisplayManagement
 90
     1024
280
     0
281
     0
  0
CLASS
  1
DMBASEELEMENT
  2
AcMapDMBaseElement
  3
AcMapDisplayManagement
 90
     1024
280
     0
281
     0
  0
CLASS
  1
DMDEFAULTSTYLE
  2
AcMapDMDefaultStyle
  3
AcMapDisplayManagement
 90
     1024
280
     0
281
     0
  0
CLASS
  1
DMSTYLEREFERENCE
  2
AcMapDMStyleReference
  3
AcMapDisplayManagement
 90
     1024
280
     0
281
     0
  0
CLASS
  1
DMSTYLECATEGORY
  2
AcMapDMStyleCategory
  3
AcMapDisplayManagement
 90
     1024
280
     0
281
     0
  0
CLASS
  1
AECC_SETTINGS_NODE
  2
AeccDbSettingsNode
  3
AeccvBase10|Product Desc: Autodesk Civil 3D |Company: Autodesk,Inc. |WEB Address: www.autodesk.com
 90
     1023
280
     0
281
     0
  0
CLASS
  1
AECC_PROFILE_VIEW_STYLE
  2
AeccDbGraphStyleProfile
  3
AeccLand10|Product Desc: Autodesk Civil 3D |Company: Autodesk,Inc. |WEB Address: www.autodesk.com
 90
      129
280
     0
281
     0
  0
CLASS
  1
AECC_PROFILE_VIEW_BAND_STYLE_SET
  2
AeccDbGraphProfileBandStyleSet
  3
AeccLand10|Product Desc: Autodesk Civil 3D |Company: Autodesk,Inc. |WEB Address: www.autodesk.com
 90
      129
280
     0
281
     0
  0
CLASS
  1
AECC_PROFILE_VIEW_DATA_BAND_STYLE
  2
AeccDbGraphStyleProfileDataBands
  3
AeccLand10|Product Desc: Autodesk Civil 3D |Company: Autodesk,Inc. |WEB Address: www.autodesk.com
 90
      129
280
     0
281
     0
  0
CLASS
  1
AECC_LABEL_NODE
  2
AeccDbLabelNode
  3
AeccLand10|Product Desc: Autodesk Civil 3D |Company: Autodesk,Inc. |WEB Address: www.autodesk.com
 90
     1023
280
     0
281
     0
  0
CLASS
  1
AECC_LABEL_COLLECTOR_STYLE
  2
AeccDbLabelStyleCollector
  3
AeccLand10|Product Desc: Autodesk Civil 3D |Company: Autodesk,Inc. |WEB Address: www.autodesk.com
 90
     1023
280
     0
281
     0
  0
CLASS
  1
AECC_LABEL_TEXT_STYLE
  2
AeccDbLabelStyleText
  3
AeccLand10|Product Desc: Autodesk Civil 3D |Company: Autodesk,Inc. |WEB Address: www.autodesk.com
 90
     1023
280
     0
281
     0
  0
CLASS
  1
AECC_PROFILE_VIEW_HORIZONTAL_GEOMETRY_BAND_STYLE
  2
AeccDbGraphStyleHorGeometryBands
  3
AeccLand10|Product Desc: Autodesk Civil 3D |Company: Autodesk,Inc. |WEB Address: www.autodesk.com
 90
      129
280
     0
281
     0
  0
CLASS
  1
AECC_PROFILE_VIEW_VERTICAL_GEOMETRY_BAND_STYLE
  2
AeccDbGraphStyleVertGeometryBands
  3
AeccLand10|Product Desc: Autodesk Civil 3D |Company: Autodesk,Inc. |WEB Address: www.autodesk.com
 90
      129
280
     0
281
     0
  0
CLASS
  1
AECC_LABEL_RADIAL_LINE_STYLE
  2
AeccDbLabelStyleRadialLine
  3
AeccLand10|Product Desc: Autodesk Civil 3D |Company: Autodesk,Inc. |WEB Address: www.autodesk.com
 90
     1023
280
     0
281
     0
  0
CLASS
  1
AECC_POINT_STYLE
  2
AeccDbPointStyle
  3
AeccLand10|Product Desc: Autodesk Civil 3D |Company: Autodesk,Inc. |WEB Address: www.autodesk.com
 90
      895
280
     0
281
     0
  0
CLASS
  1
AECC_PROFILE_LABEL_SET
  2
AeccDbVAlignStnLabelsDlgTemplate
  3
AeccLand10|Product Desc: Autodesk Civil 3D |Company: Autodesk,Inc. |WEB Address: www.autodesk.com
 90
     1023
280
     0
281
     0
  0
CLASS
  1
AECC_SECTION_VIEW_STYLE
  2
AeccDbGraphStyleCrossSection
  3
AeccLand10|Product Desc: Autodesk Civil 3D |Company: Autodesk,Inc. |WEB Address: www.autodesk.com
 90
      129
280
     0
281
     0
  0
CLASS
  1
AECC_SECTION_VIEW_BAND_STYLE_SET
  2
AeccDbGraphSectionBandStyleSet
  3
AeccLand10|Product Desc: Autodesk Civil 3D |Company: Autodesk,Inc. |WEB Address: www.autodesk.com
 90
      129
280
     0
281
     0
  0
CLASS
  1
AECC_SECTION_VIEW_DATA_BAND_STYLE
  2
AeccDbGraphStyleSectionDataBands
  3
AeccLand10|Product Desc: Autodesk Civil 3D |Company: Autodesk,Inc. |WEB Address: www.autodesk.com
 90
      129
280
     0
281
     0
  0
CLASS
  1
AECC_SECTION_LABEL_SET
  2
AeccDbSectionLabelsDlgTemplate
  3
AeccLand10|Product Desc: Autodesk Civil 3D |Company: Autodesk,Inc. |WEB Address: www.autodesk.com
 90
     1023
280
     0
281
     0
  0
CLASS
  1
AECC_ALIGNMENT_STYLE
  2
AeccDbAlignmentStyle
  3
AeccLand10|Product Desc: Autodesk Civil 3D |Company: Autodesk,Inc. |WEB Address: www.autodesk.com
 90
     1023
280
     0
281
     0
  0
CLASS
  1
AECC_LABEL_VECTOR_ARROW_STYLE
  2
AeccDbLabelStyleVectorArrow
  3
AeccLand10|Product Desc: Autodesk Civil 3D |Company: Autodesk,Inc. |WEB Address: www.autodesk.com
 90
     1023
280
     0
281
     0
  0
CLASS
  1
AECC_ALIGNMENT_LABEL_SET
  2
AeccDbAlignStnLabelsDlgTemplate
  3
AeccLand10|Product Desc: Autodesk Civil 3D |Company: Autodesk,Inc. |WEB Address: www.autodesk.com
 90
     1023
280
     0
281
     0
  0
CLASS
  1
AECC_SURFACE_STYLE
  2
AeccDbSurfaceStyle
  3
AeccLand10|Product Desc: Autodesk Civil 3D |Company: Autodesk,Inc. |WEB Address: www.autodesk.com
 90
      129
280
     0
281
     0
  0
CLASS
  1
AECC_LEGEND_TABLE_STYLE
  2
AeccDbLegendScheduleTableStyle
  3
AeccLand10|Product Desc: Autodesk Civil 3D |Company: Autodesk,Inc. |WEB Address: www.autodesk.com
 90
     1023
280
     0
281
     0
  0
CLASS
  1
AECC_SECTION_STYLE
  2
AeccDbSectionStyle
  3
AeccLand10|Product Desc: Autodesk Civil 3D |Company: Autodesk,Inc. |WEB Address: www.autodesk.com
 90
     1023
280
     0
281
     0
  0
CLASS
  1
AECC_GRADING_STYLE
  2
AeccDbGradingStyle
  3
AeccLand10|Product Desc: Autodesk Civil 3D |Company: Autodesk,Inc. |WEB Address: www.autodesk.com
 90
     1023
280
     0
281
     0
  0
CLASS
  1
AECC_GRADING_CRITERIA
  2
AeccDbGradingCriteria
  3
AeccLand10|Product Desc: Autodesk Civil 3D |Company: Autodesk,Inc. |WEB Address: www.autodesk.com
 90
     1023
280
     0
281
     0
  0
CLASS
  1
AECC_PARCEL_STYLE
  2
AeccDbParcelStyle
  3
AeccLand10|Product Desc: Autodesk Civil 3D |Company: Autodesk,Inc. |WEB Address: www.autodesk.com
 90
      129
280
     0
281
     0
  0
CLASS
  1
AECC_SAMPLE_LINE_GROUP_STYLE
  2
AeccDbSampleLineGroupStyle
  3
AeccLand10|Product Desc: Autodesk Civil 3D |Company: Autodesk,Inc. |WEB Address: www.autodesk.com
 90
      129
280
     0
281
     0
  0
CLASS
  1
AECC_SHEET_STYLE
  2
AeccDbSheetStyle
  3
AeccLand10|Product Desc: Autodesk Civil 3D |Company: Autodesk,Inc. |WEB Address: www.autodesk.com
 90
      129
280
     0
281
     0
  0
CLASS
  1
AECC_SAMPLE_LINE_STYLE
  2
AeccDbSampleLineStyle
  3
AeccLand10|Product Desc: Autodesk Civil 3D |Company: Autodesk,Inc. |WEB Address: www.autodesk.com
 90
     1023
280
     0
281
     0
  0
CLASS
  1
AECC_PROFILE_STYLE
  2
AeccDbVAlignmentStyle
  3
AeccLand10|Product Desc: Autodesk Civil 3D |Company: Autodesk,Inc. |WEB Address: www.autodesk.com
 90
     1023
280
     0
281
     0
  0
CLASS
  1
AECC_STATION_FORMAT_STYLE
  2
AeccDbStationFormatStyle
  3
AeccLand10|Product Desc: Autodesk Civil 3D |Company: Autodesk,Inc. |WEB Address: www.autodesk.com
 90
     1023
280
     0
281
     0
  0
CLASS
  1
AECC_TABLE_STYLE
  2
AeccDbScheduleTableStyle
  3
AeccLand10|Product Desc: Autodesk Civil 3D |Company: Autodesk,Inc. |WEB Address: www.autodesk.com
 90
     1023
280
     0
281
     0
  0
CLASS
  1
AECC_GRADING_CRITERIA_SET
  2
AeccDbGradingCriteriaSet
  3
AeccLand10|Product Desc: Autodesk Civil 3D |Company: Autodesk,Inc. |WEB Address: www.autodesk.com
 90
     1023
280
     0
281
     0
  0
CLASS
  1
AECC_FORMAT_MANAGER_OBJECT
  2
AeccDbFormatManagerObject
  3
AeccLand10|Product Desc: Autodesk Civil 3D |Company: Autodesk,Inc. |WEB Address: www.autodesk.com
 90
     1023
280
     0
281
     0
  0
CLASS
  1
AECC_POINT_DESCRIPTION_KEY_SET_NODE
  2
AeccDbPointDescKeySetsNode
  3
AeccvBase10|Product Desc: Autodesk Civil 3D |Company: Autodesk,Inc. |WEB Address: www.autodesk.com
 90
     1023
280
     0
281
     0
  0
ENDSEC
  0
SECTION
  2
TABLES
  0
TABLE
  2
VPORT
  5
8
330
0
100
AcDbSymbolTable
 70
     2
  0
VPORT
  5
11E4
330
8
100
AcDbSymbolTableRecord
100
AcDbViewportTableRecord
  2
*Active
 70
     0
 10
0.0
 20
0.0
 11
1.0
 21
1.0
 12
19788.09186441841
 22
13343.42022214186
 13
0.0
 23
0.0
 14
10.0
 24
10.0
 15
10.0
 25
10.0
 16
0.0
 26
0.0
 36
1.0
 17
0.0
 27
0.0
 37
0.0
 40
32437.17678951621
 41
1.227931488801053
 42
50.0
 43
0.0
 44
0.0
 50
0.0
 51
0.0
 71
     0
 72
  1000
 73
     1
 74
     1
 75
     0
 76
     0
 77
     0
 78
     0
281
     0
 65
     1
110
0.0
120
0.0
130
0.0
111
1.0
121
0.0
131
0.0
112
0.0
122
1.0
132
0.0
 79
     0
146
0.0
  0
ENDTAB
  0
TABLE
  2
LTYPE
  5
5
330
0
100
AcDbSymbolTable
 70
     3
  0
LTYPE
  5
14
330
5
100
AcDbSymbolTableRecord
100
AcDbLinetypeTableRecord
  2
ByBlock
 70
     0
  3

 72
    65
 73
     0
 40
0.0
  0
LTYPE
  5
15
330
5
100
AcDbSymbolTableRecord
100
AcDbLinetypeTableRecord
  2
ByLayer
 70
     0
  3

 72
    65
 73
     0
 40
0.0
  0
LTYPE
  5
16
330
5
100
AcDbSymbolTableRecord
100
AcDbLinetypeTableRecord
  2
Continuous
 70
     0
  3
Solid line
 72
    65
 73
     0
 40
0.0
  0
LTYPE
  5
270
330
5
100
AcDbSymbolTableRecord
100
AcDbLinetypeTableRecord
  2
DASHED
 70
     0
  3
__ __ __ __ __ __ __ __ __ __ __ __ __ __ __
 72
    65
 73
     2
 40
3.0
 49
2.0
 74
     0
 49
-1.0
 74
     0
  0
LTYPE
  5
271
330
5
100
AcDbSymbolTableRecord
100
AcDbLinetypeTableRecord
  2
DASHDOT
 70
     0
  3
__ . __ . __ . __ . __ . __ . __ . __ . __ . __
 72
    65
 73
     4
 40
8.5
 49
6.0
 74
     0
 49
-1.0
 74
     0
 49
0.5
 74
     0
 49
-1.0
 74
     0
  0
ENDTAB
  0
TABLE
  2
LAYER
  5
2
330
0
100
AcDbSymbolTable
 70
    18
  0
LAYER
  5
10
330
2
100
AcDbSymbolTableRecord
100
AcDbLayerTableRecord
  2
0
 70
     0
 62
     7
  6
Continuous
370
    -3
390
F
  0
LAYER
  5
272
330
2
100
AcDbSymbolTableRecord
100
AcDbLayerTableRecord
  2
DEFPOINTS
 70
     0
 62
     4
  6
Continuous
290
     0
370
    -3
390
F
  0
LAYER
  5
273
330
2
100
AcDbSymbolTableRecord
100
AcDbLayerTableRecord
  2
寸法
 70
     0
 62
     6
  6
Continuous
370
    -3
390
F
  0
LAYER
  5
274
330
2
100
AcDbSymbolTableRecord
100
AcDbLayerTableRecord
  2
画層1-1
 70
     0
 62
    82
  6
Continuous
370
    -3
390
F
  0
LAYER
  5
275
330
2
100
AcDbSymbolTableRecord
100
AcDbLayerTableRecord
  2
図面枠
 70
     0
 62
     7
  6
Continuous
370
    -3
390
F
  0
LAYER
  5
276
330
2
100
AcDbSymbolTableRecord
100
AcDbLayerTableRecord
  2
ﾊｯﾁﾝｸﾞ
 70
     0
 62
     1
  6
Continuous
370
    -3
390
F
  0
LAYER
  5
277
330
2
100
AcDbSymbolTableRecord
100
AcDbLayerTableRecord
  2
画層1
 70
     0
 62
     7
  6
Continuous
370
    -3
390
F
  0
LAYER
  5
278
330
2
100
AcDbSymbolTableRecord
100
AcDbLayerTableRecord
  2
画層2
 70
     0
 62
    40
  6
Continuous
370
    -3
390
F
  0
LAYER
  5
279
330
2
100
AcDbSymbolTableRecord
100
AcDbLayerTableRecord
  2
通り芯
 70
     0
 62
     4
  6
Continuous
370
    13
390
F
  0
LAYER
  5
27A
330
2
100
AcDbSymbolTableRecord
100
AcDbLayerTableRecord
  2
ﾈｯﾄ
 70
     0
 62
   230
  6
Continuous
370
    13
390
F
  0
LAYER
  5
27B
330
2
100
AcDbSymbolTableRecord
100
AcDbLayerTableRecord
  2
画層3-3
 70
     0
 62
     1
  6
Continuous
370
    -3
390
F
  0
LAYER
  5
27C
330
2
100
AcDbSymbolTableRecord
100
AcDbLayerTableRecord
  2
画層3-1
 70
     0
 62
     3
  6
Continuous
370
    -3
390
F
  0
LAYER
  5
27D
330
2
100
AcDbSymbolTableRecord
100
AcDbLayerTableRecord
  2
画層3-2
 70
     0
 62
    60
  6
Continuous
370
    -3
390
F
  0
LAYER
  5
27E
330
2
100
AcDbSymbolTableRecord
100
AcDbLayerTableRecord
  2
画層2-1
 70
     0
 62
     7
  6
Continuous
370
    -3
390
F
  0
LAYER
  5
27F
330
2
100
AcDbSymbolTableRecord
100
AcDbLayerTableRecord
  2
画層3-通り芯
 70
     0
 62
     4
  6
Continuous
370
    -3
390
F
  0
LAYER
  5
280
330
2
100
AcDbSymbolTableRecord
100
AcDbLayerTableRecord
  2
画層3-寸法
 70
     0
 62
     6
  6
Continuous
370
    -3
390
F
  0
LAYER
  5
281
330
2
100
AcDbSymbolTableRecord
100
AcDbLayerTableRecord
  2
寸法文字
 70
     0
 62
     6
  6
Continuous
370
    -3
390
F
  0
LAYER
  5
282
330
2
100
AcDbSymbolTableRecord
100
AcDbLayerTableRecord
  2
寸法引出
 70
     0
 62
     3
  6
Continuous
370
    -3
390
F
  0
ENDTAB
  0
TABLE
  2
STYLE
  5
3
330
0
100
AcDbSymbolTable
 70
     4
  0
STYLE
  5
11
330
3
100
AcDbSymbolTableRecord
100
AcDbTextStyleTableRecord
  2
Standard
 70
     0
 40
0.0
 41
1.0
 50
0.0
 71
     0
 42
2.5
  3
txt
  4

  0
STYLE
  5
283
330
3
100
AcDbSymbolTableRecord
100
AcDbTextStyleTableRecord
  2
1_100
 70
     0
 40
0.0
 41
0.75
 50
0.0
 71
     0
 42
2.5
  3
romans.shx
  4
extfont2.shx
  0
STYLE
  5
284
330
3
100
AcDbSymbolTableRecord
100
AcDbTextStyleTableRecord
  2
STYLE1
 70
     0
 40
0.0
 41
0.75
 50
0.0
 71
     0
 42
0.2
  3
HGRSKP.TTF
  4

1001
ACAD
1000
HGSeikaishotaiPRO
1071
    32833
  0
STYLE
  5
285
330
3
100
AcDbSymbolTableRecord
100
AcDbTextStyleTableRecord
  2
MSP明朝
 70
     0
 40
0.0
 41
0.75
 50
0.0
 71
     0
 42
0.2
  3
MS PMincho.ttf
  4

1001
ACAD
1000
MS PMincho
1071
    32786
  0
ENDTAB
  0
TABLE
  2
VIEW
  5
6
330
0
100
AcDbSymbolTable
 70
     0
  0
ENDTAB
  0
TABLE
  2
UCS
  5
7
330
0
100
AcDbSymbolTable
 70
     0
  0
ENDTAB
  0
TABLE
  2
APPID
  5
9
330
0
100
AcDbSymbolTable
 70
     4
  0
APPID
  5
12
330
9
100
AcDbSymbolTableRecord
100
AcDbRegAppTableRecord
  2
ACAD
 70
     0
  0
APPID
  5
289
330
9
100
AcDbSymbolTableRecord
100
AcDbRegAppTableRecord
  2
AcDbBlockRepETag
 70
     0
  0
APPID
  5
EE5
330
9
100
AcDbSymbolTableRecord
100
AcDbRegAppTableRecord
  2
ADE
 70
     0
  0
APPID
  5
EE6
330
9
100
AcDbSymbolTableRecord
100
AcDbRegAppTableRecord
  2
DCO15
 70
     0
  0
ENDTAB
  0
TABLE
  2
DIMSTYLE
  5
A
330
0
100
AcDbSymbolTable
 70
     5
100
AcDbDimStyleTable
 71
     0
  0
DIMSTYLE
105
27
330
A
100
AcDbSymbolTableRecord
100
AcDbDimStyleTableRecord
  2
ISO-25
 70
     0
 41
2.5
 42
0.625
 43
3.75
 44
1.25
 73
     0
 74
     0
 77
     1
 78
     8
140
2.5
141
2.5
143
0.03937007874016
147
0.625
171
     3
172
     1
271
     2
272
     2
274
     3
278
    44
283
     0
284
     8
340
11
  0
DIMSTYLE
105
286
330
A
100
AcDbSymbolTableRecord
100
AcDbDimStyleTableRecord
  2
STANDARD
 70
     0
340
11
  0
DIMSTYLE
105
287
102
{ACAD_REACTORS
330
555
330
556
330
55C
330
55D
330
573
330
578
330
583
330
592
330
5FC
330
5FD
330
645
330
646
330
64D
330
64E
330
64F
330
650
330
651
330
657
330
666
330
6AC
330
72B
330
73C
330
73E
330
740
330
742
330
743
330
744
330
7AD
330
7B0
330
7B1
330
7B2
330
7DA
330
7ED
330
7F9
330
7FA
102
}
330
A
100
AcDbSymbolTableRecord
100
AcDbDimStyleTableRecord
  2
1_100
 70
     0
 40
100.0
 41
0.6
 42
3.0
 43
10.0
 44
0.0
 73
     0
 74
     0
 77
     1
 78
     8
140
3.0
141
0.0
147
1.0
172
     1
173
     1
176
   256
177
   256
178
   256
271
     1
272
     1
277
     6
279
     2
284
     8
340
283
341
87
343
87
344
87
  0
DIMSTYLE
105
288
102
{ACAD_REACTORS
330
59A
330
59B
102
}
330
A
100
AcDbSymbolTableRecord
100
AcDbDimStyleTableRecord
  2
1_100_B
 70
     0
 40
100.0
 41
0.8
 42
2.0
 43
10.0
 44
0.0
 73
     0
 74
     0
 77
     1
 78
    12
140
3.0
147
0.5
172
     1
173
     1
176
   256
177
   256
178
   256
271
     1
272
     1
277
     6
279
     2
340
283
341
87
343
87
344
87
  0
DIMSTYLE
105
EE4
330
A
100
AcDbSymbolTableRecord
100
AcDbDimStyleTableRecord
  2
1_50
 70
     0
 40
50.0
 41
1.0
 42
3.0
 43
10.0
 44
0.0
 73
     0
 74
     0
 77
     1
 78
    12
140
3.0
141
0.0
147
1.0
172
     1
173
     1
176
   256
177
   256
178
   256
271
     1
272
     1
277
     6
279
     2
340
283
341
87
343
87
344
87
  0
ENDTAB
  0
TABLE
  2
BLOCK_RECORD
  5
1
330
0
100
AcDbSymbolTable
 70
    40
  0
BLOCK_RECORD
  5
1F
330
1
100
AcDbSymbolTableRecord
100
AcDbBlockTableRecord
  2
*Model_Space
340
22
  0
BLOCK_RECORD
  5
50
330
1
100
AcDbSymbolTableRecord
100
AcDbBlockTableRecord
  2
*Paper_Space
340
51
  0
BLOCK_RECORD
  5
55
330
1
100
AcDbSymbolTableRecord
100
AcDbBlockTableRecord
  2
*Paper_Space0
340
56
  0
BLOCK_RECORD
  5
87
330
1
100
AcDbSymbolTableRecord
100
AcDbBlockTableRecord
  2
_ORIGIN
340
0
102
{BLKREFS
331
9EB
331
9EC
331
9F4
331
9F5
331
9FD
331
9FE
331
A06
331
A07
331
A10
331
A11
331
A18
331
A19
331
A21
331
A22
331
A2A
331
A2B
331
A34
331
A35
331
A3E
331
A3F
331
A48
331
A49
331
A52
331
A53
331
A5B
331
A5C
331
A64
331
A65
331
A70
331
A71
331
A78
331
A79
331
A81
331
A82
331
A8A
331
A8B
331
A96
331
A97
331
A9E
331
A9F
331
AA7
331
AA8
331
AB0
331
AB1
331
AB9
331
ABA
331
AC5
331
AC6
331
ACD
331
ACE
331
AD8
331
AD9
331
AE4
331
AE5
331
AEC
331
AED
331
AF5
331
AF6
331
B01
331
B02
331
B09
331
B0A
331
B12
331
B13
331
B1E
331
B1F
331
B26
331
B27
331
B2F
331
B30
331
B3B
331
B3C
331
B46
331
B47
102
}
  0
BLOCK_RECORD
  5
8C
330
1
100
AcDbSymbolTableRecord
100
AcDbBlockTableRecord
  2
sai450
340
0
310
28000000200000002000000001000800000000000004000000000000000000000000000000000000000000004000000080000000FF000000002000004020000080200000FF200000004000004040000080400000FF400000006000004060000080600000FF600000008000004080000080800000FF80000000A0000040A000
310
0080A00000FFA0000000C0000040C0000080C00000FFC0000000FF000040FF000080FF0000FFFF0000000020004000200080002000FF002000002020004020200080202000FF202000004020004040200080402000FF402000006020004060200080602000FF602000008020004080200080802000FF80200000A0200040A0
310
200080A02000FFA0200000C0200040C0200080C02000FFC0200000FF200040FF200080FF2000FFFF2000000040004000400080004000FF004000002040004020400080204000FF204000004040004040400080404000FF404000006040004060400080604000FF604000008040004080400080804000FF80400000A0400040
310
A0400080A04000FFA0400000C0400040C0400080C04000FFC0400000FF400040FF400080FF4000FFFF4000000060004000600080006000FF006000002060004020600080206000FF206000004060004040600080406000FF406000006060004060600080606000FF606000008060004080600080806000FF80600000A06000
310
40A0600080A06000FFA0600000C0600040C0600080C06000FFC0600000FF600040FF600080FF6000FFFF6000000080004000800080008000FF008000002080004020800080208000FF208000004080004040800080408000FF408000006080004060800080608000FF608000008080004080800080808000FF80800000A080
310
0040A0800080A08000FFA0800000C0800040C0800080C08000FFC0800000FF800040FF800080FF8000FFFF80000000A0004000A0008000A000FF00A0000020A0004020A0008020A000FF20A0000040A0004040A0008040A000FF40A0000060A0004060A0008060A000FF60A0000080A0004080A0008080A000FF80A00000A0
310
A00040A0A00080A0A000FFA0A00000C0A00040C0A00080C0A000FFC0A00000FFA00040FFA00080FFA000FFFFA0000000C0004000C0008000C000FF00C0000020C0004020C0008020C000FF20C0000040C0004040C0008040C000FF40C0000060C0004060C0008060C000FF60C0000080C0004080C0008080C000FF80C00000
310
A0C00040A0C00080A0C000FFA0C00000C0C00040C0C00080C0C000FFC0C00000FFC00040FFC00080FFC000FFFFC0000000FF004000FF008000FF00FF00FF000020FF004020FF008020FF00FF20FF000040FF004040FF008040FF00FF40FF000060FF004060FF008060FF00FF60FF000080FF004080FF008080FF00FF80FF00
310
00A0FF0040A0FF0080A0FF00FFA0FF0000C0FF0040C0FF0080C0FF00FFC0FF0000FFFF0040FFFF0080FFFF00FFFFFF00FFFFFFFFFFFFFFFFFFFFFFFFFFFFFFFFFFFFFFFFFFFFFFFFFFFFFFFFFFFFFFFFFFFFFFFFFFFFFFFFFFFFFFFFFFFFFFFFFFFFFFFFFFFFFFFFFFFFFFFFFFFFFFFFFFFFFFFFFFFFFFFFFFFFFFFFFFFFFF
310
FFFFFFFFFFFFFFFFFFFFFFFFFFFFFFFFFFFFFFFFFFFFFFFFFFFFFFFFFFFFFFFFFFFFFFFFFFFFFFFFFFFFFFFFFFFFFFFFFFFFFFFFFFFFFFFFFFFFFFFFFFFFFFFFFFFFFFFFFFFFFFFFFFFFFFFFFFFFFFFFFFFFFFFFFFFFFFFFFFFFFFFFFFFFFFFFFFFFFFFFFFFFFFFFFFFFFFFFFFFFFFFFFFFFFFFFFFFFFFFFFFFFFFFFFFFFFF
310
FFFFFFFFFFFFFFFFFFFFFFFFFFFFFFFFFFFFFFFFFFFFFFFFFFFFFFFFFFFFFFFFFFFFFFFFFFFFFFFFFFFFFFFFFFFFFFFFFFFFFFFFFFFFFFFFFFFFFFFFFFFFFFFFFFFFFFFFFFFFFFFFFFFFFFFFFFFFFFFFFFFFFFFFFFFFFFFFFFFFFFFFFFFFFFFFFFFFFFFFFFFFFFFFFFFFFFFFFFFFFFFFFFFFFFFFFFFFFFFFFFFFFFFFFFFFFF
310
FFFFFFFFFFFFFFFFFFFFFFFFFFFFFFFFFFFFFFFFFFFFFFFFFFFFFFFFFFFFFFFFFFFFFFFFFFFFFFFFFFFFFFFFFFFFFFFFFFFFFFFFE0FFE0FFFFFFE0FFE0FFFFFFFFE0E0FFFFFFFFE0E0FFFFFFFFE0E0FFFFFFFFFFFFE0E0FFFFFFFFE0E0FFFFFFFFE0E0FFFFFFFFFFE0FFFFFFFFFFE0FFFFFFFFFFFFE0FFFFFFFFFFE0FFFFFF
310
FFFFE0E0FFFFFFFFFFE0FFFFFFFFFFE0FFFFFFFFFFFFFFE0FFFFFFFFFFE0FFFFFFFFFFE0FFFFFFFFFFFFE0FFFFFFFFFFE0FFFFFFFFFFFFE0FFFFFFFFFFE0FFFFFFFFFFFFE0FFFFFFFFFFE0FFFFFFFFFFE0FFFFFFFFFFFFFFE0FFFFFFFFFFE0FFFFFFFFFFE0E0FFFFFFFFFFE0FFFFFFFFFFE0FFFFFFFFFFFFE0FFFFFFFFFFE0
310
FFFFFFFFFFFFE0FFFFFFFFFFE0FFFFFFFFFFE0FFFFFFFFFFE0FFE0FFFFFFE0FFE0FFFFFFFFE0E0FFFFFFFFE0FFE0FFFFFFE0FFE0FFFFFFFFFFFFFFFFFFFFFFFFFFFFFFFFFFFFFFFFFFFFFFFFFFFFFFFFFFFFFFFFFFFFFFFFFFFFFFFFFFFFFFFFFFFFFFFFFFFFFFFFFFFFFFFFFFFFFFFFFFFFFFFFFFFFFFFFFFFFFFFFFFFFFF
310
FFFFFFFFFFFFFFFFFFFFFFFFFFFFFFFFFFFFFFFFFFFFFFFFFFFFFFFFFFFFFFFFFFFFFFFFFFFFFFFFFFFFFFFFFFFFFFFFFFFFFFFFFFFFFFFFFFFFFFFFFFFFFFFFFFFFFFFFFFFFFFFFFFFFFFFFFFFFFFFFFFFFFFFFFFFFFFFFFFFFFFFFFFFFFFFFFFFFFFFFFFFFFFFFFFFFFFFFFFFFFFFFFFFFFFFFFFFFFFFFFFFFFFFFFFFFFF
310
FFFFFFFFFFFFFFFFFFFFFFFFFFFFFFFFFFFFFFFFFFFFFFFFFFFFFFFFFFFFFFFFFFFFFFFFFFFFFFFFFFFFFFFFFFFFFFFFFFFFFFFFFFFFFFFFFFFFFFFFFFFFFFFFFFFFFFFFFFFFFFFFFFFFFFFFFFFFFFFFFFFFFFFFFFFFFFFFFFFFFFFFFFFFFFFFFFFFFFFFFFFFFFFFFFFFFFFFFFFFFFFFFFFFFFFFFFFFFFFFFFFFFFFFFFFFFF
310
FFFFFFFFFFFFFFFFFFFFFFFFFFFFFFFFFFFFFFFFFFFFFFFFFFFFFFFFFFFFFFFFFFFFFFFFFFFFFFFFFFFFFFFFFFFFFFFFFFFFFFFFFFFFFFFF
102
{BLKREFS
331
63D
331
736
331
770
102
}
  0
BLOCK_RECORD
  5
816
330
1
100
AcDbSymbolTableRecord
100
AcDbBlockTableRecord
  2
*D3
340
0
  0
BLOCK_RECORD
  5
822
330
1
100
AcDbSymbolTableRecord
100
AcDbBlockTableRecord
  2
*D4
340
0
  0
BLOCK_RECORD
  5
82E
330
1
100
AcDbSymbolTableRecord
100
AcDbBlockTableRecord
  2
*D5
340
0
  0
BLOCK_RECORD
  5
83A
330
1
100
AcDbSymbolTableRecord
100
AcDbBlockTableRecord
  2
*D6
340
0
  0
BLOCK_RECORD
  5
846
330
1
100
AcDbSymbolTableRecord
100
AcDbBlockTableRecord
  2
*D7
340
0
  0
BLOCK_RECORD
  5
852
330
1
100
AcDbSymbolTableRecord
100
AcDbBlockTableRecord
  2
*D8
340
0
  0
BLOCK_RECORD
  5
85E
330
1
100
AcDbSymbolTableRecord
100
AcDbBlockTableRecord
  2
*D9
340
0
  0
BLOCK_RECORD
  5
86A
330
1
100
AcDbSymbolTableRecord
100
AcDbBlockTableRecord
  2
*D10
340
0
  0
BLOCK_RECORD
  5
876
330
1
100
AcDbSymbolTableRecord
100
AcDbBlockTableRecord
  2
*D11
340
0
  0
BLOCK_RECORD
  5
882
330
1
100
AcDbSymbolTableRecord
100
AcDbBlockTableRecord
  2
*D12
340
0
  0
BLOCK_RECORD
  5
890
330
1
100
AcDbSymbolTableRecord
100
AcDbBlockTableRecord
  2
*D13
340
0
  0
BLOCK_RECORD
  5
89C
330
1
100
AcDbSymbolTableRecord
100
AcDbBlockTableRecord
  2
*D14
340
0
  0
BLOCK_RECORD
  5
8AA
330
1
100
AcDbSymbolTableRecord
100
AcDbBlockTableRecord
  2
*D15
340
0
  0
BLOCK_RECORD
  5
8B6
330
1
100
AcDbSymbolTableRecord
100
AcDbBlockTableRecord
  2
*D16
340
0
  0
BLOCK_RECORD
  5
8C2
330
1
100
AcDbSymbolTableRecord
100
AcDbBlockTableRecord
  2
*D17
340
0
  0
BLOCK_RECORD
  5
8D0
330
1
100
AcDbSymbolTableRecord
100
AcDbBlockTableRecord
  2
*D18
340
0
  0
BLOCK_RECORD
  5
8DC
330
1
100
AcDbSymbolTableRecord
100
AcDbBlockTableRecord
  2
*D19
340
0
  0
BLOCK_RECORD
  5
8E8
330
1
100
AcDbSymbolTableRecord
100
AcDbBlockTableRecord
  2
*D20
340
0
  0
BLOCK_RECORD
  5
8F4
330
1
100
AcDbSymbolTableRecord
100
AcDbBlockTableRecord
  2
*D21
340
0
  0
BLOCK_RECORD
  5
902
330
1
100
AcDbSymbolTableRecord
100
AcDbBlockTableRecord
  2
*D22
340
0
  0
BLOCK_RECORD
  5
90E
330
1
100
AcDbSymbolTableRecord
100
AcDbBlockTableRecord
  2
*D23
340
0
  0
BLOCK_RECORD
  5
91A
330
1
100
AcDbSymbolTableRecord
100
AcDbBlockTableRecord
  2
*D24
340
0
  0
BLOCK_RECORD
  5
926
330
1
100
AcDbSymbolTableRecord
100
AcDbBlockTableRecord
  2
*D25
340
0
  0
BLOCK_RECORD
  5
932
330
1
100
AcDbSymbolTableRecord
100
AcDbBlockTableRecord
  2
*D26
340
0
  0
BLOCK_RECORD
  5
940
330
1
100
AcDbSymbolTableRecord
100
AcDbBlockTableRecord
  2
*D27
340
0
  0
BLOCK_RECORD
  5
94C
330
1
100
AcDbSymbolTableRecord
100
AcDbBlockTableRecord
  2
*D28
340
0
  0
BLOCK_RECORD
  5
95A
330
1
100
AcDbSymbolTableRecord
100
AcDbBlockTableRecord
  2
*D29
340
0
  0
BLOCK_RECORD
  5
968
330
1
100
AcDbSymbolTableRecord
100
AcDbBlockTableRecord
  2
*D30
340
0
  0
BLOCK_RECORD
  5
974
330
1
100
AcDbSymbolTableRecord
100
AcDbBlockTableRecord
  2
*D31
340
0
  0
BLOCK_RECORD
  5
980
330
1
100
AcDbSymbolTableRecord
100
AcDbBlockTableRecord
  2
*D32
340
0
  0
BLOCK_RECORD
  5
98E
330
1
100
AcDbSymbolTableRecord
100
AcDbBlockTableRecord
  2
*D33
340
0
  0
BLOCK_RECORD
  5
99A
330
1
100
AcDbSymbolTableRecord
100
AcDbBlockTableRecord
  2
*D34
340
0
  0
BLOCK_RECORD
  5
9A6
330
1
100
AcDbSymbolTableRecord
100
AcDbBlockTableRecord
  2
*D35
340
0
  0
BLOCK_RECORD
  5
9B4
330
1
100
AcDbSymbolTableRecord
100
AcDbBlockTableRecord
  2
*D36
340
0
  0
BLOCK_RECORD
  5
9C0
330
1
100
AcDbSymbolTableRecord
100
AcDbBlockTableRecord
  2
*D37
340
0
  0
BLOCK_RECORD
  5
9CC
330
1
100
AcDbSymbolTableRecord
100
AcDbBlockTableRecord
  2
*D38
340
0
  0
BLOCK_RECORD
  5
9DA
330
1
100
AcDbSymbolTableRecord
100
AcDbBlockTableRecord
  2
*D39
340
0
  0
ENDTAB
  0
ENDSEC
  0
SECTION
  2
BLOCKS
  0
BLOCK
  5
20
330
1F
100
AcDbEntity
  8
0
100
AcDbBlockBegin
  2
*Model_Space
 70
     0
 10
0.0
 20
0.0
 30
0.0
  3
*Model_Space
  1

  0
ENDBLK
  5
21
330
1F
100
AcDbEntity
  8
0
100
AcDbBlockEnd
  0
BLOCK
  5
52
330
50
100
AcDbEntity
 67
     1
  8
0
100
AcDbBlockBegin
  2
*Paper_Space
 70
     0
 10
0.0
 20
0.0
 30
0.0
  3
*Paper_Space
  1

  0
ENDBLK
  5
53
330
50
100
AcDbEntity
 67
     1
  8
0
100
AcDbBlockEnd
  0
BLOCK
  5
57
330
55
100
AcDbEntity
  8
0
100
AcDbBlockBegin
  2
*Paper_Space0
 70
     0
 10
0.0
 20
0.0
 30
0.0
  3
*Paper_Space0
  1

  0
ENDBLK
  5
58
330
55
100
AcDbEntity
  8
0
100
AcDbBlockEnd
  0
BLOCK
  5
88
330
87
100
AcDbEntity
  8
0
100
AcDbBlockBegin
  2
_ORIGIN
 70
     0
 10
0.0
 20
0.0
 30
0.0
  3
_ORIGIN
  1

  0
CIRCLE
  5
89
330
87
100
AcDbEntity
  8
0
  6
ByBlock
 62
     0
100
AcDbCircle
 10
0.0
 20
0.0
 30
0.0
 40
0.5
  0
LINE
  5
8A
330
87
100
AcDbEntity
  8
0
  6
ByBlock
 62
     0
100
AcDbLine
 10
0.0
 20
0.0
 30
0.0
 11
-1.0
 21
0.0
 31
0.0
  0
ENDBLK
  5
8B
330
87
100
AcDbEntity
  8
0
100
AcDbBlockEnd
  0
BLOCK
  5
8D
330
8C
100
AcDbEntity
  8
0
100
AcDbBlockBegin
  2
sai450
 70
     0
 10
0.0
 20
0.0
 30
0.0
  3
sai450
  1

  0
LINE
  5
8E
330
8C
100
AcDbEntity
  8
ﾊｯﾁﾝｸﾞ
  6
Continuous
100
AcDbLine
 10
184.9591232701205
 20
0.0
 30
0.0
 11
201.0662565772654
 21
-21.8430756283924
 31
0.0
  0
LINE
  5
8F
330
8C
100
AcDbEntity
  8
ﾊｯﾁﾝｸﾞ
  6
Continuous
100
AcDbLine
 10
168.7806191118434
 20
-77.76344007329317
 30
0.0
 11
181.6189029712695
 21
-100.0
 31
0.0
  0
LINE
  5
90
330
8C
100
AcDbEntity
  8
ﾊｯﾁﾝｸﾞ
  6
Continuous
100
AcDbLine
 10
155.9423352523008
 20
-100.0
 30
0.0
 11
213.6773621712346
 21
0.0
 31
0.0
  0
LINE
  5
91
330
8C
100
AcDbEntity
  8
ﾊｯﾁﾝｸﾞ
  6
Continuous
100
AcDbLine
 10
64.33979487384203
 20
-100.0
 30
0.0
 11
122.0748217927758
 21
0.0
 31
0.0
  0
LINE
  5
92
330
8C
100
AcDbEntity
  8
ﾊｯﾁﾝｸﾞ
  6
Continuous
100
AcDbLine
 10
-27.26274550461676
 20
-100.0
 30
0.0
 11
30.47228141431697
 21
0.0
 31
0.0
  0
LINE
  5
93
330
8C
100
AcDbEntity
  8
ﾊｯﾁﾝｸﾞ
  6
Continuous
100
AcDbLine
 10
77.17807873338461
 20
-77.76344007329317
 30
0.0
 11
90.01636259281076
 21
-100.0
 31
0.0
  0
LINE
  5
94
330
8C
100
AcDbEntity
  8
ﾊｯﾁﾝｸﾞ
  6
Continuous
100
AcDbLine
 10
-14.4244616451906
 20
-77.76344007329317
 30
0.0
 11
-1.586177785531615
 21
-100.0
 31
0.0
  0
LINE
  5
95
330
8C
100
AcDbEntity
  8
ﾊｯﾁﾝｸﾞ
  6
Continuous
100
AcDbLine
 10
1.754042513202874
 20
0.0
 30
0.0
 11
17.86117582034785
 21
-21.8430756283924
 31
0.0
  0
LINE
  5
96
330
8C
100
AcDbEntity
  8
ﾊｯﾁﾝｸﾞ
  6
Continuous
100
AcDbLine
 10
93.35658289166168
 20
0.0
 30
0.0
 11
109.4637161988066
 21
-21.8430756283924
 31
0.0
  0
LINE
  5
97
330
8C
100
AcDbEntity
  8
ﾊｯﾁﾝｸﾞ
  6
Continuous
100
AcDbLine
 10
-181.4510382437146
 20
0.0
 30
0.0
 11
-165.3439049364533
 21
-21.8430756283924
 31
0.0
  0
LINE
  5
98
330
8C
100
AcDbEntity
  8
ﾊｯﾁﾝｸﾞ
  6
Continuous
100
AcDbLine
 10
-197.6295424019918
 20
-77.76344007329317
 30
0.0
 11
-184.7912585424492
 21
-100.0
 31
0.0
  0
LINE
  5
99
330
8C
100
AcDbEntity
  8
ﾊｯﾁﾝｸﾞ
  6
Continuous
100
AcDbLine
 10
-210.4678262615343
 20
-100.0
 30
0.0
 11
-152.7327993426006
 21
0.0
 31
0.0
  0
LINE
  5
9A
330
8C
100
AcDbEntity
  8
ﾊｯﾁﾝｸﾞ
  6
Continuous
100
AcDbLine
 10
-118.8652858830755
 20
-100.0
 30
0.0
 11
-61.13025896414182
 21
0.0
 31
0.0
  0
LINE
  5
9B
330
8C
100
AcDbEntity
  8
ﾊｯﾁﾝｸﾞ
  6
Continuous
100
AcDbLine
 10
-106.027002023533
 20
-77.76344007329317
 30
0.0
 11
-93.18871816399042
 21
-100.0
 31
0.0
  0
LINE
  5
9C
330
8C
100
AcDbEntity
  8
ﾊｯﾁﾝｸﾞ
  6
Continuous
100
AcDbLine
 10
-89.84849786525591
 20
0.0
 30
0.0
 11
-73.74136455799453
 21
-21.8430756283924
 31
0.0
  0
ENDBLK
  5
9D
330
8C
100
AcDbEntity
  8
0
100
AcDbBlockEnd
  0
BLOCK
  5
820
330
816
100
AcDbEntity
  8
0
100
AcDbBlockBegin
  2
*D3
 70
     1
 10
0.0
 20
0.0
 30
0.0
  3
*D3
  1

  0
LINE
  5
9E8
330
816
100
AcDbEntity
  8
寸法
  6
Continuous
370
    -2
100
AcDbLine
 10
26307.10144990554
 20
22419.44825190838
 30
0.0
 11
28007.10144990554
 21
22419.44825190838
 31
0.0
  0
LINE
  5
9E9
330
816
100
AcDbEntity
  8
寸法
  6
Continuous
370
    -2
100
AcDbLine
 10
26307.10144990554
 20
12419.44825190838
 30
0.0
 11
28007.10144990554
 21
12419.44825190838
 31
0.0
  0
LINE
  5
9EA
330
816
100
AcDbEntity
  8
寸法
  6
Continuous
370
    -2
100
AcDbLine
 10
28007.10144990554
 20
22359.44825190838
 30
0.0
 11
28007.10144990554
 21
12479.44825190838
 31
0.0
  0
INSERT
  5
9EB
330
816
100
AcDbEntity
  8
寸法
  6
Continuous
370
    -2
100
AcDbBlockReference
  2
_ORIGIN
 10
28007.10144990554
 20
22419.44825190838
 30
0.0
 41
60.0
 42
60.0
 43
60.0
 50
90.0
  0
INSERT
  5
9EC
330
816
100
AcDbEntity
  8
寸法
  6
Continuous
370
    -2
100
AcDbBlockReference
  2
_ORIGIN
 10
28007.10144990554
 20
12419.44825190838
 30
0.0
 41
60.0
 42
60.0
 43
60.0
 50
270.0
  0
MTEXT
  5
9ED
330
816
100
AcDbEntity
  8
寸法
  6
Continuous
100
AcDbMText
 10
27728.53002133411
 20
17419.44825190838
 30
0.0
 40
300.0
 41
0.0
 71
     5
 72
     1
  1
\A1;10,000
  7
1_100
 11
0.0000000000000001
 21
1.0
 31
0.0
 73
     1
 44
1.0
1001
ACAD
1000
MTEXTBEGIN
1070
    73
1070
     1
1070
    44
1040
1.0
1070
    74
1070
     0
1000
MTEXTEND
  0
POINT
  5
9EE
330
816
100
AcDbEntity
  8
DEFPOINTS
  6
Continuous
 62
     0
100
AcDbPoint
 10
26007.10144990554
 20
22419.44825190838
 30
0.0
  0
POINT
  5
9EF
330
816
100
AcDbEntity
  8
DEFPOINTS
  6
Continuous
 62
     0
100
AcDbPoint
 10
26007.10144990554
 20
12419.44825190838
 30
0.0
  0
POINT
  5
9F0
330
816
100
AcDbEntity
  8
DEFPOINTS
  6
Continuous
 62
     0
100
AcDbPoint
 10
28007.10144990554
 20
12419.44825190838
 30
0.0
  0
ENDBLK
  5
821
330
816
100
AcDbEntity
  8
0
100
AcDbBlockEnd
  0
BLOCK
  5
82C
330
822
100
AcDbEntity
  8
0
100
AcDbBlockBegin
  2
*D4
 70
     1
 10
0.0
 20
0.0
 30
0.0
  3
*D4
  1

  0
LINE
  5
9F1
330
822
100
AcDbEntity
  8
寸法
  6
Continuous
370
    -2
100
AcDbLine
 10
31906.53222530905
 20
22419.44825190838
 30
0.0
 11
33607.09163990909
 21
22419.44825190838
 31
0.0
  0
LINE
  5
9F2
330
822
100
AcDbEntity
  8
寸法
  6
Continuous
370
    -2
100
AcDbLine
 10
31906.53222530905
 20
12419.44825190838
 30
0.0
 11
33607.09163990907
 21
12419.44825190838
 31
0.0
  0
LINE
  5
9F3
330
822
100
AcDbEntity
  8
寸法
  6
Continuous
370
    -2
100
AcDbLine
 10
33607.09163990909
 20
22359.44825190838
 30
0.0
 11
33607.09163990907
 21
12479.44825190838
 31
0.0
  0
INSERT
  5
9F4
330
822
100
AcDbEntity
  8
寸法
  6
Continuous
370
    -2
100
AcDbBlockReference
  2
_ORIGIN
 10
33607.09163990909
 20
22419.44825190838
 30
0.0
 41
60.0
 42
60.0
 43
60.0
 50
90.0
  0
INSERT
  5
9F5
330
822
100
AcDbEntity
  8
寸法
  6
Continuous
370
    -2
100
AcDbBlockReference
  2
_ORIGIN
 10
33607.09163990907
 20
12419.44825190838
 30
0.0
 41
60.0
 42
60.0
 43
60.0
 50
270.0
  0
MTEXT
  5
9F6
330
822
100
AcDbEntity
  8
寸法
  6
Continuous
100
AcDbMText
 10
33328.52021133764
 20
17419.44825190838
 30
0.0
 40
300.0
 41
0.0
 71
     5
 72
     1
  1
\A1;10,000
  7
1_100
 11
0.0000000000000001
 21
1.0
 31
0.0
 73
     1
 44
1.0
1001
ACAD
1000
MTEXTBEGIN
1070
    73
1070
     1
1070
    44
1040
1.0
1070
    74
1070
     0
1000
MTEXTEND
  0
POINT
  5
9F7
330
822
100
AcDbEntity
  8
DEFPOINTS
  6
Continuous
 62
     0
100
AcDbPoint
 10
31606.53222530905
 20
22419.44825190838
 30
0.0
  0
POINT
  5
9F8
330
822
100
AcDbEntity
  8
DEFPOINTS
  6
Continuous
 62
     0
100
AcDbPoint
 10
31606.53222530905
 20
12419.44825190838
 30
0.0
  0
POINT
  5
9F9
330
822
100
AcDbEntity
  8
DEFPOINTS
  6
Continuous
 62
     0
100
AcDbPoint
 10
33607.09163990907
 20
12419.44825190838
 30
0.0
  0
ENDBLK
  5
82D
330
822
100
AcDbEntity
  8
0
100
AcDbBlockEnd
  0
BLOCK
  5
838
330
82E
100
AcDbEntity
  8
0
100
AcDbBlockBegin
  2
*D5
 70
     1
 10
0.0
 20
0.0
 30
0.0
  3
*D5
  1

  0
LINE
  5
9FA
330
82E
100
AcDbEntity
  8
寸法
  6
Continuous
370
    -2
100
AcDbLine
 10
26307.10144990554
 20
14419.44825184656
 30
0.0
 11
27007.10144990554
 21
14419.44825184656
 31
0.0
  0
LINE
  5
9FB
330
82E
100
AcDbEntity
  8
寸法
  6
Continuous
370
    -2
100
AcDbLine
 10
26307.10144990554
 20
17059.44825190837
 30
0.0
 11
27007.10144990554
 21
17059.44825190837
 31
0.0
  0
LINE
  5
9FC
330
82E
100
AcDbEntity
  8
寸法
  6
Continuous
370
    -2
100
AcDbLine
 10
27007.10144990554
 20
14479.44825184656
 30
0.0
 11
27007.10144990554
 21
16999.44825190837
 31
0.0
  0
INSERT
  5
9FD
330
82E
100
AcDbEntity
  8
寸法
  6
Continuous
370
    -2
100
AcDbBlockReference
  2
_ORIGIN
 10
27007.10144990554
 20
14419.44825184656
 30
0.0
 41
60.0
 42
60.0
 43
60.0
 50
270.0
  0
INSERT
  5
9FE
330
82E
100
AcDbEntity
  8
寸法
  6
Continuous
370
    -2
100
AcDbBlockReference
  2
_ORIGIN
 10
27007.10144990554
 20
17059.44825190837
 30
0.0
 41
60.0
 42
60.0
 43
60.0
 50
90.0
  0
MTEXT
  5
9FF
330
82E
100
AcDbEntity
  8
寸法
  6
Continuous
100
AcDbMText
 10
26728.53002133411
 20
15739.44825187747
 30
0.0
 40
300.0
 41
0.0
 71
     5
 72
     1
  1
\A1;2,640
  7
1_100
 11
0.0000000000000001
 21
1.0
 31
0.0
 73
     1
 44
1.0
1001
ACAD
1000
MTEXTBEGIN
1070
    73
1070
     1
1070
    44
1040
1.0
1070
    74
1070
     0
1000
MTEXTEND
  0
POINT
  5
A00
330
82E
100
AcDbEntity
  8
DEFPOINTS
  6
Continuous
 62
     0
100
AcDbPoint
 10
26007.10144990554
 20
14419.44825184656
 30
0.0
  0
POINT
  5
A01
330
82E
100
AcDbEntity
  8
DEFPOINTS
  6
Continuous
 62
     0
100
AcDbPoint
 10
26007.10144990554
 20
17059.44825190837
 30
0.0
  0
POINT
  5
A02
330
82E
100
AcDbEntity
  8
DEFPOINTS
  6
Continuous
 62
     0
100
AcDbPoint
 10
27007.10144990554
 20
17059.44825190837
 30
0.0
  0
ENDBLK
  5
839
330
82E
100
AcDbEntity
  8
0
100
AcDbBlockEnd
  0
BLOCK
  5
844
330
83A
100
AcDbEntity
  8
0
100
AcDbBlockBegin
  2
*D6
 70
     1
 10
0.0
 20
0.0
 30
0.0
  3
*D6
  1

  0
LINE
  5
A03
330
83A
100
AcDbEntity
  8
寸法
  6
Continuous
370
    -2
100
AcDbLine
 10
31906.53222530905
 20
14419.44825184842
 30
0.0
 11
32607.10144990554
 21
14419.44825184842
 31
0.0
  0
LINE
  5
A04
330
83A
100
AcDbEntity
  8
寸法
  6
Continuous
370
    -2
100
AcDbLine
 10
31906.53222530905
 20
17059.44825190837
 30
0.0
 11
32607.10144990554
 21
17059.44825190837
 31
0.0
  0
LINE
  5
A05
330
83A
100
AcDbEntity
  8
寸法
  6
Continuous
370
    -2
100
AcDbLine
 10
32607.10144990554
 20
14479.44825184842
 30
0.0
 11
32607.10144990554
 21
16999.44825190837
 31
0.0
  0
INSERT
  5
A06
330
83A
100
AcDbEntity
  8
寸法
  6
Continuous
370
    -2
100
AcDbBlockReference
  2
_ORIGIN
 10
32607.10144990554
 20
14419.44825184842
 30
0.0
 41
60.0
 42
60.0
 43
60.0
 50
270.0
  0
INSERT
  5
A07
330
83A
100
AcDbEntity
  8
寸法
  6
Continuous
370
    -2
100
AcDbBlockReference
  2
_ORIGIN
 10
32607.10144990554
 20
17059.44825190837
 30
0.0
 41
60.0
 42
60.0
 43
60.0
 50
90.0
  0
MTEXT
  5
A08
330
83A
100
AcDbEntity
  8
寸法
  6
Continuous
100
AcDbMText
 10
32328.53002133411
 20
15739.4482518784
 30
0.0
 40
300.0
 41
0.0
 71
     5
 72
     1
  1
\A1;2,640
  7
1_100
 11
0.0000000000000001
 21
1.0
 31
0.0
 73
     1
 44
1.0
1001
ACAD
1000
MTEXTBEGIN
1070
    73
1070
     1
1070
    44
1040
1.0
1070
    74
1070
     0
1000
MTEXTEND
  0
POINT
  5
A09
330
83A
100
AcDbEntity
  8
DEFPOINTS
  6
Continuous
 62
     0
100
AcDbPoint
 10
31606.53222530905
 20
14419.44825184842
 30
0.0
  0
POINT
  5
A0A
330
83A
100
AcDbEntity
  8
DEFPOINTS
  6
Continuous
 62
     0
100
AcDbPoint
 10
31606.53222530905
 20
17059.44825190837
 30
0.0
  0
POINT
  5
A0B
330
83A
100
AcDbEntity
  8
DEFPOINTS
  6
Continuous
 62
     0
100
AcDbPoint
 10
32607.10144990554
 20
17059.44825190837
 30
0.0
  0
ENDBLK
  5
845
330
83A
100
AcDbEntity
  8
0
100
AcDbBlockEnd
  0
BLOCK
  5
850
330
846
100
AcDbEntity
  8
0
100
AcDbBlockBegin
  2
*D7
 70
     1
 10
0.0
 20
0.0
 30
0.0
  3
*D7
  1

  0
LINE
  5
A0C
330
846
100
AcDbEntity
  8
寸法
  6
Continuous
370
    -2
100
AcDbLine
 10
30382.10144990554
 20
9919.448251907214
 30
0.0
 11
30382.10144990554
 21
9619.448251907215
 31
0.0
  0
LINE
  5
A0D
330
846
100
AcDbEntity
  8
寸法
  6
Continuous
370
    -2
100
AcDbLine
 10
30832.10144990554
 20
9919.448251907214
 30
0.0
 11
30832.10144990554
 21
9619.448251907215
 31
0.0
  0
LINE
  5
A0E
330
846
100
AcDbEntity
  8
寸法
  6
Continuous
370
    -2
100
AcDbLine
 10
30442.10144990554
 20
9619.448251907215
 30
0.0
 11
30772.10144990554
 21
9619.448251907215
 31
0.0
  0
MTEXT
  5
A0F
330
846
100
AcDbEntity
  8
寸法
  6
Continuous
100
AcDbMText
 10
29805.71121371129
 20
9800.781913496054
 30
0.0
 40
300.0
 41
0.0
 71
     5
 72
     1
  1
\A1;φ450
  7
1_100
 73
     1
 44
1.0
1001
ACAD
1000
MTEXTBEGIN
1070
    73
1070
     1
1070
    44
1040
1.0
1070
    74
1070
     0
1000
MTEXTEND
  0
INSERT
  5
A10
330
846
100
AcDbEntity
  8
寸法
  6
Continuous
370
    -2
100
AcDbBlockReference
  2
_ORIGIN
 10
30382.10144990554
 20
9619.448251907215
 30
0.0
 41
60.0
 42
60.0
 43
60.0
 50
180.0
  0
INSERT
  5
A11
330
846
100
AcDbEntity
  8
寸法
  6
Continuous
370
    -2
100
AcDbBlockReference
  2
_ORIGIN
 10
30832.10144990554
 20
9619.448251907215
 30
0.0
 41
60.0
 42
60.0
 43
60.0
  0
POINT
  5
A12
330
846
100
AcDbEntity
  8
DEFPOINTS
  6
Continuous
 62
     0
100
AcDbPoint
 10
30382.10144990554
 20
10219.44825190721
 30
0.0
  0
POINT
  5
A13
330
846
100
AcDbEntity
  8
DEFPOINTS
  6
Continuous
 62
     0
100
AcDbPoint
 10
30832.10144990554
 20
10219.44825190721
 30
0.0
  0
POINT
  5
A14
330
846
100
AcDbEntity
  8
DEFPOINTS
  6
Continuous
 62
     0
100
AcDbPoint
 10
30832.10144990554
 20
9619.448251907215
 30
0.0
  0
ENDBLK
  5
851
330
846
100
AcDbEntity
  8
0
100
AcDbBlockEnd
  0
BLOCK
  5
85C
330
852
100
AcDbEntity
  8
0
100
AcDbBlockBegin
  2
*D8
 70
     1
 10
0.0
 20
0.0
 30
0.0
  3
*D8
  1

  0
LINE
  5
A15
330
852
100
AcDbEntity
  8
画層3-寸法
  6
Continuous
370
    -2
100
AcDbLine
 10
14107.10144990554
 20
9806.542286165957
 30
0.0
 11
14107.10144990554
 21
8019.448251908377
 31
0.0
  0
LINE
  5
A16
330
852
100
AcDbEntity
  8
画層3-寸法
  6
Continuous
370
    -2
100
AcDbLine
 10
16107.10144990554
 20
9806.542286165957
 30
0.0
 11
16107.10144990554
 21
8019.448251908377
 31
0.0
  0
LINE
  5
A17
330
852
100
AcDbEntity
  8
画層3-寸法
  6
Continuous
370
    -2
100
AcDbLine
 10
14167.10144990554
 20
8019.448251908377
 30
0.0
 11
16047.10144990554
 21
8019.448251908377
 31
0.0
  0
INSERT
  5
A18
330
852
100
AcDbEntity
  8
画層3-寸法
  6
Continuous
370
    -2
100
AcDbBlockReference
  2
_ORIGIN
 10
14107.10144990554
 20
8019.448251908377
 30
0.0
 41
60.0
 42
60.0
 43
60.0
 50
180.0
  0
INSERT
  5
A19
330
852
100
AcDbEntity
  8
画層3-寸法
  6
Continuous
370
    -2
100
AcDbBlockReference
  2
_ORIGIN
 10
16107.10144990554
 20
8019.448251908377
 30
0.0
 41
60.0
 42
60.0
 43
60.0
  0
MTEXT
  5
A1A
330
852
100
AcDbEntity
  8
画層3-寸法
  6
Continuous
100
AcDbMText
 10
15107.10144990554
 20
8298.019680479807
 30
0.0
 40
300.0
 41
0.0
 71
     5
 72
     1
  1
\A1;2,000
  7
1_100
 73
     1
 44
1.0
1001
ACAD
1000
MTEXTBEGIN
1070
    73
1070
     1
1070
    44
1040
1.0
1070
    74
1070
     0
1000
MTEXTEND
  0
POINT
  5
A1B
330
852
100
AcDbEntity
  8
DEFPOINTS
  6
Continuous
 62
     0
100
AcDbPoint
 10
14107.10144990554
 20
10106.54228616595
 30
0.0
  0
POINT
  5
A1C
330
852
100
AcDbEntity
  8
DEFPOINTS
  6
Continuous
 62
     0
100
AcDbPoint
 10
16107.10144990554
 20
10106.54228616595
 30
0.0
  0
POINT
  5
A1D
330
852
100
AcDbEntity
  8
DEFPOINTS
  6
Continuous
 62
     0
100
AcDbPoint
 10
16107.10144990554
 20
8019.448251908377
 30
0.0
  0
ENDBLK
  5
85D
330
852
100
AcDbEntity
  8
0
100
AcDbBlockEnd
  0
BLOCK
  5
868
330
85E
100
AcDbEntity
  8
0
100
AcDbBlockBegin
  2
*D9
 70
     1
 10
0.0
 20
0.0
 30
0.0
  3
*D9
  1

  0
LINE
  5
A1E
330
85E
100
AcDbEntity
  8
寸法
  6
Continuous
370
    -2
100
AcDbLine
 10
8107.101449905538
 20
8644.448251908377
 30
0.0
 11
8107.101449905538
 21
7319.448251908609
 31
0.0
  0
LINE
  5
A1F
330
85E
100
AcDbEntity
  8
寸法
  6
Continuous
370
    -2
100
AcDbLine
 10
18107.10144990554
 20
9676.980780115084
 30
0.0
 11
18107.10144990554
 21
7319.448251908609
 31
0.0
  0
LINE
  5
A20
330
85E
100
AcDbEntity
  8
寸法
  6
Continuous
370
    -2
100
AcDbLine
 10
8167.101449905542
 20
7319.448251908609
 30
0.0
 11
18047.10144990553
 21
7319.448251908609
 31
0.0
  0
INSERT
  5
A21
330
85E
100
AcDbEntity
  8
寸法
  6
Continuous
370
    -2
100
AcDbBlockReference
  2
_ORIGIN
 10
8107.101449905538
 20
7319.448251908609
 30
0.0
 41
60.0
 42
60.0
 43
60.0
 50
180.0
  0
INSERT
  5
A22
330
85E
100
AcDbEntity
  8
寸法
  6
Continuous
370
    -2
100
AcDbBlockReference
  2
_ORIGIN
 10
18107.10144990554
 20
7319.448251908609
 30
0.0
 41
60.0
 42
60.0
 43
60.0
  0
MTEXT
  5
A23
330
85E
100
AcDbEntity
  8
寸法
  6
Continuous
100
AcDbMText
 10
13107.10144990554
 20
7598.019680480039
 30
0.0
 40
300.0
 41
0.0
 71
     5
 72
     1
  1
\A1;10,000
  7
1_100
 73
     1
 44
1.0
1001
ACAD
1000
MTEXTBEGIN
1070
    73
1070
     1
1070
    44
1040
1.0
1070
    74
1070
     0
1000
MTEXTEND
  0
POINT
  5
A24
330
85E
100
AcDbEntity
  8
DEFPOINTS
  6
Continuous
 62
     0
100
AcDbPoint
 10
8107.101449905538
 20
8944.448251908378
 30
0.0
  0
POINT
  5
A25
330
85E
100
AcDbEntity
  8
DEFPOINTS
  6
Continuous
 62
     0
100
AcDbPoint
 10
18107.10144990554
 20
9976.980780115084
 30
0.0
  0
POINT
  5
A26
330
85E
100
AcDbEntity
  8
DEFPOINTS
  6
Continuous
 62
     0
100
AcDbPoint
 10
18107.10144990554
 20
7319.448251908609
 30
0.0
  0
ENDBLK
  5
869
330
85E
100
AcDbEntity
  8
0
100
AcDbBlockEnd
  0
BLOCK
  5
874
330
86A
100
AcDbEntity
  8
0
100
AcDbBlockBegin
  2
*D10
 70
     1
 10
0.0
 20
0.0
 30
0.0
  3
*D10
  1

  0
LINE
  5
A27
330
86A
100
AcDbEntity
  8
画層3-寸法
  6
Continuous
370
    -2
100
AcDbLine
 10
12107.10144990554
 20
9806.542286165957
 30
0.0
 11
12107.10144990554
 21
8019.448251908377
 31
0.0
  0
LINE
  5
A28
330
86A
100
AcDbEntity
  8
画層3-寸法
  6
Continuous
370
    -2
100
AcDbLine
 10
14107.10144990554
 20
9806.542286165957
 30
0.0
 11
14107.10144990554
 21
8019.448251908377
 31
0.0
  0
LINE
  5
A29
330
86A
100
AcDbEntity
  8
画層3-寸法
  6
Continuous
370
    -2
100
AcDbLine
 10
12167.10144990554
 20
8019.448251908377
 30
0.0
 11
14047.10144990554
 21
8019.448251908377
 31
0.0
  0
INSERT
  5
A2A
330
86A
100
AcDbEntity
  8
画層3-寸法
  6
Continuous
370
    -2
100
AcDbBlockReference
  2
_ORIGIN
 10
12107.10144990554
 20
8019.448251908377
 30
0.0
 41
60.0
 42
60.0
 43
60.0
 50
180.0
  0
INSERT
  5
A2B
330
86A
100
AcDbEntity
  8
画層3-寸法
  6
Continuous
370
    -2
100
AcDbBlockReference
  2
_ORIGIN
 10
14107.10144990554
 20
8019.448251908377
 30
0.0
 41
60.0
 42
60.0
 43
60.0
  0
MTEXT
  5
A2C
330
86A
100
AcDbEntity
  8
画層3-寸法
  6
Continuous
100
AcDbMText
 10
13107.10144990554
 20
8298.019680479807
 30
0.0
 40
300.0
 41
0.0
 71
     5
 72
     1
  1
\A1;2,000
  7
1_100
 73
     1
 44
1.0
1001
ACAD
1000
MTEXTBEGIN
1070
    73
1070
     1
1070
    44
1040
1.0
1070
    74
1070
     0
1000
MTEXTEND
  0
POINT
  5
A2D
330
86A
100
AcDbEntity
  8
DEFPOINTS
  6
Continuous
 62
     0
100
AcDbPoint
 10
12107.10144990554
 20
10106.54228616595
 30
0.0
  0
POINT
  5
A2E
330
86A
100
AcDbEntity
  8
DEFPOINTS
  6
Continuous
 62
     0
100
AcDbPoint
 10
14107.10144990554
 20
10106.54228616595
 30
0.0
  0
POINT
  5
A2F
330
86A
100
AcDbEntity
  8
DEFPOINTS
  6
Continuous
 62
     0
100
AcDbPoint
 10
14107.10144990554
 20
8019.448251908377
 30
0.0
  0
ENDBLK
  5
875
330
86A
100
AcDbEntity
  8
0
100
AcDbBlockEnd
  0
BLOCK
  5
880
330
876
100
AcDbEntity
  8
0
100
AcDbBlockBegin
  2
*D11
 70
     1
 10
0.0
 20
0.0
 30
0.0
  3
*D11
  1

  0
LINE
  5
A30
330
876
100
AcDbEntity
  8
画層3-寸法
  6
Continuous
370
    -2
100
AcDbLine
 10
11782.10144990553
 20
12419.44825190826
 30
0.0
 11
11602.10144990554
 21
12419.44825190826
 31
0.0
  0
LINE
  5
A31
330
876
100
AcDbEntity
  8
画層3-寸法
  6
Continuous
370
    -2
100
AcDbLine
 10
11782.10144990553
 20
11969.44825190826
 30
0.0
 11
11602.10144990554
 21
11969.44825190826
 31
0.0
  0
LINE
  5
A32
330
876
100
AcDbEntity
  8
画層3-寸法
  6
Continuous
370
    -2
100
AcDbLine
 10
11602.10144990554
 20
12339.44825190826
 30
0.0
 11
11602.10144990554
 21
12049.44825190826
 31
0.0
  0
MTEXT
  5
A33
330
876
100
AcDbEntity
  8
画層3-寸法
  6
Continuous
100
AcDbMText
 10
11347.50277918634
 20
12054.82214513441
 30
0.0
 40
300.0
 41
0.0
 71
     5
 72
     1
  1
\A1;450
  7
1_100
 11
0.0000000000000001
 21
1.0
 31
0.0
 73
     1
 44
1.0
1001
ACAD
1000
MTEXTBEGIN
1070
    73
1070
     1
1070
    44
1040
1.0
1070
    74
1070
     0
1000
MTEXTEND
  0
INSERT
  5
A34
330
876
100
AcDbEntity
  8
画層3-寸法
  6
Continuous
370
    -2
100
AcDbBlockReference
  2
_ORIGIN
 10
11602.10144990554
 20
12419.44825190826
 30
0.0
 41
80.0
 42
80.0
 43
80.0
 50
90.0
  0
INSERT
  5
A35
330
876
100
AcDbEntity
  8
画層3-寸法
  6
Continuous
370
    -2
100
AcDbBlockReference
  2
_ORIGIN
 10
11602.10144990554
 20
11969.44825190826
 30
0.0
 41
80.0
 42
80.0
 43
80.0
 50
270.0
  0
POINT
  5
A36
330
876
100
AcDbEntity
  8
DEFPOINTS
  6
Continuous
 62
     0
100
AcDbPoint
 10
11982.10144990554
 20
12419.44825190826
 30
0.0
  0
POINT
  5
A37
330
876
100
AcDbEntity
  8
DEFPOINTS
  6
Continuous
 62
     0
100
AcDbPoint
 10
11982.10144990554
 20
11969.44825190826
 30
0.0
  0
POINT
  5
A38
330
876
100
AcDbEntity
  8
DEFPOINTS
  6
Continuous
 62
     0
100
AcDbPoint
 10
11602.10144990554
 20
11969.44825190826
 30
0.0
  0
ENDBLK
  5
881
330
876
100
AcDbEntity
  8
0
100
AcDbBlockEnd
  0
BLOCK
  5
88E
330
882
100
AcDbEntity
  8
0
100
AcDbBlockBegin
  2
*D12
 70
     1
 10
0.0
 20
0.0
 30
0.0
  3
*D12
  1

  0
LINE
  5
A39
330
882
100
AcDbEntity
  8
画層3-寸法
  6
Continuous
370
    -2
100
AcDbLine
 10
11982.10144990554
 20
11769.44825190826
 30
0.0
 11
11982.10144990554
 21
11589.44825190826
 31
0.0
  0
LINE
  5
A3A
330
882
100
AcDbEntity
  8
画層3-寸法
  6
Continuous
370
    -2
100
AcDbLine
 10
12232.10144990554
 20
11769.44825190826
 30
0.0
 11
12232.10144990554
 21
11589.44825190826
 31
0.0
  0
LINE
  5
A3B
330
882
100
AcDbEntity
  8
画層3-寸法
  6
Continuous
370
    -2
100
AcDbLine
 10
11902.10144990554
 20
11589.44825190826
 30
0.0
 11
11822.10144990553
 21
11589.44825190826
 31
0.0
  0
LINE
  5
A3C
330
882
100
AcDbEntity
  8
画層3-寸法
  6
Continuous
370
    -2
100
AcDbLine
 10
12312.10144990554
 20
11589.44825190826
 30
0.0
 11
12392.10144990554
 21
11589.44825190826
 31
0.0
  0
LINE
  5
A3D
330
882
100
AcDbEntity
  8
画層3-寸法
  6
Continuous
370
    -2
100
AcDbLine
 10
11982.10144990554
 20
11589.44825190826
 30
0.0
 11
12232.10144990554
 21
11589.44825190826
 31
0.0
  0
INSERT
  5
A3E
330
882
100
AcDbEntity
  8
画層3-寸法
  6
Continuous
370
    -2
100
AcDbBlockReference
  2
_ORIGIN
 10
11982.10144990554
 20
11589.44825190826
 30
0.0
 41
80.0
 42
80.0
 43
80.0
  0
INSERT
  5
A3F
330
882
100
AcDbEntity
  8
画層3-寸法
  6
Continuous
370
    -2
100
AcDbBlockReference
  2
_ORIGIN
 10
12232.10144990554
 20
11589.44825190826
 30
0.0
 41
80.0
 42
80.0
 43
80.0
 50
180.0
  0
MTEXT
  5
A40
330
882
100
AcDbEntity
  8
画層3-寸法
  6
Continuous
100
AcDbMText
 10
12107.10144990554
 20
11389.44825190826
 30
0.0
 40
300.0
 41
0.0
 71
     5
 72
     1
  1
\A1;□250
  7
1_100
 73
     1
 44
1.0
1001
ACAD
1000
MTEXTBEGIN
1070
    73
1070
     1
1070
    44
1040
1.0
1070
    74
1070
     0
1000
MTEXTEND
  0
POINT
  5
A41
330
882
100
AcDbEntity
  8
DEFPOINTS
  6
Continuous
 62
     0
100
AcDbPoint
 10
11982.10144990554
 20
11969.44825190826
 30
0.0
  0
POINT
  5
A42
330
882
100
AcDbEntity
  8
DEFPOINTS
  6
Continuous
 62
     0
100
AcDbPoint
 10
12232.10144990554
 20
11969.44825190826
 30
0.0
  0
POINT
  5
A43
330
882
100
AcDbEntity
  8
DEFPOINTS
  6
Continuous
 62
     0
100
AcDbPoint
 10
12232.10144990554
 20
11589.44825190826
 30
0.0
  0
ENDBLK
  5
88F
330
882
100
AcDbEntity
  8
0
100
AcDbBlockEnd
  0
BLOCK
  5
89A
330
890
100
AcDbEntity
  8
0
100
AcDbBlockBegin
  2
*D13
 70
     1
 10
0.0
 20
0.0
 30
0.0
  3
*D13
  1

  0
LINE
  5
A44
330
890
100
AcDbEntity
  8
寸法
  6
Continuous
370
    -2
100
AcDbLine
 10
7882.101449905538
 20
9919.448251908377
 30
0.0
 11
7882.101449905538
 21
9619.448251908378
 31
0.0
  0
LINE
  5
A45
330
890
100
AcDbEntity
  8
寸法
  6
Continuous
370
    -2
100
AcDbLine
 10
8332.101449905538
 20
9919.448251908377
 30
0.0
 11
8332.101449905538
 21
9619.448251908378
 31
0.0
  0
LINE
  5
A46
330
890
100
AcDbEntity
  8
寸法
  6
Continuous
370
    -2
100
AcDbLine
 10
7942.101449905542
 20
9619.448251908378
 30
0.0
 11
8272.101449905539
 21
9619.448251908378
 31
0.0
  0
MTEXT
  5
A47
330
890
100
AcDbEntity
  8
寸法
  6
Continuous
100
AcDbMText
 10
7305.711213711292
 20
9800.781913497218
 30
0.0
 40
300.0
 41
0.0
 71
     5
 72
     1
  1
\A1;φ450
  7
1_100
 73
     1
 44
1.0
1001
ACAD
1000
MTEXTBEGIN
1070
    73
1070
     1
1070
    44
1040
1.0
1070
    74
1070
     0
1000
MTEXTEND
  0
INSERT
  5
A48
330
890
100
AcDbEntity
  8
寸法
  6
Continuous
370
    -2
100
AcDbBlockReference
  2
_ORIGIN
 10
7882.101449905538
 20
9619.448251908378
 30
0.0
 41
60.0
 42
60.0
 43
60.0
 50
180.0
  0
INSERT
  5
A49
330
890
100
AcDbEntity
  8
寸法
  6
Continuous
370
    -2
100
AcDbBlockReference
  2
_ORIGIN
 10
8332.101449905538
 20
9619.448251908378
 30
0.0
 41
60.0
 42
60.0
 43
60.0
  0
POINT
  5
A4A
330
890
100
AcDbEntity
  8
DEFPOINTS
  6
Continuous
 62
     0
100
AcDbPoint
 10
7882.101449905538
 20
10219.44825190838
 30
0.0
  0
POINT
  5
A4B
330
890
100
AcDbEntity
  8
DEFPOINTS
  6
Continuous
 62
     0
100
AcDbPoint
 10
8332.101449905538
 20
10219.44825190838
 30
0.0
  0
POINT
  5
A4C
330
890
100
AcDbEntity
  8
DEFPOINTS
  6
Continuous
 62
     0
100
AcDbPoint
 10
8332.101449905538
 20
9619.448251908378
 30
0.0
  0
ENDBLK
  5
89B
330
890
100
AcDbEntity
  8
0
100
AcDbBlockEnd
  0
BLOCK
  5
8A8
330
89C
100
AcDbEntity
  8
0
100
AcDbBlockBegin
  2
*D14
 70
     1
 10
0.0
 20
0.0
 30
0.0
  3
*D14
  1

  0
LINE
  5
A4D
330
89C
100
AcDbEntity
  8
寸法
  6
Continuous
370
    -2
100
AcDbLine
 10
7857.101449905538
 20
9919.448251908377
 30
0.0
 11
7857.101449905538
 21
9219.448251908261
 31
0.0
  0
LINE
  5
A4E
330
89C
100
AcDbEntity
  8
寸法
  6
Continuous
370
    -2
100
AcDbLine
 10
8357.101449905538
 20
9919.448251908377
 30
0.0
 11
8357.101449905538
 21
9219.448251908261
 31
0.0
  0
LINE
  5
A4F
330
89C
100
AcDbEntity
  8
寸法
  6
Continuous
370
    -2
100
AcDbLine
 10
7797.101449905539
 20
9219.448251908261
 30
0.0
 11
7737.101449905537
 21
9219.448251908261
 31
0.0
  0
LINE
  5
A50
330
89C
100
AcDbEntity
  8
寸法
  6
Continuous
370
    -2
100
AcDbLine
 10
8417.10144990554
 20
9219.448251908261
 30
0.0
 11
8477.101449905537
 21
9219.448251908261
 31
0.0
  0
LINE
  5
A51
330
89C
100
AcDbEntity
  8
寸法
  6
Continuous
370
    -2
100
AcDbLine
 10
7857.101449905538
 20
9219.448251908261
 30
0.0
 11
8357.101449905538
 21
9219.448251908261
 31
0.0
  0
INSERT
  5
A52
330
89C
100
AcDbEntity
  8
寸法
  6
Continuous
370
    -2
100
AcDbBlockReference
  2
_ORIGIN
 10
7857.101449905538
 20
9219.448251908261
 30
0.0
 41
60.0
 42
60.0
 43
60.0
  0
INSERT
  5
A53
330
89C
100
AcDbEntity
  8
寸法
  6
Continuous
370
    -2
100
AcDbBlockReference
  2
_ORIGIN
 10
8357.101449905538
 20
9219.448251908261
 30
0.0
 41
60.0
 42
60.0
 43
60.0
 50
180.0
  0
MTEXT
  5
A54
330
89C
100
AcDbEntity
  8
寸法
  6
Continuous
100
AcDbMText
 10
8107.101449905538
 20
8969.448251908261
 30
0.0
 40
300.0
 41
0.0
 71
     5
 72
     1
  1
\A1;□500
  7
1_100
 73
     1
 44
1.0
1001
ACAD
1000
MTEXTBEGIN
1070
    73
1070
     1
1070
    44
1040
1.0
1070
    74
1070
     0
1000
MTEXTEND
  0
POINT
  5
A55
330
89C
100
AcDbEntity
  8
DEFPOINTS
  6
Continuous
 62
     0
100
AcDbPoint
 10
7857.101449905538
 20
10219.44825190838
 30
0.0
  0
POINT
  5
A56
330
89C
100
AcDbEntity
  8
DEFPOINTS
  6
Continuous
 62
     0
100
AcDbPoint
 10
8357.101449905538
 20
10219.44825190838
 30
0.0
  0
POINT
  5
A57
330
89C
100
AcDbEntity
  8
DEFPOINTS
  6
Continuous
 62
     0
100
AcDbPoint
 10
8357.101449905538
 20
9219.448251908261
 30
0.0
  0
ENDBLK
  5
8A9
330
89C
100
AcDbEntity
  8
0
100
AcDbBlockEnd
  0
BLOCK
  5
8B4
330
8AA
100
AcDbEntity
  8
0
100
AcDbBlockBegin
  2
*D15
 70
     1
 10
0.0
 20
0.0
 30
0.0
  3
*D15
  1

  0
LINE
  5
A58
330
8AA
100
AcDbEntity
  8
画層3-寸法
  6
Continuous
370
    -2
100
AcDbLine
 10
10107.10144990554
 20
9806.542286165957
 30
0.0
 11
10107.10144990554
 21
8019.448251908377
 31
0.0
  0
LINE
  5
A59
330
8AA
100
AcDbEntity
  8
画層3-寸法
  6
Continuous
370
    -2
100
AcDbLine
 10
12107.10144990554
 20
9806.542286165957
 30
0.0
 11
12107.10144990554
 21
8019.448251908377
 31
0.0
  0
LINE
  5
A5A
330
8AA
100
AcDbEntity
  8
画層3-寸法
  6
Continuous
370
    -2
100
AcDbLine
 10
10167.10144990554
 20
8019.448251908377
 30
0.0
 11
12047.10144990554
 21
8019.448251908377
 31
0.0
  0
INSERT
  5
A5B
330
8AA
100
AcDbEntity
  8
画層3-寸法
  6
Continuous
370
    -2
100
AcDbBlockReference
  2
_ORIGIN
 10
10107.10144990554
 20
8019.448251908377
 30
0.0
 41
60.0
 42
60.0
 43
60.0
 50
180.0
  0
INSERT
  5
A5C
330
8AA
100
AcDbEntity
  8
画層3-寸法
  6
Continuous
370
    -2
100
AcDbBlockReference
  2
_ORIGIN
 10
12107.10144990554
 20
8019.448251908377
 30
0.0
 41
60.0
 42
60.0
 43
60.0
  0
MTEXT
  5
A5D
330
8AA
100
AcDbEntity
  8
画層3-寸法
  6
Continuous
100
AcDbMText
 10
11107.10144990554
 20
8298.019680479807
 30
0.0
 40
300.0
 41
0.0
 71
     5
 72
     1
  1
\A1;2,000
  7
1_100
 73
     1
 44
1.0
1001
ACAD
1000
MTEXTBEGIN
1070
    73
1070
     1
1070
    44
1040
1.0
1070
    74
1070
     0
1000
MTEXTEND
  0
POINT
  5
A5E
330
8AA
100
AcDbEntity
  8
DEFPOINTS
  6
Continuous
 62
     0
100
AcDbPoint
 10
10107.10144990554
 20
10106.54228616595
 30
0.0
  0
POINT
  5
A5F
330
8AA
100
AcDbEntity
  8
DEFPOINTS
  6
Continuous
 62
     0
100
AcDbPoint
 10
12107.10144990554
 20
10106.54228616595
 30
0.0
  0
POINT
  5
A60
330
8AA
100
AcDbEntity
  8
DEFPOINTS
  6
Continuous
 62
     0
100
AcDbPoint
 10
12107.10144990554
 20
8019.448251908377
 30
0.0
  0
ENDBLK
  5
8B5
330
8AA
100
AcDbEntity
  8
0
100
AcDbBlockEnd
  0
BLOCK
  5
8C0
330
8B6
100
AcDbEntity
  8
0
100
AcDbBlockBegin
  2
*D16
 70
     1
 10
0.0
 20
0.0
 30
0.0
  3
*D16
  1

  0
LINE
  5
A61
330
8B6
100
AcDbEntity
  8
画層3-寸法
  6
Continuous
370
    -2
100
AcDbLine
 10
8107.101449905538
 20
8644.448251908377
 30
0.0
 11
8107.101449905538
 21
8019.448251908377
 31
0.0
  0
LINE
  5
A62
330
8B6
100
AcDbEntity
  8
画層3-寸法
  6
Continuous
370
    -2
100
AcDbLine
 10
10107.10144990554
 20
9806.542286165957
 30
0.0
 11
10107.10144990554
 21
8019.448251908377
 31
0.0
  0
LINE
  5
A63
330
8B6
100
AcDbEntity
  8
画層3-寸法
  6
Continuous
370
    -2
100
AcDbLine
 10
8167.101449905542
 20
8019.448251908377
 30
0.0
 11
10047.10144990553
 21
8019.448251908377
 31
0.0
  0
INSERT
  5
A64
330
8B6
100
AcDbEntity
  8
画層3-寸法
  6
Continuous
370
    -2
100
AcDbBlockReference
  2
_ORIGIN
 10
8107.101449905538
 20
8019.448251908377
 30
0.0
 41
60.0
 42
60.0
 43
60.0
 50
180.0
  0
INSERT
  5
A65
330
8B6
100
AcDbEntity
  8
画層3-寸法
  6
Continuous
370
    -2
100
AcDbBlockReference
  2
_ORIGIN
 10
10107.10144990554
 20
8019.448251908377
 30
0.0
 41
60.0
 42
60.0
 43
60.0
  0
MTEXT
  5
A66
330
8B6
100
AcDbEntity
  8
画層3-寸法
  6
Continuous
100
AcDbMText
 10
9107.101449905538
 20
8298.019680479807
 30
0.0
 40
300.0
 41
0.0
 71
     5
 72
     1
  1
\A1;2,000
  7
1_100
 73
     1
 44
1.0
1001
ACAD
1000
MTEXTBEGIN
1070
    73
1070
     1
1070
    44
1040
1.0
1070
    74
1070
     0
1000
MTEXTEND
  0
POINT
  5
A67
330
8B6
100
AcDbEntity
  8
DEFPOINTS
  6
Continuous
 62
     0
100
AcDbPoint
 10
8107.101449905538
 20
8944.448251908378
 30
0.0
  0
POINT
  5
A68
330
8B6
100
AcDbEntity
  8
DEFPOINTS
  6
Continuous
 62
     0
100
AcDbPoint
 10
10107.10144990554
 20
10106.54228616595
 30
0.0
  0
POINT
  5
A69
330
8B6
100
AcDbEntity
  8
DEFPOINTS
  6
Continuous
 62
     0
100
AcDbPoint
 10
10107.10144990554
 20
8019.448251908377
 30
0.0
  0
ENDBLK
  5
8C1
330
8B6
100
AcDbEntity
  8
0
100
AcDbBlockEnd
  0
BLOCK
  5
8CE
330
8C2
100
AcDbEntity
  8
0
100
AcDbBlockBegin
  2
*D17
 70
     1
 10
0.0
 20
0.0
 30
0.0
  3
*D17
  1

  0
LINE
  5
A6A
330
8C2
100
AcDbEntity
  8
寸法
  6
Continuous
370
    -2
100
AcDbLine
 10
26307.10144990554
 20
12119.44825190838
 30
0.0
 11
27007.10144990554
 21
12119.44825190838
 31
0.0
  0
LINE
  5
A6B
330
8C2
100
AcDbEntity
  8
寸法
  6
Continuous
370
    -2
100
AcDbLine
 10
26307.10144990554
 20
12419.44825190838
 30
0.0
 11
27007.10144990554
 21
12419.44825190838
 31
0.0
  0
LINE
  5
A6C
330
8C2
100
AcDbEntity
  8
寸法
  6
Continuous
370
    -2
100
AcDbLine
 10
27007.10144990554
 20
12059.44825190838
 30
0.0
 11
27007.10144990554
 21
11999.44825190837
 31
0.0
  0
LINE
  5
A6D
330
8C2
100
AcDbEntity
  8
寸法
  6
Continuous
370
    -2
100
AcDbLine
 10
27007.10144990554
 20
12479.44825190838
 30
0.0
 11
27007.10144990554
 21
12539.44825190838
 31
0.0
  0
MTEXT
  5
A6E
330
8C2
100
AcDbEntity
  8
寸法
  6
Continuous
100
AcDbMText
 10
27269.90366232546
 20
12038.1463158887
 30
0.0
 40
300.0
 41
0.0
 71
     5
 72
     1
  1
\A1;300
  7
1_100
 11
0.0000000000000001
 21
1.0
 31
0.0
 73
     1
 44
1.0
1001
ACAD
1000
MTEXTBEGIN
1070
    73
1070
     1
1070
    44
1040
1.0
1070
    74
1070
     0
1000
MTEXTEND
  0
LINE
  5
A6F
330
8C2
100
AcDbEntity
  8
寸法
  6
Continuous
370
    -2
100
AcDbLine
 10
27007.10144990554
 20
12119.44825190838
 30
0.0
 11
27007.10144990554
 21
12419.44825190838
 31
0.0
  0
INSERT
  5
A70
330
8C2
100
AcDbEntity
  8
寸法
  6
Continuous
370
    -2
100
AcDbBlockReference
  2
_ORIGIN
 10
27007.10144990554
 20
12119.44825190838
 30
0.0
 41
60.0
 42
60.0
 43
60.0
 50
90.0
  0
INSERT
  5
A71
330
8C2
100
AcDbEntity
  8
寸法
  6
Continuous
370
    -2
100
AcDbBlockReference
  2
_ORIGIN
 10
27007.10144990554
 20
12419.44825190838
 30
0.0
 41
60.0
 42
60.0
 43
60.0
 50
270.0
  0
POINT
  5
A72
330
8C2
100
AcDbEntity
  8
DEFPOINTS
  6
Continuous
 62
     0
100
AcDbPoint
 10
26007.10144990554
 20
12119.44825190838
 30
0.0
  0
POINT
  5
A73
330
8C2
100
AcDbEntity
  8
DEFPOINTS
  6
Continuous
 62
     0
100
AcDbPoint
 10
26007.10144990554
 20
12419.44825190838
 30
0.0
  0
POINT
  5
A74
330
8C2
100
AcDbEntity
  8
DEFPOINTS
  6
Continuous
 62
     0
100
AcDbPoint
 10
27007.10144990554
 20
12419.44825190838
 30
0.0
  0
ENDBLK
  5
8CF
330
8C2
100
AcDbEntity
  8
0
100
AcDbBlockEnd
  0
BLOCK
  5
8DA
330
8D0
100
AcDbEntity
  8
0
100
AcDbBlockBegin
  2
*D18
 70
     1
 10
0.0
 20
0.0
 30
0.0
  3
*D18
  1

  0
LINE
  5
A75
330
8D0
100
AcDbEntity
  8
寸法
  6
Continuous
370
    -2
100
AcDbLine
 10
26307.10144990554
 20
12419.44825190838
 30
0.0
 11
27007.10144990554
 21
12419.44825190838
 31
0.0
  0
LINE
  5
A76
330
8D0
100
AcDbEntity
  8
寸法
  6
Continuous
370
    -2
100
AcDbLine
 10
26307.10144990554
 20
14419.44825184656
 30
0.0
 11
27007.10144990554
 21
14419.44825184656
 31
0.0
  0
LINE
  5
A77
330
8D0
100
AcDbEntity
  8
寸法
  6
Continuous
370
    -2
100
AcDbLine
 10
27007.10144990554
 20
12479.44825190838
 30
0.0
 11
27007.10144990554
 21
14359.44825184656
 31
0.0
  0
INSERT
  5
A78
330
8D0
100
AcDbEntity
  8
寸法
  6
Continuous
370
    -2
100
AcDbBlockReference
  2
_ORIGIN
 10
27007.10144990554
 20
12419.44825190838
 30
0.0
 41
60.0
 42
60.0
 43
60.0
 50
270.0
  0
INSERT
  5
A79
330
8D0
100
AcDbEntity
  8
寸法
  6
Continuous
370
    -2
100
AcDbBlockReference
  2
_ORIGIN
 10
27007.10144990554
 20
14419.44825184656
 30
0.0
 41
60.0
 42
60.0
 43
60.0
 50
90.0
  0
MTEXT
  5
A7A
330
8D0
100
AcDbEntity
  8
寸法
  6
Continuous
100
AcDbMText
 10
26728.53002133411
 20
13419.44825187747
 30
0.0
 40
300.0
 41
0.0
 71
     5
 72
     1
  1
\A1;2,000
  7
1_100
 11
0.0000000000000001
 21
1.0
 31
0.0
 73
     1
 44
1.0
1001
ACAD
1000
MTEXTBEGIN
1070
    73
1070
     1
1070
    44
1040
1.0
1070
    74
1070
     0
1000
MTEXTEND
  0
POINT
  5
A7B
330
8D0
100
AcDbEntity
  8
DEFPOINTS
  6
Continuous
 62
     0
100
AcDbPoint
 10
26007.10144990554
 20
12419.44825190838
 30
0.0
  0
POINT
  5
A7C
330
8D0
100
AcDbEntity
  8
DEFPOINTS
  6
Continuous
 62
     0
100
AcDbPoint
 10
26007.10144990554
 20
14419.44825184656
 30
0.0
  0
POINT
  5
A7D
330
8D0
100
AcDbEntity
  8
DEFPOINTS
  6
Continuous
 62
     0
100
AcDbPoint
 10
27007.10144990554
 20
14419.44825184656
 30
0.0
  0
ENDBLK
  5
8DB
330
8D0
100
AcDbEntity
  8
0
100
AcDbBlockEnd
  0
BLOCK
  5
8E6
330
8DC
100
AcDbEntity
  8
0
100
AcDbBlockBegin
  2
*D19
 70
     1
 10
0.0
 20
0.0
 30
0.0
  3
*D19
  1

  0
LINE
  5
A7E
330
8DC
100
AcDbEntity
  8
寸法
  6
Continuous
370
    -2
100
AcDbLine
 10
26307.10144990554
 20
12419.44825190838
 30
0.0
 11
28007.10144990554
 21
12419.44825190838
 31
0.0
  0
LINE
  5
A7F
330
8DC
100
AcDbEntity
  8
寸法
  6
Continuous
370
    -2
100
AcDbLine
 10
26307.10144990554
 20
10319.44825190838
 30
0.0
 11
28007.10144990554
 21
10319.44825190838
 31
0.0
  0
LINE
  5
A80
330
8DC
100
AcDbEntity
  8
寸法
  6
Continuous
370
    -2
100
AcDbLine
 10
28007.10144990554
 20
12359.44825190838
 30
0.0
 11
28007.10144990554
 21
10379.44825190838
 31
0.0
  0
INSERT
  5
A81
330
8DC
100
AcDbEntity
  8
寸法
  6
Continuous
370
    -2
100
AcDbBlockReference
  2
_ORIGIN
 10
28007.10144990554
 20
12419.44825190838
 30
0.0
 41
60.0
 42
60.0
 43
60.0
 50
90.0
  0
INSERT
  5
A82
330
8DC
100
AcDbEntity
  8
寸法
  6
Continuous
370
    -2
100
AcDbBlockReference
  2
_ORIGIN
 10
28007.10144990554
 20
10319.44825190838
 30
0.0
 41
60.0
 42
60.0
 43
60.0
 50
270.0
  0
MTEXT
  5
A83
330
8DC
100
AcDbEntity
  8
寸法
  6
Continuous
100
AcDbMText
 10
27728.53002133411
 20
11369.44825190838
 30
0.0
 40
300.0
 41
0.0
 71
     5
 72
     1
  1
\A1;2,100
  7
1_100
 11
0.0000000000000001
 21
1.0
 31
0.0
 73
     1
 44
1.0
1001
ACAD
1000
MTEXTBEGIN
1070
    73
1070
     1
1070
    44
1040
1.0
1070
    74
1070
     0
1000
MTEXTEND
  0
POINT
  5
A84
330
8DC
100
AcDbEntity
  8
DEFPOINTS
  6
Continuous
 62
     0
100
AcDbPoint
 10
26007.10144990554
 20
12419.44825190838
 30
0.0
  0
POINT
  5
A85
330
8DC
100
AcDbEntity
  8
DEFPOINTS
  6
Continuous
 62
     0
100
AcDbPoint
 10
26007.10144990554
 20
10319.44825190838
 30
0.0
  0
POINT
  5
A86
330
8DC
100
AcDbEntity
  8
DEFPOINTS
  6
Continuous
 62
     0
100
AcDbPoint
 10
28007.10144990554
 20
10319.44825190838
 30
0.0
  0
ENDBLK
  5
8E7
330
8DC
100
AcDbEntity
  8
0
100
AcDbBlockEnd
  0
BLOCK
  5
8F2
330
8E8
100
AcDbEntity
  8
0
100
AcDbBlockBegin
  2
*D20
 70
     1
 10
0.0
 20
0.0
 30
0.0
  3
*D20
  1

  0
LINE
  5
A87
330
8E8
100
AcDbEntity
  8
寸法
  6
Continuous
370
    -2
100
AcDbLine
 10
26307.10144990554
 20
10319.44825190838
 30
0.0
 11
27007.10144990554
 21
10319.44825190838
 31
0.0
  0
LINE
  5
A88
330
8E8
100
AcDbEntity
  8
寸法
  6
Continuous
370
    -2
100
AcDbLine
 10
26307.10144990554
 20
12119.44825190838
 30
0.0
 11
27007.10144990554
 21
12119.44825190838
 31
0.0
  0
LINE
  5
A89
330
8E8
100
AcDbEntity
  8
寸法
  6
Continuous
370
    -2
100
AcDbLine
 10
27007.10144990554
 20
10379.44825190838
 30
0.0
 11
27007.10144990554
 21
12059.44825190838
 31
0.0
  0
INSERT
  5
A8A
330
8E8
100
AcDbEntity
  8
寸法
  6
Continuous
370
    -2
100
AcDbBlockReference
  2
_ORIGIN
 10
27007.10144990554
 20
10319.44825190838
 30
0.0
 41
60.0
 42
60.0
 43
60.0
 50
270.0
  0
INSERT
  5
A8B
330
8E8
100
AcDbEntity
  8
寸法
  6
Continuous
370
    -2
100
AcDbBlockReference
  2
_ORIGIN
 10
27007.10144990554
 20
12119.44825190838
 30
0.0
 41
60.0
 42
60.0
 43
60.0
 50
90.0
  0
MTEXT
  5
A8C
330
8E8
100
AcDbEntity
  8
寸法
  6
Continuous
100
AcDbMText
 10
26728.53002133411
 20
11219.44825190838
 30
0.0
 40
300.0
 41
0.0
 71
     5
 72
     1
  1
\A1;1,800
  7
1_100
 11
0.0000000000000001
 21
1.0
 31
0.0
 73
     1
 44
1.0
1001
ACAD
1000
MTEXTBEGIN
1070
    73
1070
     1
1070
    44
1040
1.0
1070
    74
1070
     0
1000
MTEXTEND
  0
POINT
  5
A8D
330
8E8
100
AcDbEntity
  8
DEFPOINTS
  6
Continuous
 62
     0
100
AcDbPoint
 10
26007.10144990554
 20
10319.44825190838
 30
0.0
  0
POINT
  5
A8E
330
8E8
100
AcDbEntity
  8
DEFPOINTS
  6
Continuous
 62
     0
100
AcDbPoint
 10
26007.10144990554
 20
12119.44825190838
 30
0.0
  0
POINT
  5
A8F
330
8E8
100
AcDbEntity
  8
DEFPOINTS
  6
Continuous
 62
     0
100
AcDbPoint
 10
27007.10144990554
 20
12119.44825190838
 30
0.0
  0
ENDBLK
  5
8F3
330
8E8
100
AcDbEntity
  8
0
100
AcDbBlockEnd
  0
BLOCK
  5
900
330
8F4
100
AcDbEntity
  8
0
100
AcDbBlockBegin
  2
*D21
 70
     1
 10
0.0
 20
0.0
 30
0.0
  3
*D21
  1

  0
LINE
  5
A90
330
8F4
100
AcDbEntity
  8
寸法
  6
Continuous
370
    -2
100
AcDbLine
 10
26307.10144990554
 20
10219.44825190838
 30
0.0
 11
27007.10144990554
 21
10219.44825190838
 31
0.0
  0
LINE
  5
A91
330
8F4
100
AcDbEntity
  8
寸法
  6
Continuous
370
    -2
100
AcDbLine
 10
26307.10144990554
 20
10319.44825190838
 30
0.0
 11
27007.10144990554
 21
10319.44825190838
 31
0.0
  0
LINE
  5
A92
330
8F4
100
AcDbEntity
  8
寸法
  6
Continuous
370
    -2
100
AcDbLine
 10
27007.10144990554
 20
10159.44825190838
 30
0.0
 11
27007.10144990554
 21
10099.44825190838
 31
0.0
  0
LINE
  5
A93
330
8F4
100
AcDbEntity
  8
寸法
  6
Continuous
370
    -2
100
AcDbLine
 10
27007.10144990554
 20
10379.44825190838
 30
0.0
 11
27007.10144990554
 21
10439.44825190838
 31
0.0
  0
MTEXT
  5
A94
330
8F4
100
AcDbEntity
  8
寸法
  6
Continuous
100
AcDbMText
 10
26720.14120940782
 20
9857.402099226801
 30
0.0
 40
300.0
 41
0.0
 71
     5
 72
     1
  1
\A1;100
  7
1_100
 11
0.0000000000000001
 21
1.0
 31
0.0
 73
     1
 44
1.0
1001
ACAD
1000
MTEXTBEGIN
1070
    73
1070
     1
1070
    44
1040
1.0
1070
    74
1070
     0
1000
MTEXTEND
  0
LINE
  5
A95
330
8F4
100
AcDbEntity
  8
寸法
  6
Continuous
370
    -2
100
AcDbLine
 10
27007.10144990554
 20
10219.44825190838
 30
0.0
 11
27007.10144990554
 21
10319.44825190838
 31
0.0
  0
INSERT
  5
A96
330
8F4
100
AcDbEntity
  8
寸法
  6
Continuous
370
    -2
100
AcDbBlockReference
  2
_ORIGIN
 10
27007.10144990554
 20
10219.44825190838
 30
0.0
 41
60.0
 42
60.0
 43
60.0
 50
90.0
  0
INSERT
  5
A97
330
8F4
100
AcDbEntity
  8
寸法
  6
Continuous
370
    -2
100
AcDbBlockReference
  2
_ORIGIN
 10
27007.10144990554
 20
10319.44825190838
 30
0.0
 41
60.0
 42
60.0
 43
60.0
 50
270.0
  0
POINT
  5
A98
330
8F4
100
AcDbEntity
  8
DEFPOINTS
  6
Continuous
 62
     0
100
AcDbPoint
 10
26007.10144990554
 20
10219.44825190838
 30
0.0
  0
POINT
  5
A99
330
8F4
100
AcDbEntity
  8
DEFPOINTS
  6
Continuous
 62
     0
100
AcDbPoint
 10
26007.10144990554
 20
10319.44825190838
 30
0.0
  0
POINT
  5
A9A
330
8F4
100
AcDbEntity
  8
DEFPOINTS
  6
Continuous
 62
     0
100
AcDbPoint
 10
27007.10144990554
 20
10319.44825190838
 30
0.0
  0
ENDBLK
  5
901
330
8F4
100
AcDbEntity
  8
0
100
AcDbBlockEnd
  0
BLOCK
  5
90C
330
902
100
AcDbEntity
  8
0
100
AcDbBlockBegin
  2
*D22
 70
     1
 10
0.0
 20
0.0
 30
0.0
  3
*D22
  1

  0
LINE
  5
A9B
330
902
100
AcDbEntity
  8
画層3-寸法
  6
Continuous
370
    -2
100
AcDbLine
 10
20107.10144990554
 20
9806.542286165957
 30
0.0
 11
20107.10144990554
 21
8019.448251908377
 31
0.0
  0
LINE
  5
A9C
330
902
100
AcDbEntity
  8
画層3-寸法
  6
Continuous
370
    -2
100
AcDbLine
 10
22107.10144990554
 20
9829.448251908262
 30
0.0
 11
22107.10144990554
 21
8019.448251908377
 31
0.0
  0
LINE
  5
A9D
330
902
100
AcDbEntity
  8
画層3-寸法
  6
Continuous
370
    -2
100
AcDbLine
 10
20167.10144990554
 20
8019.448251908377
 30
0.0
 11
22047.10144990554
 21
8019.448251908377
 31
0.0
  0
INSERT
  5
A9E
330
902
100
AcDbEntity
  8
画層3-寸法
  6
Continuous
370
    -2
100
AcDbBlockReference
  2
_ORIGIN
 10
20107.10144990554
 20
8019.448251908377
 30
0.0
 41
60.0
 42
60.0
 43
60.0
 50
180.0
  0
INSERT
  5
A9F
330
902
100
AcDbEntity
  8
画層3-寸法
  6
Continuous
370
    -2
100
AcDbBlockReference
  2
_ORIGIN
 10
22107.10144990554
 20
8019.448251908377
 30
0.0
 41
60.0
 42
60.0
 43
60.0
  0
MTEXT
  5
AA0
330
902
100
AcDbEntity
  8
画層3-寸法
  6
Continuous
100
AcDbMText
 10
21107.10144990554
 20
8298.019680479807
 30
0.0
 40
300.0
 41
0.0
 71
     5
 72
     1
  1
\A1;2,000
  7
1_100
 73
     1
 44
1.0
1001
ACAD
1000
MTEXTBEGIN
1070
    73
1070
     1
1070
    44
1040
1.0
1070
    74
1070
     0
1000
MTEXTEND
  0
POINT
  5
AA1
330
902
100
AcDbEntity
  8
DEFPOINTS
  6
Continuous
 62
     0
100
AcDbPoint
 10
20107.10144990554
 20
10106.54228616595
 30
0.0
  0
POINT
  5
AA2
330
902
100
AcDbEntity
  8
DEFPOINTS
  6
Continuous
 62
     0
100
AcDbPoint
 10
22107.10144990554
 20
10129.44825190826
 30
0.0
  0
POINT
  5
AA3
330
902
100
AcDbEntity
  8
DEFPOINTS
  6
Continuous
 62
     0
100
AcDbPoint
 10
22107.10144990554
 20
8019.448251908377
 30
0.0
  0
ENDBLK
  5
90D
330
902
100
AcDbEntity
  8
0
100
AcDbBlockEnd
  0
BLOCK
  5
918
330
90E
100
AcDbEntity
  8
0
100
AcDbBlockBegin
  2
*D23
 70
     1
 10
0.0
 20
0.0
 30
0.0
  3
*D23
  1

  0
LINE
  5
AA4
330
90E
100
AcDbEntity
  8
画層3-寸法
  6
Continuous
370
    -2
100
AcDbLine
 10
18107.10144990554
 20
9806.542286165957
 30
0.0
 11
18107.10144990554
 21
8019.448251908377
 31
0.0
  0
LINE
  5
AA5
330
90E
100
AcDbEntity
  8
画層3-寸法
  6
Continuous
370
    -2
100
AcDbLine
 10
20107.10144990554
 20
9829.448251908262
 30
0.0
 11
20107.10144990554
 21
8019.448251908377
 31
0.0
  0
LINE
  5
AA6
330
90E
100
AcDbEntity
  8
画層3-寸法
  6
Continuous
370
    -2
100
AcDbLine
 10
18167.10144990554
 20
8019.448251908377
 30
0.0
 11
20047.10144990554
 21
8019.448251908377
 31
0.0
  0
INSERT
  5
AA7
330
90E
100
AcDbEntity
  8
画層3-寸法
  6
Continuous
370
    -2
100
AcDbBlockReference
  2
_ORIGIN
 10
18107.10144990554
 20
8019.448251908377
 30
0.0
 41
60.0
 42
60.0
 43
60.0
 50
180.0
  0
INSERT
  5
AA8
330
90E
100
AcDbEntity
  8
画層3-寸法
  6
Continuous
370
    -2
100
AcDbBlockReference
  2
_ORIGIN
 10
20107.10144990554
 20
8019.448251908377
 30
0.0
 41
60.0
 42
60.0
 43
60.0
  0
MTEXT
  5
AA9
330
90E
100
AcDbEntity
  8
画層3-寸法
  6
Continuous
100
AcDbMText
 10
19107.10144990554
 20
8298.019680479807
 30
0.0
 40
300.0
 41
0.0
 71
     5
 72
     1
  1
\A1;2,000
  7
1_100
 73
     1
 44
1.0
1001
ACAD
1000
MTEXTBEGIN
1070
    73
1070
     1
1070
    44
1040
1.0
1070
    74
1070
     0
1000
MTEXTEND
  0
POINT
  5
AAA
330
90E
100
AcDbEntity
  8
DEFPOINTS
  6
Continuous
 62
     0
100
AcDbPoint
 10
18107.10144990554
 20
10106.54228616595
 30
0.0
  0
POINT
  5
AAB
330
90E
100
AcDbEntity
  8
DEFPOINTS
  6
Continuous
 62
     0
100
AcDbPoint
 10
20107.10144990554
 20
10129.44825190826
 30
0.0
  0
POINT
  5
AAC
330
90E
100
AcDbEntity
  8
DEFPOINTS
  6
Continuous
 62
     0
100
AcDbPoint
 10
20107.10144990554
 20
8019.448251908377
 30
0.0
  0
ENDBLK
  5
919
330
90E
100
AcDbEntity
  8
0
100
AcDbBlockEnd
  0
BLOCK
  5
924
330
91A
100
AcDbEntity
  8
0
100
AcDbBlockBegin
  2
*D24
 70
     1
 10
0.0
 20
0.0
 30
0.0
  3
*D24
  1

  0
LINE
  5
AAD
330
91A
100
AcDbEntity
  8
画層3-寸法
  6
Continuous
370
    -2
100
AcDbLine
 10
22107.10144990554
 20
9806.542286165957
 30
0.0
 11
22107.10144990554
 21
8019.448251908377
 31
0.0
  0
LINE
  5
AAE
330
91A
100
AcDbEntity
  8
画層3-寸法
  6
Continuous
370
    -2
100
AcDbLine
 10
24107.10144990554
 20
9829.448251908262
 30
0.0
 11
24107.10144990554
 21
8019.448251908377
 31
0.0
  0
LINE
  5
AAF
330
91A
100
AcDbEntity
  8
画層3-寸法
  6
Continuous
370
    -2
100
AcDbLine
 10
22167.10144990554
 20
8019.448251908377
 30
0.0
 11
24047.10144990554
 21
8019.448251908377
 31
0.0
  0
INSERT
  5
AB0
330
91A
100
AcDbEntity
  8
画層3-寸法
  6
Continuous
370
    -2
100
AcDbBlockReference
  2
_ORIGIN
 10
22107.10144990554
 20
8019.448251908377
 30
0.0
 41
60.0
 42
60.0
 43
60.0
 50
180.0
  0
INSERT
  5
AB1
330
91A
100
AcDbEntity
  8
画層3-寸法
  6
Continuous
370
    -2
100
AcDbBlockReference
  2
_ORIGIN
 10
24107.10144990554
 20
8019.448251908377
 30
0.0
 41
60.0
 42
60.0
 43
60.0
  0
MTEXT
  5
AB2
330
91A
100
AcDbEntity
  8
画層3-寸法
  6
Continuous
100
AcDbMText
 10
23107.10144990554
 20
8298.019680479807
 30
0.0
 40
300.0
 41
0.0
 71
     5
 72
     1
  1
\A1;2,000
  7
1_100
 73
     1
 44
1.0
1001
ACAD
1000
MTEXTBEGIN
1070
    73
1070
     1
1070
    44
1040
1.0
1070
    74
1070
     0
1000
MTEXTEND
  0
POINT
  5
AB3
330
91A
100
AcDbEntity
  8
DEFPOINTS
  6
Continuous
 62
     0
100
AcDbPoint
 10
22107.10144990554
 20
10106.54228616595
 30
0.0
  0
POINT
  5
AB4
330
91A
100
AcDbEntity
  8
DEFPOINTS
  6
Continuous
 62
     0
100
AcDbPoint
 10
24107.10144990554
 20
10129.44825190826
 30
0.0
  0
POINT
  5
AB5
330
91A
100
AcDbEntity
  8
DEFPOINTS
  6
Continuous
 62
     0
100
AcDbPoint
 10
24107.10144990554
 20
8019.448251908377
 30
0.0
  0
ENDBLK
  5
925
330
91A
100
AcDbEntity
  8
0
100
AcDbBlockEnd
  0
BLOCK
  5
930
330
926
100
AcDbEntity
  8
0
100
AcDbBlockBegin
  2
*D25
 70
     1
 10
0.0
 20
0.0
 30
0.0
  3
*D25
  1

  0
LINE
  5
AB6
330
926
100
AcDbEntity
  8
画層3-寸法
  6
Continuous
370
    -2
100
AcDbLine
 10
16107.10144990554
 20
9806.542286165957
 30
0.0
 11
16107.10144990554
 21
8019.448251908377
 31
0.0
  0
LINE
  5
AB7
330
926
100
AcDbEntity
  8
画層3-寸法
  6
Continuous
370
    -2
100
AcDbLine
 10
18107.10144990554
 20
9806.542286165957
 30
0.0
 11
18107.10144990554
 21
8019.448251908377
 31
0.0
  0
LINE
  5
AB8
330
926
100
AcDbEntity
  8
画層3-寸法
  6
Continuous
370
    -2
100
AcDbLine
 10
16167.10144990554
 20
8019.448251908377
 30
0.0
 11
18047.10144990553
 21
8019.448251908377
 31
0.0
  0
INSERT
  5
AB9
330
926
100
AcDbEntity
  8
画層3-寸法
  6
Continuous
370
    -2
100
AcDbBlockReference
  2
_ORIGIN
 10
16107.10144990554
 20
8019.448251908377
 30
0.0
 41
60.0
 42
60.0
 43
60.0
 50
180.0
  0
INSERT
  5
ABA
330
926
100
AcDbEntity
  8
画層3-寸法
  6
Continuous
370
    -2
100
AcDbBlockReference
  2
_ORIGIN
 10
18107.10144990554
 20
8019.448251908377
 30
0.0
 41
60.0
 42
60.0
 43
60.0
  0
MTEXT
  5
ABB
330
926
100
AcDbEntity
  8
画層3-寸法
  6
Continuous
100
AcDbMText
 10
17107.10144990554
 20
8298.019680479807
 30
0.0
 40
300.0
 41
0.0
 71
     5
 72
     1
  1
\A1;2,000
  7
1_100
 73
     1
 44
1.0
1001
ACAD
1000
MTEXTBEGIN
1070
    73
1070
     1
1070
    44
1040
1.0
1070
    74
1070
     0
1000
MTEXTEND
  0
POINT
  5
ABC
330
926
100
AcDbEntity
  8
DEFPOINTS
  6
Continuous
 62
     0
100
AcDbPoint
 10
16107.10144990554
 20
10106.54228616595
 30
0.0
  0
POINT
  5
ABD
330
926
100
AcDbEntity
  8
DEFPOINTS
  6
Continuous
 62
     0
100
AcDbPoint
 10
18107.10144990554
 20
10106.54228616595
 30
0.0
  0
POINT
  5
ABE
330
926
100
AcDbEntity
  8
DEFPOINTS
  6
Continuous
 62
     0
100
AcDbPoint
 10
18107.10144990554
 20
8019.448251908377
 30
0.0
  0
ENDBLK
  5
931
330
926
100
AcDbEntity
  8
0
100
AcDbBlockEnd
  0
BLOCK
  5
93E
330
932
100
AcDbEntity
  8
0
100
AcDbBlockBegin
  2
*D26
 70
     1
 10
0.0
 20
0.0
 30
0.0
  3
*D26
  1

  0
LINE
  5
ABF
330
932
100
AcDbEntity
  8
寸法
  6
Continuous
370
    -2
100
AcDbLine
 10
31906.53222530905
 20
12119.44825190838
 30
0.0
 11
32607.10144990554
 21
12119.44825190838
 31
0.0
  0
LINE
  5
AC0
330
932
100
AcDbEntity
  8
寸法
  6
Continuous
370
    -2
100
AcDbLine
 10
31906.53222530905
 20
12419.44825190838
 30
0.0
 11
32607.10144990554
 21
12419.44825190838
 31
0.0
  0
LINE
  5
AC1
330
932
100
AcDbEntity
  8
寸法
  6
Continuous
370
    -2
100
AcDbLine
 10
32607.10144990554
 20
12059.44825190838
 30
0.0
 11
32607.10144990554
 21
11999.44825190837
 31
0.0
  0
LINE
  5
AC2
330
932
100
AcDbEntity
  8
寸法
  6
Continuous
370
    -2
100
AcDbLine
 10
32607.10144990554
 20
12479.44825190838
 30
0.0
 11
32607.10144990554
 21
12539.44825190838
 31
0.0
  0
MTEXT
  5
AC3
330
932
100
AcDbEntity
  8
寸法
  6
Continuous
100
AcDbMText
 10
32862.6153614713
 20
12035.70899207281
 30
0.0
 40
300.0
 41
0.0
 71
     5
 72
     1
  1
\A1;300
  7
1_100
 11
0.0000000000000001
 21
1.0
 31
0.0
 73
     1
 44
1.0
1001
ACAD
1000
MTEXTBEGIN
1070
    73
1070
     1
1070
    44
1040
1.0
1070
    74
1070
     0
1000
MTEXTEND
  0
LINE
  5
AC4
330
932
100
AcDbEntity
  8
寸法
  6
Continuous
370
    -2
100
AcDbLine
 10
32607.10144990554
 20
12119.44825190838
 30
0.0
 11
32607.10144990554
 21
12419.44825190838
 31
0.0
  0
INSERT
  5
AC5
330
932
100
AcDbEntity
  8
寸法
  6
Continuous
370
    -2
100
AcDbBlockReference
  2
_ORIGIN
 10
32607.10144990554
 20
12119.44825190838
 30
0.0
 41
60.0
 42
60.0
 43
60.0
 50
90.0
  0
INSERT
  5
AC6
330
932
100
AcDbEntity
  8
寸法
  6
Continuous
370
    -2
100
AcDbBlockReference
  2
_ORIGIN
 10
32607.10144990554
 20
12419.44825190838
 30
0.0
 41
60.0
 42
60.0
 43
60.0
 50
270.0
  0
POINT
  5
AC7
330
932
100
AcDbEntity
  8
DEFPOINTS
  6
Continuous
 62
     0
100
AcDbPoint
 10
31606.53222530905
 20
12119.44825190838
 30
0.0
  0
POINT
  5
AC8
330
932
100
AcDbEntity
  8
DEFPOINTS
  6
Continuous
 62
     0
100
AcDbPoint
 10
31606.53222530905
 20
12419.44825190838
 30
0.0
  0
POINT
  5
AC9
330
932
100
AcDbEntity
  8
DEFPOINTS
  6
Continuous
 62
     0
100
AcDbPoint
 10
32607.10144990554
 20
12419.44825190838
 30
0.0
  0
ENDBLK
  5
93F
330
932
100
AcDbEntity
  8
0
100
AcDbBlockEnd
  0
BLOCK
  5
94A
330
940
100
AcDbEntity
  8
0
100
AcDbBlockBegin
  2
*D27
 70
     1
 10
0.0
 20
0.0
 30
0.0
  3
*D27
  1

  0
LINE
  5
ACA
330
940
100
AcDbEntity
  8
寸法
  6
Continuous
370
    -2
100
AcDbLine
 10
31906.53222530905
 20
12419.44825190838
 30
0.0
 11
32607.10144990554
 21
12419.44825190838
 31
0.0
  0
LINE
  5
ACB
330
940
100
AcDbEntity
  8
寸法
  6
Continuous
370
    -2
100
AcDbLine
 10
31906.53222530905
 20
14419.44825184842
 30
0.0
 11
32607.10144990554
 21
14419.44825184842
 31
0.0
  0
LINE
  5
ACC
330
940
100
AcDbEntity
  8
寸法
  6
Continuous
370
    -2
100
AcDbLine
 10
32607.10144990554
 20
12479.44825190838
 30
0.0
 11
32607.10144990554
 21
14359.44825184842
 31
0.0
  0
INSERT
  5
ACD
330
940
100
AcDbEntity
  8
寸法
  6
Continuous
370
    -2
100
AcDbBlockReference
  2
_ORIGIN
 10
32607.10144990554
 20
12419.44825190838
 30
0.0
 41
60.0
 42
60.0
 43
60.0
 50
270.0
  0
INSERT
  5
ACE
330
940
100
AcDbEntity
  8
寸法
  6
Continuous
370
    -2
100
AcDbBlockReference
  2
_ORIGIN
 10
32607.10144990554
 20
14419.44825184842
 30
0.0
 41
60.0
 42
60.0
 43
60.0
 50
90.0
  0
MTEXT
  5
ACF
330
940
100
AcDbEntity
  8
寸法
  6
Continuous
100
AcDbMText
 10
32328.53002133411
 20
13419.4482518784
 30
0.0
 40
300.0
 41
0.0
 71
     5
 72
     1
  1
\A1;2,000
  7
1_100
 11
0.0000000000000001
 21
1.0
 31
0.0
 73
     1
 44
1.0
1001
ACAD
1000
MTEXTBEGIN
1070
    73
1070
     1
1070
    44
1040
1.0
1070
    74
1070
     0
1000
MTEXTEND
  0
POINT
  5
AD0
330
940
100
AcDbEntity
  8
DEFPOINTS
  6
Continuous
 62
     0
100
AcDbPoint
 10
31606.53222530905
 20
12419.44825190838
 30
0.0
  0
POINT
  5
AD1
330
940
100
AcDbEntity
  8
DEFPOINTS
  6
Continuous
 62
     0
100
AcDbPoint
 10
31606.53222530905
 20
14419.44825184842
 30
0.0
  0
POINT
  5
AD2
330
940
100
AcDbEntity
  8
DEFPOINTS
  6
Continuous
 62
     0
100
AcDbPoint
 10
32607.10144990554
 20
14419.44825184842
 30
0.0
  0
ENDBLK
  5
94B
330
940
100
AcDbEntity
  8
0
100
AcDbBlockEnd
  0
BLOCK
  5
958
330
94C
100
AcDbEntity
  8
0
100
AcDbBlockBegin
  2
*D28
 70
     1
 10
0.0
 20
0.0
 30
0.0
  3
*D28
  1

  0
LINE
  5
AD3
330
94C
100
AcDbEntity
  8
寸法
  6
Continuous
370
    -2
100
AcDbLine
 10
30357.10144990554
 20
9919.448251907214
 30
0.0
 11
30357.10144990554
 21
9219.44825190698
 31
0.0
  0
LINE
  5
AD4
330
94C
100
AcDbEntity
  8
寸法
  6
Continuous
370
    -2
100
AcDbLine
 10
30857.10144990554
 20
9919.448251907098
 30
0.0
 11
30857.10144990554
 21
9219.44825190698
 31
0.0
  0
LINE
  5
AD5
330
94C
100
AcDbEntity
  8
寸法
  6
Continuous
370
    -2
100
AcDbLine
 10
30297.10144990554
 20
9219.44825190698
 30
0.0
 11
30237.10144990554
 21
9219.44825190698
 31
0.0
  0
LINE
  5
AD6
330
94C
100
AcDbEntity
  8
寸法
  6
Continuous
370
    -2
100
AcDbLine
 10
30917.10144990554
 20
9219.44825190698
 30
0.0
 11
30977.10144990554
 21
9219.44825190698
 31
0.0
  0
LINE
  5
AD7
330
94C
100
AcDbEntity
  8
寸法
  6
Continuous
370
    -2
100
AcDbLine
 10
30357.10144990554
 20
9219.44825190698
 30
0.0
 11
30857.10144990554
 21
9219.44825190698
 31
0.0
  0
INSERT
  5
AD8
330
94C
100
AcDbEntity
  8
寸法
  6
Continuous
370
    -2
100
AcDbBlockReference
  2
_ORIGIN
 10
30357.10144990554
 20
9219.44825190698
 30
0.0
 41
60.0
 42
60.0
 43
60.0
  0
INSERT
  5
AD9
330
94C
100
AcDbEntity
  8
寸法
  6
Continuous
370
    -2
100
AcDbBlockReference
  2
_ORIGIN
 10
30857.10144990554
 20
9219.44825190698
 30
0.0
 41
60.0
 42
60.0
 43
60.0
 50
180.0
  0
MTEXT
  5
ADA
330
94C
100
AcDbEntity
  8
寸法
  6
Continuous
100
AcDbMText
 10
30607.10144990554
 20
8969.44825190698
 30
0.0
 40
300.0
 41
0.0
 71
     5
 72
     1
  1
\A1;□500
  7
1_100
 73
     1
 44
1.0
1001
ACAD
1000
MTEXTBEGIN
1070
    73
1070
     1
1070
    44
1040
1.0
1070
    74
1070
     0
1000
MTEXTEND
  0
POINT
  5
ADB
330
94C
100
AcDbEntity
  8
DEFPOINTS
  6
Continuous
 62
     0
100
AcDbPoint
 10
30357.10144990554
 20
10219.44825190721
 30
0.0
  0
POINT
  5
ADC
330
94C
100
AcDbEntity
  8
DEFPOINTS
  6
Continuous
 62
     0
100
AcDbPoint
 10
30857.10144990554
 20
10219.44825190709
 30
0.0
  0
POINT
  5
ADD
330
94C
100
AcDbEntity
  8
DEFPOINTS
  6
Continuous
 62
     0
100
AcDbPoint
 10
30857.10144990554
 20
9219.44825190698
 30
0.0
  0
ENDBLK
  5
959
330
94C
100
AcDbEntity
  8
0
100
AcDbBlockEnd
  0
BLOCK
  5
966
330
95A
100
AcDbEntity
  8
0
100
AcDbBlockBegin
  2
*D29
 70
     1
 10
0.0
 20
0.0
 30
0.0
  3
*D29
  1

  0
LINE
  5
ADE
330
95A
100
AcDbEntity
  8
寸法
  6
Continuous
370
    -2
100
AcDbLine
 10
31906.53222530905
 20
10219.44825190838
 30
0.0
 11
32607.10144990554
 21
10219.44825190838
 31
0.0
  0
LINE
  5
ADF
330
95A
100
AcDbEntity
  8
寸法
  6
Continuous
370
    -2
100
AcDbLine
 10
31906.53222530905
 20
10319.44825190838
 30
0.0
 11
32607.10144990554
 21
10319.44825190838
 31
0.0
  0
LINE
  5
AE0
330
95A
100
AcDbEntity
  8
寸法
  6
Continuous
370
    -2
100
AcDbLine
 10
32607.10144990554
 20
10159.44825190838
 30
0.0
 11
32607.10144990554
 21
10099.44825190838
 31
0.0
  0
LINE
  5
AE1
330
95A
100
AcDbEntity
  8
寸法
  6
Continuous
370
    -2
100
AcDbLine
 10
32607.10144990554
 20
10379.44825190838
 30
0.0
 11
32607.10144990554
 21
10439.44825190838
 31
0.0
  0
MTEXT
  5
AE2
330
95A
100
AcDbEntity
  8
寸法
  6
Continuous
100
AcDbMText
 10
32333.44792197377
 20
9823.769670546257
 30
0.0
 40
300.0
 41
0.0
 71
     5
 72
     1
  1
\A1;100
  7
1_100
 11
0.0000000000000001
 21
1.0
 31
0.0
 73
     1
 44
1.0
1001
ACAD
1000
MTEXTBEGIN
1070
    73
1070
     1
1070
    44
1040
1.0
1070
    74
1070
     0
1000
MTEXTEND
  0
LINE
  5
AE3
330
95A
100
AcDbEntity
  8
寸法
  6
Continuous
370
    -2
100
AcDbLine
 10
32607.10144990554
 20
10219.44825190838
 30
0.0
 11
32607.10144990554
 21
10319.44825190838
 31
0.0
  0
INSERT
  5
AE4
330
95A
100
AcDbEntity
  8
寸法
  6
Continuous
370
    -2
100
AcDbBlockReference
  2
_ORIGIN
 10
32607.10144990554
 20
10219.44825190838
 30
0.0
 41
60.0
 42
60.0
 43
60.0
 50
90.0
  0
INSERT
  5
AE5
330
95A
100
AcDbEntity
  8
寸法
  6
Continuous
370
    -2
100
AcDbBlockReference
  2
_ORIGIN
 10
32607.10144990554
 20
10319.44825190838
 30
0.0
 41
60.0
 42
60.0
 43
60.0
 50
270.0
  0
POINT
  5
AE6
330
95A
100
AcDbEntity
  8
DEFPOINTS
  6
Continuous
 62
     0
100
AcDbPoint
 10
31606.53222530905
 20
10219.44825190838
 30
0.0
  0
POINT
  5
AE7
330
95A
100
AcDbEntity
  8
DEFPOINTS
  6
Continuous
 62
     0
100
AcDbPoint
 10
31606.53222530905
 20
10319.44825190838
 30
0.0
  0
POINT
  5
AE8
330
95A
100
AcDbEntity
  8
DEFPOINTS
  6
Continuous
 62
     0
100
AcDbPoint
 10
32607.10144990554
 20
10319.44825190838
 30
0.0
  0
ENDBLK
  5
967
330
95A
100
AcDbEntity
  8
0
100
AcDbBlockEnd
  0
BLOCK
  5
972
330
968
100
AcDbEntity
  8
0
100
AcDbBlockBegin
  2
*D30
 70
     1
 10
0.0
 20
0.0
 30
0.0
  3
*D30
  1

  0
LINE
  5
AE9
330
968
100
AcDbEntity
  8
寸法
  6
Continuous
370
    -2
100
AcDbLine
 10
31906.53222530905
 20
12419.44825190838
 30
0.0
 11
33607.09163990907
 21
12419.44825190838
 31
0.0
  0
LINE
  5
AEA
330
968
100
AcDbEntity
  8
寸法
  6
Continuous
370
    -2
100
AcDbLine
 10
31906.53222530905
 20
10319.44825190838
 30
0.0
 11
33607.09163990907
 21
10319.44825190838
 31
0.0
  0
LINE
  5
AEB
330
968
100
AcDbEntity
  8
寸法
  6
Continuous
370
    -2
100
AcDbLine
 10
33607.09163990907
 20
12359.44825190838
 30
0.0
 11
33607.09163990907
 21
10379.44825190838
 31
0.0
  0
INSERT
  5
AEC
330
968
100
AcDbEntity
  8
寸法
  6
Continuous
370
    -2
100
AcDbBlockReference
  2
_ORIGIN
 10
33607.09163990907
 20
12419.44825190838
 30
0.0
 41
60.0
 42
60.0
 43
60.0
 50
90.0
  0
INSERT
  5
AED
330
968
100
AcDbEntity
  8
寸法
  6
Continuous
370
    -2
100
AcDbBlockReference
  2
_ORIGIN
 10
33607.09163990907
 20
10319.44825190838
 30
0.0
 41
60.0
 42
60.0
 43
60.0
 50
270.0
  0
MTEXT
  5
AEE
330
968
100
AcDbEntity
  8
寸法
  6
Continuous
100
AcDbMText
 10
33328.52021133764
 20
11369.44825190838
 30
0.0
 40
300.0
 41
0.0
 71
     5
 72
     1
  1
\A1;2,100
  7
1_100
 11
0.0000000000000001
 21
1.0
 31
0.0
 73
     1
 44
1.0
1001
ACAD
1000
MTEXTBEGIN
1070
    73
1070
     1
1070
    44
1040
1.0
1070
    74
1070
     0
1000
MTEXTEND
  0
POINT
  5
AEF
330
968
100
AcDbEntity
  8
DEFPOINTS
  6
Continuous
 62
     0
100
AcDbPoint
 10
31606.53222530905
 20
12419.44825190838
 30
0.0
  0
POINT
  5
AF0
330
968
100
AcDbEntity
  8
DEFPOINTS
  6
Continuous
 62
     0
100
AcDbPoint
 10
31606.53222530905
 20
10319.44825190838
 30
0.0
  0
POINT
  5
AF1
330
968
100
AcDbEntity
  8
DEFPOINTS
  6
Continuous
 62
     0
100
AcDbPoint
 10
33607.09163990907
 20
10319.44825190838
 30
0.0
  0
ENDBLK
  5
973
330
968
100
AcDbEntity
  8
0
100
AcDbBlockEnd
  0
BLOCK
  5
97E
330
974
100
AcDbEntity
  8
0
100
AcDbBlockBegin
  2
*D31
 70
     1
 10
0.0
 20
0.0
 30
0.0
  3
*D31
  1

  0
LINE
  5
AF2
330
974
100
AcDbEntity
  8
寸法
  6
Continuous
370
    -2
100
AcDbLine
 10
31906.53222530905
 20
10319.44825190838
 30
0.0
 11
32607.10144990554
 21
10319.44825190838
 31
0.0
  0
LINE
  5
AF3
330
974
100
AcDbEntity
  8
寸法
  6
Continuous
370
    -2
100
AcDbLine
 10
31906.53222530905
 20
12119.44825190838
 30
0.0
 11
32607.10144990554
 21
12119.44825190838
 31
0.0
  0
LINE
  5
AF4
330
974
100
AcDbEntity
  8
寸法
  6
Continuous
370
    -2
100
AcDbLine
 10
32607.10144990554
 20
10379.44825190838
 30
0.0
 11
32607.10144990554
 21
12059.44825190838
 31
0.0
  0
INSERT
  5
AF5
330
974
100
AcDbEntity
  8
寸法
  6
Continuous
370
    -2
100
AcDbBlockReference
  2
_ORIGIN
 10
32607.10144990554
 20
10319.44825190838
 30
0.0
 41
60.0
 42
60.0
 43
60.0
 50
270.0
  0
INSERT
  5
AF6
330
974
100
AcDbEntity
  8
寸法
  6
Continuous
370
    -2
100
AcDbBlockReference
  2
_ORIGIN
 10
32607.10144990554
 20
12119.44825190838
 30
0.0
 41
60.0
 42
60.0
 43
60.0
 50
90.0
  0
MTEXT
  5
AF7
330
974
100
AcDbEntity
  8
寸法
  6
Continuous
100
AcDbMText
 10
32328.53002133411
 20
11219.44825190838
 30
0.0
 40
300.0
 41
0.0
 71
     5
 72
     1
  1
\A1;1,800
  7
1_100
 11
0.0000000000000001
 21
1.0
 31
0.0
 73
     1
 44
1.0
1001
ACAD
1000
MTEXTBEGIN
1070
    73
1070
     1
1070
    44
1040
1.0
1070
    74
1070
     0
1000
MTEXTEND
  0
POINT
  5
AF8
330
974
100
AcDbEntity
  8
DEFPOINTS
  6
Continuous
 62
     0
100
AcDbPoint
 10
31606.53222530905
 20
10319.44825190838
 30
0.0
  0
POINT
  5
AF9
330
974
100
AcDbEntity
  8
DEFPOINTS
  6
Continuous
 62
     0
100
AcDbPoint
 10
31606.53222530905
 20
12119.44825190838
 30
0.0
  0
POINT
  5
AFA
330
974
100
AcDbEntity
  8
DEFPOINTS
  6
Continuous
 62
     0
100
AcDbPoint
 10
32607.10144990554
 20
12119.44825190838
 30
0.0
  0
ENDBLK
  5
97F
330
974
100
AcDbEntity
  8
0
100
AcDbBlockEnd
  0
BLOCK
  5
98C
330
980
100
AcDbEntity
  8
0
100
AcDbBlockBegin
  2
*D32
 70
     1
 10
0.0
 20
0.0
 30
0.0
  3
*D32
  1

  0
LINE
  5
AFB
330
980
100
AcDbEntity
  8
寸法
  6
Continuous
370
    -2
100
AcDbLine
 10
7998.951449905631
 20
22719.44825190838
 30
0.0
 11
7998.951449905631
 21
23019.44825190838
 31
0.0
  0
LINE
  5
AFC
330
980
100
AcDbEntity
  8
寸法
  6
Continuous
370
    -2
100
AcDbLine
 10
8215.251449905444
 20
22719.44825190838
 30
0.0
 11
8215.251449905444
 21
23019.44825190838
 31
0.0
  0
LINE
  5
AFD
330
980
100
AcDbEntity
  8
寸法
  6
Continuous
370
    -2
100
AcDbLine
 10
7938.951449905632
 20
23019.44825190838
 30
0.0
 11
7878.951449905631
 21
23019.44825190838
 31
0.0
  0
LINE
  5
AFE
330
980
100
AcDbEntity
  8
寸法
  6
Continuous
370
    -2
100
AcDbLine
 10
8275.251449905445
 20
23019.44825190838
 30
0.0
 11
8335.251449905445
 21
23019.44825190838
 31
0.0
  0
MTEXT
  5
AFF
330
980
100
AcDbEntity
  8
寸法
  6
Continuous
100
AcDbMText
 10
8107.101449905538
 20
23319.44825190838
 30
0.0
 40
300.0
 41
0.0
 71
     5
 72
     1
  1
\A1;φ216.3
  7
1_100
 73
     1
 44
1.0
1001
ACAD
1000
MTEXTBEGIN
1070
    73
1070
     1
1070
    44
1040
1.0
1070
    74
1070
     0
1000
MTEXTEND
  0
LINE
  5
B00
330
980
100
AcDbEntity
  8
寸法
  6
Continuous
370
    -2
100
AcDbLine
 10
7998.951449905631
 20
23019.44825190838
 30
0.0
 11
8215.251449905444
 21
23019.44825190838
 31
0.0
  0
INSERT
  5
B01
330
980
100
AcDbEntity
  8
寸法
  6
Continuous
370
    -2
100
AcDbBlockReference
  2
_ORIGIN
 10
7998.951449905631
 20
23019.44825190838
 30
0.0
 41
60.0
 42
60.0
 43
60.0
  0
INSERT
  5
B02
330
980
100
AcDbEntity
  8
寸法
  6
Continuous
370
    -2
100
AcDbBlockReference
  2
_ORIGIN
 10
8215.251449905444
 20
23019.44825190838
 30
0.0
 41
60.0
 42
60.0
 43
60.0
 50
180.0
  0
POINT
  5
B03
330
980
100
AcDbEntity
  8
DEFPOINTS
  6
Continuous
 62
     0
100
AcDbPoint
 10
7998.951449905631
 20
22419.44825190838
 30
0.0
  0
POINT
  5
B04
330
980
100
AcDbEntity
  8
DEFPOINTS
  6
Continuous
 62
     0
100
AcDbPoint
 10
8215.251449905444
 20
22419.44825190838
 30
0.0
  0
POINT
  5
B05
330
980
100
AcDbEntity
  8
DEFPOINTS
  6
Continuous
 62
     0
100
AcDbPoint
 10
8215.251449905444
 20
23019.44825190838
 30
0.0
  0
ENDBLK
  5
98D
330
980
100
AcDbEntity
  8
0
100
AcDbBlockEnd
  0
BLOCK
  5
998
330
98E
100
AcDbEntity
  8
0
100
AcDbBlockBegin
  2
*D33
 70
     1
 10
0.0
 20
0.0
 30
0.0
  3
*D33
  1

  0
LINE
  5
B06
330
98E
100
AcDbEntity
  8
寸法
  6
Continuous
370
    -2
100
AcDbLine
 10
26307.10144990554
 20
19709.44825190837
 30
0.0
 11
27007.10144990554
 21
19709.44825190837
 31
0.0
  0
LINE
  5
B07
330
98E
100
AcDbEntity
  8
寸法
  6
Continuous
370
    -2
100
AcDbLine
 10
26307.10144990554
 20
22359.44825190838
 30
0.0
 11
27007.10144990554
 21
22359.44825190838
 31
0.0
  0
LINE
  5
B08
330
98E
100
AcDbEntity
  8
寸法
  6
Continuous
370
    -2
100
AcDbLine
 10
27007.10144990554
 20
19769.44825190837
 30
0.0
 11
27007.10144990554
 21
22299.44825190838
 31
0.0
  0
INSERT
  5
B09
330
98E
100
AcDbEntity
  8
寸法
  6
Continuous
370
    -2
100
AcDbBlockReference
  2
_ORIGIN
 10
27007.10144990554
 20
19709.44825190837
 30
0.0
 41
60.0
 42
60.0
 43
60.0
 50
270.0
  0
INSERT
  5
B0A
330
98E
100
AcDbEntity
  8
寸法
  6
Continuous
370
    -2
100
AcDbBlockReference
  2
_ORIGIN
 10
27007.10144990554
 20
22359.44825190838
 30
0.0
 41
60.0
 42
60.0
 43
60.0
 50
90.0
  0
MTEXT
  5
B0B
330
98E
100
AcDbEntity
  8
寸法
  6
Continuous
100
AcDbMText
 10
26728.53002133411
 20
21034.44825190838
 30
0.0
 40
300.0
 41
0.0
 71
     5
 72
     1
  1
\A1;2,650
  7
1_100
 11
0.0000000000000001
 21
1.0
 31
0.0
 73
     1
 44
1.0
1001
ACAD
1000
MTEXTBEGIN
1070
    73
1070
     1
1070
    44
1040
1.0
1070
    74
1070
     0
1000
MTEXTEND
  0
POINT
  5
B0C
330
98E
100
AcDbEntity
  8
DEFPOINTS
  6
Continuous
 62
     0
100
AcDbPoint
 10
26007.10144990554
 20
19709.44825190837
 30
0.0
  0
POINT
  5
B0D
330
98E
100
AcDbEntity
  8
DEFPOINTS
  6
Continuous
 62
     0
100
AcDbPoint
 10
26007.10144990554
 20
22359.44825190838
 30
0.0
  0
POINT
  5
B0E
330
98E
100
AcDbEntity
  8
DEFPOINTS
  6
Continuous
 62
     0
100
AcDbPoint
 10
27007.10144990554
 20
22359.44825190838
 30
0.0
  0
ENDBLK
  5
999
330
98E
100
AcDbEntity
  8
0
100
AcDbBlockEnd
  0
BLOCK
  5
9A4
330
99A
100
AcDbEntity
  8
0
100
AcDbBlockBegin
  2
*D34
 70
     1
 10
0.0
 20
0.0
 30
0.0
  3
*D34
  1

  0
LINE
  5
B0F
330
99A
100
AcDbEntity
  8
寸法
  6
Continuous
370
    -2
100
AcDbLine
 10
26307.10144990554
 20
17059.44825190837
 30
0.0
 11
27007.10144990554
 21
17059.44825190837
 31
0.0
  0
LINE
  5
B10
330
99A
100
AcDbEntity
  8
寸法
  6
Continuous
370
    -2
100
AcDbLine
 10
26307.10144990554
 20
19709.44825190837
 30
0.0
 11
27007.10144990554
 21
19709.44825190837
 31
0.0
  0
LINE
  5
B11
330
99A
100
AcDbEntity
  8
寸法
  6
Continuous
370
    -2
100
AcDbLine
 10
27007.10144990554
 20
17119.44825190837
 30
0.0
 11
27007.10144990554
 21
19649.44825190837
 31
0.0
  0
INSERT
  5
B12
330
99A
100
AcDbEntity
  8
寸法
  6
Continuous
370
    -2
100
AcDbBlockReference
  2
_ORIGIN
 10
27007.10144990554
 20
17059.44825190837
 30
0.0
 41
60.0
 42
60.0
 43
60.0
 50
270.0
  0
INSERT
  5
B13
330
99A
100
AcDbEntity
  8
寸法
  6
Continuous
370
    -2
100
AcDbBlockReference
  2
_ORIGIN
 10
27007.10144990554
 20
19709.44825190837
 30
0.0
 41
60.0
 42
60.0
 43
60.0
 50
90.0
  0
MTEXT
  5
B14
330
99A
100
AcDbEntity
  8
寸法
  6
Continuous
100
AcDbMText
 10
26728.53002133411
 20
18384.44825190838
 30
0.0
 40
300.0
 41
0.0
 71
     5
 72
     1
  1
\A1;2,650
  7
1_100
 11
0.0000000000000001
 21
1.0
 31
0.0
 73
     1
 44
1.0
1001
ACAD
1000
MTEXTBEGIN
1070
    73
1070
     1
1070
    44
1040
1.0
1070
    74
1070
     0
1000
MTEXTEND
  0
POINT
  5
B15
330
99A
100
AcDbEntity
  8
DEFPOINTS
  6
Continuous
 62
     0
100
AcDbPoint
 10
26007.10144990554
 20
17059.44825190837
 30
0.0
  0
POINT
  5
B16
330
99A
100
AcDbEntity
  8
DEFPOINTS
  6
Continuous
 62
     0
100
AcDbPoint
 10
26007.10144990554
 20
19709.44825190837
 30
0.0
  0
POINT
  5
B17
330
99A
100
AcDbEntity
  8
DEFPOINTS
  6
Continuous
 62
     0
100
AcDbPoint
 10
27007.10144990554
 20
19709.44825190837
 30
0.0
  0
ENDBLK
  5
9A5
330
99A
100
AcDbEntity
  8
0
100
AcDbBlockEnd
  0
BLOCK
  5
9B2
330
9A6
100
AcDbEntity
  8
0
100
AcDbBlockBegin
  2
*D35
 70
     1
 10
0.0
 20
0.0
 30
0.0
  3
*D35
  1

  0
LINE
  5
B18
330
9A6
100
AcDbEntity
  8
寸法
  6
Continuous
370
    -2
100
AcDbLine
 10
26307.10144990554
 20
22359.44825190838
 30
0.0
 11
27007.10144990554
 21
22359.44825190838
 31
0.0
  0
LINE
  5
B19
330
9A6
100
AcDbEntity
  8
寸法
  6
Continuous
370
    -2
100
AcDbLine
 10
26307.10144990554
 20
22419.44825190838
 30
0.0
 11
27007.10144990554
 21
22419.44825190838
 31
0.0
  0
LINE
  5
B1A
330
9A6
100
AcDbEntity
  8
寸法
  6
Continuous
370
    -2
100
AcDbLine
 10
27007.10144990554
 20
22299.44825190838
 30
0.0
 11
27007.10144990554
 21
22239.44825190838
 31
0.0
  0
LINE
  5
B1B
330
9A6
100
AcDbEntity
  8
寸法
  6
Continuous
370
    -2
100
AcDbLine
 10
27007.10144990554
 20
22479.44825190838
 30
0.0
 11
27007.10144990554
 21
22539.44825190838
 31
0.0
  0
MTEXT
  5
B1C
330
9A6
100
AcDbEntity
  8
寸法
  6
Continuous
100
AcDbMText
 10
26713.8094469459
 20
22691.13727905411
 30
0.0
 40
300.0
 41
0.0
 71
     5
 72
     1
  1
\A1;60
  7
1_100
 11
0.0000000000000001
 21
1.0
 31
0.0
 73
     1
 44
1.0
1001
ACAD
1000
MTEXTBEGIN
1070
    73
1070
     1
1070
    44
1040
1.0
1070
    74
1070
     0
1000
MTEXTEND
  0
LINE
  5
B1D
330
9A6
100
AcDbEntity
  8
寸法
  6
Continuous
370
    -2
100
AcDbLine
 10
27007.10144990554
 20
22359.44825190838
 30
0.0
 11
27007.10144990554
 21
22419.44825190838
 31
0.0
  0
INSERT
  5
B1E
330
9A6
100
AcDbEntity
  8
寸法
  6
Continuous
370
    -2
100
AcDbBlockReference
  2
_ORIGIN
 10
27007.10144990554
 20
22359.44825190838
 30
0.0
 41
60.0
 42
60.0
 43
60.0
 50
90.0
  0
INSERT
  5
B1F
330
9A6
100
AcDbEntity
  8
寸法
  6
Continuous
370
    -2
100
AcDbBlockReference
  2
_ORIGIN
 10
27007.10144990554
 20
22419.44825190838
 30
0.0
 41
60.0
 42
60.0
 43
60.0
 50
270.0
  0
POINT
  5
B20
330
9A6
100
AcDbEntity
  8
DEFPOINTS
  6
Continuous
 62
     0
100
AcDbPoint
 10
26007.10144990554
 20
22359.44825190838
 30
0.0
  0
POINT
  5
B21
330
9A6
100
AcDbEntity
  8
DEFPOINTS
  6
Continuous
 62
     0
100
AcDbPoint
 10
26007.10144990554
 20
22419.44825190838
 30
0.0
  0
POINT
  5
B22
330
9A6
100
AcDbEntity
  8
DEFPOINTS
  6
Continuous
 62
     0
100
AcDbPoint
 10
27007.10144990554
 20
22419.44825190838
 30
0.0
  0
ENDBLK
  5
9B3
330
9A6
100
AcDbEntity
  8
0
100
AcDbBlockEnd
  0
BLOCK
  5
9BE
330
9B4
100
AcDbEntity
  8
0
100
AcDbBlockBegin
  2
*D36
 70
     1
 10
0.0
 20
0.0
 30
0.0
  3
*D36
  1

  0
LINE
  5
B23
330
9B4
100
AcDbEntity
  8
寸法
  6
Continuous
370
    -2
100
AcDbLine
 10
31906.53222530905
 20
19709.44825190837
 30
0.0
 11
32607.10144990554
 21
19709.44825190837
 31
0.0
  0
LINE
  5
B24
330
9B4
100
AcDbEntity
  8
寸法
  6
Continuous
370
    -2
100
AcDbLine
 10
31906.53222530905
 20
22359.44825190838
 30
0.0
 11
32607.10144990554
 21
22359.44825190838
 31
0.0
  0
LINE
  5
B25
330
9B4
100
AcDbEntity
  8
寸法
  6
Continuous
370
    -2
100
AcDbLine
 10
32607.10144990554
 20
19769.44825190837
 30
0.0
 11
32607.10144990554
 21
22299.44825190838
 31
0.0
  0
INSERT
  5
B26
330
9B4
100
AcDbEntity
  8
寸法
  6
Continuous
370
    -2
100
AcDbBlockReference
  2
_ORIGIN
 10
32607.10144990554
 20
19709.44825190837
 30
0.0
 41
60.0
 42
60.0
 43
60.0
 50
270.0
  0
INSERT
  5
B27
330
9B4
100
AcDbEntity
  8
寸法
  6
Continuous
370
    -2
100
AcDbBlockReference
  2
_ORIGIN
 10
32607.10144990554
 20
22359.44825190838
 30
0.0
 41
60.0
 42
60.0
 43
60.0
 50
90.0
  0
MTEXT
  5
B28
330
9B4
100
AcDbEntity
  8
寸法
  6
Continuous
100
AcDbMText
 10
32328.53002133411
 20
21034.44825190838
 30
0.0
 40
300.0
 41
0.0
 71
     5
 72
     1
  1
\A1;2,650
  7
1_100
 11
0.0000000000000001
 21
1.0
 31
0.0
 73
     1
 44
1.0
1001
ACAD
1000
MTEXTBEGIN
1070
    73
1070
     1
1070
    44
1040
1.0
1070
    74
1070
     0
1000
MTEXTEND
  0
POINT
  5
B29
330
9B4
100
AcDbEntity
  8
DEFPOINTS
  6
Continuous
 62
     0
100
AcDbPoint
 10
31606.53222530905
 20
19709.44825190837
 30
0.0
  0
POINT
  5
B2A
330
9B4
100
AcDbEntity
  8
DEFPOINTS
  6
Continuous
 62
     0
100
AcDbPoint
 10
31606.53222530905
 20
22359.44825190838
 30
0.0
  0
POINT
  5
B2B
330
9B4
100
AcDbEntity
  8
DEFPOINTS
  6
Continuous
 62
     0
100
AcDbPoint
 10
32607.10144990554
 20
22359.44825190838
 30
0.0
  0
ENDBLK
  5
9BF
330
9B4
100
AcDbEntity
  8
0
100
AcDbBlockEnd
  0
BLOCK
  5
9CA
330
9C0
100
AcDbEntity
  8
0
100
AcDbBlockBegin
  2
*D37
 70
     1
 10
0.0
 20
0.0
 30
0.0
  3
*D37
  1

  0
LINE
  5
B2C
330
9C0
100
AcDbEntity
  8
寸法
  6
Continuous
370
    -2
100
AcDbLine
 10
31906.53222530905
 20
17059.44825190837
 30
0.0
 11
32607.10144990554
 21
17059.44825190837
 31
0.0
  0
LINE
  5
B2D
330
9C0
100
AcDbEntity
  8
寸法
  6
Continuous
370
    -2
100
AcDbLine
 10
31906.53222530905
 20
19709.44825190837
 30
0.0
 11
32607.10144990554
 21
19709.44825190837
 31
0.0
  0
LINE
  5
B2E
330
9C0
100
AcDbEntity
  8
寸法
  6
Continuous
370
    -2
100
AcDbLine
 10
32607.10144990554
 20
17119.44825190837
 30
0.0
 11
32607.10144990554
 21
19649.44825190837
 31
0.0
  0
INSERT
  5
B2F
330
9C0
100
AcDbEntity
  8
寸法
  6
Continuous
370
    -2
100
AcDbBlockReference
  2
_ORIGIN
 10
32607.10144990554
 20
17059.44825190837
 30
0.0
 41
60.0
 42
60.0
 43
60.0
 50
270.0
  0
INSERT
  5
B30
330
9C0
100
AcDbEntity
  8
寸法
  6
Continuous
370
    -2
100
AcDbBlockReference
  2
_ORIGIN
 10
32607.10144990554
 20
19709.44825190837
 30
0.0
 41
60.0
 42
60.0
 43
60.0
 50
90.0
  0
MTEXT
  5
B31
330
9C0
100
AcDbEntity
  8
寸法
  6
Continuous
100
AcDbMText
 10
32328.53002133411
 20
18384.44825190838
 30
0.0
 40
300.0
 41
0.0
 71
     5
 72
     1
  1
\A1;2,650
  7
1_100
 11
0.0000000000000001
 21
1.0
 31
0.0
 73
     1
 44
1.0
1001
ACAD
1000
MTEXTBEGIN
1070
    73
1070
     1
1070
    44
1040
1.0
1070
    74
1070
     0
1000
MTEXTEND
  0
POINT
  5
B32
330
9C0
100
AcDbEntity
  8
DEFPOINTS
  6
Continuous
 62
     0
100
AcDbPoint
 10
31606.53222530905
 20
17059.44825190837
 30
0.0
  0
POINT
  5
B33
330
9C0
100
AcDbEntity
  8
DEFPOINTS
  6
Continuous
 62
     0
100
AcDbPoint
 10
31606.53222530905
 20
19709.44825190837
 30
0.0
  0
POINT
  5
B34
330
9C0
100
AcDbEntity
  8
DEFPOINTS
  6
Continuous
 62
     0
100
AcDbPoint
 10
32607.10144990554
 20
19709.44825190837
 30
0.0
  0
ENDBLK
  5
9CB
330
9C0
100
AcDbEntity
  8
0
100
AcDbBlockEnd
  0
BLOCK
  5
9D8
330
9CC
100
AcDbEntity
  8
0
100
AcDbBlockBegin
  2
*D38
 70
     1
 10
0.0
 20
0.0
 30
0.0
  3
*D38
  1

  0
LINE
  5
B35
330
9CC
100
AcDbEntity
  8
寸法
  6
Continuous
370
    -2
100
AcDbLine
 10
30498.95144990563
 20
22719.44825190838
 30
0.0
 11
30498.95144990563
 21
23019.44825190838
 31
0.0
  0
LINE
  5
B36
330
9CC
100
AcDbEntity
  8
寸法
  6
Continuous
370
    -2
100
AcDbLine
 10
30715.25144990591
 20
22719.44825190838
 30
0.0
 11
30715.25144990591
 21
23019.44825190838
 31
0.0
  0
LINE
  5
B37
330
9CC
100
AcDbEntity
  8
寸法
  6
Continuous
370
    -2
100
AcDbLine
 10
30438.95144990563
 20
23019.44825190838
 30
0.0
 11
30378.95144990563
 21
23019.44825190838
 31
0.0
  0
LINE
  5
B38
330
9CC
100
AcDbEntity
  8
寸法
  6
Continuous
370
    -2
100
AcDbLine
 10
30775.25144990592
 20
23019.44825190838
 30
0.0
 11
30835.25144990591
 21
23019.44825190838
 31
0.0
  0
MTEXT
  5
B39
330
9CC
100
AcDbEntity
  8
寸法
  6
Continuous
100
AcDbMText
 10
30607.10144990577
 20
23319.44825190838
 30
0.0
 40
300.0
 41
0.0
 71
     5
 72
     1
  1
\A1;φ216.3
  7
1_100
 73
     1
 44
1.0
1001
ACAD
1000
MTEXTBEGIN
1070
    73
1070
     1
1070
    44
1040
1.0
1070
    74
1070
     0
1000
MTEXTEND
  0
LINE
  5
B3A
330
9CC
100
AcDbEntity
  8
寸法
  6
Continuous
370
    -2
100
AcDbLine
 10
30498.95144990563
 20
23019.44825190838
 30
0.0
 11
30715.25144990591
 21
23019.44825190838
 31
0.0
  0
INSERT
  5
B3B
330
9CC
100
AcDbEntity
  8
寸法
  6
Continuous
370
    -2
100
AcDbBlockReference
  2
_ORIGIN
 10
30498.95144990563
 20
23019.44825190838
 30
0.0
 41
60.0
 42
60.0
 43
60.0
  0
INSERT
  5
B3C
330
9CC
100
AcDbEntity
  8
寸法
  6
Continuous
370
    -2
100
AcDbBlockReference
  2
_ORIGIN
 10
30715.25144990591
 20
23019.44825190838
 30
0.0
 41
60.0
 42
60.0
 43
60.0
 50
180.0
  0
POINT
  5
B3D
330
9CC
100
AcDbEntity
  8
DEFPOINTS
  6
Continuous
 62
     0
100
AcDbPoint
 10
30498.95144990563
 20
22419.44825190838
 30
0.0
  0
POINT
  5
B3E
330
9CC
100
AcDbEntity
  8
DEFPOINTS
  6
Continuous
 62
     0
100
AcDbPoint
 10
30715.25144990591
 20
22419.44825190838
 30
0.0
  0
POINT
  5
B3F
330
9CC
100
AcDbEntity
  8
DEFPOINTS
  6
Continuous
 62
     0
100
AcDbPoint
 10
30715.25144990591
 20
23019.44825190838
 30
0.0
  0
ENDBLK
  5
9D9
330
9CC
100
AcDbEntity
  8
0
100
AcDbBlockEnd
  0
BLOCK
  5
9E6
330
9DA
100
AcDbEntity
  8
0
100
AcDbBlockBegin
  2
*D39
 70
     1
 10
0.0
 20
0.0
 30
0.0
  3
*D39
  1

  0
LINE
  5
B40
330
9DA
100
AcDbEntity
  8
寸法
  6
Continuous
370
    -2
100
AcDbLine
 10
31906.53222530905
 20
22359.44825190838
 30
0.0
 11
32607.10144990554
 21
22359.44825190838
 31
0.0
  0
LINE
  5
B41
330
9DA
100
AcDbEntity
  8
寸法
  6
Continuous
370
    -2
100
AcDbLine
 10
31906.53222530905
 20
22419.44825190838
 30
0.0
 11
32607.10144990554
 21
22419.44825190838
 31
0.0
  0
LINE
  5
B42
330
9DA
100
AcDbEntity
  8
寸法
  6
Continuous
370
    -2
100
AcDbLine
 10
32607.10144990554
 20
22299.44825190838
 30
0.0
 11
32607.10144990554
 21
22239.44825190838
 31
0.0
  0
LINE
  5
B43
330
9DA
100
AcDbEntity
  8
寸法
  6
Continuous
370
    -2
100
AcDbLine
 10
32607.10144990554
 20
22479.44825190838
 30
0.0
 11
32607.10144990554
 21
22539.44825190838
 31
0.0
  0
MTEXT
  5
B44
330
9DA
100
AcDbEntity
  8
寸法
  6
Continuous
100
AcDbMText
 10
32339.0960621346
 20
22736.53033807777
 30
0.0
 40
300.0
 41
0.0
 71
     5
 72
     1
  1
\A1;60
  7
1_100
 11
0.0000000000000001
 21
1.0
 31
0.0
 73
     1
 44
1.0
1001
ACAD
1000
MTEXTBEGIN
1070
    73
1070
     1
1070
    44
1040
1.0
1070
    74
1070
     0
1000
MTEXTEND
  0
LINE
  5
B45
330
9DA
100
AcDbEntity
  8
寸法
  6
Continuous
370
    -2
100
AcDbLine
 10
32607.10144990554
 20
22359.44825190838
 30
0.0
 11
32607.10144990554
 21
22419.44825190838
 31
0.0
  0
INSERT
  5
B46
330
9DA
100
AcDbEntity
  8
寸法
  6
Continuous
370
    -2
100
AcDbBlockReference
  2
_ORIGIN
 10
32607.10144990554
 20
22359.44825190838
 30
0.0
 41
60.0
 42
60.0
 43
60.0
 50
90.0
  0
INSERT
  5
B47
330
9DA
100
AcDbEntity
  8
寸法
  6
Continuous
370
    -2
100
AcDbBlockReference
  2
_ORIGIN
 10
32607.10144990554
 20
22419.44825190838
 30
0.0
 41
60.0
 42
60.0
 43
60.0
 50
270.0
  0
POINT
  5
B48
330
9DA
100
AcDbEntity
  8
DEFPOINTS
  6
Continuous
 62
     0
100
AcDbPoint
 10
31606.53222530905
 20
22359.44825190838
 30
0.0
  0
POINT
  5
B49
330
9DA
100
AcDbEntity
  8
DEFPOINTS
  6
Continuous
 62
     0
100
AcDbPoint
 10
31606.53222530905
 20
22419.44825190838
 30
0.0
  0
POINT
  5
B4A
330
9DA
100
AcDbEntity
  8
DEFPOINTS
  6
Continuous
 62
     0
100
AcDbPoint
 10
32607.10144990554
 20
22419.44825190838
 30
0.0
  0
ENDBLK
  5
9E7
330
9DA
100
AcDbEntity
  8
0
100
AcDbBlockEnd
  0
ENDSEC
  0
SECTION
  2
ENTITIES
  0
DIMENSION
  5
555
330
1F
100
AcDbEntity
  8
寸法
  6
Continuous
100
AcDbDimension
  2
*D3
 10
28007.10144990554
 20
12419.44825190838
 30
0.0
 11
27728.53002133411
 21
17419.44825190838
 31
0.0
 70
    32
 71
     5
 42
10000.0
  3
1_100
100
AcDbAlignedDimension
 13
26007.10144990554
 23
22419.44825190838
 33
0.0
 14
26007.10144990554
 24
12419.44825190838
 34
0.0
 50
90.0
100
AcDbRotatedDimension
  0
DIMENSION
  5
556
330
1F
100
AcDbEntity
  8
寸法
  6
Continuous
100
AcDbDimension
  2
*D4
 10
33607.09163990907
 20
12419.44825190838
 30
0.0
 11
33328.52021133764
 21
17419.44825190838
 31
0.0
 70
    32
 71
     5
 42
10000.0
  3
1_100
100
AcDbAlignedDimension
 13
31606.53222530905
 23
22419.44825190838
 33
0.0
 14
31606.53222530905
 24
12419.44825190838
 34
0.0
 50
90.0
100
AcDbRotatedDimension
  0
LINE
  5
557
330
1F
100
AcDbEntity
  8
通り芯
  6
DASHDOT
 48
100.0
100
AcDbLine
 10
30607.10144990554
 20
9976.980780115084
 30
0.0
 11
30607.10144990554
 21
22479.91091161101
 31
0.0
  0
LINE
  5
558
330
1F
100
AcDbEntity
  8
画層1
  6
Continuous
100
AcDbLine
 10
30498.95144990563
 20
22419.44825190791
 30
0.0
 11
30498.95144990563
 21
10319.44825190791
 31
0.0
  0
LINE
  5
559
330
1F
100
AcDbEntity
  8
画層1
  6
Continuous
100
AcDbLine
 10
30715.25144990545
 20
10319.44825190791
 30
0.0
 11
30715.25144990545
 21
22419.44825190791
 31
0.0
  0
LINE
  5
55A
330
1F
100
AcDbEntity
  8
画層1-1
  6
DASHED
 48
100.0
100
AcDbLine
 10
30473.95144990563
 20
22359.44825190791
 30
0.0
 11
30473.95144990563
 21
14419.44825190791
 31
0.0
  0
LINE
  5
55B
330
1F
100
AcDbEntity
  8
画層1
  6
Continuous
100
AcDbLine
 10
30607.10144990554
 20
22399.44825190838
 30
0.0
 11
30607.10144990554
 21
14419.44825190837
 31
0.0
  0
DIMENSION
  5
55C
330
1F
100
AcDbEntity
  8
寸法
  6
Continuous
100
AcDbDimension
  2
*D5
 10
27007.10144990554
 20
17059.44825190837
 30
0.0
 11
26728.53002133411
 21
15739.44825187747
 31
0.0
 70
    32
 71
     5
 42
2640.000000061817
  3
1_100
100
AcDbAlignedDimension
 13
26007.10144990554
 23
14419.44825184656
 33
0.0
 14
26007.10144990554
 24
17059.44825190837
 34
0.0
 50
90.0
100
AcDbRotatedDimension
  0
DIMENSION
  5
55D
330
1F
100
AcDbEntity
  8
寸法
  6
Continuous
100
AcDbDimension
  2
*D6
 10
32607.10144990554
 20
17059.44825190837
 30
0.0
 11
32328.53002133411
 21
15739.4482518784
 31
0.0
 70
    32
 71
     5
 42
2640.000000059953
  3
1_100
100
AcDbAlignedDimension
 13
31606.53222530905
 23
14419.44825184842
 33
0.0
 14
31606.53222530905
 24
17059.44825190837
 34
0.0
 50
90.0
100
AcDbRotatedDimension
  0
LINE
  5
55E
330
1F
100
AcDbEntity
  8
画層1-1
  6
Continuous
100
AcDbLine
 10
25507.10144990554
 20
16431.71378300126
 30
0.0
 11
18240.25144990543
 21
22359.44825190838
 31
0.0
  0
LINE
  5
55F
330
1F
100
AcDbEntity
  8
寸法引出
  6
Continuous
100
AcDbLine
 10
19399.2450163291
 20
17059.44825190837
 30
0.0
 11
20301.89067423541
 21
14929.77473205045
 31
0.0
  0
LINE
  5
560
330
1F
100
AcDbEntity
  8
寸法引出
  6
Continuous
100
AcDbLine
 10
19583.2093887726
 20
19709.44825190837
 30
0.0
 11
20301.89067423541
 21
14929.77473205045
 31
0.0
  0
LEADER
  5
561
330
1F
100
AcDbEntity
  8
寸法引出
  6
Continuous
100
AcDbLeader
  3
1_100
 71
     0
 73
     0
 75
     1
 40
300.0
 41
1319.999999999999
 76
     3
 10
17975.72170853579
 20
17034.44825190837
 30
0.0
 10
17626.23283865407
 20
16200.98336108025
 30
0.0
 10
17566.23283865407
 20
16200.98336108025
 30
0.0
340
562
  0
MTEXT
  5
562
102
{ACAD_REACTORS
330
561
102
}
330
1F
100
AcDbEntity
  8
寸法文字
  6
Continuous
100
AcDbMText
 10
17466.23283865407
 20
16300.98336108025
 30
0.0
 40
300.0
 41
0.0
 71
     9
 72
     1
  1
バンド金具
  7
1_100
 73
     1
 44
1.0
1001
ACAD
1000
MTEXTBEGIN
1070
    73
1070
     1
1070
    44
1040
1.0
1070
    74
1070
     0
1000
MTEXTEND
  0
LINE
  5
563
330
1F
100
AcDbEntity
  8
画層1-1
  6
Continuous
100
AcDbLine
 10
25507.10144990554
 20
20347.18272081549
 30
0.0
 11
18240.25144990543
 21
14419.44825190837
 31
0.0
  0
LINE
  5
564
330
1F
100
AcDbEntity
  8
画層1
  6
Continuous
100
AcDbLine
 10
18215.25144990544
 20
10319.44825190838
 30
0.0
 11
18215.25144990544
 21
22419.44825190838
 31
0.0
  0
LINE
  5
565
330
1F
100
AcDbEntity
  8
通り芯
  6
DASHDOT
 48
100.0
100
AcDbLine
 10
18107.10144990554
 20
9976.980780115084
 30
0.0
 11
18107.10144990554
 21
22479.91091161101
 31
0.0
  0
LINE
  5
566
330
1F
100
AcDbEntity
  8
画層1
  6
Continuous
100
AcDbLine
 10
17998.95144990563
 20
22419.44825190838
 30
0.0
 11
17998.95144990563
 21
10319.44825190838
 31
0.0
  0
LINE
  5
567
330
1F
100
AcDbEntity
  8
DEFPOINTS
100
AcDbLine
 10
10455.51821704499
 20
22416.5982519084
 30
0.0
 11
11693.33357606932
 21
14356.34825190828
 31
0.0
  0
LINE
  5
568
330
1F
100
AcDbEntity
  8
DEFPOINTS
100
AcDbLine
 10
25507.10144990554
 20
22359.44825190768
 30
0.0
 11
25507.10144990554
 21
12419.44825190838
 31
0.0
  0
HATCH
  5
569
330
1F
100
AcDbEntity
  8
ﾈｯﾄ
 62
   230
370
    13
100
AcDbHatch
 10
0.0
 20
0.0
 30
0.0
210
0.0
220
0.0
230
1.0
  2
NET
 70
     0
 71
     0
 91
        1
 92
        7
 72
     0
 73
     1
 93
        4
 10
25507.10144990554
 20
22359.44825190768
 10
23402.49472837487
 20
22359.4482519078
 10
24621.8432536252
 20
14419.44825190837
 10
25507.10144990554
 20
14419.44825190837
 97
        0
 75
     0
 76
     1
 52
0.0
 41
1000.0
 77
     0
 78
     2
 53
0.0
 43
-260373.0997801692
 44
-376400.361095553
 45
0.0
 46
125.0
 79
     0
 53
90.0
 43
-260373.0997801692
 44
-376400.361095553
 45
-125.0
 46
0.0000000000000077
 79
     0
 47
49.3229675325369
 98
        1
 10
24693.55564244195
 20
19508.54510532677
  0
LINE
  5
56A
330
1F
100
AcDbEntity
  8
DEFPOINTS
100
AcDbLine
 10
23402.30141159251
 20
22360.70706775759
 30
0.0
 11
24631.34022550109
 21
14357.60706775818
 31
0.0
  0
LINE
  5
56B
330
1F
100
AcDbEntity
  8
画層1
  6
Continuous
100
AcDbLine
 10
8215.251449905444
 20
10319.44825190838
 30
0.0
 11
8215.251449905444
 21
22419.44825190838
 31
0.0
  0
LINE
  5
56C
330
1F
100
AcDbEntity
  8
通り芯
  6
DASHDOT
 48
100.0
100
AcDbLine
 10
8107.101449905538
 20
9976.980780115084
 30
0.0
 11
8107.101449905538
 21
22479.91091161101
 31
0.0
  0
LINE
  5
56D
330
1F
100
AcDbEntity
  8
画層1
  6
Continuous
100
AcDbLine
 10
7998.951449905631
 20
22419.44825190838
 30
0.0
 11
7998.951449905631
 21
10319.44825190838
 31
0.0
  0
LINE
  5
56E
330
1F
100
AcDbEntity
  8
画層1
  6
Continuous
100
AcDbLine
 10
8107.101449905538
 20
22384.44825190838
 30
0.0
 11
8107.101449905538
 21
14394.44825190838
 31
0.0
  0
HATCH
  5
56F
330
1F
100
AcDbEntity
  8
ﾈｯﾄ
 62
   230
370
    13
100
AcDbHatch
 10
0.0
 20
0.0
 30
0.0
210
0.0
220
0.0
230
1.0
  2
NET
 70
     0
 71
     0
 91
        2
 92
        7
 72
     0
 73
     1
 93
       22
 10
10480.74982443788
 20
22252.29825190846
 10
8315.251449905444
 20
22252.29825190846
 10
8315.251449905911
 20
22309.44825190849
 10
8265.251449905445
 20
22309.44825190837
 10
8265.251449905445
 20
22284.44825190837
 10
8215.251449905444
 20
22284.44825190837
 10
8215.251449905444
 20
19734.44825190837
 10
8265.251449905445
 20
19734.44825190837
 10
8265.251449905445
 20
19684.44825190838
 10
8215.251449905444
 20
19684.44825190838
 10
8215.251449905444
 20
17084.44825190837
 10
8265.251449905445
 20
17084.44825190837
 10
8265.251449905445
 20
17034.44825190837
 10
8215.251449905444
 20
17034.44825190837
 10
8215.251449905444
 20
14444.44825190838
 10
8265.251449905445
 20
14444.44825190838
 10
8265.251449905445
 20
14419.44825190837
 10
8327.901449905352
 20
14419.44825190837
 10
8327.901449905352
 20
14439.22453124713
 10
8482.901449905352
 20
14439.22453124713
 10
8482.901449905352
 20
14419.44825190837
 10
11683.64328741153
 20
14419.44825190837
 97
        0
 92
        7
 72
     0
 73
     1
 93
        8
 10
10480.74982443788
 20
22252.29825190835
 10
10464.29476216074
 20
22359.44825190838
 10
8495.251449905445
 20
22359.44825190838
 10
8495.251449905445
 20
22339.22453124713
 10
8340.701449905633
 20
22339.22453124713
 10
8340.701449905633
 20
22359.44825190838
 10
8315.251449905911
 20
22359.44825190838
 10
8315.251449905444
 20
22252.29825190846
 97
        0
 75
     0
 76
     1
 52
0.0
 41
1000.0
 77
     0
 78
     2
 53
0.0
 43
-260373.0997801692
 44
-376400.361095553
 45
0.0
 46
125.0
 79
     0
 53
90.0
 43
-260373.0997801692
 44
-376400.361095553
 45
-125.0
 46
0.0000000000000077
 79
     0
 47
6.721259618899004
 98
        2
 10
10259.47938762988
 20
17152.08601779848
 10
9670.872257100993
 20
22291.45564262647
  0
LINE
  5
570
330
1F
100
AcDbEntity
  8
画層1-1
  6
Continuous
100
AcDbLine
 10
17973.95144990563
 20
14419.44825190837
 30
0.0
 11
8240.251449905445
 21
22309.44825190837
 31
0.0
  0
LINE
  5
571
330
1F
100
AcDbEntity
  8
画層1-1
  6
Continuous
100
AcDbLine
 10
17973.95144990563
 20
22309.44825190837
 30
0.0
 11
8240.251449905445
 21
14419.44825190837
 31
0.0
  0
TEXT
  5
572
330
1F
100
AcDbEntity
  8
寸法
  6
Continuous
100
AcDbText
 10
29439.85851573822
 20
12464.24756443776
 30
0.0
 40
300.0
  1
▽GL
 41
0.75
  7
1_100
 72
     2
 11
30106.28708716679
 21
12464.24756443776
 31
0.0
100
AcDbText
 73
     1
  0
DIMENSION
  5
573
330
1F
100
AcDbEntity
  8
寸法
  6
Continuous
100
AcDbDimension
  2
*D7
 10
30832.10144990554
 20
9619.448251907215
 30
0.0
 11
29805.71121371129
 21
9800.781913496054
 31
0.0
 70
   160
  1
φ<>
 71
     5
 42
450.0
  3
1_100
100
AcDbAlignedDimension
 13
30382.10144990554
 23
10219.44825190721
 33
0.0
 14
30832.10144990554
 24
10219.44825190721
 34
0.0
100
AcDbRotatedDimension
  0
TEXT
  5
574
330
1F
100
AcDbEntity
  8
図面枠
  6
Continuous
 62
     3
100
AcDbText
 10
914.8024846775728
 20
643.7670152567822
 30
0.0
 40
300.0
  1
1/100
 41
0.75
  7
1_100
 11
914.8024846775728
 21
643.7670152567822
 31
0.0
100
AcDbText
 73
     1
  0
TEXT
  5
575
330
1F
100
AcDbEntity
  8
図面枠
  6
Continuous
 62
     3
100
AcDbText
 10
2637.17498377704
 20
643.9862627482304
 30
0.0
 40
300.0
  1
KS2-H10-1
 41
0.75
  7
1_100
 11
2637.17498377704
 21
643.9862627482304
 31
0.0
100
AcDbText
 73
     1
  0
LINE
  5
576
330
1F
100
AcDbEntity
  8
画層3-1
  6
Continuous
100
AcDbLine
 10
14132.50144990544
 20
12477.54825190847
 30
0.0
 11
16081.70144990563
 21
12477.54825190824
 31
0.0
  0
LINE
  5
577
330
1F
100
AcDbEntity
  8
画層3-1
  6
Continuous
100
AcDbLine
 10
14132.50144990544
 20
12439.44825190838
 30
0.0
 11
16081.70144990563
 21
12439.44825190838
 31
0.0
  0
DIMENSION
  5
578
330
1F
100
AcDbEntity
  8
画層3-寸法
  6
Continuous
100
AcDbDimension
  2
*D8
 10
16107.10144990554
 20
8019.448251908377
 30
0.0
 11
15107.10144990554
 21
8298.019680479807
 31
0.0
 70
    32
 71
     5
 42
2000.0
  3
1_100
100
AcDbAlignedDimension
 13
14107.10144990554
 23
10106.54228616595
 33
0.0
 14
16107.10144990554
 24
10106.54228616595
 34
0.0
100
AcDbRotatedDimension
  0
LINE
  5
579
330
1F
100
AcDbEntity
  8
画層3-1
  6
Continuous
100
AcDbLine
 10
14147.50144990544
 20
14356.3482519084
 30
0.0
 11
16066.70144990563
 21
14356.3482519084
 31
0.0
  0
LINE
  5
57A
330
1F
100
AcDbEntity
  8
画層3-2
  6
Continuous
100
AcDbLine
 10
14843.958751761
 20
13099.44825190838
 30
0.0
 11
14187.45144990563
 21
13099.44825190838
 31
0.0
  0
LINE
  5
57B
330
1F
100
AcDbEntity
  8
画層3-2
  6
Continuous
100
AcDbLine
 10
14187.45144990563
 20
13759.44825190838
 30
0.0
 11
16026.75144990591
 21
13759.44825190838
 31
0.0
  0
LEADER
  5
57C
330
1F
100
AcDbEntity
  8
寸法引出
  6
Continuous
100
AcDbLeader
  3
1_100_B
 71
     0
 73
     0
 74
     0
 75
     1
 40
300.0
 41
1845.0
 76
     3
 10
14172.45144990563
 20
14120.29179523882
 30
0.0
 10
14384.19061512418
 20
13858.73720848347
 30
0.0
 10
14464.19061512418
 20
13858.73720848347
 30
0.0
  0
MTEXT
  5
57D
102
{ACAD_REACTORS
330
57C
102
}
330
1F
100
AcDbEntity
  8
寸法文字
  6
Continuous
100
AcDbMText
 10
14514.19061512418
 20
13908.73720848347
 30
0.0
 40
300.0
 41
0.0
 71
     7
 72
     1
  1
FB-4.5×19
  7
1_100
 73
     1
 44
1.0
1001
ACAD
1000
MTEXTBEGIN
1070
    73
1070
     1
1070
    44
1040
1.0
1070
    74
1070
     0
1000
MTEXTEND
  0
MTEXT
  5
57E
102
{ACAD_REACTORS
330
57F
102
}
330
1F
100
AcDbEntity
  8
寸法文字
  6
Continuous
100
AcDbMText
 10
16580.88410707853
 20
14991.69065946733
 30
0.0
 40
300.0
 41
0.0
 71
     9
 72
     1
  1
タンバックル12mm
  7
1_100
 73
     1
 44
1.0
1001
ACAD
1000
MTEXTBEGIN
1070
    73
1070
     1
1070
    44
1040
1.0
1070
    74
1070
     0
1000
MTEXTEND
  0
LEADER
  5
57F
330
1F
100
AcDbEntity
  8
寸法引出
  6
Continuous
100
AcDbLeader
  3
1_100
 71
     0
 73
     0
 75
     1
 40
300.0
 41
2603.571428571428
 76
     3
 10
17784.73686543397
 20
14547.98477996277
 30
0.0
 10
16740.88410707853
 20
14891.69065946733
 30
0.0
 10
16680.88410707853
 20
14891.69065946733
 30
0.0
340
57E
  0
LINE
  5
580
330
1F
100
AcDbEntity
  8
画層1
  6
Continuous
100
AcDbLine
 10
25507.10144990554
 20
14419.44825190837
 30
0.0
 11
8107.101449905538
 21
14419.44825190837
 31
0.0
  0
LINE
  5
581
330
1F
100
AcDbEntity
  8
画層2
  6
Continuous
100
AcDbLine
 10
25507.10144990554
 20
12419.44825190838
 30
0.0
 11
4055.750587038803
 21
12419.44825190838
 31
0.0
  0
LINE
  5
582
330
1F
100
AcDbEntity
  8
画層3-1
  6
Continuous
100
AcDbLine
 10
8107.101449905538
 20
14394.44825190838
 30
0.0
 11
25507.10144990554
 21
14394.44825190838
 31
0.0
  0
DIMENSION
  5
583
330
1F
100
AcDbEntity
  8
寸法
  6
Continuous
100
AcDbDimension
  2
*D9
 10
18107.10144990554
 20
7319.448251908609
 30
0.0
 11
13107.10144990554
 21
7598.019680480039
 31
0.0
 70
    32
 71
     5
 42
10000.0
  3
1_100
100
AcDbAlignedDimension
 13
8107.101449905538
 23
8944.448251908378
 33
0.0
 14
18107.10144990554
 24
9976.980780115084
 34
0.0
100
AcDbRotatedDimension
  0
LINE
  5
584
330
1F
100
AcDbEntity
  8
画層3-1
  6
Continuous
100
AcDbLine
 10
14132.50144990544
 20
13084.44825190838
 30
0.0
 11
14132.50144990544
 21
12477.54825190847
 31
0.0
  0
LINE
  5
585
330
1F
100
AcDbEntity
  8
画層3-2
  6
Continuous
100
AcDbLine
 10
14172.45144990563
 20
13084.44825190838
 30
0.0
 11
14172.45144990563
 21
12419.44825190838
 31
0.0
  0
LINE
  5
586
330
1F
100
AcDbEntity
  8
画層3-1
  6
Continuous
100
AcDbLine
 10
14081.70144990563
 20
13084.44825190838
 30
0.0
 11
14081.70144990563
 21
12477.54825190835
 31
0.0
  0
LINE
  5
587
330
1F
100
AcDbEntity
  8
画層3-2
  6
Continuous
100
AcDbLine
 10
14041.75144990591
 20
12419.44825190838
 30
0.0
 11
14041.75144990591
 21
13084.44825190838
 31
0.0
  0
LINE
  5
588
330
1F
100
AcDbEntity
  8
画層3-1
  6
Continuous
100
AcDbLine
 10
12132.50144990544
 20
12520.78174975208
 30
0.0
 11
12132.50144990544
 21
12477.54825190847
 31
0.0
  0
LINE
  5
589
330
1F
100
AcDbEntity
  8
画層3-1
  6
Continuous
100
AcDbLine
 10
12081.70144990563
 20
12520.78174975208
 30
0.0
 11
12081.70144990563
 21
12477.54825190835
 31
0.0
  0
LINE
  5
58A
330
1F
100
AcDbEntity
  8
画層3-2
  6
Continuous
100
AcDbLine
 10
12041.75144990591
 20
12419.44825190838
 30
0.0
 11
12041.75144990591
 21
12520.78174975208
 31
0.0
  0
LINE
  5
58B
330
1F
100
AcDbEntity
  8
画層3-2
  6
Continuous
100
AcDbLine
 10
12172.45144990563
 20
12520.78174975208
 30
0.0
 11
12172.45144990563
 21
12419.44825190838
 31
0.0
  0
LINE
  5
58C
330
1F
100
AcDbEntity
  8
画層3-2
  6
Continuous
100
AcDbLine
 10
10172.45144990563
 20
13084.44825190838
 30
0.0
 11
10172.45144990563
 21
12419.44825190838
 31
0.0
  0
LINE
  5
58D
330
1F
100
AcDbEntity
  8
画層3-1
  6
Continuous
100
AcDbLine
 10
10132.50144990544
 20
13084.44825190838
 30
0.0
 11
10132.50144990544
 21
12477.54825190847
 31
0.0
  0
LINE
  5
58E
330
1F
100
AcDbEntity
  8
画層3-通り芯
  6
DASHDOT
 48
100.0
100
AcDbLine
 10
12107.10144990554
 20
11873.07869677661
 30
0.0
 11
12107.10144990554
 21
12520.78174975208
 31
0.0
  0
LEADER
  5
58F
330
1F
100
AcDbEntity
  8
寸法引出
  6
Continuous
100
AcDbLeader
  3
1_100_B
 71
     0
 73
     0
 74
     0
 75
     1
 40
300.0
 41
3098.571428571429
 76
     3
 10
10404.39111917477
 20
12477.54825190835
 30
0.0
 10
10465.97365408681
 20
12566.24947893255
 30
0.0
 10
10545.97365408681
 20
12566.24947893255
 30
0.0
213
69.95590756242018
223
0.0
233
0.0
  0
LINE
  5
590
330
1F
100
AcDbEntity
  8
画層3-通り芯
  6
DASHDOT
 48
100.0
100
AcDbLine
 10
14107.10144990554
 20
11873.07869677661
 30
0.0
 11
14107.10144990554
 21
14419.44825190849
 31
0.0
  0
LINE
  5
591
330
1F
100
AcDbEntity
  8
画層3-通り芯
  6
DASHDOT
 48
100.0
100
AcDbLine
 10
10107.10144990554
 20
11873.07869677661
 30
0.0
 11
10107.10144990554
 21
14419.44825190849
 31
0.0
  0
DIMENSION
  5
592
330
1F
100
AcDbEntity
  8
画層3-寸法
  6
Continuous
100
AcDbDimension
  2
*D10
 10
14107.10144990554
 20
8019.448251908377
 30
0.0
 11
13107.10144990554
 21
8298.019680479807
 31
0.0
 70
    32
 71
     5
 42
2000.0
  3
1_100
100
AcDbAlignedDimension
 13
12107.10144990554
 23
10106.54228616595
 33
0.0
 14
14107.10144990554
 24
10106.54228616595
 34
0.0
100
AcDbRotatedDimension
  0
LINE
  5
593
330
1F
100
AcDbEntity
  8
画層3-1
  6
Continuous
100
AcDbLine
 10
12132.50144990544
 20
12477.54825190847
 30
0.0
 11
14081.70144990563
 21
12477.54825190847
 31
0.0
  0
LINE
  5
594
330
1F
100
AcDbEntity
  8
画層3-1
  6
Continuous
100
AcDbLine
 10
12132.50144990544
 20
12439.44825190838
 30
0.0
 11
14081.70144990563
 21
12439.44825190838
 31
0.0
  0
LINE
  5
595
330
1F
100
AcDbEntity
  8
画層3-1
  6
Continuous
100
AcDbLine
 10
12041.75144990591
 20
12497.54825190847
 30
0.0
 11
12172.45144990563
 21
12497.54825190847
 31
0.0
  0
HATCH
  5
596
330
1F
100
AcDbEntity
  8
画層3-3
100
AcDbHatch
 10
0.0
 20
0.0
 30
0.0
210
0.0
220
0.0
230
1.0
  2
PLAST
 70
     0
 71
     0
 91
        1
 92
        7
 72
     0
 73
     1
 93
        4
 10
12232.10144990554
 20
12419.44825190838
 10
11982.10144990554
 20
12419.44825190838
 10
11982.10144990554
 20
11969.44825190838
 10
12232.10144990554
 20
11969.44825190838
 97
        0
 75
     0
 76
     1
 52
45.0
 41
1800.0
 77
     0
 78
     3
 53
45.0
 43
5964.758794139714
 44
5977.781235397177
 45
-318.1980515339463
 46
318.1980515339464
 79
     0
 53
45.0
 43
5924.984037697889
 44
6017.555991838884
 45
-318.1980515339463
 46
318.1980515339464
 79
     0
 53
45.0
 43
5885.209281256067
 44
6057.330748280708
 45
-318.1980515339463
 46
318.1980515339464
 79
     0
 47
2.4753793195157
 98
        1
 10
12220.99464766878
 20
12178.65569991615
  0
LWPOLYLINE
  5
597
330
1F
100
AcDbEntity
  8
画層3-2
100
AcDbPolyline
 90
        4
 70
     0
 43
0.0
 10
12232.10144990554
 20
12419.44825190838
 10
12232.10144990554
 20
11969.44825190838
 10
11982.10144990554
 20
11969.44825190838
 10
11982.10144990554
 20
12419.44825190838
  0
LINE
  5
598
330
1F
100
AcDbEntity
  8
画層3-1
  6
Continuous
100
AcDbLine
 10
10132.50144990544
 20
12439.44825190838
 30
0.0
 11
12081.70144990563
 21
12439.44825190838
 31
0.0
  0
LINE
  5
599
330
1F
100
AcDbEntity
  8
画層3-1
  6
Continuous
100
AcDbLine
 10
10132.50144990544
 20
12477.54825190835
 30
0.0
 11
12081.70144990563
 21
12477.54825190847
 31
0.0
  0
DIMENSION
  5
59A
330
1F
100
AcDbEntity
  8
画層3-寸法
  6
Continuous
100
AcDbDimension
  2
*D11
 10
11602.10144990554
 20
11969.44825190826
 30
0.0
 11
11347.50277918634
 21
12054.82214513441
 31
0.0
 70
   160
 71
     5
 42
450.0
  3
1_100_B
100
AcDbAlignedDimension
 13
11982.10144990554
 23
12419.44825190826
 33
0.0
 14
11982.10144990554
 24
11969.44825190826
 34
0.0
 50
90.0
100
AcDbRotatedDimension
  0
DIMENSION
  5
59B
330
1F
100
AcDbEntity
  8
画層3-寸法
  6
Continuous
100
AcDbDimension
  2
*D12
 10
12232.10144990554
 20
11589.44825190826
 30
0.0
 11
12107.10144990554
 21
11389.44825190826
 31
0.0
 70
    32
  1
□<>
 71
     5
 42
250.0
  3
1_100_B
100
AcDbAlignedDimension
 13
11982.10144990554
 23
11969.44825190826
 33
0.0
 14
12232.10144990554
 24
11969.44825190826
 34
0.0
100
AcDbRotatedDimension
1001
ACAD
1000
DSTYLE
1002
{
1070
    77
1070
     2
1070
   174
1070
     1
1002
}
  0
LINE
  5
59C
330
1F
100
AcDbEntity
  8
画層3-1
  6
Continuous
100
AcDbLine
 10
14041.75144990591
 20
12497.54825190847
 30
0.0
 11
14172.45144990563
 21
12497.54825190847
 31
0.0
  0
HATCH
  5
59D
330
1F
100
AcDbEntity
  8
画層3-3
100
AcDbHatch
 10
0.0
 20
0.0
 30
0.0
210
0.0
220
0.0
230
1.0
  2
PLAST
 70
     0
 71
     0
 91
        1
 92
        7
 72
     0
 73
     1
 93
        4
 10
14232.10144990554
 20
12419.44825190838
 10
13982.10144990554
 20
12419.44825190838
 10
13982.10144990554
 20
11969.44825190838
 10
14232.10144990554
 20
11969.44825190838
 97
        0
 75
     0
 76
     1
 52
45.0
 41
1800.0
 77
     0
 78
     3
 53
45.0
 43
7964.758794139716
 44
5977.781235397177
 45
-318.1980515339463
 46
318.1980515339464
 79
     0
 53
45.0
 43
7924.984037697889
 44
6017.555991838884
 45
-318.1980515339463
 46
318.1980515339464
 79
     0
 53
45.0
 43
7885.209281256066
 44
6057.330748280708
 45
-318.1980515339463
 46
318.1980515339464
 79
     0
 47
2.4753793195157
 98
        1
 10
14220.99464766878
 20
12178.65569991615
  0
LWPOLYLINE
  5
59E
330
1F
100
AcDbEntity
  8
画層3-2
100
AcDbPolyline
 90
        4
 70
     0
 43
0.0
 10
14232.10144990554
 20
12419.44825190838
 10
14232.10144990554
 20
11969.44825190838
 10
13982.10144990554
 20
11969.44825190838
 10
13982.10144990554
 20
12419.44825190838
  0
LINE
  5
59F
330
1F
100
AcDbEntity
  8
画層3-1
  6
Continuous
100
AcDbLine
 10
12147.50144990544
 20
14356.34825190828
 30
0.0
 11
14066.70144990563
 21
14356.3482519084
 31
0.0
  0
LINE
  5
5A0
330
1F
100
AcDbEntity
  8
画層3-2
  6
Continuous
100
AcDbLine
 10
14026.75144990591
 20
13099.44825190838
 30
0.0
 11
12187.45144990563
 21
13099.44825190838
 31
0.0
  0
LINE
  5
5A1
330
1F
100
AcDbEntity
  8
画層3-2
  6
Continuous
100
AcDbLine
 10
12187.45144990563
 20
13759.44825190838
 30
0.0
 11
14026.75144990591
 21
13759.44825190838
 31
0.0
  0
LINE
  5
5A2
330
1F
100
AcDbEntity
  8
画層3-2
  6
Continuous
100
AcDbLine
 10
12172.45144990563
 20
14356.3482519084
 30
0.0
 11
12172.45144990563
 21
14281.97913482665
 31
0.0
  0
LINE
  5
5A3
330
1F
100
AcDbEntity
  8
画層3-1
  6
Continuous
100
AcDbLine
 10
12132.50144990544
 20
14341.34825190828
 30
0.0
 11
12132.50144990544
 21
14281.97913482665
 31
0.0
  0
LINE
  5
5A4
330
1F
100
AcDbEntity
  8
画層3-1
  6
Continuous
100
AcDbLine
 10
12081.70144990563
 20
14341.3482519084
 30
0.0
 11
12081.70144990563
 21
14281.97913482665
 31
0.0
  0
ARC
  5
5A5
330
1F
100
AcDbEntity
  8
画層3-1
  6
Continuous
100
AcDbCircle
 10
12147.50144990544
 20
14341.34825190828
 30
0.0
 40
15.0
100
AcDbArc
 50
90.0
 51
180.0
  0
LINE
  5
5A6
330
1F
100
AcDbEntity
  8
画層3-1
  6
Continuous
100
AcDbLine
 10
12142.90144990582
 20
14341.34825190828
 30
0.0
 11
12157.90144990582
 21
14356.34825190828
 31
0.0
  0
LINE
  5
5A7
330
1F
100
AcDbEntity
  8
画層3-1
  6
Continuous
100
AcDbLine
 10
12157.90144990582
 20
14356.34825190828
 30
0.0
 11
12157.90144990582
 21
14394.44825190838
 31
0.0
  0
LINE
  5
5A8
330
1F
100
AcDbEntity
  8
画層3-1
  6
Continuous
100
AcDbLine
 10
12142.90144990582
 20
14341.34825190828
 30
0.0
 11
12071.30144990572
 21
14341.3482519084
 31
0.0
  0
LINE
  5
5A9
330
1F
100
AcDbEntity
  8
画層3-1
  6
Continuous
100
AcDbLine
 10
12056.30144990572
 20
14356.3482519084
 30
0.0
 11
12071.30144990572
 21
14341.3482519084
 31
0.0
  0
LINE
  5
5AA
330
1F
100
AcDbEntity
  8
画層3-1
  6
Continuous
100
AcDbLine
 10
12056.30144990572
 20
14394.44825190838
 30
0.0
 11
12056.30144990572
 21
14356.3482519084
 31
0.0
  0
ARC
  5
5AB
330
1F
100
AcDbEntity
  8
画層3-1
  6
Continuous
100
AcDbCircle
 10
12066.70144990563
 20
14341.3482519084
 30
0.0
 40
15.0
100
AcDbArc
 50
0.0
 51
90.0
  0
LINE
  5
5AC
330
1F
100
AcDbEntity
  8
画層3-通り芯
  6
DASHDOT
 48
100.0
100
AcDbLine
 10
12107.10144990554
 20
14281.97913482665
 30
0.0
 11
12107.10144990554
 21
14419.44825190849
 31
0.0
  0
LINE
  5
5AD
330
1F
100
AcDbEntity
  8
画層3-2
  6
Continuous
100
AcDbLine
 10
12041.75144990591
 20
14281.97913482665
 30
0.0
 11
12041.75144990544
 21
14356.3482519084
 31
0.0
  0
LINE
  5
5AE
330
1F
100
AcDbEntity
  8
画層3-1
  6
Continuous
100
AcDbLine
 10
10157.90144990581
 20
14356.34825190828
 30
0.0
 11
10157.90144990581
 21
14394.44825190838
 31
0.0
  0
LINE
  5
5AF
330
1F
100
AcDbEntity
  8
画層3-1
  6
Continuous
100
AcDbLine
 10
10142.90144990582
 20
14341.34825190828
 30
0.0
 11
10157.90144990581
 21
14356.34825190828
 31
0.0
  0
ARC
  5
5B0
330
1F
100
AcDbEntity
  8
画層3-1
  6
Continuous
100
AcDbCircle
 10
10147.50144990544
 20
14341.34825190828
 30
0.0
 40
15.0
100
AcDbArc
 50
90.0
 51
180.0
  0
LINE
  5
5B1
330
1F
100
AcDbEntity
  8
画層3-1
  6
Continuous
100
AcDbLine
 10
10147.50144990544
 20
14356.34825190828
 30
0.0
 11
12066.70144990563
 21
14356.34825190828
 31
0.0
  0
LINE
  5
5B2
330
1F
100
AcDbEntity
  8
画層3-1
  6
Continuous
100
AcDbLine
 10
12187.45144990563
 20
13744.44825190838
 30
0.0
 11
12187.45144990563
 21
13774.44825190837
 31
0.0
  0
LINE
  5
5B3
330
1F
100
AcDbEntity
  8
画層3-2
  6
Continuous
100
AcDbLine
 10
12172.45144990563
 20
13816.16525518891
 30
0.0
 11
12172.45144990563
 21
13774.44825190837
 31
0.0
  0
LINE
  5
5B4
330
1F
100
AcDbEntity
  8
画層3-1
  6
Continuous
100
AcDbLine
 10
12132.50144990544
 20
13816.16525518891
 30
0.0
 11
12132.50144990544
 21
13774.44825190837
 31
0.0
  0
LINE
  5
5B5
330
1F
100
AcDbEntity
  8
画層3-1
  6
Continuous
100
AcDbLine
 10
12081.70144990563
 20
13816.16525518891
 30
0.0
 11
12081.70144990563
 21
13774.44825190837
 31
0.0
  0
LINE
  5
5B6
330
1F
100
AcDbEntity
  8
画層3-2
  6
Continuous
100
AcDbLine
 10
12041.75144990591
 20
13774.44825190837
 30
0.0
 11
12041.75144990591
 21
13816.16525518891
 31
0.0
  0
LINE
  5
5B7
330
1F
100
AcDbEntity
  8
画層3-1
  6
Continuous
100
AcDbLine
 10
12026.75144990591
 20
13774.44825190837
 30
0.0
 11
12026.75144990591
 21
13744.44825190838
 31
0.0
  0
LINE
  5
5B8
330
1F
100
AcDbEntity
  8
画層3-1
  6
Continuous
100
AcDbLine
 10
12026.75144990591
 20
13744.44825190838
 30
0.0
 11
12187.45144990563
 21
13744.44825190838
 31
0.0
  0
LINE
  5
5B9
330
1F
100
AcDbEntity
  8
画層3-1
  6
Continuous
100
AcDbLine
 10
12187.45144990563
 20
13774.44825190837
 30
0.0
 11
12026.75144990591
 21
13774.44825190837
 31
0.0
  0
LINE
  5
5BA
330
1F
100
AcDbEntity
  8
画層3-2
  6
Continuous
100
AcDbLine
 10
12172.45144990563
 20
13084.44825190838
 30
0.0
 11
12172.45144990563
 21
13018.6819083958
 31
0.0
  0
LINE
  5
5BB
330
1F
100
AcDbEntity
  8
画層3-1
  6
Continuous
100
AcDbLine
 10
12132.50144990544
 20
13084.44825190838
 30
0.0
 11
12132.50144990544
 21
13018.6819083958
 31
0.0
  0
LINE
  5
5BC
330
1F
100
AcDbEntity
  8
画層3-1
  6
Continuous
100
AcDbLine
 10
12187.45144990563
 20
13084.44825190838
 30
0.0
 11
12187.45144990563
 21
13114.44825190838
 31
0.0
  0
LINE
  5
5BD
330
1F
100
AcDbEntity
  8
画層3-1
  6
Continuous
100
AcDbLine
 10
12081.70144990563
 20
13084.44825190838
 30
0.0
 11
12081.70144990563
 21
13018.6819083958
 31
0.0
  0
LINE
  5
5BE
330
1F
100
AcDbEntity
  8
画層3-1
  6
Continuous
100
AcDbLine
 10
12026.75144990591
 20
13114.44825190838
 30
0.0
 11
12026.75144990591
 21
13084.44825190838
 31
0.0
  0
LINE
  5
5BF
330
1F
100
AcDbEntity
  8
画層3-2
  6
Continuous
100
AcDbLine
 10
12041.75144990591
 20
13018.6819083958
 30
0.0
 11
12041.75144990591
 21
13084.44825190838
 31
0.0
  0
LINE
  5
5C0
330
1F
100
AcDbEntity
  8
画層3-1
  6
Continuous
100
AcDbLine
 10
12026.75144990591
 20
13084.44825190838
 30
0.0
 11
12187.45144990563
 21
13084.44825190838
 31
0.0
  0
LINE
  5
5C1
330
1F
100
AcDbEntity
  8
画層3-1
  6
Continuous
100
AcDbLine
 10
12187.45144990563
 20
13114.44825190838
 30
0.0
 11
12026.75144990591
 21
13114.44825190838
 31
0.0
  0
LINE
  5
5C2
330
1F
100
AcDbEntity
  8
画層3-2
  6
Continuous
100
AcDbLine
 10
12172.45144990563
 20
13744.44825190838
 30
0.0
 11
12172.45144990563
 21
13114.44825190838
 31
0.0
  0
LINE
  5
5C3
330
1F
100
AcDbEntity
  8
画層3-1
  6
Continuous
100
AcDbLine
 10
12132.50144990544
 20
13744.44825190838
 30
0.0
 11
12132.50144990544
 21
13114.44825190838
 31
0.0
  0
LINE
  5
5C4
330
1F
100
AcDbEntity
  8
画層3-2
  6
Continuous
100
AcDbLine
 10
12041.75144990591
 20
13114.44825190838
 30
0.0
 11
12041.75144990591
 21
13744.44825190838
 31
0.0
  0
LINE
  5
5C5
330
1F
100
AcDbEntity
  8
画層3-1
  6
Continuous
100
AcDbLine
 10
12081.70144990563
 20
13744.44825190838
 30
0.0
 11
12081.70144990563
 21
13114.44825190838
 31
0.0
  0
LINE
  5
5C6
330
1F
100
AcDbEntity
  8
画層3-通り芯
  6
DASHDOT
 48
100.0
100
AcDbLine
 10
12107.10144990554
 20
13018.6819083958
 30
0.0
 11
12107.10144990554
 21
13816.16525518891
 31
0.0
  0
LINE
  5
5C7
330
1F
100
AcDbEntity
  8
画層3-1
  6
Continuous
100
AcDbLine
 10
10187.45144990563
 20
13744.44825190838
 30
0.0
 11
10187.45144990563
 21
13774.44825190837
 31
0.0
  0
LINE
  5
5C8
330
1F
100
AcDbEntity
  8
画層3-1
  6
Continuous
100
AcDbLine
 10
10187.45144990563
 20
13084.44825190838
 30
0.0
 11
10187.45144990563
 21
13114.44825190838
 31
0.0
  0
LINE
  5
5C9
330
1F
100
AcDbEntity
  8
画層3-2
  6
Continuous
100
AcDbLine
 10
10172.45144990563
 20
13744.44825190838
 30
0.0
 11
10172.45144990563
 21
13114.44825190838
 31
0.0
  0
LINE
  5
5CA
330
1F
100
AcDbEntity
  8
画層3-1
  6
Continuous
100
AcDbLine
 10
10132.50144990544
 20
13744.44825190838
 30
0.0
 11
10132.50144990544
 21
13114.44825190838
 31
0.0
  0
LINE
  5
5CB
330
1F
100
AcDbEntity
  8
寸法引出
  6
Continuous
100
AcDbLine
 10
10470.59607394376
 20
13262.96835117283
 30
0.0
 11
10319.63843785377
 21
13759.44825190838
 31
0.0
  0
LINE
  5
5CC
330
1F
100
AcDbEntity
  8
画層3-2
  6
Continuous
100
AcDbLine
 10
10187.45144990563
 20
13759.44825190838
 30
0.0
 11
12026.75144990591
 21
13759.44825190838
 31
0.0
  0
LINE
  5
5CD
330
1F
100
AcDbEntity
  8
画層3-2
  6
Continuous
100
AcDbLine
 10
12026.75144990591
 20
13099.44825190838
 30
0.0
 11
10187.45144990563
 21
13099.44825190838
 31
0.0
  0
LEADER
  5
5CE
330
1F
100
AcDbEntity
  8
寸法引出
  6
Continuous
100
AcDbLeader
  3
1_100_B
 71
     0
 73
     0
 74
     0
 75
     1
 40
300.0
 41
1095.0
 76
     3
 10
10314.13788497459
 20
13099.44825190838
 30
0.0
 10
10470.59607394376
 20
13262.96835117283
 30
0.0
 10
10550.59607394376
 20
13262.96835117283
 30
0.0
  0
MTEXT
  5
5CF
102
{ACAD_REACTORS
330
5CE
102
}
330
1F
100
AcDbEntity
  8
寸法文字
  6
Continuous
100
AcDbMText
 10
10600.59607394376
 20
13312.96835117283
 30
0.0
 40
300.0
 41
0.0
 71
     7
 72
     1
  1
4mm線
  7
1_100
 73
     1
 44
1.0
1001
ACAD
1000
MTEXTBEGIN
1070
    73
1070
     1
1070
    44
1040
1.0
1070
    74
1070
     0
1000
MTEXTEND
  0
LEADER
  5
5D0
330
1F
100
AcDbEntity
  8
寸法引出
  6
Continuous
100
AcDbLeader
  3
1_100_B
 71
     0
 73
     0
 74
     0
 75
     1
 40
300.0
 41
2635.714285714287
 76
     3
 10
10132.50144990544
 20
13838.77572126171
 30
0.0
 10
10230.86375448305
 20
13909.58042907269
 30
0.0
 10
10310.86375448305
 20
13909.58042907269
 30
0.0
  0
MTEXT
  5
5D1
102
{ACAD_REACTORS
330
5D0
102
}
330
1F
100
AcDbEntity
  8
寸法文字
  6
Continuous
100
AcDbMText
 10
10360.86375448305
 20
13959.58042907269
 30
0.0
 40
300.0
 41
0.0
 71
     7
 72
     1
  1
主柱φ50.8×2.3ｔ
  7
1_100
 73
     1
 44
1.0
1001
ACAD
1000
MTEXTBEGIN
1070
    73
1070
     1
1070
    44
1040
1.0
1070
    74
1070
     0
1000
MTEXTEND
  0
MTEXT
  5
5D2
102
{ACAD_REACTORS
330
58F
102
}
330
1F
100
AcDbEntity
  8
寸法文字
  6
Continuous
100
AcDbMText
 10
10526.01774652453
 20
12616.24947893255
 30
0.0
 40
300.0
 41
0.0
 71
     7
 72
     1
  1
φ38.1×1.6ｔ（上下）
  7
1_100
 73
     1
 44
1.0
1001
ACAD
1000
MTEXTBEGIN
1070
    73
1070
     1
1070
    44
1040
1.0
1070
    74
1070
     0
1000
MTEXTEND
  0
LINE
  5
5D3
330
1F
100
AcDbEntity
  8
画層3-2
  6
Continuous
100
AcDbLine
 10
10172.45144990563
 20
14356.3482519084
 30
0.0
 11
10172.45144990563
 21
13774.44825190837
 31
0.0
  0
LINE
  5
5D4
330
1F
100
AcDbEntity
  8
画層3-1
  6
Continuous
100
AcDbLine
 10
10132.50144990544
 20
14341.34825190828
 30
0.0
 11
10132.50144990544
 21
13774.44825190837
 31
0.0
  0
LINE
  5
5D5
330
1F
100
AcDbEntity
  8
画層3-1
  6
Continuous
100
AcDbLine
 10
14157.90144990582
 20
14356.34825190828
 30
0.0
 11
14157.90144990582
 21
14394.44825190838
 31
0.0
  0
LINE
  5
5D6
330
1F
100
AcDbEntity
  8
画層3-1
  6
Continuous
100
AcDbLine
 10
14142.90144990582
 20
14341.34825190828
 30
0.0
 11
14157.90144990582
 21
14356.34825190828
 31
0.0
  0
LINE
  5
5D7
330
1F
100
AcDbEntity
  8
画層3-1
  6
Continuous
100
AcDbLine
 10
14142.90144990582
 20
14341.34825190828
 30
0.0
 11
14071.30144990572
 21
14341.3482519084
 31
0.0
  0
ARC
  5
5D8
330
1F
100
AcDbEntity
  8
画層3-1
  6
Continuous
100
AcDbCircle
 10
14147.50144990544
 20
14341.34825190828
 30
0.0
 40
15.0
100
AcDbArc
 50
90.0
 51
180.0
  0
LINE
  5
5D9
330
1F
100
AcDbEntity
  8
画層3-1
  6
Continuous
100
AcDbLine
 10
14056.30144990572
 20
14394.44825190838
 30
0.0
 11
14056.30144990572
 21
14356.3482519084
 31
0.0
  0
LINE
  5
5DA
330
1F
100
AcDbEntity
  8
画層3-1
  6
Continuous
100
AcDbLine
 10
14056.30144990572
 20
14356.3482519084
 30
0.0
 11
14071.30144990572
 21
14341.3482519084
 31
0.0
  0
ARC
  5
5DB
330
1F
100
AcDbEntity
  8
画層3-1
  6
Continuous
100
AcDbCircle
 10
14066.70144990563
 20
14341.3482519084
 30
0.0
 40
15.0
100
AcDbArc
 50
0.0
 51
90.0
  0
LINE
  5
5DC
330
1F
100
AcDbEntity
  8
画層3-1
  6
Continuous
100
AcDbLine
 10
14187.45144990563
 20
13744.44825190838
 30
0.0
 11
14187.45144990563
 21
13774.44825190837
 31
0.0
  0
LINE
  5
5DD
330
1F
100
AcDbEntity
  8
画層3-1
  6
Continuous
100
AcDbLine
 10
14187.45144990563
 20
13084.44825190838
 30
0.0
 11
14187.45144990563
 21
13114.44825190838
 31
0.0
  0
LINE
  5
5DE
330
1F
100
AcDbEntity
  8
画層3-1
  6
Continuous
100
AcDbLine
 10
14132.50144990544
 20
13744.44825190838
 30
0.0
 11
14132.50144990544
 21
13114.44825190838
 31
0.0
  0
LINE
  5
5DF
330
1F
100
AcDbEntity
  8
画層3-2
  6
Continuous
100
AcDbLine
 10
14172.45144990563
 20
13744.44825190838
 30
0.0
 11
14172.45144990563
 21
13114.44825190838
 31
0.0
  0
LINE
  5
5E0
330
1F
100
AcDbEntity
  8
画層3-1
  6
Continuous
100
AcDbLine
 10
14081.70144990563
 20
13744.44825190838
 30
0.0
 11
14081.70144990563
 21
13114.44825190838
 31
0.0
  0
LINE
  5
5E1
330
1F
100
AcDbEntity
  8
画層3-1
  6
Continuous
100
AcDbLine
 10
14026.75144990591
 20
13774.44825190837
 30
0.0
 11
14026.75144990591
 21
13744.44825190838
 31
0.0
  0
LINE
  5
5E2
330
1F
100
AcDbEntity
  8
画層3-1
  6
Continuous
100
AcDbLine
 10
14026.75144990591
 20
13114.44825190838
 30
0.0
 11
14026.75144990591
 21
13084.44825190838
 31
0.0
  0
LINE
  5
5E3
330
1F
100
AcDbEntity
  8
画層3-2
  6
Continuous
100
AcDbLine
 10
14041.75144990591
 20
13114.44825190838
 30
0.0
 11
14041.75144990591
 21
13744.44825190838
 31
0.0
  0
LINE
  5
5E4
330
1F
100
AcDbEntity
  8
画層3-1
  6
Continuous
100
AcDbLine
 10
14187.45144990563
 20
13774.44825190837
 30
0.0
 11
14026.75144990591
 21
13774.44825190837
 31
0.0
  0
LINE
  5
5E5
330
1F
100
AcDbEntity
  8
画層3-1
  6
Continuous
100
AcDbLine
 10
14026.75144990591
 20
13744.44825190838
 30
0.0
 11
14187.45144990563
 21
13744.44825190838
 31
0.0
  0
LINE
  5
5E6
330
1F
100
AcDbEntity
  8
画層3-1
  6
Continuous
100
AcDbLine
 10
14187.45144990563
 20
13114.44825190838
 30
0.0
 11
14026.75144990591
 21
13114.44825190838
 31
0.0
  0
LINE
  5
5E7
330
1F
100
AcDbEntity
  8
画層3-1
  6
Continuous
100
AcDbLine
 10
14026.75144990591
 20
13084.44825190838
 30
0.0
 11
14187.45144990563
 21
13084.44825190838
 31
0.0
  0
LINE
  5
5E8
330
1F
100
AcDbEntity
  8
画層3-1
  6
Continuous
100
AcDbLine
 10
14132.50144990544
 20
14341.34825190828
 30
0.0
 11
14132.50144990544
 21
13774.44825190837
 31
0.0
  0
LINE
  5
5E9
330
1F
100
AcDbEntity
  8
画層3-2
  6
Continuous
100
AcDbLine
 10
14172.45144990563
 20
14356.3482519084
 30
0.0
 11
14172.45144990563
 21
13774.44825190837
 31
0.0
  0
LINE
  5
5EA
330
1F
100
AcDbEntity
  8
画層3-2
  6
Continuous
100
AcDbLine
 10
14041.75144990591
 20
13774.44825190837
 30
0.0
 11
14041.75144990544
 21
14356.3482519084
 31
0.0
  0
LINE
  5
5EB
330
1F
100
AcDbEntity
  8
画層3-1
  6
Continuous
100
AcDbLine
 10
14081.70144990563
 20
14341.3482519084
 30
0.0
 11
14081.70144990563
 21
13774.44825190837
 31
0.0
  0
LWPOLYLINE
  5
5EC
330
1F
100
AcDbEntity
  8
画層3-1
100
AcDbPolyline
 90
        4
 70
     0
 43
0.0
 10
12132.50144990544
 20
12439.44825190838
 10
12132.50144990544
 20
12119.44825190838
 10
12081.70144990563
 20
12119.44825190838
 10
12081.70144990563
 20
12439.44825190861
  0
LWPOLYLINE
  5
5ED
330
1F
100
AcDbEntity
  8
画層3-1
100
AcDbPolyline
 90
        4
 70
     0
 43
0.0
 10
14132.50144990544
 20
12439.44825190838
 10
14132.50144990544
 20
12119.44825190838
 10
14081.70144990563
 20
12119.44825190838
 10
14081.70144990563
 20
12439.44825190861
  0
LINE
  5
5EE
330
1F
100
AcDbEntity
  8
画層3-1
  6
Continuous
100
AcDbLine
 10
10081.70144990563
 20
13084.44825190838
 30
0.0
 11
10081.70144990563
 21
12477.54825190835
 31
0.0
  0
LINE
  5
5EF
330
1F
100
AcDbEntity
  8
画層3-2
  6
Continuous
100
AcDbLine
 10
10041.75144990591
 20
12419.44825190838
 30
0.0
 11
10041.75144990591
 21
13084.44825190838
 31
0.0
  0
LINE
  5
5F0
330
1F
100
AcDbEntity
  8
画層3-1
  6
Continuous
100
AcDbLine
 10
8132.501449905445
 20
13084.44825190838
 30
0.0
 11
8132.501449905445
 21
12477.54825190847
 31
0.0
  0
LINE
  5
5F1
330
1F
100
AcDbEntity
  8
画層3-2
  6
Continuous
100
AcDbLine
 10
8172.451449905631
 20
13084.44825190838
 30
0.0
 11
8172.451449905631
 21
12419.44825190838
 31
0.0
  0
TEXT
  5
5F2
330
1F
100
AcDbEntity
  8
寸法
  6
Continuous
100
AcDbText
 10
4582.687268901326
 20
12475.31370066359
 30
0.0
 40
300.0
  1
▽GL
 41
0.75
  7
1_100
 72
     2
 11
5249.115840329898
 21
12475.31370066359
 31
0.0
100
AcDbText
 73
     1
  0
LEADER
  5
5F3
330
1F
100
AcDbEntity
  8
寸法引出
  6
Continuous
100
AcDbLeader
  3
1_100
 71
     0
 73
     0
 75
     1
 40
300.0
 41
1095.0
 76
     3
 10
8028.712113468086
 20
12486.67330659061
 30
0.0
 10
6684.42565934464
 20
13092.57270664718
 30
0.0
 10
6624.425659344641
 20
13092.57270664718
 30
0.0
340
5F4
  0
MTEXT
  5
5F4
102
{ACAD_REACTORS
330
5F3
102
}
330
1F
100
AcDbEntity
  8
寸法文字
  6
Continuous
100
AcDbMText
 10
6524.425659344641
 20
13192.57270664718
 30
0.0
 40
300.0
 41
0.0
 71
     9
 72
     1
  1
FRP被覆
  7
1_100
 73
     1
 44
1.0
1001
ACAD
1000
MTEXTBEGIN
1070
    73
1070
     1
1070
    44
1040
1.0
1070
    74
1070
     0
1000
MTEXTEND
  0
HATCH
  5
5F5
330
1F
100
AcDbEntity
  8
画層3-3
 62
   230
370
    13
100
AcDbHatch
 10
0.0
 20
0.0
 30
0.0
210
0.0
220
0.0
230
1.0
  2
NET
 70
     0
 71
     0
 91
        3
 92
        7
 72
     0
 73
     1
 93
       12
 10
10026.75144990591
 20
13759.44825190838
 10
10026.75144990591
 20
13774.44825190837
 10
10081.70144990563
 20
13774.44825190837
 10
10081.70144990563
 20
14341.3482519084
 10
10071.30144990572
 20
14341.3482519084
 10
10056.30144990572
 20
14356.34825190828
 10
8157.901449905818
 20
14356.34825190828
 10
8142.901449905819
 20
14341.34825190828
 10
8132.501449905445
 20
14341.3482519084
 10
8132.501449905445
 20
13774.44825190837
 10
8187.451449905632
 20
13774.44825190837
 10
8187.451449905632
 20
13759.44825190838
 97
        0
 92
        7
 72
     0
 73
     1
 93
       12
 10
10026.75144990591
 20
13099.44825190838
 10
10026.75144990591
 20
13114.44825190838
 10
10081.70144990563
 20
13114.44825190838
 10
10081.70144990563
 20
13744.44825190838
 10
10026.75144990591
 20
13744.44825190838
 10
10026.75144990591
 20
13759.44825190838
 10
8187.451449905632
 20
13759.44825190838
 10
8187.451449905632
 20
13744.44825190838
 10
8132.501449905445
 20
13744.44825190838
 10
8132.501449905445
 20
13114.44825190838
 10
8187.451449905632
 20
13114.44825190838
 10
8187.451449905632
 20
13099.44825190838
 97
        0
 92
        7
 72
     0
 73
     1
 93
        8
 10
8187.451449905632
 20
13099.44825190838
 10
8187.451449905632
 20
13084.44825190838
 10
8132.501449905445
 20
13084.44825190838
 10
8132.501449905911
 20
12477.54825190835
 10
10081.70144990563
 20
12477.54825190835
 10
10081.70144990563
 20
13084.44825190838
 10
10026.75144990591
 20
13084.44825190838
 10
10026.75144990591
 20
13099.44825190838
 97
        0
 75
     0
 76
     1
 52
45.0
 41
1200.0
 77
     0
 78
     2
 53
45.0
 43
573.7686699280668
 44
1536.115301073377
 45
-106.0660171779821
 46
106.0660171779821
 79
     0
 53
135.0
 43
573.7686699280668
 44
1536.115301073377
 45
-106.0660171779821
 46
-106.0660171779821
 79
     0
 47
4.241170549181853
 98
        3
 10
9167.738501316046
 20
14017.23465328357
 10
9116.762182299156
 20
13240.45082209558
 10
9078.528849968796
 20
12820.22314988911
  0
LINE
  5
5F6
330
1F
100
AcDbEntity
  8
画層3-1
  6
Continuous
100
AcDbLine
 10
8081.701449905631
 20
14356.34825190851
 30
0.0
 11
8081.701449905631
 21
12439.44825190838
 31
0.0
  0
LINE
  5
5F7
330
1F
100
AcDbEntity
  8
画層2-1
  6
Continuous
100
AcDbLine
 10
7998.951449905631
 20
12269.44825190838
 30
0.0
 11
8215.251449905444
 21
12269.44825190838
 31
0.0
  0
LINE
  5
5F8
330
1F
100
AcDbEntity
  8
画層3-1
  6
Continuous
100
AcDbLine
 10
8081.701449905631
 20
12477.54825190835
 30
0.0
 11
10081.70144990563
 21
12477.54825190835
 31
0.0
  0
LINE
  5
5F9
330
1F
100
AcDbEntity
  8
画層3-1
  6
Continuous
100
AcDbLine
 10
8081.701449905631
 20
12439.44825190838
 30
0.0
 11
10081.70144990563
 21
12439.44825190838
 31
0.0
  0
LEADER
  5
5FA
330
1F
100
AcDbEntity
  8
寸法引出
  6
Continuous
100
AcDbLeader
  3
1_100
 71
     0
 73
     0
 74
     0
 75
     1
 40
300.0
 41
495.0
 76
     3
 10
8332.101449905538
 20
10269.44825190837
 30
0.0
 10
8702.442201205172
 20
10570.19916709183
 30
0.0
 10
8762.442201205173
 20
10570.19916709183
 30
0.0
340
5FB
  0
MTEXT
  5
5FB
102
{ACAD_REACTORS
330
5FA
102
}
330
1F
100
AcDbEntity
  8
寸法文字
  6
Continuous
100
AcDbMText
 10
8862.442201205173
 20
10670.19916709183
 30
0.0
 40
300.0
 41
0.0
 71
     7
 72
     1
  1
砕石
  7
1_100
 73
     1
 44
1.0
1001
ACAD
1000
MTEXTBEGIN
1070
    73
1070
     1
1070
    44
1040
1.0
1070
    74
1070
     0
1000
MTEXTEND
  0
DIMENSION
  5
5FC
330
1F
100
AcDbEntity
  8
寸法
  6
Continuous
100
AcDbDimension
  2
*D13
 10
8332.101449905538
 20
9619.448251908378
 30
0.0
 11
7305.711213711292
 21
9800.781913497218
 31
0.0
 70
   160
  1
φ<>
 71
     5
 42
450.0
  3
1_100
100
AcDbAlignedDimension
 13
7882.101449905538
 23
10219.44825190838
 33
0.0
 14
8332.101449905538
 24
10219.44825190838
 34
0.0
100
AcDbRotatedDimension
  0
DIMENSION
  5
5FD
330
1F
100
AcDbEntity
  8
寸法
  6
Continuous
100
AcDbDimension
  2
*D14
 10
8357.101449905538
 20
9219.448251908261
 30
0.0
 11
8107.101449905538
 21
8969.448251908261
 31
0.0
 70
    32
  1
□<>
 71
     5
 42
500.0
  3
1_100
100
AcDbAlignedDimension
 13
7857.101449905538
 23
10219.44825190838
 33
0.0
 14
8357.101449905538
 24
10219.44825190838
 34
0.0
100
AcDbRotatedDimension
1001
ACAD
1000
DSTYLE
1002
{
1070
    77
1070
     2
1070
   174
1070
     1
1002
}
  0
MTEXT
  5
5FE
330
1F
100
AcDbEntity
  8
寸法文字
  6
Continuous
100
AcDbMText
 10
6458.179250716806
 20
13012.30294873503
 30
0.0
 40
300.0
 41
0.0
 71
     3
 72
     1
  1
（250）
  7
1_100
 73
     1
 44
1.0
1001
ACAD
1000
MTEXTBEGIN
1070
    73
1070
     1
1070
    44
1040
1.0
1070
    74
1070
     0
1000
MTEXTEND
  0
LWPOLYLINE
  5
5FF
330
1F
100
AcDbEntity
  8
画層1
100
AcDbPolyline
 90
        4
 70
     1
 43
0.0
 10
8327.901449905352
 20
14399.22453124713
 10
8482.901449905352
 20
14399.22453124713
 10
8482.901449905352
 20
14439.22453124713
 10
8327.901449905352
 20
14439.22453124713
  0
LINE
  5
600
330
1F
100
AcDbEntity
  8
画層3-1
  6
Continuous
100
AcDbLine
 10
10056.30144990572
 20
14356.3482519084
 30
0.0
 11
10071.30144990572
 21
14341.3482519084
 31
0.0
  0
ARC
  5
601
330
1F
100
AcDbEntity
  8
画層3-1
  6
Continuous
100
AcDbCircle
 10
10066.70144990563
 20
14341.3482519084
 30
0.0
 40
15.0
100
AcDbArc
 50
0.0
 51
90.0
  0
LINE
  5
602
330
1F
100
AcDbEntity
  8
画層3-1
  6
Continuous
100
AcDbLine
 10
10056.30144990572
 20
14394.44825190838
 30
0.0
 11
10056.30144990572
 21
14356.3482519084
 31
0.0
  0
LINE
  5
603
330
1F
100
AcDbEntity
  8
画層3-1
  6
Continuous
100
AcDbLine
 10
8142.901449905819
 20
14341.34825190828
 30
0.0
 11
8157.901449905818
 21
14356.34825190828
 31
0.0
  0
LINE
  5
604
330
1F
100
AcDbEntity
  8
画層3-1
  6
Continuous
100
AcDbLine
 10
8142.901449905819
 20
14341.34825190828
 30
0.0
 11
8081.701449905631
 21
14341.3482519084
 31
0.0
  0
ARC
  5
605
330
1F
100
AcDbEntity
  8
画層3-1
  6
Continuous
100
AcDbCircle
 10
8119.308490935358
 20
14358.79355788856
 30
0.0
 40
37.68645720078001
100
AcDbArc
 50
108.8995839705432
 51
183.7202809730122
  0
ARC
  5
606
330
1F
100
AcDbEntity
  8
画層3-1
  6
Continuous
100
AcDbCircle
 10
8147.501449905446
 20
14341.34825190828
 30
0.0
 40
15.0
100
AcDbArc
 50
90.0
 51
180.0
  0
LINE
  5
607
330
1F
100
AcDbEntity
  8
画層3-1
  6
Continuous
100
AcDbLine
 10
8157.901449905818
 20
14356.34825190828
 30
0.0
 11
8157.901449905818
 21
14394.44825190838
 31
0.0
  0
CIRCLE
  5
608
330
1F
100
AcDbEntity
  8
画層1
  6
Continuous
100
AcDbCircle
 10
8240.251449905445
 20
14419.44825190837
 30
0.0
 40
10.9509940156
  0
CIRCLE
  5
609
330
1F
100
AcDbEntity
  8
画層1
  6
Continuous
100
AcDbCircle
 10
7973.951449905631
 20
14419.44825190837
 30
0.0
 40
10.9509940156
  0
LINE
  5
60A
330
1F
100
AcDbEntity
  8
画層1
  6
Continuous
100
AcDbLine
 10
8132.10144990554
 20
14394.44825190838
 30
0.0
 11
8132.10144990554
 21
14444.44825190838
 31
0.0
  0
LINE
  5
60B
330
1F
100
AcDbEntity
  8
画層1
  6
Continuous
100
AcDbLine
 10
8082.101449905538
 20
14394.44825190838
 30
0.0
 11
8082.101449905538
 21
14444.44825190838
 31
0.0
  0
LINE
  5
60C
330
1F
100
AcDbEntity
  8
画層3-1
  6
Continuous
100
AcDbLine
 10
8147.501449905446
 20
14356.34825190828
 30
0.0
 11
10066.70144990563
 21
14356.34825190828
 31
0.0
  0
LINE
  5
60D
330
1F
100
AcDbEntity
  8
画層3-1
  6
Continuous
100
AcDbLine
 10
10081.70144990563
 20
13744.44825190838
 30
0.0
 11
10081.70144990563
 21
13114.44825190838
 31
0.0
  0
LINE
  5
60E
330
1F
100
AcDbEntity
  8
画層3-2
  6
Continuous
100
AcDbLine
 10
10041.75144990591
 20
13114.44825190838
 30
0.0
 11
10041.75144990591
 21
13744.44825190838
 31
0.0
  0
LINE
  5
60F
330
1F
100
AcDbEntity
  8
画層3-1
  6
Continuous
100
AcDbLine
 10
10026.75144990591
 20
13774.44825190837
 30
0.0
 11
10026.75144990591
 21
13744.44825190838
 31
0.0
  0
LINE
  5
610
330
1F
100
AcDbEntity
  8
画層3-1
  6
Continuous
100
AcDbLine
 10
10026.75144990591
 20
13114.44825190838
 30
0.0
 11
10026.75144990591
 21
13084.44825190838
 31
0.0
  0
LINE
  5
611
330
1F
100
AcDbEntity
  8
画層3-1
  6
Continuous
100
AcDbLine
 10
8187.451449905632
 20
13744.44825190838
 30
0.0
 11
8187.451449905632
 21
13774.44825190837
 31
0.0
  0
LINE
  5
612
330
1F
100
AcDbEntity
  8
画層3-1
  6
Continuous
100
AcDbLine
 10
8081.701449905631
 20
13744.44825190838
 30
0.0
 11
8187.451449905632
 21
13744.44825190838
 31
0.0
  0
LINE
  5
613
330
1F
100
AcDbEntity
  8
画層3-1
  6
Continuous
100
AcDbLine
 10
8187.451449905632
 20
13774.44825190837
 30
0.0
 11
8081.701449905631
 21
13774.44825190837
 31
0.0
  0
LINE
  5
614
330
1F
100
AcDbEntity
  8
画層3-1
  6
Continuous
100
AcDbLine
 10
8187.451449905632
 20
13084.44825190838
 30
0.0
 11
8187.451449905632
 21
13114.44825190838
 31
0.0
  0
LINE
  5
615
330
1F
100
AcDbEntity
  8
画層3-1
  6
Continuous
100
AcDbLine
 10
8081.701449905631
 20
13084.44825190838
 30
0.0
 11
8187.451449905632
 21
13084.44825190838
 31
0.0
  0
LINE
  5
616
330
1F
100
AcDbEntity
  8
画層3-1
  6
Continuous
100
AcDbLine
 10
8187.451449905632
 20
13114.44825190838
 30
0.0
 11
8081.701449905631
 21
13114.44825190838
 31
0.0
  0
LINE
  5
617
330
1F
100
AcDbEntity
  8
画層3-1
  6
Continuous
100
AcDbLine
 10
8132.501449905445
 20
13744.44825190838
 30
0.0
 11
8132.501449905445
 21
13114.44825190838
 31
0.0
  0
LINE
  5
618
330
1F
100
AcDbEntity
  8
画層3-2
  6
Continuous
100
AcDbLine
 10
8172.451449905631
 20
13744.44825190838
 30
0.0
 11
8172.451449905631
 21
13114.44825190838
 31
0.0
  0
LINE
  5
619
330
1F
100
AcDbEntity
  8
画層2-1
  6
Continuous
100
AcDbLine
 10
7998.951449905631
 20
12519.44825190838
 30
0.0
 11
8215.251449905444
 21
12519.44825190838
 31
0.0
  0
LINE
  5
61A
330
1F
100
AcDbEntity
  8
画層3-2
  6
Continuous
100
AcDbLine
 10
10026.75144990591
 20
13099.44825190838
 30
0.0
 11
8187.451449905632
 21
13099.44825190838
 31
0.0
  0
LINE
  5
61B
330
1F
100
AcDbEntity
  8
画層3-2
  6
Continuous
100
AcDbLine
 10
8187.451449905632
 20
13759.44825190838
 30
0.0
 11
10026.75144990591
 21
13759.44825190838
 31
0.0
  0
LINE
  5
61C
330
1F
100
AcDbEntity
  8
画層3-1
  6
Continuous
100
AcDbLine
 10
8132.501449905445
 20
14341.34825190828
 30
0.0
 11
8132.501449905445
 21
13774.44825190837
 31
0.0
  0
LINE
  5
61D
330
1F
100
AcDbEntity
  8
画層3-2
  6
Continuous
100
AcDbLine
 10
8172.451449905631
 20
14356.3482519084
 30
0.0
 11
8172.451449905631
 21
13774.44825190837
 31
0.0
  0
LINE
  5
61E
330
1F
100
AcDbEntity
  8
画層3-1
  6
Continuous
100
AcDbLine
 10
10081.70144990563
 20
14341.3482519084
 30
0.0
 11
10081.70144990563
 21
13774.44825190837
 31
0.0
  0
LINE
  5
61F
330
1F
100
AcDbEntity
  8
画層3-2
  6
Continuous
100
AcDbLine
 10
10041.75144990591
 20
13774.44825190837
 30
0.0
 11
10041.75144990544
 21
14356.3482519084
 31
0.0
  0
LWPOLYLINE
  5
620
330
1F
100
AcDbEntity
  8
画層3-1
100
AcDbPolyline
 90
        4
 70
     0
 43
0.0
 10
8132.501449905445
 20
12439.44825190838
 10
8132.501449905445
 20
12119.44825190838
 10
8081.701449905631
 20
12119.44825190838
 10
8081.701449905631
 20
12439.44825190861
  0
LWPOLYLINE
  5
621
330
1F
100
AcDbEntity
  8
画層1
  6
Continuous
100
AcDbPolyline
 90
        4
 70
     1
 43
0.0
 10
7948.951449905631
 20
14444.44825190838
 10
8265.251449905445
 20
14444.44825190838
 10
8265.251449905445
 20
14394.44825190838
 10
7948.951449905631
 20
14394.44825190838
  0
LINE
  5
622
330
1F
100
AcDbEntity
  8
ﾊｯﾁﾝｸﾞ
  6
Continuous
100
AcDbLine
 10
7734.524092230589
 20
12327.77799038143
 30
0.0
 11
7706.194353758
 21
12299.44825190838
 31
0.0
  0
LINE
  5
623
330
1F
100
AcDbEntity
  8
ﾊｯﾁﾝｸﾞ
  6
Continuous
100
AcDbLine
 10
7722.049790196229
 20
12419.44825190838
 30
0.0
 11
7842.049790197163
 21
12299.44825190838
 31
0.0
  0
LINE
  5
624
330
1F
100
AcDbEntity
  8
ﾊｯﾁﾝｸﾞ
  6
Continuous
100
AcDbLine
 10
7801.245749689748
 20
12419.44825190838
 30
0.0
 11
7857.101449905538
 21
12363.59255169282
 31
0.0
  0
LINE
  5
625
330
1F
100
AcDbEntity
  8
ﾊｯﾁﾝｸﾞ
  6
Continuous
100
AcDbLine
 10
7417.74025425838
 20
12406.97394987425
 30
0.0
 11
7363.977405275328
 21
12353.21110089131
 31
0.0
  0
LINE
  5
626
330
1F
100
AcDbEntity
  8
ﾊｯﾁﾝｸﾞ
  6
Continuous
100
AcDbLine
 10
7405.26595222402
 20
12419.44825190838
 30
0.0
 11
7525.265952224953
 21
12299.44825190838
 31
0.0
  0
LINE
  5
627
330
1F
100
AcDbEntity
  8
ﾊｯﾁﾝｸﾞ
  6
Continuous
100
AcDbLine
 10
7484.461911717072
 20
12419.44825190838
 30
0.0
 11
7576.13217324495
 21
12327.77799038131
 31
0.0
  0
LINE
  5
628
330
1F
100
AcDbEntity
  8
ﾊｯﾁﾝｸﾞ
  6
Continuous
100
AcDbLine
 10
7563.657871210124
 20
12419.44825190849
 30
0.0
 11
7615.730152991244
 21
12367.37597012784
 31
0.0
  0
LINE
  5
629
330
1F
100
AcDbEntity
  8
ﾊｯﾁﾝｸﾞ
  6
Continuous
100
AcDbLine
 10
7457.338234004673
 20
12367.37597012784
 30
0.0
 11
7389.410515785326
 21
12299.44825190838
 31
0.0
  0
LINE
  5
62A
330
1F
100
AcDbEntity
  8
ﾊｯﾁﾝｸﾞ
  6
Continuous
100
AcDbLine
 10
7496.936213751432
 20
12327.77799038143
 30
0.0
 11
7468.606475278844
 21
12299.44825190838
 31
0.0
  0
LINE
  5
62B
330
1F
100
AcDbEntity
  8
ﾊｯﾁﾝｸﾞ
  6
Continuous
100
AcDbLine
 10
7655.328132737536
 20
12406.97394987425
 30
0.0
 11
7547.802434771897
 21
12299.44825190838
 31
0.0
  0
LINE
  5
62C
330
1F
100
AcDbEntity
  8
ﾊｯﾁﾝｸﾞ
  6
Continuous
100
AcDbLine
 10
7694.926112484296
 20
12367.37597012784
 30
0.0
 11
7626.998394264949
 21
12299.44825190838
 31
0.0
  0
LINE
  5
62D
330
1F
100
AcDbEntity
  8
ﾊｯﾁﾝｸﾞ
  6
Continuous
100
AcDbLine
 10
7642.853830703642
 20
12419.44825190838
 30
0.0
 11
7762.853830704109
 21
12299.44825190838
 31
0.0
  0
LINE
  5
62E
330
1F
100
AcDbEntity
  8
ﾊｯﾁﾝｸﾞ
  6
Continuous
100
AcDbLine
 10
8717.266686059643
 20
12327.77799038143
 30
0.0
 11
8745.596424532232
 21
12299.44825190838
 31
0.0
  0
LINE
  5
62F
330
1F
100
AcDbEntity
  8
ﾊｯﾁﾝｸﾞ
  6
Continuous
100
AcDbLine
 10
8756.864665806402
 20
12367.37597012784
 30
0.0
 11
8824.79238402575
 21
12299.44825190838
 31
0.0
  0
LINE
  5
630
330
1F
100
AcDbEntity
  8
ﾊｯﾁﾝｸﾞ
  6
Continuous
100
AcDbLine
 10
8729.740988094004
 20
12419.44825190838
 30
0.0
 11
8638.070726566125
 21
12327.77799038143
 31
0.0
  0
LINE
  5
631
330
1F
100
AcDbEntity
  8
ﾊｯﾁﾝｸﾞ
  6
Continuous
100
AcDbLine
 10
8808.936947587055
 20
12419.44825190838
 30
0.0
 11
8688.936947586126
 21
12299.44825190838
 31
0.0
  0
LINE
  5
632
330
1F
100
AcDbEntity
  8
ﾊｯﾁﾝｸﾞ
  6
Continuous
100
AcDbLine
 10
8796.462645552695
 20
12406.97394987425
 30
0.0
 11
8850.225494535749
 21
12353.21110089131
 31
0.0
  0
LINE
  5
633
330
1F
100
AcDbEntity
  8
ﾊｯﾁﾝｸﾞ
  6
Continuous
100
AcDbLine
 10
8412.957150121329
 20
12419.44825190838
 30
0.0
 11
8357.101449905538
 21
12363.59255169282
 31
0.0
  0
LINE
  5
634
330
1F
100
AcDbEntity
  8
ﾊｯﾁﾝｸﾞ
  6
Continuous
100
AcDbLine
 10
8492.153109614848
 20
12419.44825190838
 30
0.0
 11
8372.153109613917
 21
12299.44825190838
 31
0.0
  0
LINE
  5
635
330
1F
100
AcDbEntity
  8
ﾊｯﾁﾝｸﾞ
  6
Continuous
100
AcDbLine
 10
8571.349069107432
 20
12419.44825190838
 30
0.0
 11
8451.349069106967
 21
12299.44825190838
 31
0.0
  0
LINE
  5
636
330
1F
100
AcDbEntity
  8
ﾊｯﾁﾝｸﾞ
  6
Continuous
100
AcDbLine
 10
8479.678807580487
 20
12327.77799038143
 30
0.0
 11
8508.008546053074
 21
12299.44825190838
 31
0.0
  0
LINE
  5
637
330
1F
100
AcDbEntity
  8
ﾊｯﾁﾝｸﾞ
  6
Continuous
100
AcDbLine
 10
8519.276787326781
 20
12367.37597012784
 30
0.0
 11
8587.204505546125
 21
12299.44825190838
 31
0.0
  0
LINE
  5
638
330
1F
100
AcDbEntity
  8
ﾊｯﾁﾝｸﾞ
  6
Continuous
100
AcDbLine
 10
8558.87476707354
 20
12406.97394987425
 30
0.0
 11
8666.400465039179
 21
12299.44825190838
 31
0.0
  0
LINE
  5
639
330
1F
100
AcDbEntity
  8
ﾊｯﾁﾝｸﾞ
  6
Continuous
100
AcDbLine
 10
8650.54502860095
 20
12419.44825190849
 30
0.0
 11
8598.472746819833
 21
12367.37597012784
 31
0.0
  0
LWPOLYLINE
  5
63A
330
1F
100
AcDbEntity
  8
画層2
100
AcDbPolyline
 90
        8
 70
     0
 43
0.0
 10
7857.101449905538
 20
12419.44825190838
 10
7857.101449905538
 20
12119.44825190838
 10
7882.101449905538
 20
12119.44825190838
 10
7882.101449905538
 20
10219.44825190838
 10
8332.101449905538
 20
10219.44825190838
 10
8332.101449905538
 20
12119.44825190838
 10
8357.101449905538
 20
12119.44825190838
 10
8357.101449905538
 20
12419.44825190838
  0
LINE
  5
63B
330
1F
100
AcDbEntity
  8
画層2
100
AcDbLine
 10
8332.101449905538
 20
10319.44825190838
 30
0.0
 11
7882.101449905538
 21
10319.44825190838
 31
0.0
  0
HATCH
  5
63C
330
1F
100
AcDbEntity
  8
ﾊｯﾁﾝｸﾞ
100
AcDbHatch
 10
0.0
 20
0.0
 30
0.0
210
0.0
220
0.0
230
1.0
  2
PLAST
 70
     0
 71
     0
 91
        2
 92
        7
 72
     0
 73
     1
 93
        6
 10
8107.101449905538
 20
12419.44825190838
 10
7857.101449905538
 20
12419.44825190838
 10
7857.101449905538
 20
12119.44825190838
 10
7882.101449905538
 20
12119.44825190838
 10
7882.101449905538
 20
10319.44825190838
 10
8107.101449905538
 20
10319.44825190838
 97
        0
 92
        7
 72
     0
 73
     1
 93
        6
 10
8332.101449905538
 20
12119.44825190838
 10
8357.101449905538
 20
12119.44825190838
 10
8357.101449905538
 20
12419.44825190838
 10
8107.101449905538
 20
12419.44825190838
 10
8107.101449905538
 20
10319.44825190838
 10
8332.101449905538
 20
10319.44825190838
 97
        0
 75
     0
 76
     1
 52
45.0
 41
2000.0
 77
     0
 78
     3
 53
45.0
 43
-260372.6656881789
 44
-241400.3610955528
 45
-353.5533905932737
 46
353.5533905932738
 79
     0
 53
45.0
 43
-260416.859862003
 44
-241356.1669217287
 45
-353.5533905932737
 46
353.5533905932738
 79
     0
 53
45.0
 43
-260461.0540358272
 44
-241311.9727479045
 45
-353.5533905932737
 46
353.5533905932738
 79
     0
 47
16.14186685159621
 98
        2
 10
8018.724059867315
 20
11571.24690533379
 10
8228.714431754886
 20
11619.67201542199
  0
INSERT
  5
63D
330
1F
100
AcDbEntity
  8
ﾊｯﾁﾝｸﾞ
100
AcDbBlockReference
  2
sai450
 10
8107.101449905538
 20
10319.44825190838
 30
0.0
  0
LWPOLYLINE
  5
63E
330
1F
100
AcDbEntity
  8
画層1
100
AcDbPolyline
 90
        4
 70
     1
 43
0.0
 10
8087.101449905537
 20
14774.44825190838
 10
8127.101449905538
 20
14774.44825190838
 10
8127.101449905538
 20
14594.44825190838
 10
8087.101449905537
 20
14594.44825190838
  0
LWPOLYLINE
  5
63F
330
1F
100
AcDbEntity
  8
画層1-1
100
AcDbPolyline
 90
        4
 70
     1
 43
0.0
 10
8473.922340994809
 20
14635.86900381356
 10
8499.206167311982
 20
14604.87338917582
 10
8359.725901442223
 20
14491.09617074913
 10
8334.442075125052
 20
14522.09178538686
  0
LINE
  5
640
330
1F
100
AcDbEntity
  8
画層3-1
  6
Continuous
100
AcDbLine
 10
10041.75144990591
 20
12497.54825190847
 30
0.0
 11
10172.45144990563
 21
12497.54825190847
 31
0.0
  0
HATCH
  5
641
330
1F
100
AcDbEntity
  8
画層3-3
100
AcDbHatch
 10
0.0
 20
0.0
 30
0.0
210
0.0
220
0.0
230
1.0
  2
PLAST
 70
     0
 71
     0
 91
        1
 92
        7
 72
     0
 73
     1
 93
        4
 10
10232.10144990554
 20
12419.44825190838
 10
9982.101449905538
 20
12419.44825190838
 10
9982.101449905538
 20
11969.44825190838
 10
10232.10144990554
 20
11969.44825190838
 97
        0
 75
     0
 76
     1
 52
45.0
 41
1800.0
 77
     0
 78
     3
 53
45.0
 43
3964.758794139714
 44
5977.781235397177
 45
-318.1980515339463
 46
318.1980515339464
 79
     0
 53
45.0
 43
3924.984037697889
 44
6017.555991838884
 45
-318.1980515339463
 46
318.1980515339464
 79
     0
 53
45.0
 43
3885.209281256067
 44
6057.330748280708
 45
-318.1980515339463
 46
318.1980515339464
 79
     0
 47
2.4753793195157
 98
        1
 10
10220.99464766878
 20
12178.65569991615
  0
LWPOLYLINE
  5
642
330
1F
100
AcDbEntity
  8
画層3-2
100
AcDbPolyline
 90
        4
 70
     0
 43
0.0
 10
10232.10144990554
 20
12419.44825190838
 10
10232.10144990554
 20
11969.44825190838
 10
9982.101449905538
 20
11969.44825190838
 10
9982.101449905538
 20
12419.44825190838
  0
LEADER
  5
643
330
1F
100
AcDbEntity
  8
寸法引出
  6
Continuous
100
AcDbLeader
  3
1_100
 71
     0
 73
     0
 74
     0
 75
     1
 40
300.0
 41
1547.142857142856
 76
     3
 10
8332.101449905538
 20
11001.68702446084
 30
0.0
 10
8679.111016747187
 20
11264.57068068484
 30
0.0
 10
8739.111016747186
 20
11264.57068068484
 30
0.0
340
644
  0
MTEXT
  5
644
102
{ACAD_REACTORS
330
643
102
}
330
1F
100
AcDbEntity
  8
寸法文字
  6
Continuous
100
AcDbMText
 10
8839.111016747185
 20
11364.57068068484
 30
0.0
 40
300.0
 41
0.0
 71
     7
 72
     1
  1
コンクリート
  7
1_100
 73
     1
 44
1.0
1001
ACAD
1000
MTEXTBEGIN
1070
    73
1070
     1
1070
    44
1040
1.0
1070
    74
1070
     0
1000
MTEXTEND
  0
DIMENSION
  5
645
330
1F
100
AcDbEntity
  8
画層3-寸法
  6
Continuous
100
AcDbDimension
  2
*D15
 10
12107.10144990554
 20
8019.448251908377
 30
0.0
 11
11107.10144990554
 21
8298.019680479807
 31
0.0
 70
    32
 71
     5
 42
2000.0
  3
1_100
100
AcDbAlignedDimension
 13
10107.10144990554
 23
10106.54228616595
 33
0.0
 14
12107.10144990554
 24
10106.54228616595
 34
0.0
100
AcDbRotatedDimension
  0
DIMENSION
  5
646
330
1F
100
AcDbEntity
  8
画層3-寸法
  6
Continuous
100
AcDbDimension
  2
*D16
 10
10107.10144990554
 20
8019.448251908377
 30
0.0
 11
9107.101449905538
 21
8298.019680479807
 31
0.0
 70
    32
 71
     5
 42
2000.0
  3
1_100
100
AcDbAlignedDimension
 13
8107.101449905538
 23
8944.448251908378
 33
0.0
 14
10107.10144990554
 24
10106.54228616595
 34
0.0
100
AcDbRotatedDimension
  0
LINE
  5
647
330
1F
100
AcDbEntity
  8
画層3-1
  6
Continuous
100
AcDbLine
 10
10142.90144990582
 20
14341.34825190828
 30
0.0
 11
10071.30144990572
 21
14341.3482519084
 31
0.0
  0
LINE
  5
648
330
1F
100
AcDbEntity
  8
画層3-1
  6
Continuous
100
AcDbLine
 10
10026.75144990591
 20
13084.44825190838
 30
0.0
 11
10187.45144990563
 21
13084.44825190838
 31
0.0
  0
LINE
  5
649
330
1F
100
AcDbEntity
  8
画層3-1
  6
Continuous
100
AcDbLine
 10
10026.75144990591
 20
13744.44825190838
 30
0.0
 11
10187.45144990563
 21
13744.44825190838
 31
0.0
  0
LINE
  5
64A
330
1F
100
AcDbEntity
  8
画層3-1
  6
Continuous
100
AcDbLine
 10
10187.45144990563
 20
13114.44825190838
 30
0.0
 11
10026.75144990591
 21
13114.44825190838
 31
0.0
  0
LINE
  5
64B
330
1F
100
AcDbEntity
  8
画層3-1
  6
Continuous
100
AcDbLine
 10
10187.45144990563
 20
13774.44825190837
 30
0.0
 11
10026.75144990591
 21
13774.44825190837
 31
0.0
  0
LWPOLYLINE
  5
64C
330
1F
100
AcDbEntity
  8
画層3-1
100
AcDbPolyline
 90
        4
 70
     0
 43
0.0
 10
10132.50144990544
 20
12439.44825190838
 10
10132.50144990544
 20
12119.44825190838
 10
10081.70144990563
 20
12119.44825190838
 10
10081.70144990563
 20
12439.44825190861
  0
DIMENSION
  5
64D
330
1F
100
AcDbEntity
  8
寸法
  6
Continuous
100
AcDbDimension
  2
*D17
 10
27007.10144990554
 20
12419.44825190838
 30
0.0
 11
27269.90366232546
 21
12038.1463158887
 31
0.0
 70
   160
 71
     5
 42
300.0
  3
1_100
100
AcDbAlignedDimension
 13
26007.10144990554
 23
12119.44825190838
 33
0.0
 14
26007.10144990554
 24
12419.44825190838
 34
0.0
 50
90.0
100
AcDbRotatedDimension
  0
DIMENSION
  5
64E
330
1F
100
AcDbEntity
  8
寸法
  6
Continuous
100
AcDbDimension
  2
*D18
 10
27007.10144990554
 20
14419.44825184656
 30
0.0
 11
26728.53002133411
 21
13419.44825187747
 31
0.0
 70
    32
 71
     5
 42
1999.999999938183
  3
1_100
100
AcDbAlignedDimension
 13
26007.10144990554
 23
12419.44825190838
 33
0.0
 14
26007.10144990554
 24
14419.44825184656
 34
0.0
 50
90.0
100
AcDbRotatedDimension
  0
DIMENSION
  5
64F
330
1F
100
AcDbEntity
  8
寸法
  6
Continuous
100
AcDbDimension
  2
*D19
 10
28007.10144990554
 20
10319.44825190838
 30
0.0
 11
27728.53002133411
 21
11369.44825190838
 31
0.0
 70
    32
 71
     5
 42
2100.0
  3
1_100
100
AcDbAlignedDimension
 13
26007.10144990554
 23
12419.44825190838
 33
0.0
 14
26007.10144990554
 24
10319.44825190838
 34
0.0
 50
90.0
100
AcDbRotatedDimension
  0
DIMENSION
  5
650
330
1F
100
AcDbEntity
  8
寸法
  6
Continuous
100
AcDbDimension
  2
*D20
 10
27007.10144990554
 20
12119.44825190838
 30
0.0
 11
26728.53002133411
 21
11219.44825190838
 31
0.0
 70
    32
 71
     5
 42
1800.0
  3
1_100
100
AcDbAlignedDimension
 13
26007.10144990554
 23
10319.44825190838
 33
0.0
 14
26007.10144990554
 24
12119.44825190838
 34
0.0
 50
90.0
100
AcDbRotatedDimension
  0
DIMENSION
  5
651
330
1F
100
AcDbEntity
  8
寸法
  6
Continuous
100
AcDbDimension
  2
*D21
 10
27007.10144990554
 20
10319.44825190838
 30
0.0
 11
26720.14120940782
 21
9857.402099226801
 31
0.0
 70
   160
 71
     5
 42
100.0
  3
1_100
100
AcDbAlignedDimension
 13
26007.10144990554
 23
10219.44825190838
 33
0.0
 14
26007.10144990554
 24
10319.44825190838
 34
0.0
 50
90.0
100
AcDbRotatedDimension
  0
LINE
  5
652
330
1F
100
AcDbEntity
  8
画層3-1
  6
Continuous
100
AcDbLine
 10
20147.50144990545
 20
14356.3482519084
 30
0.0
 11
22066.70144990563
 21
14356.34825190851
 31
0.0
  0
LINE
  5
653
330
1F
100
AcDbEntity
  8
画層3-2
  6
Continuous
100
AcDbLine
 10
22026.75144990591
 20
13099.44825190849
 30
0.0
 11
20187.45144990563
 21
13099.44825190838
 31
0.0
  0
LINE
  5
654
330
1F
100
AcDbEntity
  8
画層3-2
  6
Continuous
100
AcDbLine
 10
20187.45144990563
 20
13759.44825190838
 30
0.0
 11
22026.75144990591
 21
13759.44825190838
 31
0.0
  0
LINE
  5
655
330
1F
100
AcDbEntity
  8
画層3-1
  6
Continuous
100
AcDbLine
 10
20132.50144990591
 20
12439.44825190838
 30
0.0
 11
22081.70144990563
 21
12439.44825190838
 31
0.0
  0
LINE
  5
656
330
1F
100
AcDbEntity
  8
画層3-1
  6
Continuous
100
AcDbLine
 10
20132.50144990545
 20
12477.54825190835
 30
0.0
 11
22081.70144990563
 21
12477.54825190847
 31
0.0
  0
DIMENSION
  5
657
330
1F
100
AcDbEntity
  8
画層3-寸法
  6
Continuous
100
AcDbDimension
  2
*D22
 10
22107.10144990554
 20
8019.448251908377
 30
0.0
 11
21107.10144990554
 21
8298.019680479807
 31
0.0
 70
    32
 71
     5
 42
2000.0
  3
1_100
100
AcDbAlignedDimension
 13
20107.10144990554
 23
10106.54228616595
 33
0.0
 14
22107.10144990554
 24
10129.44825190826
 34
0.0
100
AcDbRotatedDimension
  0
HATCH
  5
658
330
1F
100
AcDbEntity
  8
画層3-3
 62
   230
370
    13
100
AcDbHatch
 10
0.0
 20
0.0
 30
0.0
210
0.0
220
0.0
230
1.0
  2
NET
 70
     0
 71
     0
 91
        6
 92
        7
 72
     0
 73
     1
 93
       12
 10
20026.75144990591
 20
13759.44825190838
 10
20026.75144990591
 20
13774.44825190837
 10
20081.70144990563
 20
13774.44825190837
 10
20081.70144990563
 20
14341.3482519084
 10
20071.30144990572
 20
14341.3482519084
 10
20056.30144990572
 20
14356.3482519084
 10
18157.90144990582
 20
14356.34825190828
 10
18142.90144990582
 20
14341.34825190828
 10
18132.50144990544
 20
14341.3482519084
 10
18132.50144990544
 20
13774.44825190837
 10
18187.45144990563
 20
13774.44825190837
 10
18187.45144990563
 20
13759.44825190838
 97
        0
 92
        7
 72
     0
 73
     1
 93
       12
 10
20026.75144990591
 20
13099.44825190838
 10
20026.75144990591
 20
13114.44825190838
 10
20081.70144990563
 20
13114.44825190838
 10
20081.70144990563
 20
13744.44825190838
 10
20026.75144990591
 20
13744.44825190838
 10
20026.75144990591
 20
13759.44825190838
 10
18187.45144990563
 20
13759.44825190838
 10
18187.45144990563
 20
13744.44825190838
 10
18132.50144990544
 20
13744.44825190838
 10
18132.50144990544
 20
13114.44825190838
 10
18187.45144990563
 20
13114.44825190838
 10
18187.45144990563
 20
13099.44825190826
 97
        0
 92
        7
 72
     0
 73
     1
 93
        8
 10
20081.70144990563
 20
12477.54825190847
 10
20081.70144990563
 20
13084.44825190838
 10
20026.75144990591
 20
13084.44825190838
 10
20026.75144990591
 20
13099.44825190838
 10
18187.45144990563
 20
13099.44825190826
 10
18187.45144990563
 20
13084.44825190838
 10
18132.50144990544
 20
13084.44825190838
 10
18132.50144990544
 20
12477.54825190847
 97
        0
 92
        7
 72
     0
 73
     1
 93
        8
 10
22081.70144990563
 20
12477.54825190847
 10
22081.70144990563
 20
13084.44825190838
 10
22026.75144990591
 20
13084.44825190838
 10
22026.75144990591
 20
13099.44825190849
 10
20187.45144990563
 20
13099.44825190838
 10
20187.45144990563
 20
13084.44825190838
 10
20132.50144990545
 20
13084.44825190838
 10
20132.50144990545
 20
12477.54825190835
 97
        0
 92
        7
 72
     0
 73
     1
 93
       12
 10
22026.75144990591
 20
13099.44825190849
 10
22026.75144990591
 20
13114.44825190838
 10
22081.70144990563
 20
13114.44825190838
 10
22081.70144990563
 20
13744.44825190838
 10
22026.75144990591
 20
13744.44825190838
 10
22026.75144990591
 20
13759.44825190849
 10
20187.45144990563
 20
13759.44825190838
 10
20187.45144990563
 20
13744.44825190838
 10
20132.50144990545
 20
13744.44825190838
 10
20132.50144990545
 20
13114.44825190838
 10
20187.45144990563
 20
13114.44825190838
 10
20187.45144990563
 20
13099.44825190838
 97
        0
 92
        7
 72
     0
 73
     1
 93
       12
 10
22026.75144990591
 20
13759.44825190838
 10
22026.75144990591
 20
13774.44825190837
 10
22081.70144990563
 20
13774.44825190837
 10
22081.70144990563
 20
14341.3482519084
 10
22071.30144990573
 20
14341.3482519084
 10
22056.30144990573
 20
14356.34825190851
 10
20157.90144990582
 20
14356.3482519084
 10
20142.90144990582
 20
14341.34825190828
 10
20132.50144990545
 20
14341.3482519084
 10
20132.50144990545
 20
13774.44825190837
 10
20187.45144990563
 20
13774.44825190837
 10
20187.45144990563
 20
13759.44825190838
 97
        0
 75
     0
 76
     1
 52
45.0
 41
1200.0
 77
     0
 78
     2
 53
45.0
 43
573.7686699280668
 44
1536.115301073377
 45
-106.0660171779821
 46
106.0660171779821
 79
     0
 53
135.0
 43
573.7686699280668
 44
1536.115301073377
 45
-106.0660171779821
 46
-106.0660171779821
 79
     0
 47
15.52299040785928
 98
        6
 10
19239.20798192184
 20
13912.08508797033
 10
19347.95294447626
 20
13244.59583519512
 10
19332.41826213069
 20
12778.90627865327
 10
20948.0689487803
 20
12577.10785156042
 10
20979.14049960684
 20
13337.7342541597
 10
21103.42014450684
 20
14051.79208184705
  0
LINE
  5
659
330
1F
100
AcDbEntity
  8
画層3-2
  6
Continuous
100
AcDbLine
 10
20041.75144990591
 20
12419.44825190838
 30
0.0
 11
20041.75144990591
 21
13084.44825190838
 31
0.0
  0
LINE
  5
65A
330
1F
100
AcDbEntity
  8
画層3-2
  6
Continuous
100
AcDbLine
 10
20172.45144990563
 20
13084.44825190838
 30
0.0
 11
20172.45144990563
 21
12419.44825190838
 31
0.0
  0
LINE
  5
65B
330
1F
100
AcDbEntity
  8
画層3-1
  6
Continuous
100
AcDbLine
 10
20132.50144990545
 20
13084.44825190838
 30
0.0
 11
20132.50144990545
 21
12477.54825190847
 31
0.0
  0
LINE
  5
65C
330
1F
100
AcDbEntity
  8
画層3-1
  6
Continuous
100
AcDbLine
 10
20081.70144990563
 20
13084.44825190838
 30
0.0
 11
20081.70144990563
 21
12477.54825190835
 31
0.0
  0
LINE
  5
65D
330
1F
100
AcDbEntity
  8
画層3-通り芯
  6
DASHDOT
 48
100.0
100
AcDbLine
 10
20107.10144990554
 20
11873.07869677661
 30
0.0
 11
20107.10144990554
 21
14419.44825190849
 31
0.0
  0
LINE
  5
65E
330
1F
100
AcDbEntity
  8
画層3-1
  6
Continuous
100
AcDbLine
 10
18081.70144990563
 20
13084.44825190838
 30
0.0
 11
18081.70144990563
 21
12477.54825190835
 31
0.0
  0
LINE
  5
65F
330
1F
100
AcDbEntity
  8
画層3-2
  6
Continuous
100
AcDbLine
 10
18172.45144990563
 20
13084.44825190838
 30
0.0
 11
18172.45144990563
 21
12419.44825190838
 31
0.0
  0
LINE
  5
660
330
1F
100
AcDbEntity
  8
画層3-2
  6
Continuous
100
AcDbLine
 10
18041.7514499059
 20
12419.44825190838
 30
0.0
 11
18041.7514499059
 21
13084.44825190838
 31
0.0
  0
LINE
  5
661
330
1F
100
AcDbEntity
  8
画層3-1
  6
Continuous
100
AcDbLine
 10
18132.50144990544
 20
13084.44825190838
 30
0.0
 11
18132.50144990544
 21
12477.54825190847
 31
0.0
  0
LINE
  5
662
330
1F
100
AcDbEntity
  8
画層3-1
  6
Continuous
100
AcDbLine
 10
20041.75144990591
 20
12497.54825190847
 30
0.0
 11
20172.45144990563
 21
12497.54825190847
 31
0.0
  0
HATCH
  5
663
330
1F
100
AcDbEntity
  8
画層3-3
100
AcDbHatch
 10
0.0
 20
0.0
 30
0.0
210
0.0
220
0.0
230
1.0
  2
PLAST
 70
     0
 71
     0
 91
        1
 92
        7
 72
     0
 73
     1
 93
        4
 10
20232.10144990554
 20
12419.44825190838
 10
19982.10144990554
 20
12419.44825190838
 10
19982.10144990554
 20
11969.44825190838
 10
20232.10144990554
 20
11969.44825190838
 97
        0
 75
     0
 76
     1
 52
45.0
 41
1800.0
 77
     0
 78
     3
 53
45.0
 43
13964.75879413971
 44
5977.781235397177
 45
-318.1980515339463
 46
318.1980515339464
 79
     0
 53
45.0
 43
13924.98403769789
 44
6017.555991838884
 45
-318.1980515339463
 46
318.1980515339464
 79
     0
 53
45.0
 43
13885.20928125606
 44
6057.330748280708
 45
-318.1980515339463
 46
318.1980515339464
 79
     0
 47
2.4753793195157
 98
        1
 10
20220.99464766879
 20
12178.65569991615
  0
LWPOLYLINE
  5
664
330
1F
100
AcDbEntity
  8
画層3-2
100
AcDbPolyline
 90
        4
 70
     0
 43
0.0
 10
20232.10144990554
 20
12419.44825190838
 10
20232.10144990554
 20
11969.44825190838
 10
19982.10144990554
 20
11969.44825190838
 10
19982.10144990554
 20
12419.44825190838
  0
LINE
  5
665
330
1F
100
AcDbEntity
  8
画層3-1
  6
Continuous
100
AcDbLine
 10
18041.7514499059
 20
12497.54825190847
 30
0.0
 11
18172.45144990563
 21
12497.54825190847
 31
0.0
  0
DIMENSION
  5
666
330
1F
100
AcDbEntity
  8
画層3-寸法
  6
Continuous
100
AcDbDimension
  2
*D23
 10
20107.10144990554
 20
8019.448251908377
 30
0.0
 11
19107.10144990554
 21
8298.019680479807
 31
0.0
 70
    32
 71
     5
 42
2000.0
  3
1_100
100
AcDbAlignedDimension
 13
18107.10144990554
 23
10106.54228616595
 33
0.0
 14
20107.10144990554
 24
10129.44825190826
 34
0.0
100
AcDbRotatedDimension
  0
LINE
  5
667
330
1F
100
AcDbEntity
  8
画層3-1
  6
Continuous
100
AcDbLine
 10
18132.50144990544
 20
12439.44825190838
 30
0.0
 11
20081.70144990563
 21
12439.44825190838
 31
0.0
  0
LINE
  5
668
330
1F
100
AcDbEntity
  8
画層3-1
  6
Continuous
100
AcDbLine
 10
18132.50144990544
 20
12477.54825190847
 30
0.0
 11
20081.70144990563
 21
12477.54825190847
 31
0.0
  0
ARC
  5
669
330
1F
100
AcDbEntity
  8
画層3-1
  6
Continuous
100
AcDbCircle
 10
20147.50144990545
 20
14341.34825190828
 30
0.0
 40
15.0
100
AcDbArc
 50
90.0
 51
180.0
  0
LINE
  5
66A
330
1F
100
AcDbEntity
  8
画層3-1
  6
Continuous
100
AcDbLine
 10
20157.90144990582
 20
14356.34825190828
 30
0.0
 11
20157.90144990582
 21
14394.44825190838
 31
0.0
  0
LINE
  5
66B
330
1F
100
AcDbEntity
  8
画層3-1
  6
Continuous
100
AcDbLine
 10
20142.90144990582
 20
14341.34825190828
 30
0.0
 11
20157.90144990582
 21
14356.34825190828
 31
0.0
  0
ARC
  5
66C
330
1F
100
AcDbEntity
  8
画層3-1
  6
Continuous
100
AcDbCircle
 10
20066.70144990563
 20
14341.3482519084
 30
0.0
 40
15.0
100
AcDbArc
 50
0.0
 51
90.0
  0
LINE
  5
66D
330
1F
100
AcDbEntity
  8
画層3-1
  6
Continuous
100
AcDbLine
 10
20056.30144990572
 20
14394.44825190838
 30
0.0
 11
20056.30144990572
 21
14356.3482519084
 31
0.0
  0
LINE
  5
66E
330
1F
100
AcDbEntity
  8
画層3-1
  6
Continuous
100
AcDbLine
 10
20056.30144990572
 20
14356.3482519084
 30
0.0
 11
20071.30144990572
 21
14341.3482519084
 31
0.0
  0
LINE
  5
66F
330
1F
100
AcDbEntity
  8
画層3-1
  6
Continuous
100
AcDbLine
 10
20142.90144990582
 20
14341.34825190828
 30
0.0
 11
20071.30144990572
 21
14341.3482519084
 31
0.0
  0
LINE
  5
670
330
1F
100
AcDbEntity
  8
画層3-1
  6
Continuous
100
AcDbLine
 10
20187.45144990563
 20
13744.44825190838
 30
0.0
 11
20187.45144990563
 21
13774.44825190837
 31
0.0
  0
LINE
  5
671
330
1F
100
AcDbEntity
  8
画層3-1
  6
Continuous
100
AcDbLine
 10
20026.75144990591
 20
13774.44825190837
 30
0.0
 11
20026.75144990591
 21
13744.44825190838
 31
0.0
  0
LINE
  5
672
330
1F
100
AcDbEntity
  8
画層3-1
  6
Continuous
100
AcDbLine
 10
20026.75144990591
 20
13744.44825190838
 30
0.0
 11
20187.45144990563
 21
13744.44825190838
 31
0.0
  0
LINE
  5
673
330
1F
100
AcDbEntity
  8
画層3-1
  6
Continuous
100
AcDbLine
 10
20187.45144990563
 20
13774.44825190837
 30
0.0
 11
20026.75144990591
 21
13774.44825190837
 31
0.0
  0
LINE
  5
674
330
1F
100
AcDbEntity
  8
画層3-1
  6
Continuous
100
AcDbLine
 10
20187.45144990563
 20
13084.44825190838
 30
0.0
 11
20187.45144990563
 21
13114.44825190838
 31
0.0
  0
LINE
  5
675
330
1F
100
AcDbEntity
  8
画層3-1
  6
Continuous
100
AcDbLine
 10
20026.75144990591
 20
13114.44825190838
 30
0.0
 11
20026.75144990591
 21
13084.44825190838
 31
0.0
  0
LINE
  5
676
330
1F
100
AcDbEntity
  8
画層3-1
  6
Continuous
100
AcDbLine
 10
20026.75144990591
 20
13084.44825190838
 30
0.0
 11
20187.45144990563
 21
13084.44825190838
 31
0.0
  0
LINE
  5
677
330
1F
100
AcDbEntity
  8
画層3-1
  6
Continuous
100
AcDbLine
 10
20187.45144990563
 20
13114.44825190838
 30
0.0
 11
20026.75144990591
 21
13114.44825190838
 31
0.0
  0
LINE
  5
678
330
1F
100
AcDbEntity
  8
画層3-2
  6
Continuous
100
AcDbLine
 10
20041.75144990591
 20
13114.44825190838
 30
0.0
 11
20041.75144990591
 21
13744.44825190838
 31
0.0
  0
LINE
  5
679
330
1F
100
AcDbEntity
  8
画層3-2
  6
Continuous
100
AcDbLine
 10
20172.45144990563
 20
13744.44825190838
 30
0.0
 11
20172.45144990563
 21
13114.44825190838
 31
0.0
  0
LINE
  5
67A
330
1F
100
AcDbEntity
  8
画層3-1
  6
Continuous
100
AcDbLine
 10
20132.50144990545
 20
13744.44825190838
 30
0.0
 11
20132.50144990545
 21
13114.44825190838
 31
0.0
  0
LINE
  5
67B
330
1F
100
AcDbEntity
  8
画層3-1
  6
Continuous
100
AcDbLine
 10
20081.70144990563
 20
13744.44825190838
 30
0.0
 11
20081.70144990563
 21
13114.44825190838
 31
0.0
  0
LINE
  5
67C
330
1F
100
AcDbEntity
  8
画層3-2
  6
Continuous
100
AcDbLine
 10
20172.45144990563
 20
14356.3482519084
 30
0.0
 11
20172.45144990563
 21
13774.44825190837
 31
0.0
  0
LINE
  5
67D
330
1F
100
AcDbEntity
  8
画層3-2
  6
Continuous
100
AcDbLine
 10
20041.75144990591
 20
13774.44825190837
 30
0.0
 11
20041.75144990544
 21
14356.3482519084
 31
0.0
  0
LINE
  5
67E
330
1F
100
AcDbEntity
  8
画層3-1
  6
Continuous
100
AcDbLine
 10
20132.50144990545
 20
14341.34825190828
 30
0.0
 11
20132.50144990545
 21
13774.44825190837
 31
0.0
  0
LINE
  5
67F
330
1F
100
AcDbEntity
  8
画層3-1
  6
Continuous
100
AcDbLine
 10
20081.70144990563
 20
14341.3482519084
 30
0.0
 11
20081.70144990563
 21
13774.44825190837
 31
0.0
  0
ARC
  5
680
330
1F
100
AcDbEntity
  8
画層3-1
  6
Continuous
100
AcDbCircle
 10
18147.50144990544
 20
14341.34825190828
 30
0.0
 40
15.0
100
AcDbArc
 50
90.0
 51
180.0
  0
LINE
  5
681
330
1F
100
AcDbEntity
  8
画層3-1
  6
Continuous
100
AcDbLine
 10
18142.90144990582
 20
14341.34825190828
 30
0.0
 11
18157.90144990582
 21
14356.34825190828
 31
0.0
  0
LINE
  5
682
330
1F
100
AcDbEntity
  8
画層3-1
  6
Continuous
100
AcDbLine
 10
18157.90144990582
 20
14356.34825190828
 30
0.0
 11
18157.90144990582
 21
14394.44825190838
 31
0.0
  0
CIRCLE
  5
683
330
1F
100
AcDbEntity
  8
画層1
  6
Continuous
100
AcDbCircle
 10
18240.25144990543
 20
14419.44825190837
 30
0.0
 40
10.9509940156
  0
LINE
  5
684
330
1F
100
AcDbEntity
  8
画層1
  6
Continuous
100
AcDbLine
 10
18132.10144990554
 20
14394.44825190838
 30
0.0
 11
18132.10144990554
 21
14444.44825190838
 31
0.0
  0
ARC
  5
685
330
1F
100
AcDbEntity
  8
画層3-1
  6
Continuous
100
AcDbCircle
 10
18066.70144990563
 20
14341.3482519084
 30
0.0
 40
15.0
100
AcDbArc
 50
0.0
 51
90.0
  0
LINE
  5
686
330
1F
100
AcDbEntity
  8
画層3-1
  6
Continuous
100
AcDbLine
 10
18056.30144990572
 20
14394.44825190838
 30
0.0
 11
18056.30144990572
 21
14356.3482519084
 31
0.0
  0
LINE
  5
687
330
1F
100
AcDbEntity
  8
画層3-1
  6
Continuous
100
AcDbLine
 10
18056.30144990572
 20
14356.3482519084
 30
0.0
 11
18071.30144990572
 21
14341.3482519084
 31
0.0
  0
LINE
  5
688
330
1F
100
AcDbEntity
  8
画層1
  6
Continuous
100
AcDbLine
 10
18082.10144990554
 20
14394.44825190838
 30
0.0
 11
18082.10144990554
 21
14444.44825190838
 31
0.0
  0
LINE
  5
689
330
1F
100
AcDbEntity
  8
画層3-1
  6
Continuous
100
AcDbLine
 10
18142.90144990582
 20
14341.34825190828
 30
0.0
 11
18071.30144990572
 21
14341.3482519084
 31
0.0
  0
LINE
  5
68A
330
1F
100
AcDbEntity
  8
画層3-1
  6
Continuous
100
AcDbLine
 10
18187.45144990563
 20
13744.44825190838
 30
0.0
 11
18187.45144990563
 21
13774.44825190837
 31
0.0
  0
LINE
  5
68B
330
1F
100
AcDbEntity
  8
画層3-1
  6
Continuous
100
AcDbLine
 10
18187.45144990563
 20
13084.44825190838
 30
0.0
 11
18187.45144990563
 21
13114.44825190838
 31
0.0
  0
LINE
  5
68C
330
1F
100
AcDbEntity
  8
画層3-2
  6
Continuous
100
AcDbLine
 10
18172.45144990563
 20
13744.44825190838
 30
0.0
 11
18172.45144990563
 21
13114.44825190838
 31
0.0
  0
LINE
  5
68D
330
1F
100
AcDbEntity
  8
画層3-1
  6
Continuous
100
AcDbLine
 10
18132.50144990544
 20
13744.44825190838
 30
0.0
 11
18132.50144990544
 21
13114.44825190838
 31
0.0
  0
LINE
  5
68E
330
1F
100
AcDbEntity
  8
画層3-1
  6
Continuous
100
AcDbLine
 10
18081.70144990563
 20
13744.44825190838
 30
0.0
 11
18081.70144990563
 21
13114.44825190838
 31
0.0
  0
LINE
  5
68F
330
1F
100
AcDbEntity
  8
画層3-2
  6
Continuous
100
AcDbLine
 10
18041.7514499059
 20
13114.44825190838
 30
0.0
 11
18041.7514499059
 21
13744.44825190838
 31
0.0
  0
LINE
  5
690
330
1F
100
AcDbEntity
  8
画層3-1
  6
Continuous
100
AcDbLine
 10
18081.70144990563
 20
14341.3482519084
 30
0.0
 11
18081.70144990563
 21
13774.44825190837
 31
0.0
  0
LINE
  5
691
330
1F
100
AcDbEntity
  8
画層3-2
  6
Continuous
100
AcDbLine
 10
18041.7514499059
 20
13774.44825190837
 30
0.0
 11
18041.75144990544
 21
14356.3482519084
 31
0.0
  0
LINE
  5
692
330
1F
100
AcDbEntity
  8
画層3-2
  6
Continuous
100
AcDbLine
 10
18172.45144990563
 20
14356.3482519084
 30
0.0
 11
18172.45144990563
 21
13774.44825190837
 31
0.0
  0
LINE
  5
693
330
1F
100
AcDbEntity
  8
画層3-1
  6
Continuous
100
AcDbLine
 10
18132.50144990544
 20
14341.34825190828
 30
0.0
 11
18132.50144990544
 21
13774.44825190837
 31
0.0
  0
LINE
  5
694
330
1F
100
AcDbEntity
  8
画層3-2
  6
Continuous
100
AcDbLine
 10
18187.45144990563
 20
13759.44825190838
 30
0.0
 11
20026.75144990591
 21
13759.44825190838
 31
0.0
  0
LINE
  5
695
330
1F
100
AcDbEntity
  8
画層3-2
  6
Continuous
100
AcDbLine
 10
20026.75144990591
 20
13099.44825190838
 30
0.0
 11
18187.45144990563
 21
13099.44825190838
 31
0.0
  0
LINE
  5
696
330
1F
100
AcDbEntity
  8
画層3-1
  6
Continuous
100
AcDbLine
 10
18147.50144990544
 20
14356.34825190828
 30
0.0
 11
20066.70144990563
 21
14356.3482519084
 31
0.0
  0
LINE
  5
697
330
1F
100
AcDbEntity
  8
画層3-2
  6
Continuous
100
AcDbLine
 10
24041.75144990591
 20
12419.44825190838
 30
0.0
 11
24041.75144990591
 21
13084.44825190838
 31
0.0
  0
LINE
  5
698
330
1F
100
AcDbEntity
  8
画層3-2
  6
Continuous
100
AcDbLine
 10
24172.45144990563
 20
13084.44825190838
 30
0.0
 11
24172.45144990563
 21
12419.44825190838
 31
0.0
  0
LINE
  5
699
330
1F
100
AcDbEntity
  8
画層3-1
  6
Continuous
100
AcDbLine
 10
24132.50144990545
 20
13084.44825190838
 30
0.0
 11
24132.50144990545
 21
12477.54825190847
 31
0.0
  0
LINE
  5
69A
330
1F
100
AcDbEntity
  8
画層3-1
  6
Continuous
100
AcDbLine
 10
24081.70144990563
 20
13084.44825190838
 30
0.0
 11
24081.70144990563
 21
12477.54825190835
 31
0.0
  0
LINE
  5
69B
330
1F
100
AcDbEntity
  8
画層3-2
  6
Continuous
100
AcDbLine
 10
22172.45144990563
 20
13084.44825190838
 30
0.0
 11
22172.45144990563
 21
12419.44825190838
 31
0.0
  0
LINE
  5
69C
330
1F
100
AcDbEntity
  8
画層3-1
  6
Continuous
100
AcDbLine
 10
22081.70144990563
 20
13084.44825190838
 30
0.0
 11
22081.70144990563
 21
12477.54825190835
 31
0.0
  0
LINE
  5
69D
330
1F
100
AcDbEntity
  8
画層3-1
  6
Continuous
100
AcDbLine
 10
22132.50144990544
 20
13084.44825190838
 30
0.0
 11
22132.50144990544
 21
12477.54825190847
 31
0.0
  0
LINE
  5
69E
330
1F
100
AcDbEntity
  8
画層3-2
  6
Continuous
100
AcDbLine
 10
22041.75144990591
 20
12419.44825190838
 30
0.0
 11
22041.75144990591
 21
13084.44825190838
 31
0.0
  0
LINE
  5
69F
330
1F
100
AcDbEntity
  8
画層3-通り芯
  6
DASHDOT
 48
100.0
100
AcDbLine
 10
24107.10144990554
 20
11873.07869677661
 30
0.0
 11
24107.10144990554
 21
14419.44825190849
 31
0.0
  0
LINE
  5
6A0
330
1F
100
AcDbEntity
  8
画層3-通り芯
  6
DASHDOT
 48
100.0
100
AcDbLine
 10
22107.10144990554
 20
11873.07869677661
 30
0.0
 11
22107.10144990554
 21
14419.44825190849
 31
0.0
  0
HATCH
  5
6A1
330
1F
100
AcDbEntity
  8
画層3-3
 62
   230
370
    13
100
AcDbHatch
 10
0.0
 20
0.0
 30
0.0
210
0.0
220
0.0
230
1.0
  2
NET
 70
     0
 71
     0
 91
        6
 92
        7
 72
     0
 73
     1
 93
       12
 10
24081.70144990563
 20
14341.3482519084
 10
24071.30144990572
 20
14341.3482519084
 10
24056.30144990572
 20
14356.3482519084
 10
22157.90144990582
 20
14356.3482519084
 10
22142.90144990582
 20
14341.34825190828
 10
22132.50144990544
 20
14341.34825190828
 10
22132.50144990544
 20
13774.44825190837
 10
22187.45144990563
 20
13774.44825190837
 10
22187.45144990563
 20
13759.44825190838
 10
24026.75144990591
 20
13759.44825190838
 10
24026.75144990591
 20
13774.44825190837
 10
24081.70144990563
 20
13774.44825190837
 97
        0
 92
        7
 72
     0
 73
     1
 93
       12
 10
24081.70144990563
 20
13744.44825190838
 10
24026.75144990591
 20
13744.44825190838
 10
24026.75144990591
 20
13759.44825190838
 10
22187.45144990563
 20
13759.44825190838
 10
22187.45144990563
 20
13744.44825190838
 10
22132.50144990544
 20
13744.44825190838
 10
22132.50144990544
 20
13114.44825190838
 10
22187.45144990563
 20
13114.44825190838
 10
22187.45144990563
 20
13099.44825190838
 10
24026.75144990591
 20
13099.44825190838
 10
24026.75144990591
 20
13114.44825190838
 10
24081.70144990563
 20
13114.44825190838
 97
        0
 92
        7
 72
     0
 73
     1
 93
        8
 10
24081.70144990563
 20
13084.44825190838
 10
24026.75144990591
 20
13084.44825190838
 10
24026.75144990591
 20
13099.44825190838
 10
22187.45144990563
 20
13099.44825190838
 10
22187.45144990563
 20
13084.44825190838
 10
22132.50144990544
 20
13084.44825190838
 10
22132.50144990544
 20
12477.54825190847
 10
24081.70144990563
 20
12477.54825190824
 97
        0
 92
        7
 72
     0
 73
     1
 93
        6
 10
25507.10144990554
 20
13099.44825190838
 10
24187.45144990563
 20
13099.44825190838
 10
24187.45144990563
 20
13084.44825190838
 10
24132.50144990545
 20
13084.44825190838
 10
24132.50144990545
 20
12477.54825190847
 10
25507.10144990554
 20
12477.54825190824
 97
        0
 92
        7
 72
     0
 73
     1
 93
        8
 10
25507.10144990554
 20
13759.44825190838
 10
24187.45144990563
 20
13759.44825190838
 10
24187.45144990563
 20
13744.44825190838
 10
24132.50144990545
 20
13744.44825190838
 10
24132.50144990545
 20
13114.44825190838
 10
24187.45144990563
 20
13114.44825190838
 10
24187.45144990563
 20
13099.44825190838
 10
25507.10144990554
 20
13099.44825190838
 97
        0
 92
        7
 72
     0
 73
     1
 93
        8
 10
25507.10144990554
 20
14356.3482519084
 10
24157.90144990582
 20
14356.3482519084
 10
24142.90144990582
 20
14341.34825190828
 10
24132.50144990545
 20
14341.34825190828
 10
24132.50144990545
 20
13774.44825190837
 10
24187.45144990563
 20
13774.44825190837
 10
24187.45144990563
 20
13759.44825190838
 10
25507.10144990554
 20
13759.44825190838
 97
        0
 75
     0
 76
     1
 52
45.0
 41
1200.0
 77
     0
 78
     2
 53
45.0
 43
573.7686699280668
 44
1536.115301073377
 45
-106.0660171779821
 46
106.0660171779821
 79
     0
 53
135.0
 43
573.7686699280668
 44
1536.115301073377
 45
-106.0660171779821
 46
-106.0660171779821
 79
     0
 47
9.673262408384914
 98
        6
 10
23450.7424630426
 20
14028.89055102594
 10
23450.7424630426
 20
13371.10874666142
 10
23412.01902509352
 20
12829.40593182338
 10
25048.07626473076
 20
12732.67336203178
 10
24893.18332444981
 20
13351.76209136794
 10
24912.5448405455
 20
13893.46490620597
  0
LINE
  5
6A2
330
1F
100
AcDbEntity
  8
画層3-1
  6
Continuous
100
AcDbLine
 10
24041.75144990591
 20
12497.54825190847
 30
0.0
 11
24172.45144990563
 21
12497.54825190847
 31
0.0
  0
HATCH
  5
6A3
330
1F
100
AcDbEntity
  8
画層3-3
100
AcDbHatch
 10
0.0
 20
0.0
 30
0.0
210
0.0
220
0.0
230
1.0
  2
PLAST
 70
     0
 71
     0
 91
        1
 92
        7
 72
     0
 73
     1
 93
        4
 10
24232.10144990554
 20
12419.44825190838
 10
23982.10144990554
 20
12419.44825190838
 10
23982.10144990554
 20
11969.44825190838
 10
24232.10144990554
 20
11969.44825190838
 97
        0
 75
     0
 76
     1
 52
45.0
 41
1800.0
 77
     0
 78
     3
 53
45.0
 43
17964.75879413971
 44
5977.781235397177
 45
-318.1980515339463
 46
318.1980515339464
 79
     0
 53
45.0
 43
17924.98403769789
 44
6017.555991838884
 45
-318.1980515339463
 46
318.1980515339464
 79
     0
 53
45.0
 43
17885.20928125606
 44
6057.330748280708
 45
-318.1980515339463
 46
318.1980515339464
 79
     0
 47
2.4753793195157
 98
        1
 10
24220.99464766878
 20
12178.65569991615
  0
LWPOLYLINE
  5
6A4
330
1F
100
AcDbEntity
  8
画層3-2
100
AcDbPolyline
 90
        4
 70
     0
 43
0.0
 10
24232.10144990554
 20
12419.44825190838
 10
24232.10144990554
 20
11969.44825190838
 10
23982.10144990554
 20
11969.44825190838
 10
23982.10144990554
 20
12419.44825190838
  0
LINE
  5
6A5
330
1F
100
AcDbEntity
  8
画層3-1
  6
Continuous
100
AcDbLine
 10
22132.50144990544
 20
12439.44825190838
 30
0.0
 11
24081.70144990563
 21
12439.44825190838
 31
0.0
  0
LINE
  5
6A6
330
1F
100
AcDbEntity
  8
画層3-1
  6
Continuous
100
AcDbLine
 10
22132.50144990544
 20
12477.54825190847
 30
0.0
 11
24081.70144990563
 21
12477.54825190824
 31
0.0
  0
LINE
  5
6A7
330
1F
100
AcDbEntity
  8
画層3-1
  6
Continuous
100
AcDbLine
 10
22041.75144990591
 20
12497.54825190847
 30
0.0
 11
22172.45144990563
 21
12497.54825190847
 31
0.0
  0
HATCH
  5
6A8
330
1F
100
AcDbEntity
  8
画層3-3
100
AcDbHatch
 10
0.0
 20
0.0
 30
0.0
210
0.0
220
0.0
230
1.0
  2
PLAST
 70
     0
 71
     0
 91
        1
 92
        7
 72
     0
 73
     1
 93
        4
 10
22232.10144990554
 20
12419.44825190838
 10
21982.10144990554
 20
12419.44825190838
 10
21982.10144990554
 20
11969.44825190838
 10
22232.10144990554
 20
11969.44825190838
 97
        0
 75
     0
 76
     1
 52
45.0
 41
1800.0
 77
     0
 78
     3
 53
45.0
 43
15964.75879413971
 44
5977.781235397177
 45
-318.1980515339463
 46
318.1980515339464
 79
     0
 53
45.0
 43
15924.98403769789
 44
6017.555991838884
 45
-318.1980515339463
 46
318.1980515339464
 79
     0
 53
45.0
 43
15885.20928125606
 44
6057.330748280708
 45
-318.1980515339463
 46
318.1980515339464
 79
     0
 47
2.4753793195157
 98
        1
 10
22220.99464766878
 20
12178.65569991615
  0
LWPOLYLINE
  5
6A9
330
1F
100
AcDbEntity
  8
画層3-2
100
AcDbPolyline
 90
        4
 70
     0
 43
0.0
 10
22232.10144990554
 20
12419.44825190838
 10
22232.10144990554
 20
11969.44825190838
 10
21982.10144990554
 20
11969.44825190838
 10
21982.10144990554
 20
12419.44825190838
  0
TEXT
  5
6AA
330
1F
100
AcDbEntity
  8
画層3-寸法
  6
Continuous
100
AcDbText
 10
24391.63943361223
 20
8157.770390184095
 30
0.0
 40
300.0
  1
2,000
 41
0.75
  7
1_100
100
AcDbText
  0
TEXT
  5
6AB
330
1F
100
AcDbEntity
  8
寸法
  6
Continuous
100
AcDbText
 10
21827.54752609983
 20
7424.899833402561
 30
0.0
 40
300.0
  1
10,000
 41
0.75
  7
1_100
100
AcDbText
  0
DIMENSION
  5
6AC
330
1F
100
AcDbEntity
  8
画層3-寸法
  6
Continuous
100
AcDbDimension
  2
*D24
 10
24107.10144990554
 20
8019.448251908377
 30
0.0
 11
23107.10144990554
 21
8298.019680479807
 31
0.0
 70
    32
 71
     5
 42
2000.0
  3
1_100
100
AcDbAlignedDimension
 13
22107.10144990554
 23
10106.54228616595
 33
0.0
 14
24107.10144990554
 24
10129.44825190826
 34
0.0
100
AcDbRotatedDimension
  0
LINE
  5
6AD
330
1F
100
AcDbEntity
  8
画層3-1
  6
Continuous
100
AcDbLine
 10
24132.50144990545
 20
12477.54825190847
 30
0.0
 11
25507.10144990554
 21
12477.54825190824
 31
0.0
  0
LINE
  5
6AE
330
1F
100
AcDbEntity
  8
画層3-1
  6
Continuous
100
AcDbLine
 10
24132.50144990545
 20
12439.44825190838
 30
0.0
 11
25507.10144990554
 21
12439.44825190838
 31
0.0
  0
ARC
  5
6AF
330
1F
100
AcDbEntity
  8
画層3-1
  6
Continuous
100
AcDbCircle
 10
24147.50144990545
 20
14341.34825190828
 30
0.0
 40
15.0
100
AcDbArc
 50
90.0
 51
180.0
  0
LINE
  5
6B0
330
1F
100
AcDbEntity
  8
画層3-1
  6
Continuous
100
AcDbLine
 10
24157.90144990582
 20
14356.34825190828
 30
0.0
 11
24157.90144990582
 21
14394.44825190838
 31
0.0
  0
ARC
  5
6B1
330
1F
100
AcDbEntity
  8
画層3-1
  6
Continuous
100
AcDbCircle
 10
24066.70144990563
 20
14341.3482519084
 30
0.0
 40
15.0
100
AcDbArc
 50
0.0
 51
90.0
  0
LINE
  5
6B2
330
1F
100
AcDbEntity
  8
画層3-1
  6
Continuous
100
AcDbLine
 10
24142.90144990582
 20
14341.34825190828
 30
0.0
 11
24157.90144990582
 21
14356.34825190828
 31
0.0
  0
LINE
  5
6B3
330
1F
100
AcDbEntity
  8
画層3-1
  6
Continuous
100
AcDbLine
 10
24056.30144990572
 20
14394.44825190838
 30
0.0
 11
24056.30144990572
 21
14356.3482519084
 31
0.0
  0
LINE
  5
6B4
330
1F
100
AcDbEntity
  8
画層3-1
  6
Continuous
100
AcDbLine
 10
24056.30144990572
 20
14356.3482519084
 30
0.0
 11
24071.30144990572
 21
14341.3482519084
 31
0.0
  0
LINE
  5
6B5
330
1F
100
AcDbEntity
  8
画層3-1
  6
Continuous
100
AcDbLine
 10
24142.90144990582
 20
14341.34825190828
 30
0.0
 11
24071.30144990572
 21
14341.3482519084
 31
0.0
  0
LINE
  5
6B6
330
1F
100
AcDbEntity
  8
画層3-1
  6
Continuous
100
AcDbLine
 10
22142.90144990582
 20
14341.34825190828
 30
0.0
 11
22157.90144990582
 21
14356.34825190828
 31
0.0
  0
LINE
  5
6B7
330
1F
100
AcDbEntity
  8
画層3-1
  6
Continuous
100
AcDbLine
 10
22157.90144990582
 20
14356.34825190828
 30
0.0
 11
22157.90144990582
 21
14394.44825190838
 31
0.0
  0
LINE
  5
6B8
330
1F
100
AcDbEntity
  8
画層3-1
  6
Continuous
100
AcDbLine
 10
22147.50144990544
 20
14356.3482519084
 30
0.0
 11
24066.70144990563
 21
14356.3482519084
 31
0.0
  0
LINE
  5
6B9
330
1F
100
AcDbEntity
  8
画層3-1
  6
Continuous
100
AcDbLine
 10
22056.30144990573
 20
14356.3482519084
 30
0.0
 11
22071.30144990573
 21
14341.3482519084
 31
0.0
  0
LINE
  5
6BA
330
1F
100
AcDbEntity
  8
画層3-1
  6
Continuous
100
AcDbLine
 10
22056.30144990573
 20
14394.44825190838
 30
0.0
 11
22056.30144990573
 21
14356.3482519084
 31
0.0
  0
ARC
  5
6BB
330
1F
100
AcDbEntity
  8
画層3-1
  6
Continuous
100
AcDbCircle
 10
22066.70144990563
 20
14341.3482519084
 30
0.0
 40
15.0
100
AcDbArc
 50
0.0
 51
90.0
  0
LINE
  5
6BC
330
1F
100
AcDbEntity
  8
画層3-1
  6
Continuous
100
AcDbLine
 10
22142.90144990582
 20
14341.34825190828
 30
0.0
 11
22071.30144990573
 21
14341.3482519084
 31
0.0
  0
ARC
  5
6BD
330
1F
100
AcDbEntity
  8
画層3-1
  6
Continuous
100
AcDbCircle
 10
22147.50144990544
 20
14341.34825190828
 30
0.0
 40
15.0
100
AcDbArc
 50
90.0
 51
180.0
  0
LINE
  5
6BE
330
1F
100
AcDbEntity
  8
画層3-1
  6
Continuous
100
AcDbLine
 10
24147.50144990545
 20
14356.3482519084
 30
0.0
 11
25507.10144990554
 21
14356.3482519084
 31
0.0
  0
LINE
  5
6BF
330
1F
100
AcDbEntity
  8
画層3-1
  6
Continuous
100
AcDbLine
 10
24187.45144990563
 20
13744.44825190838
 30
0.0
 11
24187.45144990563
 21
13774.44825190837
 31
0.0
  0
LINE
  5
6C0
330
1F
100
AcDbEntity
  8
画層3-1
  6
Continuous
100
AcDbLine
 10
24026.75144990591
 20
13774.44825190837
 30
0.0
 11
24026.75144990591
 21
13744.44825190838
 31
0.0
  0
LINE
  5
6C1
330
1F
100
AcDbEntity
  8
画層3-1
  6
Continuous
100
AcDbLine
 10
24026.75144990591
 20
13744.44825190838
 30
0.0
 11
24187.45144990563
 21
13744.44825190838
 31
0.0
  0
LINE
  5
6C2
330
1F
100
AcDbEntity
  8
画層3-1
  6
Continuous
100
AcDbLine
 10
24187.45144990563
 20
13774.44825190837
 30
0.0
 11
24026.75144990591
 21
13774.44825190837
 31
0.0
  0
LINE
  5
6C3
330
1F
100
AcDbEntity
  8
画層3-1
  6
Continuous
100
AcDbLine
 10
24187.45144990563
 20
13084.44825190838
 30
0.0
 11
24187.45144990563
 21
13114.44825190838
 31
0.0
  0
LINE
  5
6C4
330
1F
100
AcDbEntity
  8
画層3-1
  6
Continuous
100
AcDbLine
 10
24026.75144990591
 20
13114.44825190838
 30
0.0
 11
24026.75144990591
 21
13084.44825190838
 31
0.0
  0
LINE
  5
6C5
330
1F
100
AcDbEntity
  8
画層3-1
  6
Continuous
100
AcDbLine
 10
24026.75144990591
 20
13084.44825190838
 30
0.0
 11
24187.45144990563
 21
13084.44825190838
 31
0.0
  0
LINE
  5
6C6
330
1F
100
AcDbEntity
  8
画層3-1
  6
Continuous
100
AcDbLine
 10
24187.45144990563
 20
13114.44825190838
 30
0.0
 11
24026.75144990591
 21
13114.44825190838
 31
0.0
  0
LINE
  5
6C7
330
1F
100
AcDbEntity
  8
画層3-2
  6
Continuous
100
AcDbLine
 10
24041.75144990591
 20
13114.44825190838
 30
0.0
 11
24041.75144990591
 21
13744.44825190838
 31
0.0
  0
LINE
  5
6C8
330
1F
100
AcDbEntity
  8
画層3-2
  6
Continuous
100
AcDbLine
 10
24172.45144990563
 20
13744.44825190838
 30
0.0
 11
24172.45144990563
 21
13114.44825190838
 31
0.0
  0
LINE
  5
6C9
330
1F
100
AcDbEntity
  8
画層3-1
  6
Continuous
100
AcDbLine
 10
24132.50144990545
 20
13744.44825190838
 30
0.0
 11
24132.50144990545
 21
13114.44825190838
 31
0.0
  0
LINE
  5
6CA
330
1F
100
AcDbEntity
  8
画層3-1
  6
Continuous
100
AcDbLine
 10
24081.70144990563
 20
13744.44825190838
 30
0.0
 11
24081.70144990563
 21
13114.44825190838
 31
0.0
  0
LINE
  5
6CB
330
1F
100
AcDbEntity
  8
画層3-1
  6
Continuous
100
AcDbLine
 10
22187.45144990563
 20
13744.44825190838
 30
0.0
 11
22187.45144990563
 21
13774.44825190837
 31
0.0
  0
LINE
  5
6CC
330
1F
100
AcDbEntity
  8
画層3-1
  6
Continuous
100
AcDbLine
 10
22187.45144990563
 20
13084.44825190838
 30
0.0
 11
22187.45144990563
 21
13114.44825190838
 31
0.0
  0
LINE
  5
6CD
330
1F
100
AcDbEntity
  8
画層3-2
  6
Continuous
100
AcDbLine
 10
22172.45144990563
 20
13744.44825190838
 30
0.0
 11
22172.45144990563
 21
13114.44825190838
 31
0.0
  0
LINE
  5
6CE
330
1F
100
AcDbEntity
  8
画層3-2
  6
Continuous
100
AcDbLine
 10
24026.75144990591
 20
13099.44825190838
 30
0.0
 11
22187.45144990563
 21
13099.44825190838
 31
0.0
  0
LINE
  5
6CF
330
1F
100
AcDbEntity
  8
画層3-2
  6
Continuous
100
AcDbLine
 10
22187.45144990563
 20
13759.44825190838
 30
0.0
 11
24026.75144990591
 21
13759.44825190838
 31
0.0
  0
LINE
  5
6D0
330
1F
100
AcDbEntity
  8
画層3-1
  6
Continuous
100
AcDbLine
 10
22026.75144990591
 20
13774.44825190837
 30
0.0
 11
22026.75144990591
 21
13744.44825190838
 31
0.0
  0
LINE
  5
6D1
330
1F
100
AcDbEntity
  8
画層3-1
  6
Continuous
100
AcDbLine
 10
22026.75144990591
 20
13114.44825190838
 30
0.0
 11
22026.75144990591
 21
13084.44825190838
 31
0.0
  0
LINE
  5
6D2
330
1F
100
AcDbEntity
  8
画層3-1
  6
Continuous
100
AcDbLine
 10
22081.70144990563
 20
13744.44825190838
 30
0.0
 11
22081.70144990563
 21
13114.44825190838
 31
0.0
  0
LINE
  5
6D3
330
1F
100
AcDbEntity
  8
画層3-1
  6
Continuous
100
AcDbLine
 10
22132.50144990544
 20
13744.44825190838
 30
0.0
 11
22132.50144990544
 21
13114.44825190838
 31
0.0
  0
LINE
  5
6D4
330
1F
100
AcDbEntity
  8
画層3-2
  6
Continuous
100
AcDbLine
 10
22041.75144990591
 20
13114.44825190838
 30
0.0
 11
22041.75144990591
 21
13744.44825190838
 31
0.0
  0
LINE
  5
6D5
330
1F
100
AcDbEntity
  8
画層3-1
  6
Continuous
100
AcDbLine
 10
22187.45144990563
 20
13774.44825190837
 30
0.0
 11
22026.75144990591
 21
13774.44825190837
 31
0.0
  0
LINE
  5
6D6
330
1F
100
AcDbEntity
  8
画層3-1
  6
Continuous
100
AcDbLine
 10
22026.75144990591
 20
13744.44825190838
 30
0.0
 11
22187.45144990563
 21
13744.44825190838
 31
0.0
  0
LINE
  5
6D7
330
1F
100
AcDbEntity
  8
画層3-1
  6
Continuous
100
AcDbLine
 10
22187.45144990563
 20
13114.44825190838
 30
0.0
 11
22026.75144990591
 21
13114.44825190838
 31
0.0
  0
LINE
  5
6D8
330
1F
100
AcDbEntity
  8
画層3-1
  6
Continuous
100
AcDbLine
 10
22026.75144990591
 20
13084.44825190838
 30
0.0
 11
22187.45144990563
 21
13084.44825190838
 31
0.0
  0
LINE
  5
6D9
330
1F
100
AcDbEntity
  8
画層3-2
  6
Continuous
100
AcDbLine
 10
24187.45144990563
 20
13759.44825190838
 30
0.0
 11
25507.10144990554
 21
13759.44825190838
 31
0.0
  0
LINE
  5
6DA
330
1F
100
AcDbEntity
  8
画層3-2
  6
Continuous
100
AcDbLine
 10
25507.10144990554
 20
13099.44825190838
 30
0.0
 11
24187.45144990563
 21
13099.44825190838
 31
0.0
  0
LINE
  5
6DB
330
1F
100
AcDbEntity
  8
画層3-2
  6
Continuous
100
AcDbLine
 10
24172.45144990563
 20
14356.3482519084
 30
0.0
 11
24172.45144990563
 21
13774.44825190837
 31
0.0
  0
LINE
  5
6DC
330
1F
100
AcDbEntity
  8
画層3-2
  6
Continuous
100
AcDbLine
 10
24041.75144990591
 20
13774.44825190837
 30
0.0
 11
24041.75144990544
 21
14356.3482519084
 31
0.0
  0
LINE
  5
6DD
330
1F
100
AcDbEntity
  8
画層3-1
  6
Continuous
100
AcDbLine
 10
24132.50144990545
 20
14341.34825190828
 30
0.0
 11
24132.50144990545
 21
13774.44825190837
 31
0.0
  0
LINE
  5
6DE
330
1F
100
AcDbEntity
  8
画層3-1
  6
Continuous
100
AcDbLine
 10
24081.70144990563
 20
14341.3482519084
 30
0.0
 11
24081.70144990563
 21
13774.44825190837
 31
0.0
  0
LINE
  5
6DF
330
1F
100
AcDbEntity
  8
画層3-1
  6
Continuous
100
AcDbLine
 10
22081.70144990563
 20
14341.3482519084
 30
0.0
 11
22081.70144990563
 21
13774.44825190837
 31
0.0
  0
LINE
  5
6E0
330
1F
100
AcDbEntity
  8
画層3-1
  6
Continuous
100
AcDbLine
 10
22132.50144990544
 20
14341.34825190828
 30
0.0
 11
22132.50144990544
 21
13774.44825190837
 31
0.0
  0
LINE
  5
6E1
330
1F
100
AcDbEntity
  8
画層3-2
  6
Continuous
100
AcDbLine
 10
22041.75144990591
 20
13774.44825190837
 30
0.0
 11
22041.75144990545
 21
14356.3482519084
 31
0.0
  0
LINE
  5
6E2
330
1F
100
AcDbEntity
  8
画層3-2
  6
Continuous
100
AcDbLine
 10
22172.45144990563
 20
14356.3482519084
 30
0.0
 11
22172.45144990563
 21
13774.44825190837
 31
0.0
  0
LWPOLYLINE
  5
6E3
330
1F
100
AcDbEntity
  8
画層3-1
100
AcDbPolyline
 90
        4
 70
     0
 43
0.0
 10
20132.50144990545
 20
12439.44825190838
 10
20132.50144990545
 20
12119.44825190838
 10
20081.70144990563
 20
12119.44825190838
 10
20081.70144990563
 20
12439.44825190861
  0
LWPOLYLINE
  5
6E4
330
1F
100
AcDbEntity
  8
画層3-1
100
AcDbPolyline
 90
        4
 70
     0
 43
0.0
 10
18132.50144990544
 20
12439.44825190838
 10
18132.50144990544
 20
12119.44825190838
 10
18081.70144990563
 20
12119.44825190838
 10
18081.70144990563
 20
12439.44825190861
  0
LWPOLYLINE
  5
6E5
330
1F
100
AcDbEntity
  8
画層3-1
100
AcDbPolyline
 90
        4
 70
     0
 43
0.0
 10
22132.50144990544
 20
12439.44825190838
 10
22132.50144990544
 20
12119.44825190838
 10
22081.70144990563
 20
12119.44825190838
 10
22081.70144990563
 20
12439.44825190861
  0
LWPOLYLINE
  5
6E6
330
1F
100
AcDbEntity
  8
画層3-1
100
AcDbPolyline
 90
        4
 70
     0
 43
0.0
 10
24132.50144990545
 20
12439.44825190838
 10
24132.50144990545
 20
12119.44825190838
 10
24081.70144990563
 20
12119.44825190838
 10
24081.70144990563
 20
12439.44825190861
  0
LINE
  5
6E7
330
1F
100
AcDbEntity
  8
ﾊｯﾁﾝｸﾞ
  6
Continuous
100
AcDbLine
 10
18650.54502860095
 20
12419.44825190849
 30
0.0
 11
18598.47274681983
 21
12367.37597012784
 31
0.0
  0
LINE
  5
6E8
330
1F
100
AcDbEntity
  8
ﾊｯﾁﾝｸﾞ
  6
Continuous
100
AcDbLine
 10
18558.87476707354
 20
12406.97394987425
 30
0.0
 11
18666.40046503918
 21
12299.44825190838
 31
0.0
  0
LINE
  5
6E9
330
1F
100
AcDbEntity
  8
ﾊｯﾁﾝｸﾞ
  6
Continuous
100
AcDbLine
 10
18519.27678732678
 20
12367.37597012784
 30
0.0
 11
18587.20450554613
 21
12299.44825190838
 31
0.0
  0
LINE
  5
6EA
330
1F
100
AcDbEntity
  8
ﾊｯﾁﾝｸﾞ
  6
Continuous
100
AcDbLine
 10
18479.67880758049
 20
12327.77799038143
 30
0.0
 11
18508.00854605307
 21
12299.44825190838
 31
0.0
  0
LINE
  5
6EB
330
1F
100
AcDbEntity
  8
ﾊｯﾁﾝｸﾞ
  6
Continuous
100
AcDbLine
 10
18571.34906910743
 20
12419.44825190838
 30
0.0
 11
18451.34906910697
 21
12299.44825190838
 31
0.0
  0
LINE
  5
6EC
330
1F
100
AcDbEntity
  8
ﾊｯﾁﾝｸﾞ
  6
Continuous
100
AcDbLine
 10
18492.15310961485
 20
12419.44825190838
 30
0.0
 11
18372.15310961391
 21
12299.44825190838
 31
0.0
  0
LINE
  5
6ED
330
1F
100
AcDbEntity
  8
ﾊｯﾁﾝｸﾞ
  6
Continuous
100
AcDbLine
 10
18412.95715012133
 20
12419.44825190838
 30
0.0
 11
18357.10144990554
 21
12363.59255169282
 31
0.0
  0
LINE
  5
6EE
330
1F
100
AcDbEntity
  8
ﾊｯﾁﾝｸﾞ
  6
Continuous
100
AcDbLine
 10
18796.46264555269
 20
12406.97394987425
 30
0.0
 11
18850.22549453575
 21
12353.21110089131
 31
0.0
  0
LINE
  5
6EF
330
1F
100
AcDbEntity
  8
ﾊｯﾁﾝｸﾞ
  6
Continuous
100
AcDbLine
 10
18808.93694758705
 20
12419.44825190838
 30
0.0
 11
18688.93694758611
 21
12299.44825190838
 31
0.0
  0
LINE
  5
6F0
330
1F
100
AcDbEntity
  8
ﾊｯﾁﾝｸﾞ
  6
Continuous
100
AcDbLine
 10
18729.740988094
 20
12419.44825190838
 30
0.0
 11
18638.07072656612
 21
12327.77799038143
 31
0.0
  0
LINE
  5
6F1
330
1F
100
AcDbEntity
  8
ﾊｯﾁﾝｸﾞ
  6
Continuous
100
AcDbLine
 10
18756.8646658064
 20
12367.37597012784
 30
0.0
 11
18824.79238402575
 21
12299.44825190838
 31
0.0
  0
LINE
  5
6F2
330
1F
100
AcDbEntity
  8
ﾊｯﾁﾝｸﾞ
  6
Continuous
100
AcDbLine
 10
18717.26668605964
 20
12327.77799038143
 30
0.0
 11
18745.59642453223
 21
12299.44825190838
 31
0.0
  0
LINE
  5
6F3
330
1F
100
AcDbEntity
  8
画層3-1
  6
Continuous
100
AcDbLine
 10
16132.50144990544
 20
12631.21483715143
 30
0.0
 11
16132.50144990544
 21
12477.54825190847
 31
0.0
  0
LINE
  5
6F4
330
1F
100
AcDbEntity
  8
画層3-1
  6
Continuous
100
AcDbLine
 10
16081.70144990563
 20
12631.21483715143
 30
0.0
 11
16081.70144990563
 21
12477.54825190835
 31
0.0
  0
LINE
  5
6F5
330
1F
100
AcDbEntity
  8
画層3-2
  6
Continuous
100
AcDbLine
 10
16041.75144990591
 20
12419.44825190838
 30
0.0
 11
16041.75144990591
 21
12631.21483715143
 31
0.0
  0
LINE
  5
6F6
330
1F
100
AcDbEntity
  8
画層3-2
  6
Continuous
100
AcDbLine
 10
16172.45144990563
 20
12631.21483715143
 30
0.0
 11
16172.45144990563
 21
12419.44825190838
 31
0.0
  0
LINE
  5
6F7
330
1F
100
AcDbEntity
  8
画層3-通り芯
  6
DASHDOT
 48
100.0
100
AcDbLine
 10
16107.10144990554
 20
11873.07869677661
 30
0.0
 11
16107.10144990554
 21
12631.21483715143
 31
0.0
  0
LINE
  5
6F8
330
1F
100
AcDbEntity
  8
画層3-1
  6
Continuous
100
AcDbLine
 10
16041.75144990591
 20
12497.54825190847
 30
0.0
 11
16172.45144990563
 21
12497.54825190847
 31
0.0
  0
HATCH
  5
6F9
330
1F
100
AcDbEntity
  8
画層3-3
100
AcDbHatch
 10
0.0
 20
0.0
 30
0.0
210
0.0
220
0.0
230
1.0
  2
PLAST
 70
     0
 71
     0
 91
        1
 92
        7
 72
     0
 73
     1
 93
        4
 10
16232.10144990554
 20
12419.44825190838
 10
15982.10144990554
 20
12419.44825190838
 10
15982.10144990554
 20
11969.44825190838
 10
16232.10144990554
 20
11969.44825190838
 97
        0
 75
     0
 76
     1
 52
45.0
 41
1800.0
 77
     0
 78
     3
 53
45.0
 43
9964.758794139717
 44
5977.781235397177
 45
-318.1980515339463
 46
318.1980515339464
 79
     0
 53
45.0
 43
9924.984037697893
 44
6017.555991838884
 45
-318.1980515339463
 46
318.1980515339464
 79
     0
 53
45.0
 43
9885.209281256068
 44
6057.330748280708
 45
-318.1980515339463
 46
318.1980515339464
 79
     0
 47
2.4753793195157
 98
        1
 10
16220.99464766878
 20
12178.65569991615
  0
LWPOLYLINE
  5
6FA
330
1F
100
AcDbEntity
  8
画層3-2
100
AcDbPolyline
 90
        4
 70
     0
 43
0.0
 10
16232.10144990554
 20
12419.44825190838
 10
16232.10144990554
 20
11969.44825190838
 10
15982.10144990554
 20
11969.44825190838
 10
15982.10144990554
 20
12419.44825190838
  0
CIRCLE
  5
6FB
330
1F
100
AcDbEntity
  8
画層1
  6
Continuous
100
AcDbCircle
 10
17973.95144990563
 20
14419.44825190837
 30
0.0
 40
10.9509940156
  0
LINE
  5
6FC
330
1F
100
AcDbEntity
  8
画層3-1
  6
Continuous
100
AcDbLine
 10
16132.50144990544
 20
14341.34825190828
 30
0.0
 11
16132.50144990544
 21
14297.74260675543
 31
0.0
  0
LINE
  5
6FD
330
1F
100
AcDbEntity
  8
画層3-2
  6
Continuous
100
AcDbLine
 10
16172.45144990563
 20
14356.3482519084
 30
0.0
 11
16172.45144990563
 21
14297.74260675543
 31
0.0
  0
LINE
  5
6FE
330
1F
100
AcDbEntity
  8
画層3-1
  6
Continuous
100
AcDbLine
 10
16142.90144990581
 20
14341.34825190828
 30
0.0
 11
16157.90144990582
 21
14356.34825190828
 31
0.0
  0
LINE
  5
6FF
330
1F
100
AcDbEntity
  8
画層3-1
  6
Continuous
100
AcDbLine
 10
16157.90144990582
 20
14356.34825190828
 30
0.0
 11
16157.90144990582
 21
14394.44825190838
 31
0.0
  0
ARC
  5
700
330
1F
100
AcDbEntity
  8
画層3-1
  6
Continuous
100
AcDbCircle
 10
16147.50144990544
 20
14341.34825190828
 30
0.0
 40
15.0
100
AcDbArc
 50
90.0
 51
180.0
  0
LINE
  5
701
330
1F
100
AcDbEntity
  8
画層3-通り芯
  6
DASHDOT
 48
100.0
100
AcDbLine
 10
16107.10144990554
 20
14297.74260675543
 30
0.0
 11
16107.10144990554
 21
14419.44825190849
 31
0.0
  0
LINE
  5
702
330
1F
100
AcDbEntity
  8
画層3-1
  6
Continuous
100
AcDbLine
 10
16081.70144990563
 20
14341.3482519084
 30
0.0
 11
16081.70144990563
 21
14297.74260675543
 31
0.0
  0
LINE
  5
703
330
1F
100
AcDbEntity
  8
画層3-1
  6
Continuous
100
AcDbLine
 10
16056.30144990572
 20
14356.3482519084
 30
0.0
 11
16071.30144990571
 21
14341.3482519084
 31
0.0
  0
LINE
  5
704
330
1F
100
AcDbEntity
  8
画層3-1
  6
Continuous
100
AcDbLine
 10
16056.30144990572
 20
14394.44825190838
 30
0.0
 11
16056.30144990572
 21
14356.3482519084
 31
0.0
  0
ARC
  5
705
330
1F
100
AcDbEntity
  8
画層3-1
  6
Continuous
100
AcDbCircle
 10
16066.70144990563
 20
14341.3482519084
 30
0.0
 40
15.0
100
AcDbArc
 50
0.0
 51
90.0
  0
LINE
  5
706
330
1F
100
AcDbEntity
  8
画層3-2
  6
Continuous
100
AcDbLine
 10
16041.75144990591
 20
14297.74260675543
 30
0.0
 11
16041.75144990544
 21
14356.3482519084
 31
0.0
  0
LINE
  5
707
330
1F
100
AcDbEntity
  8
画層3-1
  6
Continuous
100
AcDbLine
 10
16142.90144990581
 20
14341.34825190828
 30
0.0
 11
16071.30144990571
 21
14341.3482519084
 31
0.0
  0
LINE
  5
708
330
1F
100
AcDbEntity
  8
画層3-1
  6
Continuous
100
AcDbLine
 10
18026.75144990591
 20
13774.44825190837
 30
0.0
 11
18026.75144990591
 21
13744.44825190838
 31
0.0
  0
LINE
  5
709
330
1F
100
AcDbEntity
  8
画層3-1
  6
Continuous
100
AcDbLine
 10
18026.75144990591
 20
13114.44825190838
 30
0.0
 11
18026.75144990591
 21
13084.44825190838
 31
0.0
  0
LINE
  5
70A
330
1F
100
AcDbEntity
  8
画層3-2
  6
Continuous
100
AcDbLine
 10
18026.75144990591
 20
13099.44825190838
 30
0.0
 11
17307.50422574264
 21
13099.44825190838
 31
0.0
  0
LINE
  5
70B
330
1F
100
AcDbEntity
  8
画層3-1
  6
Continuous
100
AcDbLine
 10
16187.45144990563
 20
13744.44825190838
 30
0.0
 11
16187.45144990563
 21
13774.44825190837
 31
0.0
  0
LINE
  5
70C
330
1F
100
AcDbEntity
  8
画層3-1
  6
Continuous
100
AcDbLine
 10
16132.50144990544
 20
13744.44825190838
 30
0.0
 11
16132.50144990544
 21
13568.54018716975
 31
0.0
  0
LINE
  5
70D
330
1F
100
AcDbEntity
  8
画層3-2
  6
Continuous
100
AcDbLine
 10
16172.45144990563
 20
13744.44825190838
 30
0.0
 11
16172.45144990563
 21
13568.54018716975
 31
0.0
  0
LINE
  5
70E
330
1F
100
AcDbEntity
  8
画層3-通り芯
  6
DASHDOT
 48
100.0
100
AcDbLine
 10
16107.10144990554
 20
13568.54018716975
 30
0.0
 11
16107.10144990554
 21
13803.71964622728
 31
0.0
  0
LINE
  5
70F
330
1F
100
AcDbEntity
  8
画層3-1
  6
Continuous
100
AcDbLine
 10
16132.50144990544
 20
13803.71964622728
 30
0.0
 11
16132.50144990544
 21
13774.44825190837
 31
0.0
  0
LINE
  5
710
330
1F
100
AcDbEntity
  8
画層3-2
  6
Continuous
100
AcDbLine
 10
16172.45144990563
 20
13803.71964622728
 30
0.0
 11
16172.45144990563
 21
13774.44825190837
 31
0.0
  0
LINE
  5
711
330
1F
100
AcDbEntity
  8
画層3-2
  6
Continuous
100
AcDbLine
 10
16041.75144990591
 20
13774.44825190837
 30
0.0
 11
16041.75144990591
 21
13803.71964622728
 31
0.0
  0
LINE
  5
712
330
1F
100
AcDbEntity
  8
画層3-1
  6
Continuous
100
AcDbLine
 10
16026.75144990591
 20
13774.44825190837
 30
0.0
 11
16026.75144990591
 21
13744.44825190838
 31
0.0
  0
LINE
  5
713
330
1F
100
AcDbEntity
  8
画層3-1
  6
Continuous
100
AcDbLine
 10
16081.70144990563
 20
13744.44825190838
 30
0.0
 11
16081.70144990563
 21
13568.54018716975
 31
0.0
  0
LINE
  5
714
330
1F
100
AcDbEntity
  8
画層3-2
  6
Continuous
100
AcDbLine
 10
16041.75144990591
 20
13568.54018716975
 30
0.0
 11
16041.75144990591
 21
13744.44825190838
 31
0.0
  0
LINE
  5
715
330
1F
100
AcDbEntity
  8
画層3-1
  6
Continuous
100
AcDbLine
 10
16081.70144990563
 20
13803.71964622728
 30
0.0
 11
16081.70144990563
 21
13774.44825190837
 31
0.0
  0
LINE
  5
716
330
1F
100
AcDbEntity
  8
画層3-1
  6
Continuous
100
AcDbLine
 10
16187.45144990563
 20
13774.44825190837
 30
0.0
 11
16026.75144990591
 21
13774.44825190837
 31
0.0
  0
LINE
  5
717
330
1F
100
AcDbEntity
  8
画層3-1
  6
Continuous
100
AcDbLine
 10
16026.75144990591
 20
13744.44825190838
 30
0.0
 11
16187.45144990563
 21
13744.44825190838
 31
0.0
  0
LINE
  5
718
330
1F
100
AcDbEntity
  8
画層3-2
  6
Continuous
100
AcDbLine
 10
16187.45144990563
 20
13759.44825190838
 30
0.0
 11
18026.75144990591
 21
13759.44825190838
 31
0.0
  0
MTEXT
  5
719
330
1F
100
AcDbEntity
  8
寸法文字
  6
Continuous
100
AcDbMText
 10
16083.56045629421
 20
13134.02449976347
 30
0.0
 40
300.0
 41
0.0
 71
     8
 72
     1
  1
カラーハガネ線
  7
1_100
 73
     1
 44
1.0
1001
ACAD
1000
MTEXTBEGIN
1070
    73
1070
     1
1070
    44
1040
1.0
1070
    74
1070
     0
1000
MTEXTEND
  0
MTEXT
  5
71A
330
1F
100
AcDbEntity
  8
寸法文字
  6
Continuous
100
AcDbMText
 10
16056.37186220253
 20
12730.84308640562
 30
0.0
 40
300.0
 41
0.0
 71
     8
 72
     1
  1
φ2.6×40mm目
  7
1_100
 73
     1
 44
1.0
1001
ACAD
1000
MTEXTBEGIN
1070
    73
1070
     1
1070
    44
1040
1.0
1070
    74
1070
     0
1000
MTEXTEND
  0
LWPOLYLINE
  5
71B
330
1F
100
AcDbEntity
  8
画層3-1
100
AcDbPolyline
 90
        4
 70
     0
 43
0.0
 10
16132.50144990544
 20
12439.44825190838
 10
16132.50144990544
 20
12119.44825190838
 10
16081.70144990563
 20
12119.44825190838
 10
16081.70144990563
 20
12439.44825190861
  0
LINE
  5
71C
330
1F
100
AcDbEntity
  8
ﾊｯﾁﾝｸﾞ
  6
Continuous
100
AcDbLine
 10
17642.85383070364
 20
12419.44825190838
 30
0.0
 11
17762.85383070411
 21
12299.44825190838
 31
0.0
  0
LINE
  5
71D
330
1F
100
AcDbEntity
  8
ﾊｯﾁﾝｸﾞ
  6
Continuous
100
AcDbLine
 10
17694.92611248429
 20
12367.37597012784
 30
0.0
 11
17626.99839426495
 21
12299.44825190838
 31
0.0
  0
LINE
  5
71E
330
1F
100
AcDbEntity
  8
ﾊｯﾁﾝｸﾞ
  6
Continuous
100
AcDbLine
 10
17655.32813273753
 20
12406.97394987425
 30
0.0
 11
17547.80243477189
 21
12299.44825190838
 31
0.0
  0
LINE
  5
71F
330
1F
100
AcDbEntity
  8
ﾊｯﾁﾝｸﾞ
  6
Continuous
100
AcDbLine
 10
17496.93621375143
 20
12327.77799038143
 30
0.0
 11
17468.60647527884
 21
12299.44825190838
 31
0.0
  0
LINE
  5
720
330
1F
100
AcDbEntity
  8
ﾊｯﾁﾝｸﾞ
  6
Continuous
100
AcDbLine
 10
17457.33823400466
 20
12367.37597012784
 30
0.0
 11
17389.41051578532
 21
12299.44825190838
 31
0.0
  0
LINE
  5
721
330
1F
100
AcDbEntity
  8
ﾊｯﾁﾝｸﾞ
  6
Continuous
100
AcDbLine
 10
17563.65787121012
 20
12419.44825190849
 30
0.0
 11
17615.73015299124
 21
12367.37597012784
 31
0.0
  0
LINE
  5
722
330
1F
100
AcDbEntity
  8
ﾊｯﾁﾝｸﾞ
  6
Continuous
100
AcDbLine
 10
17484.46191171707
 20
12419.44825190838
 30
0.0
 11
17576.13217324495
 21
12327.77799038131
 31
0.0
  0
LINE
  5
723
330
1F
100
AcDbEntity
  8
ﾊｯﾁﾝｸﾞ
  6
Continuous
100
AcDbLine
 10
17405.26595222402
 20
12419.44825190838
 30
0.0
 11
17525.26595222495
 21
12299.44825190838
 31
0.0
  0
LINE
  5
724
330
1F
100
AcDbEntity
  8
ﾊｯﾁﾝｸﾞ
  6
Continuous
100
AcDbLine
 10
17417.74025425838
 20
12406.97394987425
 30
0.0
 11
17363.97740527532
 21
12353.21110089131
 31
0.0
  0
LINE
  5
725
330
1F
100
AcDbEntity
  8
ﾊｯﾁﾝｸﾞ
  6
Continuous
100
AcDbLine
 10
17801.24574968975
 20
12419.44825190838
 30
0.0
 11
17857.10144990554
 21
12363.59255169282
 31
0.0
  0
LINE
  5
726
330
1F
100
AcDbEntity
  8
ﾊｯﾁﾝｸﾞ
  6
Continuous
100
AcDbLine
 10
17722.04979019623
 20
12419.44825190838
 30
0.0
 11
17842.04979019716
 21
12299.44825190838
 31
0.0
  0
LINE
  5
727
330
1F
100
AcDbEntity
  8
ﾊｯﾁﾝｸﾞ
  6
Continuous
100
AcDbLine
 10
17734.52409223059
 20
12327.77799038143
 30
0.0
 11
17706.194353758
 21
12299.44825190838
 31
0.0
  0
LINE
  5
728
330
1F
100
AcDbEntity
  8
画層2-1
  6
Continuous
100
AcDbLine
 10
17998.95144990563
 20
12269.44825190838
 30
0.0
 11
18215.25144990544
 21
12269.44825190838
 31
0.0
  0
LINE
  5
729
330
1F
100
AcDbEntity
  8
画層3-1
  6
Continuous
100
AcDbLine
 10
16132.50144990544
 20
12477.54825190847
 30
0.0
 11
18081.70144990563
 21
12477.54825190835
 31
0.0
  0
LINE
  5
72A
330
1F
100
AcDbEntity
  8
画層3-1
  6
Continuous
100
AcDbLine
 10
16132.50144990544
 20
12439.44825190838
 30
0.0
 11
18081.70144990563
 21
12439.44825190838
 31
0.0
  0
DIMENSION
  5
72B
330
1F
100
AcDbEntity
  8
画層3-寸法
  6
Continuous
100
AcDbDimension
  2
*D25
 10
18107.10144990554
 20
8019.448251908377
 30
0.0
 11
17107.10144990554
 21
8298.019680479807
 31
0.0
 70
    32
 71
     5
 42
2000.0
  3
1_100
100
AcDbAlignedDimension
 13
16107.10144990554
 23
10106.54228616595
 33
0.0
 14
18107.10144990554
 24
10106.54228616595
 34
0.0
100
AcDbRotatedDimension
  0
LINE
  5
72C
330
1F
100
AcDbEntity
  8
画層3-1
  6
Continuous
100
AcDbLine
 10
16147.50144990544
 20
14356.34825190828
 30
0.0
 11
18041.75144990544
 21
14356.3482519084
 31
0.0
  0
LINE
  5
72D
330
1F
100
AcDbEntity
  8
画層3-1
  6
Continuous
100
AcDbLine
 10
18026.75144990591
 20
13084.44825190838
 30
0.0
 11
18187.45144990563
 21
13084.44825190838
 31
0.0
  0
LINE
  5
72E
330
1F
100
AcDbEntity
  8
画層3-1
  6
Continuous
100
AcDbLine
 10
18187.45144990563
 20
13114.44825190838
 30
0.0
 11
18026.75144990591
 21
13114.44825190838
 31
0.0
  0
LINE
  5
72F
330
1F
100
AcDbEntity
  8
画層3-1
  6
Continuous
100
AcDbLine
 10
18026.75144990591
 20
13744.44825190838
 30
0.0
 11
18187.45144990563
 21
13744.44825190838
 31
0.0
  0
LINE
  5
730
330
1F
100
AcDbEntity
  8
画層3-1
  6
Continuous
100
AcDbLine
 10
18187.45144990563
 20
13774.44825190837
 30
0.0
 11
18026.75144990591
 21
13774.44825190837
 31
0.0
  0
LINE
  5
731
330
1F
100
AcDbEntity
  8
画層2-1
  6
Continuous
100
AcDbLine
 10
17998.95144990563
 20
12519.44825190838
 30
0.0
 11
18215.25144990544
 21
12519.44825190838
 31
0.0
  0
LWPOLYLINE
  5
732
330
1F
100
AcDbEntity
  8
画層1
  6
Continuous
100
AcDbPolyline
 90
        4
 70
     1
 43
0.0
 10
17948.95144990563
 20
14444.44825190838
 10
18265.25144990544
 20
14444.44825190838
 10
18265.25144990544
 20
14394.44825190838
 10
17948.95144990563
 20
14394.44825190838
  0
LWPOLYLINE
  5
733
330
1F
100
AcDbEntity
  8
画層2
100
AcDbPolyline
 90
        8
 70
     0
 43
0.0
 10
17857.10144990554
 20
12419.44825190838
 10
17857.10144990554
 20
12119.44825190838
 10
17882.10144990554
 20
12119.44825190838
 10
17882.10144990554
 20
10219.44825190838
 10
18332.10144990554
 20
10219.44825190838
 10
18332.10144990554
 20
12119.44825190838
 10
18357.10144990554
 20
12119.44825190838
 10
18357.10144990554
 20
12419.44825190838
  0
LINE
  5
734
330
1F
100
AcDbEntity
  8
画層2
100
AcDbLine
 10
18332.10144990554
 20
10319.44825190838
 30
0.0
 11
17882.10144990554
 21
10319.44825190838
 31
0.0
  0
HATCH
  5
735
330
1F
100
AcDbEntity
  8
ﾊｯﾁﾝｸﾞ
100
AcDbHatch
 10
0.0
 20
0.0
 30
0.0
210
0.0
220
0.0
230
1.0
  2
PLAST
 70
     0
 71
     0
 91
        2
 92
        7
 72
     0
 73
     1
 93
        6
 10
18107.10144990554
 20
12419.44825190838
 10
17857.10144990554
 20
12419.44825190838
 10
17857.10144990554
 20
12119.44825190838
 10
17882.10144990554
 20
12119.44825190838
 10
17882.10144990554
 20
10319.44825190838
 10
18107.10144990554
 20
10319.44825190838
 97
        0
 92
        7
 72
     0
 73
     1
 93
        6
 10
18332.10144990554
 20
12119.44825190838
 10
18357.10144990554
 20
12119.44825190838
 10
18357.10144990554
 20
12419.44825190838
 10
18107.10144990554
 20
12419.44825190838
 10
18107.10144990554
 20
10319.44825190838
 10
18332.10144990554
 20
10319.44825190838
 97
        0
 75
     0
 76
     1
 52
45.0
 41
2000.0
 77
     0
 78
     3
 53
45.0
 43
-260372.6656881789
 44
-241400.3610955528
 45
-353.5533905932737
 46
353.5533905932738
 79
     0
 53
45.0
 43
-260416.859862003
 44
-241356.1669217287
 45
-353.5533905932737
 46
353.5533905932738
 79
     0
 53
45.0
 43
-260461.0540358272
 44
-241311.9727479045
 45
-353.5533905932737
 46
353.5533905932738
 79
     0
 47
19.1017385276827
 98
        2
 10
18025.1719056178
 20
11535.41972296053
 10
18197.20660722034
 20
11439.91163131637
  0
INSERT
  5
736
330
1F
100
AcDbEntity
  8
ﾊｯﾁﾝｸﾞ
100
AcDbBlockReference
  2
sai450
 10
18107.10144990554
 20
10319.44825190838
 30
0.0
  0
MTEXT
  5
737
102
{ACAD_REACTORS
330
738
102
}
330
1F
100
AcDbEntity
  8
寸法文字
  6
Continuous
100
AcDbMText
 10
20461.89067423541
 20
15029.77473205045
 30
0.0
 40
300.0
 41
0.0
 71
     7
 72
     1
  1
メッセンワイヤー22m㎡
  7
1_100
 73
     1
 44
1.0
1001
ACAD
1000
MTEXTBEGIN
1070
    73
1070
     1
1070
    44
1040
1.0
1070
    74
1070
     0
1000
MTEXTEND
  0
LEADER
  5
738
330
1F
100
AcDbEntity
  8
寸法引出
  6
Continuous
100
AcDbLeader
  3
1_100
 71
     0
 73
     0
 74
     0
 75
     1
 40
346.6666666666666
 41
3117.142857142858
 76
     3
 10
20008.23268407687
 20
14419.44825190837
 30
0.0
 10
20301.89067423541
 20
14929.77473205045
 30
0.0
 10
20361.89067423541
 20
14929.77473205045
 30
0.0
340
737
  0
LWPOLYLINE
  5
739
330
1F
100
AcDbEntity
  8
画層1-1
100
AcDbPolyline
 90
        4
 70
     1
 43
0.0
 10
18473.92234099481
 20
14635.86900381356
 10
18499.20616731198
 20
14604.87338917582
 10
18359.72590144222
 20
14491.09617074913
 10
18334.44207512505
 20
14522.09178538686
  0
LWPOLYLINE
  5
73A
330
1F
100
AcDbEntity
  8
画層1-1
100
AcDbPolyline
 90
        4
 70
     1
 43
0.0
 10
17740.28055881673
 20
14635.86900381391
 10
17714.99673249956
 20
14604.87338917629
 10
17854.47699836885
 20
14491.09617074925
 10
17879.76082468602
 20
14522.09178538686
  0
LINE
  5
73B
330
1F
100
AcDbEntity
  8
画層1
  6
Continuous
100
AcDbLine
 10
30628.22031144623
 20
14774.44825190791
 30
0.0
 11
30588.22031144623
 21
14774.44825190791
 31
0.0
  0
DIMENSION
  5
73C
330
1F
100
AcDbEntity
  8
寸法
  6
Continuous
100
AcDbDimension
  2
*D26
 10
32607.10144990554
 20
12419.44825190838
 30
0.0
 11
32862.6153614713
 21
12035.70899207281
 31
0.0
 70
   160
 71
     5
 42
300.0
  3
1_100
100
AcDbAlignedDimension
 13
31606.53222530905
 23
12119.44825190838
 33
0.0
 14
31606.53222530905
 24
12419.44825190838
 34
0.0
 50
90.0
100
AcDbRotatedDimension
  0
LWPOLYLINE
  5
73D
330
1F
100
AcDbEntity
  8
画層3-1
100
AcDbPolyline
 90
        4
 70
     0
 43
0.0
 10
30476.70144990563
 20
14419.44825190814
 10
30476.70144990563
 20
12119.44825190838
 10
30425.90144990582
 20
12119.44825190838
 10
30425.90144990582
 20
14419.44825190814
  0
DIMENSION
  5
73E
330
1F
100
AcDbEntity
  8
寸法
  6
Continuous
100
AcDbDimension
  2
*D27
 10
32607.10144990554
 20
14419.44825184842
 30
0.0
 11
32328.53002133411
 21
13419.4482518784
 31
0.0
 70
    32
 71
     5
 42
1999.999999940046
  3
1_100
100
AcDbAlignedDimension
 13
31606.53222530905
 23
12419.44825190838
 33
0.0
 14
31606.53222530905
 24
14419.44825184842
 34
0.0
 50
90.0
100
AcDbRotatedDimension
  0
LINE
  5
73F
330
1F
100
AcDbEntity
  8
画層2-1
  6
Continuous
100
AcDbLine
 10
30498.95144990563
 20
12269.44825190791
 30
0.0
 11
30715.25144990545
 21
12269.44825190791
 31
0.0
  0
DIMENSION
  5
740
330
1F
100
AcDbEntity
  8
寸法
  6
Continuous
100
AcDbDimension
  2
*D28
 10
30857.10144990554
 20
9219.44825190698
 30
0.0
 11
30607.10144990554
 21
8969.44825190698
 31
0.0
 70
    32
  1
□<>
 71
     5
 42
500.0
  3
1_100
100
AcDbAlignedDimension
 13
30357.10144990554
 23
10219.44825190721
 33
0.0
 14
30857.10144990554
 24
10219.44825190709
 34
0.0
100
AcDbRotatedDimension
1001
ACAD
1000
DSTYLE
1002
{
1070
    77
1070
     2
1070
   174
1070
     1
1002
}
  0
LINE
  5
741
330
1F
100
AcDbEntity
  8
画層2
  6
Continuous
100
AcDbLine
 10
29517.54075116769
 20
12419.44825190838
 30
0.0
 11
32017.34337548038
 21
12419.44825190838
 31
0.0
  0
DIMENSION
  5
742
330
1F
100
AcDbEntity
  8
寸法
  6
Continuous
100
AcDbDimension
  2
*D29
 10
32607.10144990554
 20
10319.44825190838
 30
0.0
 11
32333.44792197377
 21
9823.769670546257
 31
0.0
 70
   160
 71
     5
 42
100.0
  3
1_100
100
AcDbAlignedDimension
 13
31606.53222530905
 23
10219.44825190838
 33
0.0
 14
31606.53222530905
 24
10319.44825190838
 34
0.0
 50
90.0
100
AcDbRotatedDimension
  0
DIMENSION
  5
743
330
1F
100
AcDbEntity
  8
寸法
  6
Continuous
100
AcDbDimension
  2
*D30
 10
33607.09163990907
 20
10319.44825190838
 30
0.0
 11
33328.52021133764
 21
11369.44825190838
 31
0.0
 70
    32
 71
     5
 42
2100.0
  3
1_100
100
AcDbAlignedDimension
 13
31606.53222530905
 23
12419.44825190838
 33
0.0
 14
31606.53222530905
 24
10319.44825190838
 34
0.0
 50
90.0
100
AcDbRotatedDimension
  0
DIMENSION
  5
744
330
1F
100
AcDbEntity
  8
寸法
  6
Continuous
100
AcDbDimension
  2
*D31
 10
32607.10144990554
 20
12119.44825190838
 30
0.0
 11
32328.53002133411
 21
11219.44825190838
 31
0.0
 70
    32
 71
     5
 42
1800.0
  3
1_100
100
AcDbAlignedDimension
 13
31606.53222530905
 23
10319.44825190838
 33
0.0
 14
31606.53222530905
 24
12119.44825190838
 34
0.0
 50
90.0
100
AcDbRotatedDimension
  0
LINE
  5
745
330
1F
100
AcDbEntity
  8
画層1
  6
Continuous
100
AcDbLine
 10
30715.25144990545
 20
14444.44825190791
 30
0.0
 11
30632.10144990554
 21
14444.44825190791
 31
0.0
  0
LINE
  5
746
330
1F
100
AcDbEntity
  8
画層1
  6
Continuous
100
AcDbLine
 10
30582.10144990554
 20
14444.44825190791
 30
0.0
 11
30498.95144990563
 21
14444.44825190791
 31
0.0
  0
LINE
  5
747
330
1F
100
AcDbEntity
  8
画層1
  6
Continuous
100
AcDbLine
 10
30588.22031144623
 20
14594.44825190791
 30
0.0
 11
30628.22031144623
 21
14594.44825190791
 31
0.0
  0
LINE
  5
748
330
1F
100
AcDbEntity
  8
画層1
100
AcDbLine
 10
30632.10144990554
 20
14394.44825190791
 30
0.0
 11
30715.25144990545
 21
14394.44825190791
 31
0.0
  0
LINE
  5
749
330
1F
100
AcDbEntity
  8
画層1
  6
Continuous
100
AcDbLine
 10
30448.95144990563
 20
14419.44825190837
 30
0.0
 11
30498.95144990563
 21
14419.44825190837
 31
0.0
  0
LINE
  5
74A
330
1F
100
AcDbEntity
  8
画層1
100
AcDbLine
 10
30582.10144990554
 20
14394.44825190791
 30
0.0
 11
30498.95144990563
 21
14394.44825190791
 31
0.0
  0
LINE
  5
74B
330
1F
100
AcDbEntity
  8
画層1
  6
Continuous
100
AcDbLine
 10
30557.10144990554
 20
14419.44825190837
 30
0.0
 11
30657.10144990554
 21
14419.44825190837
 31
0.0
  0
CIRCLE
  5
74C
330
1F
100
AcDbEntity
  8
画層3-1
100
AcDbCircle
 10
30451.30144990573
 20
14419.44825190814
 30
0.0
 40
25.40000000002328
  0
LINE
  5
74D
330
1F
100
AcDbEntity
  8
画層1
  6
Continuous
100
AcDbLine
 10
30582.10144990554
 20
14394.44825190791
 30
0.0
 11
30582.10144990554
 21
14444.44825190791
 31
0.0
  0
LINE
  5
74E
330
1F
100
AcDbEntity
  8
画層1
  6
Continuous
100
AcDbLine
 10
30632.10144990554
 20
14394.44825190791
 30
0.0
 11
30632.10144990554
 21
14444.44825190791
 31
0.0
  0
LINE
  5
74F
330
1F
100
AcDbEntity
  8
画層1
  6
Continuous
100
AcDbLine
 10
30607.10144990554
 20
14594.67296688383
 30
0.0
 11
30607.10144990554
 21
14419.44825190837
 31
0.0
  0
LINE
  5
750
330
1F
100
AcDbEntity
  8
画層1
  6
Continuous
100
AcDbLine
 10
30448.95144990563
 20
14444.44825190791
 30
0.0
 11
30448.95144990563
 21
14394.44825190791
 31
0.0
  0
LINE
  5
751
330
1F
100
AcDbEntity
  8
画層3-1
100
AcDbLine
 10
30476.70144990563
 20
12548.12283781191
 30
0.0
 11
30425.90144990582
 21
12548.12283781191
 31
0.0
  0
LINE
  5
752
330
1F
100
AcDbEntity
  8
画層3-1
100
AcDbLine
 10
30476.70144990563
 20
12523.1228378119
 30
0.0
 11
30425.90144990582
 21
12523.1228378119
 31
0.0
  0
LINE
  5
753
330
1F
100
AcDbEntity
  8
画層2-1
  6
Continuous
100
AcDbLine
 10
30498.95144990563
 20
12519.44825190791
 30
0.0
 11
30715.25144990545
 21
12519.44825190791
 31
0.0
  0
LINE
  5
754
330
1F
100
AcDbEntity
  8
画層3-1
100
AcDbLine
 10
30451.30144990573
 20
12548.12283781191
 30
0.0
 11
30451.30144990573
 21
14394.048251908
 31
0.0
  0
LINE
  5
755
330
1F
100
AcDbEntity
  8
ﾊｯﾁﾝｸﾞ
  6
Continuous
100
AcDbLine
 10
30142.85383070363
 20
12419.44825190838
 30
0.0
 11
30262.85383070411
 21
12299.44825190838
 31
0.0
  0
LINE
  5
756
330
1F
100
AcDbEntity
  8
ﾊｯﾁﾝｸﾞ
  6
Continuous
100
AcDbLine
 10
30194.92611248431
 20
12367.37597012784
 30
0.0
 11
30126.99839426495
 21
12299.44825190838
 31
0.0
  0
LINE
  5
757
330
1F
100
AcDbEntity
  8
ﾊｯﾁﾝｸﾞ
  6
Continuous
100
AcDbLine
 10
30155.32813273754
 20
12406.97394987425
 30
0.0
 11
30047.8024347719
 21
12299.44825190838
 31
0.0
  0
LINE
  5
758
330
1F
100
AcDbEntity
  8
ﾊｯﾁﾝｸﾞ
  6
Continuous
100
AcDbLine
 10
29996.93621375143
 20
12327.77799038143
 30
0.0
 11
29968.60647527885
 21
12299.44825190838
 31
0.0
  0
LINE
  5
759
330
1F
100
AcDbEntity
  8
ﾊｯﾁﾝｸﾞ
  6
Continuous
100
AcDbLine
 10
29957.33823400513
 20
12367.37597012784
 30
0.0
 11
29889.41051578533
 21
12299.44825190838
 31
0.0
  0
LINE
  5
75A
330
1F
100
AcDbEntity
  8
ﾊｯﾁﾝｸﾞ
  6
Continuous
100
AcDbLine
 10
30063.65787121059
 20
12419.44825190849
 30
0.0
 11
30115.73015299124
 21
12367.37597012784
 31
0.0
  0
LINE
  5
75B
330
1F
100
AcDbEntity
  8
ﾊｯﾁﾝｸﾞ
  6
Continuous
100
AcDbLine
 10
29984.46191171707
 20
12419.44825190838
 30
0.0
 11
30076.13217324495
 21
12327.77799038131
 31
0.0
  0
LINE
  5
75C
330
1F
100
AcDbEntity
  8
ﾊｯﾁﾝｸﾞ
  6
Continuous
100
AcDbLine
 10
29905.26595222402
 20
12419.44825190838
 30
0.0
 11
30025.26595222495
 21
12299.44825190838
 31
0.0
  0
LINE
  5
75D
330
1F
100
AcDbEntity
  8
ﾊｯﾁﾝｸﾞ
  6
Continuous
100
AcDbLine
 10
29917.74025425838
 20
12406.97394987425
 30
0.0
 11
29863.97740527533
 21
12353.21110089131
 31
0.0
  0
LINE
  5
75E
330
1F
100
AcDbEntity
  8
ﾊｯﾁﾝｸﾞ
  6
Continuous
100
AcDbLine
 10
30301.24574968975
 20
12419.44825190838
 30
0.0
 11
30357.10144990554
 21
12363.59255169282
 31
0.0
  0
LINE
  5
75F
330
1F
100
AcDbEntity
  8
ﾊｯﾁﾝｸﾞ
  6
Continuous
100
AcDbLine
 10
30222.0497901967
 20
12419.44825190838
 30
0.0
 11
30342.04979019717
 21
12299.44825190838
 31
0.0
  0
LINE
  5
760
330
1F
100
AcDbEntity
  8
ﾊｯﾁﾝｸﾞ
  6
Continuous
100
AcDbLine
 10
30234.52409223059
 20
12327.77799038143
 30
0.0
 11
30206.194353758
 21
12299.44825190838
 31
0.0
  0
LINE
  5
761
330
1F
100
AcDbEntity
  8
ﾊｯﾁﾝｸﾞ
  6
Continuous
100
AcDbLine
 10
31150.54502860095
 20
12419.44825190849
 30
0.0
 11
31098.47274681983
 21
12367.37597012784
 31
0.0
  0
LINE
  5
762
330
1F
100
AcDbEntity
  8
ﾊｯﾁﾝｸﾞ
  6
Continuous
100
AcDbLine
 10
31058.87476707354
 20
12406.97394987425
 30
0.0
 11
31166.40046503918
 21
12299.44825190838
 31
0.0
  0
LINE
  5
763
330
1F
100
AcDbEntity
  8
ﾊｯﾁﾝｸﾞ
  6
Continuous
100
AcDbLine
 10
31019.27678732725
 20
12367.37597012784
 30
0.0
 11
31087.20450554659
 21
12299.44825190838
 31
0.0
  0
LINE
  5
764
330
1F
100
AcDbEntity
  8
ﾊｯﾁﾝｸﾞ
  6
Continuous
100
AcDbLine
 10
30979.67880758049
 20
12327.77799038143
 30
0.0
 11
31008.00854605308
 21
12299.44825190838
 31
0.0
  0
LINE
  5
765
330
1F
100
AcDbEntity
  8
ﾊｯﾁﾝｸﾞ
  6
Continuous
100
AcDbLine
 10
31071.3490691079
 20
12419.44825190838
 30
0.0
 11
30951.34906910697
 21
12299.44825190838
 31
0.0
  0
LINE
  5
766
330
1F
100
AcDbEntity
  8
ﾊｯﾁﾝｸﾞ
  6
Continuous
100
AcDbLine
 10
30992.15310961485
 20
12419.44825190838
 30
0.0
 11
30872.15310961392
 21
12299.44825190838
 31
0.0
  0
LINE
  5
767
330
1F
100
AcDbEntity
  8
ﾊｯﾁﾝｸﾞ
  6
Continuous
100
AcDbLine
 10
30912.95715012133
 20
12419.44825190838
 30
0.0
 11
30857.10144990554
 21
12363.59255169282
 31
0.0
  0
LINE
  5
768
330
1F
100
AcDbEntity
  8
ﾊｯﾁﾝｸﾞ
  6
Continuous
100
AcDbLine
 10
31296.4626455527
 20
12406.97394987425
 30
0.0
 11
31350.22549453575
 21
12353.21110089131
 31
0.0
  0
LINE
  5
769
330
1F
100
AcDbEntity
  8
ﾊｯﾁﾝｸﾞ
  6
Continuous
100
AcDbLine
 10
31308.93694758706
 20
12419.44825190838
 30
0.0
 11
31188.93694758612
 21
12299.44825190838
 31
0.0
  0
LINE
  5
76A
330
1F
100
AcDbEntity
  8
ﾊｯﾁﾝｸﾞ
  6
Continuous
100
AcDbLine
 10
31229.740988094
 20
12419.44825190838
 30
0.0
 11
31138.07072656659
 21
12327.77799038143
 31
0.0
  0
LINE
  5
76B
330
1F
100
AcDbEntity
  8
ﾊｯﾁﾝｸﾞ
  6
Continuous
100
AcDbLine
 10
31256.8646658064
 20
12367.37597012784
 30
0.0
 11
31324.79238402575
 21
12299.44825190838
 31
0.0
  0
LINE
  5
76C
330
1F
100
AcDbEntity
  8
ﾊｯﾁﾝｸﾞ
  6
Continuous
100
AcDbLine
 10
31217.26668605965
 20
12327.77799038143
 30
0.0
 11
31245.5964245327
 21
12299.44825190838
 31
0.0
  0
LWPOLYLINE
  5
76D
330
1F
100
AcDbEntity
  8
画層2
100
AcDbPolyline
 90
        8
 70
     0
 43
0.0
 10
30357.10144990554
 20
12419.44825190838
 10
30357.10144990554
 20
12119.44825190838
 10
30382.10144990554
 20
12119.44825190838
 10
30382.10144990554
 20
10219.44825190838
 10
30832.10144990554
 20
10219.44825190838
 10
30832.10144990554
 20
12119.44825190838
 10
30857.10144990554
 20
12119.44825190838
 10
30857.10144990554
 20
12419.44825190838
  0
LINE
  5
76E
330
1F
100
AcDbEntity
  8
画層2
100
AcDbLine
 10
30832.10144990554
 20
10319.44825190838
 30
0.0
 11
30382.10144990554
 21
10319.44825190838
 31
0.0
  0
HATCH
  5
76F
330
1F
100
AcDbEntity
  8
ﾊｯﾁﾝｸﾞ
100
AcDbHatch
 10
0.0
 20
0.0
 30
0.0
210
0.0
220
0.0
230
1.0
  2
PLAST
 70
     0
 71
     0
 91
        2
 92
        7
 72
     0
 73
     1
 93
        6
 10
30832.10144990554
 20
12119.44825190838
 10
30857.10144990554
 20
12119.44825190838
 10
30857.10144990554
 20
12419.44825190838
 10
30607.10144990554
 20
12419.44825190838
 10
30607.10144990554
 20
10319.44825190838
 10
30832.10144990554
 20
10319.44825190838
 97
        0
 92
        7
 72
     0
 73
     1
 93
        6
 10
30607.10144990554
 20
12419.44825190838
 10
30357.10144990554
 20
12419.44825190838
 10
30357.10144990554
 20
12119.44825190838
 10
30382.10144990554
 20
12119.44825190838
 10
30382.10144990554
 20
10319.44825190838
 10
30607.10144990554
 20
10319.44825190838
 97
        0
 75
     0
 76
     1
 52
45.0
 41
2000.0
 77
     0
 78
     3
 53
45.0
 43
-260372.6656881789
 44
-241400.3610955528
 45
-353.5533905932737
 46
353.5533905932738
 79
     0
 53
45.0
 43
-260416.859862003
 44
-241356.1669217287
 45
-353.5533905932737
 46
353.5533905932738
 79
     0
 53
45.0
 43
-260461.0540358272
 44
-241311.9727479045
 45
-353.5533905932737
 46
353.5533905932738
 79
     0
 47
13.77011071274015
 98
        2
 10
30702.30377341492
 20
11530.29599082303
 10
30509.38927958172
 20
11447.67511470193
  0
INSERT
  5
770
330
1F
100
AcDbEntity
  8
ﾊｯﾁﾝｸﾞ
100
AcDbBlockReference
  2
sai450
 10
30607.10144990554
 20
10319.44825190838
 30
0.0
  0
LINE
  5
771
330
1F
100
AcDbEntity
  8
画層1
  6
Continuous
100
AcDbLine
 10
30628.22031144623
 20
14594.44825190791
 30
0.0
 11
30628.22031144623
 21
14774.44825190791
 31
0.0
  0
LINE
  5
772
330
1F
100
AcDbEntity
  8
画層1
  6
Continuous
100
AcDbLine
 10
30588.22031144623
 20
14774.44825190791
 30
0.0
 11
30588.22031144623
 21
14594.44825190791
 31
0.0
  0
LEADER
  5
773
330
1F
100
AcDbEntity
  8
寸法引出
  6
Continuous
100
AcDbLeader
  3
1_100
 71
     0
 73
     0
 74
     0
 75
     1
 40
696.6666666666665
 41
3117.142857142857
 76
     3
 10
13652.21176797023
 20
18806.30699108572
 30
0.0
 10
14264.42773789736
 20
18264.25888387739
 30
0.0
 10
14324.42773789736
 20
18264.25888387739
 30
0.0
340
774
  0
MTEXT
  5
774
102
{ACAD_REACTORS
330
773
102
}
330
1F
100
AcDbEntity
  8
寸法文字
  6
Continuous
100
AcDbMText
 10
14424.42773789736
 20
18364.25888387739
 30
0.0
 40
300.0
 41
0.0
 71
     7
 72
     1
  1
筋違\Pメッセンワイヤー38m㎡
  7
1_100
 73
     1
 44
0.7
1001
ACAD
1000
MTEXTBEGIN
1070
    73
1070
     1
1070
    44
1040
0.7
1070
    74
1070
     0
1000
MTEXTEND
  0
MTEXT
  5
777
330
1F
100
AcDbEntity
  8
寸法文字
  6
Continuous
100
AcDbMText
 10
14050.29586025338
 20
23133.91154621631
 30
0.0
 40
300.0
 41
0.0
 71
     1
 72
     1
  1
（STK-540鋼管）
  7
1_100
 73
     1
 44
1.0
1001
ACAD
1000
ACAD_MTEXT_DEFINED_HEIGHT_BEGIN
1070
    46
1040
0.0
1000
ACAD_MTEXT_DEFINED_HEIGHT_END
1000
MTEXTBEGIN
1070
    73
1070
     1
1070
    44
1040
1.0
1070
    74
1070
     0
1000
MTEXTEND
  0
LEADER
  5
778
330
1F
100
AcDbEntity
  8
寸法引出
  6
Continuous
100
AcDbLeader
  3
1_100
 71
     0
 73
     0
 74
     0
 75
     1
 40
300.0
 41
5880.0
 76
     3
 10
12354.90188917156
 20
22299.44641596378
 30
0.0
 10
12917.90799440827
 20
23327.44816772403
 30
0.0
 10
12977.90799440827
 20
23327.44816772403
 30
0.0
340
779
  0
MTEXT
  5
779
102
{ACAD_REACTORS
330
778
102
}
330
1F
100
AcDbEntity
  8
寸法文字
  6
Continuous
100
AcDbMText
 10
13077.90799440827
 20
23427.44816772403
 30
0.0
 40
300.0
 41
0.0
 71
     7
 72
     1
  1
端末・コーナー補強ポールφ114.3×3.0mm
  7
1_100
 73
     1
 44
1.0
1001
ACAD
1000
ACAD_MTEXT_DEFINED_HEIGHT_BEGIN
1070
    46
1040
0.0
1000
ACAD_MTEXT_DEFINED_HEIGHT_END
1000
MTEXTBEGIN
1070
    73
1070
     1
1070
    44
1040
1.0
1070
    74
1070
     0
1000
MTEXTEND
  0
LINE
  5
77A
330
1F
100
AcDbEntity
  8
画層1-1
  6
Continuous
100
AcDbLine
 10
8107.101449905538
 20
17059.44825190837
 30
0.0
 11
25507.10144990554
 21
17059.44825190837
 31
0.0
  0
LINE
  5
77B
330
1F
100
AcDbEntity
  8
画層1-1
  6
Continuous
100
AcDbLine
 10
8107.101449905538
 20
19709.44825190837
 30
0.0
 11
25507.10144990554
 21
19709.44825190837
 31
0.0
  0
LWPOLYLINE
  5
77C
330
1F
100
AcDbEntity
  8
画層1-1
100
AcDbPolyline
 90
        4
 70
     1
 43
0.0
 10
8315.251449905444
 20
22366.5982519084
 10
17898.95144990563
 20
22366.5982519084
 10
17898.95144990563
 20
22252.29825190846
 10
8315.251449905444
 20
22252.29825190846
  0
LINE
  5
77D
330
1F
100
AcDbEntity
  8
画層1
  6
Continuous
100
AcDbLine
 10
25507.10144990554
 20
22359.44825190838
 30
0.0
 11
8107.101449905538
 21
22359.44825190838
 31
0.0
  0
LINE
  5
77F
330
1F
100
AcDbEntity
  8
寸法引出
  6
Continuous
100
AcDbLine
 10
14264.42773789736
 20
18264.25888387739
 30
0.0
 11
13830.69331948656
 21
17799.19794170019
 31
0.0
  0
LEADER
  5
780
330
1F
100
AcDbEntity
  8
寸法引出
  6
Continuous
100
AcDbLeader
  3
1_100
 71
     0
 73
     0
 75
     1
 40
300.0
 41
2603.571428571428
 76
     3
 10
8398.927870744483
 20
17079.44924622235
 30
0.0
 10
7044.892152357957
 20
18024.35359991082
 30
0.0
 10
6984.892152357956
 20
18024.35359991082
 30
0.0
340
781
  0
MTEXT
  5
781
102
{ACAD_REACTORS
330
780
102
}
330
1F
100
AcDbEntity
  8
寸法文字
  6
Continuous
100
AcDbMText
 10
6884.892152357956
 20
18124.35359991082
 30
0.0
 40
300.0
 41
0.0
 71
     9
 72
     1
  1
タンバックル12mm
  7
1_100
 73
     1
 44
1.0
1001
ACAD
1000
MTEXTBEGIN
1070
    73
1070
     1
1070
    44
1040
1.0
1070
    74
1070
     0
1000
MTEXTEND
  0
LEADER
  5
782
330
1F
100
AcDbEntity
  8
寸法引出
  6
Continuous
100
AcDbLeader
  3
1_100
 71
     0
 73
     0
 75
     1
 40
346.6666666666666
 41
3117.142857142858
 76
     3
 10
8107.101449905538
 20
19063.13448542609
 30
0.0
 10
7069.499910925158
 20
19774.76641514917
 30
0.0
 10
7009.499910925159
 20
19774.76641514917
 30
0.0
340
783
  0
MTEXT
  5
783
102
{ACAD_REACTORS
330
782
102
}
330
1F
100
AcDbEntity
  8
寸法文字
  6
Continuous
100
AcDbMText
 10
6909.499910925159
 20
19874.76641514917
 30
0.0
 40
300.0
 41
0.0
 71
     9
 72
     1
  1
メッセンワイヤー22m㎡
  7
1_100
 73
     1
 44
1.0
1001
ACAD
1000
MTEXTBEGIN
1070
    73
1070
     1
1070
    44
1040
1.0
1070
    74
1070
     0
1000
MTEXTEND
  0
LEADER
  5
784
330
1F
100
AcDbEntity
  8
寸法引出
  6
Continuous
100
AcDbLeader
  3
1_100
 71
     0
 73
     0
 75
     1
 40
300.0
 41
2940.000000000001
 76
     3
 10
8107.101449905538
 20
22419.44825190838
 30
0.0
 10
6893.381253374849
 20
23194.65921168852
 30
0.0
 10
6833.38125337485
 20
23194.65921168852
 30
0.0
340
785
  0
MTEXT
  5
785
102
{ACAD_REACTORS
330
784
102
}
330
1F
100
AcDbEntity
  8
寸法文字
  6
Continuous
100
AcDbMText
 10
6733.38125337485
 20
23294.65921168852
 30
0.0
 40
300.0
 41
0.0
 71
     9
 72
     1
  1
上部ネット下り防止付き
  7
1_100
 73
     1
 44
1.0
1001
ACAD
1000
MTEXTBEGIN
1070
    73
1070
     1
1070
    44
1040
1.0
1070
    74
1070
     0
1000
MTEXTEND
  0
MTEXT
  5
786
330
1F
100
AcDbEntity
  8
寸法文字
  6
Continuous
100
AcDbMText
 10
5740.940965474692
 20
21301.1599061051
 30
0.0
 40
300.0
 41
0.0
 71
     3
 72
     1
  1
（STKT-590鋼管）
  7
1_100
 73
     1
 44
1.0
1001
ACAD
1000
MTEXTBEGIN
1070
    73
1070
     1
1070
    44
1040
1.0
1070
    74
1070
     0
1000
MTEXTEND
  0
LINE
  5
787
330
1F
100
AcDbEntity
  8
画層1
  6
Continuous
100
AcDbLine
 10
8265.251449905445
 20
19734.44825190837
 30
0.0
 11
7948.951449905631
 21
19734.44825190837
 31
0.0
  0
LINE
  5
788
330
1F
100
AcDbEntity
  8
画層1
  6
Continuous
100
AcDbLine
 10
8265.251449905445
 20
19684.44825190838
 30
0.0
 11
8265.251449905445
 21
19734.44825190837
 31
0.0
  0
LINE
  5
789
330
1F
100
AcDbEntity
  8
画層1
  6
Continuous
100
AcDbLine
 10
7948.951449905631
 20
19684.44825190838
 30
0.0
 11
8265.251449905445
 21
19684.44825190838
 31
0.0
  0
LINE
  5
78A
330
1F
100
AcDbEntity
  8
画層1
  6
Continuous
100
AcDbLine
 10
8265.251449905445
 20
17084.44825190837
 30
0.0
 11
7948.951449905631
 21
17084.44825190837
 31
0.0
  0
LINE
  5
78B
330
1F
100
AcDbEntity
  8
画層1
  6
Continuous
100
AcDbLine
 10
8265.251449905445
 20
17034.44825190837
 30
0.0
 11
8265.251449905445
 21
17084.44825190837
 31
0.0
  0
LINE
  5
78C
330
1F
100
AcDbEntity
  8
画層1
  6
Continuous
100
AcDbLine
 10
7948.951449905631
 20
17034.44825190837
 30
0.0
 11
8265.251449905445
 21
17034.44825190837
 31
0.0
  0
LINE
  5
78D
330
1F
100
AcDbEntity
  8
画層1
  6
Continuous
100
AcDbLine
 10
8132.10144990554
 20
19684.44825190838
 30
0.0
 11
8132.10144990554
 21
19734.44825190837
 31
0.0
  0
CIRCLE
  5
78E
330
1F
100
AcDbEntity
  8
画層1
  6
Continuous
100
AcDbCircle
 10
8240.251449905445
 20
19709.44825190837
 30
0.0
 40
10.9509940156
  0
LINE
  5
78F
330
1F
100
AcDbEntity
  8
画層1
  6
Continuous
100
AcDbLine
 10
8082.101449905538
 20
19684.44825190838
 30
0.0
 11
8082.101449905538
 21
19734.44825190837
 31
0.0
  0
LINE
  5
790
330
1F
100
AcDbEntity
  8
画層1
  6
Continuous
100
AcDbLine
 10
7948.951449905631
 20
19734.44825190837
 30
0.0
 11
7948.951449905631
 21
19684.44825190838
 31
0.0
  0
CIRCLE
  5
791
330
1F
100
AcDbEntity
  8
画層1
  6
Continuous
100
AcDbCircle
 10
7973.951449905631
 20
19709.44825190837
 30
0.0
 40
10.9509940156
  0
LWPOLYLINE
  5
792
330
1F
100
AcDbEntity
  8
画層1-1
100
AcDbPolyline
 90
        4
 70
     1
 43
0.0
 10
8340.701449905633
 20
19729.44924622235
 10
8495.251449905445
 20
19729.44924622235
 10
8495.251449905445
 20
19689.44924622235
 10
8340.701449905633
 20
19689.44924622235
  0
LINE
  5
793
330
1F
100
AcDbEntity
  8
画層1
  6
Continuous
100
AcDbLine
 10
8132.10144990554
 20
17034.44825190837
 30
0.0
 11
8132.10144990554
 21
17084.44825190837
 31
0.0
  0
CIRCLE
  5
794
330
1F
100
AcDbEntity
  8
画層1
  6
Continuous
100
AcDbCircle
 10
8240.251449905445
 20
17059.44825190837
 30
0.0
 40
10.9509940156
  0
LINE
  5
795
330
1F
100
AcDbEntity
  8
画層1
  6
Continuous
100
AcDbLine
 10
8082.101449905538
 20
17034.44825190837
 30
0.0
 11
8082.101449905538
 21
17084.44825190837
 31
0.0
  0
LINE
  5
796
330
1F
100
AcDbEntity
  8
画層1
  6
Continuous
100
AcDbLine
 10
7948.951449905631
 20
17084.44825190837
 30
0.0
 11
7948.951449905631
 21
17034.44825190837
 31
0.0
  0
CIRCLE
  5
797
330
1F
100
AcDbEntity
  8
画層1
  6
Continuous
100
AcDbCircle
 10
7973.951449905631
 20
17059.44825190837
 30
0.0
 40
10.9509940156
  0
LWPOLYLINE
  5
798
330
1F
100
AcDbEntity
  8
画層1-1
100
AcDbPolyline
 90
        4
 70
     1
 43
0.0
 10
8340.701449905633
 20
17079.44924622235
 10
8495.251449905445
 20
17079.44924622235
 10
8495.251449905445
 20
17039.44924622235
 10
8340.701449905633
 20
17039.44924622235
  0
LINE
  5
799
330
1F
100
AcDbEntity
  8
画層1-1
100
AcDbLine
 10
8265.251449905445
 20
22309.44825190837
 30
0.0
 11
8315.251449905444
 21
22309.44825190837
 31
0.0
  0
LINE
  5
79A
330
1F
100
AcDbEntity
  8
画層1
  6
Continuous
100
AcDbLine
 10
8265.251449905445
 20
22284.44825190837
 30
0.0
 11
8265.251449905445
 21
22334.44825190838
 31
0.0
  0
LINE
  5
79B
330
1F
100
AcDbEntity
  8
画層1
  6
Continuous
100
AcDbLine
 10
7948.951449905631
 20
22284.44825190837
 30
0.0
 11
8265.251449905445
 21
22284.44825190837
 31
0.0
  0
LWPOLYLINE
  5
79C
330
1F
100
AcDbEntity
  8
画層1
100
AcDbPolyline
 90
        4
 70
     1
 43
0.0
 10
8340.701449905633
 20
22379.22453124713
 10
8495.251449905445
 20
22379.22453124713
 10
8495.251449905445
 20
22339.22453124713
 10
8340.701449905633
 20
22339.22453124713
  0
LINE
  5
79D
330
1F
100
AcDbEntity
  8
画層1
  6
Continuous
100
AcDbLine
 10
7998.951449905631
 20
22419.44825190838
 30
0.0
 11
8215.251449905444
 21
22419.44825190838
 31
0.0
  0
LINE
  5
79E
330
1F
100
AcDbEntity
  8
画層1
  6
Continuous
100
AcDbLine
 10
8265.251449905445
 20
22334.44825190838
 30
0.0
 11
8265.251449905445
 21
22384.44825190838
 31
0.0
  0
LINE
  5
79F
330
1F
100
AcDbEntity
  8
画層1
  6
Continuous
100
AcDbLine
 10
8132.10144990554
 20
22334.44825190838
 30
0.0
 11
8132.10144990554
 21
22384.44825190838
 31
0.0
  0
CIRCLE
  5
7A0
330
1F
100
AcDbEntity
  8
画層1
  6
Continuous
100
AcDbCircle
 10
8240.251449905445
 20
22359.44825190838
 30
0.0
 40
10.9509940156
  0
LINE
  5
7A1
330
1F
100
AcDbEntity
  8
画層1
  6
Continuous
100
AcDbLine
 10
8082.101449905538
 20
22334.44825190838
 30
0.0
 11
8082.101449905538
 21
22384.44825190838
 31
0.0
  0
LINE
  5
7A2
330
1F
100
AcDbEntity
  8
画層1
  6
Continuous
100
AcDbLine
 10
8082.101449905538
 20
22284.44825190837
 30
0.0
 11
8082.101449905538
 21
22334.44825190838
 31
0.0
  0
CIRCLE
  5
7A3
330
1F
100
AcDbEntity
  8
画層1
  6
Continuous
100
AcDbCircle
 10
8240.251449905445
 20
22309.44825190837
 30
0.0
 40
10.9509940156
  0
LINE
  5
7A4
330
1F
100
AcDbEntity
  8
画層1
  6
Continuous
100
AcDbLine
 10
8132.10144990554
 20
22284.44825190837
 30
0.0
 11
8132.10144990554
 21
22334.44825190838
 31
0.0
  0
LINE
  5
7A5
330
1F
100
AcDbEntity
  8
画層1
  6
Continuous
100
AcDbLine
 10
7948.951449905631
 20
22384.44825190838
 30
0.0
 11
7948.951449905631
 21
22334.44825190838
 31
0.0
  0
CIRCLE
  5
7A6
330
1F
100
AcDbEntity
  8
画層1
  6
Continuous
100
AcDbCircle
 10
7973.951449905631
 20
22359.44825190838
 30
0.0
 40
10.9509940156
  0
CIRCLE
  5
7A7
330
1F
100
AcDbEntity
  8
画層1
  6
Continuous
100
AcDbCircle
 10
7973.951449905631
 20
22309.44825190837
 30
0.0
 40
10.9509940156
  0
LINE
  5
7A8
330
1F
100
AcDbEntity
  8
画層1
  6
Continuous
100
AcDbLine
 10
7948.951449905631
 20
22334.44825190838
 30
0.0
 11
7948.951449905631
 21
22284.44825190837
 31
0.0
  0
LINE
  5
7A9
330
1F
100
AcDbEntity
  8
画層1
  6
Continuous
100
AcDbLine
 10
7948.951449905631
 20
22334.44825190838
 30
0.0
 11
8265.251449905445
 21
22334.44825190838
 31
0.0
  0
LINE
  5
7AA
330
1F
100
AcDbEntity
  8
画層1
  6
Continuous
100
AcDbLine
 10
8265.251449905445
 20
22384.44825190838
 30
0.0
 11
7948.951449905631
 21
22384.44825190838
 31
0.0
  0
LINE
  5
7AB
330
1F
100
AcDbEntity
  8
画層1
  6
Continuous
100
AcDbLine
 10
7998.951449905631
 20
22399.44825190838
 30
0.0
 11
8215.251449905444
 21
22399.44825190838
 31
0.0
  0
LINE
  5
7AC
330
1F
100
AcDbEntity
  8
画層1
  6
Continuous
100
AcDbLine
 10
8265.251449905445
 20
22334.44825190838
 30
0.0
 11
7948.951449905631
 21
22334.44825190838
 31
0.0
  0
DIMENSION
  5
7AD
330
1F
100
AcDbEntity
  8
寸法
  6
Continuous
100
AcDbDimension
  2
*D32
 10
8215.251449905444
 20
23019.44825190838
 30
0.0
 11
8107.101449905538
 21
23319.44825190838
 31
0.0
 70
    32
  1
φ<>
 71
     5
 42
216.2999999998137
  3
1_100
100
AcDbAlignedDimension
 13
7998.951449905631
 23
22419.44825190838
 33
0.0
 14
8215.251449905444
 24
22419.44825190838
 34
0.0
100
AcDbRotatedDimension
  0
LEADER
  5
7AE
330
1F
100
AcDbEntity
  8
寸法引出
  6
Continuous
100
AcDbLeader
  3
1_100
 71
     0
 73
     0
 75
     1
 40
300.0
 41
4699.285714285711
 76
     3
 10
7998.951449905631
 20
20705.13952842374
 30
0.0
 10
6803.873400610048
 20
21527.40919217545
 30
0.0
 10
6743.873400610048
 20
21527.40919217545
 30
0.0
340
7AF
  0
MTEXT
  5
7AF
102
{ACAD_REACTORS
330
7AE
102
}
330
1F
100
AcDbEntity
  8
寸法文字
  6
Continuous
100
AcDbMText
 10
6643.873400610049
 20
21627.40919217545
 30
0.0
 40
300.0
 41
0.0
 71
     9
 72
     1
  1
主柱KSポールφ216.3厚さ5.0mm
  7
1_100
 73
     1
 44
1.0
1001
ACAD
1000
ACAD_MTEXT_DEFINED_HEIGHT_BEGIN
1070
    46
1040
0.0
1000
ACAD_MTEXT_DEFINED_HEIGHT_END
1000
MTEXTBEGIN
1070
    73
1070
     1
1070
    44
1040
1.0
1070
    74
1070
     0
1000
MTEXTEND
  0
DIMENSION
  5
7B0
330
1F
100
AcDbEntity
  8
寸法
  6
Continuous
100
AcDbDimension
  2
*D33
 10
27007.10144990554
 20
22359.44825190838
 30
0.0
 11
26728.53002133411
 21
21034.44825190838
 31
0.0
 70
    32
 71
     5
 42
2650.0
  3
1_100
100
AcDbAlignedDimension
 13
26007.10144990554
 23
19709.44825190837
 33
0.0
 14
26007.10144990554
 24
22359.44825190838
 34
0.0
 50
90.0
100
AcDbRotatedDimension
  0
DIMENSION
  5
7B1
330
1F
100
AcDbEntity
  8
寸法
  6
Continuous
100
AcDbDimension
  2
*D34
 10
27007.10144990554
 20
19709.44825190837
 30
0.0
 11
26728.53002133411
 21
18384.44825190838
 31
0.0
 70
    32
 71
     5
 42
2650.0
  3
1_100
100
AcDbAlignedDimension
 13
26007.10144990554
 23
17059.44825190837
 33
0.0
 14
26007.10144990554
 24
19709.44825190837
 34
0.0
 50
90.0
100
AcDbRotatedDimension
  0
DIMENSION
  5
7B2
330
1F
100
AcDbEntity
  8
寸法
  6
Continuous
100
AcDbDimension
  2
*D35
 10
27007.10144990554
 20
22419.44825190838
 30
0.0
 11
26713.8094469459
 21
22691.13727905411
 31
0.0
 70
   160
 71
     5
 42
60.0
  3
1_100
100
AcDbAlignedDimension
 13
26007.10144990554
 23
22359.44825190838
 33
0.0
 14
26007.10144990554
 24
22419.44825190838
 34
0.0
 50
90.0
100
AcDbRotatedDimension
  0
LEADER
  5
7B3
330
1F
100
AcDbEntity
  8
寸法引出
  6
Continuous
100
AcDbLeader
  3
1_100
 71
     0
 73
     0
 74
     0
 75
     1
 40
346.6666666666666
 41
3117.142857142857
 76
     3
 10
19414.05654604744
 20
22359.44825190838
 30
0.0
 10
19693.73554146068
 20
21492.50894142265
 30
0.0
 10
19753.73554146068
 20
21492.50894142265
 30
0.0
340
7B4
  0
MTEXT
  5
7B4
102
{ACAD_REACTORS
330
7B3
102
}
330
1F
100
AcDbEntity
  8
寸法文字
  6
Continuous
100
AcDbMText
 10
19853.73554146068
 20
21592.50894142265
 30
0.0
 40
300.0
 41
0.0
 71
     7
 72
     1
  1
メッセンワイヤー38m㎡
  7
1_100
 73
     1
 44
1.0
1001
ACAD
1000
MTEXTBEGIN
1070
    73
1070
     1
1070
    44
1040
1.0
1070
    74
1070
     0
1000
MTEXTEND
  0
LINE
  5
7B5
330
1F
100
AcDbEntity
  8
画層1
  6
Continuous
100
AcDbLine
 10
18265.25144990544
 20
19684.44825190838
 30
0.0
 11
18265.25144990544
 21
19734.44825190837
 31
0.0
  0
LINE
  5
7B6
330
1F
100
AcDbEntity
  8
画層1
  6
Continuous
100
AcDbLine
 10
18132.10144990554
 20
19684.44825190838
 30
0.0
 11
18132.10144990554
 21
19734.44825190837
 31
0.0
  0
CIRCLE
  5
7B7
330
1F
100
AcDbEntity
  8
画層1
  6
Continuous
100
AcDbCircle
 10
18240.25144990543
 20
19709.44825190837
 30
0.0
 40
10.9509940156
  0
LINE
  5
7B8
330
1F
100
AcDbEntity
  8
画層1
  6
Continuous
100
AcDbLine
 10
18082.10144990554
 20
19684.44825190838
 30
0.0
 11
18082.10144990554
 21
19734.44825190837
 31
0.0
  0
LINE
  5
7B9
330
1F
100
AcDbEntity
  8
画層1
  6
Continuous
100
AcDbLine
 10
18265.25144990544
 20
17034.44825190837
 30
0.0
 11
18265.25144990544
 21
17084.44825190837
 31
0.0
  0
LINE
  5
7BA
330
1F
100
AcDbEntity
  8
画層1
  6
Continuous
100
AcDbLine
 10
18132.10144990554
 20
17034.44825190837
 30
0.0
 11
18132.10144990554
 21
17084.44825190837
 31
0.0
  0
CIRCLE
  5
7BB
330
1F
100
AcDbEntity
  8
画層1
  6
Continuous
100
AcDbCircle
 10
18240.25144990543
 20
17059.44825190837
 30
0.0
 40
10.9509940156
  0
LINE
  5
7BC
330
1F
100
AcDbEntity
  8
画層1
  6
Continuous
100
AcDbLine
 10
18082.10144990554
 20
17034.44825190837
 30
0.0
 11
18082.10144990554
 21
17084.44825190837
 31
0.0
  0
LINE
  5
7BD
330
1F
100
AcDbEntity
  8
画層1
  6
Continuous
100
AcDbLine
 10
18265.25144990544
 20
22334.44825190838
 30
0.0
 11
18265.25144990544
 21
22384.44825190838
 31
0.0
  0
LINE
  5
7BE
330
1F
100
AcDbEntity
  8
画層1
  6
Continuous
100
AcDbLine
 10
18132.10144990554
 20
22334.44825190838
 30
0.0
 11
18132.10144990554
 21
22384.44825190838
 31
0.0
  0
CIRCLE
  5
7BF
330
1F
100
AcDbEntity
  8
画層1
  6
Continuous
100
AcDbCircle
 10
18240.25144990543
 20
22359.44825190838
 30
0.0
 40
10.9509940156
  0
CIRCLE
  5
7C0
330
1F
100
AcDbEntity
  8
画層1
  6
Continuous
100
AcDbCircle
 10
18240.25144990543
 20
22309.44825190837
 30
0.0
 40
10.9509940156
  0
LINE
  5
7C1
330
1F
100
AcDbEntity
  8
画層1
  6
Continuous
100
AcDbLine
 10
18132.10144990554
 20
22284.44825190837
 30
0.0
 11
18132.10144990554
 21
22334.44825190838
 31
0.0
  0
LINE
  5
7C2
330
1F
100
AcDbEntity
  8
画層1
  6
Continuous
100
AcDbLine
 10
18265.25144990544
 20
22284.44825190837
 30
0.0
 11
18265.25144990544
 21
22334.44825190838
 31
0.0
  0
LINE
  5
7C3
330
1F
100
AcDbEntity
  8
画層1
  6
Continuous
100
AcDbLine
 10
18082.10144990554
 20
22334.44825190838
 30
0.0
 11
18082.10144990554
 21
22384.44825190838
 31
0.0
  0
LINE
  5
7C4
330
1F
100
AcDbEntity
  8
画層1
  6
Continuous
100
AcDbLine
 10
18082.10144990554
 20
22284.44825190837
 30
0.0
 11
18082.10144990554
 21
22334.44825190838
 31
0.0
  0
CIRCLE
  5
7C5
330
1F
100
AcDbEntity
  8
画層1
  6
Continuous
100
AcDbCircle
 10
17973.95144990563
 20
19709.44825190837
 30
0.0
 40
10.9509940156
  0
LINE
  5
7C6
330
1F
100
AcDbEntity
  8
画層1
  6
Continuous
100
AcDbLine
 10
17948.95144990563
 20
19734.44825190837
 30
0.0
 11
17948.95144990563
 21
19684.44825190838
 31
0.0
  0
CIRCLE
  5
7C7
330
1F
100
AcDbEntity
  8
画層1
  6
Continuous
100
AcDbCircle
 10
17973.95144990563
 20
17059.44825190837
 30
0.0
 40
10.9509940156
  0
LINE
  5
7C8
330
1F
100
AcDbEntity
  8
画層1
  6
Continuous
100
AcDbLine
 10
17948.95144990563
 20
17084.44825190837
 30
0.0
 11
17948.95144990563
 21
17034.44825190837
 31
0.0
  0
CIRCLE
  5
7C9
330
1F
100
AcDbEntity
  8
画層1
  6
Continuous
100
AcDbCircle
 10
17973.95144990563
 20
22359.44825190838
 30
0.0
 40
10.9509940156
  0
LINE
  5
7CA
330
1F
100
AcDbEntity
  8
画層1
  6
Continuous
100
AcDbLine
 10
17948.95144990563
 20
22384.44825190838
 30
0.0
 11
17948.95144990563
 21
22334.44825190838
 31
0.0
  0
LINE
  5
7CB
330
1F
100
AcDbEntity
  8
画層1
  6
Continuous
100
AcDbLine
 10
17948.95144990563
 20
22334.44825190838
 30
0.0
 11
17948.95144990563
 21
22284.44825190837
 31
0.0
  0
CIRCLE
  5
7CC
330
1F
100
AcDbEntity
  8
画層1
  6
Continuous
100
AcDbCircle
 10
17973.95144990563
 20
22309.44825190837
 30
0.0
 40
10.9509940156
  0
LINE
  5
7CD
330
1F
100
AcDbEntity
  8
画層1-1
100
AcDbLine
 10
17948.95144990563
 20
22309.44825190837
 30
0.0
 11
17898.95144990563
 21
22309.44825190837
 31
0.0
  0
LINE
  5
7CE
330
1F
100
AcDbEntity
  8
画層1
  6
Continuous
100
AcDbLine
 10
17948.95144990563
 20
19684.44825190838
 30
0.0
 11
18265.25144990544
 21
19684.44825190838
 31
0.0
  0
LINE
  5
7CF
330
1F
100
AcDbEntity
  8
画層1
  6
Continuous
100
AcDbLine
 10
18265.25144990544
 20
19734.44825190837
 30
0.0
 11
17948.95144990563
 21
19734.44825190837
 31
0.0
  0
LINE
  5
7D0
330
1F
100
AcDbEntity
  8
画層1
  6
Continuous
100
AcDbLine
 10
18265.25144990544
 20
17084.44825190837
 30
0.0
 11
17948.95144990563
 21
17084.44825190837
 31
0.0
  0
LINE
  5
7D1
330
1F
100
AcDbEntity
  8
画層1
  6
Continuous
100
AcDbLine
 10
17948.95144990563
 20
17034.44825190837
 30
0.0
 11
18265.25144990544
 21
17034.44825190837
 31
0.0
  0
LINE
  5
7D2
330
1F
100
AcDbEntity
  8
画層1
  6
Continuous
100
AcDbLine
 10
17998.95144990563
 20
22399.44825190838
 30
0.0
 11
18215.25144990544
 21
22399.44825190838
 31
0.0
  0
LINE
  5
7D3
330
1F
100
AcDbEntity
  8
画層1
  6
Continuous
100
AcDbLine
 10
17998.95144990563
 20
22419.44825190838
 30
0.0
 11
18215.25144990544
 21
22419.44825190838
 31
0.0
  0
LINE
  5
7D4
330
1F
100
AcDbEntity
  8
画層1
  6
Continuous
100
AcDbLine
 10
17948.95144990563
 20
22334.44825190838
 30
0.0
 11
18265.25144990544
 21
22334.44825190838
 31
0.0
  0
LINE
  5
7D5
330
1F
100
AcDbEntity
  8
画層1
  6
Continuous
100
AcDbLine
 10
18265.25144990544
 20
22384.44825190838
 30
0.0
 11
17948.95144990563
 21
22384.44825190838
 31
0.0
  0
LINE
  5
7D6
330
1F
100
AcDbEntity
  8
画層1
  6
Continuous
100
AcDbLine
 10
18265.25144990544
 20
22334.44825190838
 30
0.0
 11
17948.95144990563
 21
22334.44825190838
 31
0.0
  0
LINE
  5
7D7
330
1F
100
AcDbEntity
  8
画層1
  6
Continuous
100
AcDbLine
 10
17948.95144990563
 20
22284.44825190837
 30
0.0
 11
18265.25144990544
 21
22284.44825190837
 31
0.0
  0
LEADER
  5
7D8
330
1F
100
AcDbEntity
  8
寸法引出
  6
Continuous
100
AcDbLeader
  3
1_100
 71
     0
 73
     0
 74
     0
 75
     1
 40
846.6666666666665
 41
5162.142857142854
 76
     3
 10
20601.74418784596
 20
22359.44825190804
 30
0.0
 10
21139.86645777534
 20
23417.70404105933
 30
0.0
 10
21199.86645777534
 20
23417.70404105933
 30
0.0
340
7D9
  0
MTEXT
  5
7D9
102
{ACAD_REACTORS
330
7D8
102
}
330
1F
100
AcDbEntity
  8
寸法文字
  6
Continuous
100
AcDbMText
 10
21299.86645777535
 20
23517.70404105933
 30
0.0
 40
300.0
 41
0.0
 71
     7
 72
     1
  1
ネット上下6mm合繊ロープに4mm合繊\Pロープにて38m㎡ワイヤーに巻付
  7
1_100
 73
     1
 44
1.0
1001
ACAD
1000
MTEXTBEGIN
1070
    73
1070
     1
1070
    44
1040
1.0
1070
    74
1070
     0
1000
MTEXTEND
  0
DIMENSION
  5
7DA
330
1F
100
AcDbEntity
  8
寸法
  6
Continuous
100
AcDbDimension
  2
*D36
 10
32607.10144990554
 20
22359.44825190838
 30
0.0
 11
32328.53002133411
 21
21034.44825190838
 31
0.0
 70
    32
 71
     5
 42
2650.0
  3
1_100
100
AcDbAlignedDimension
 13
31606.53222530905
 23
19709.44825190837
 33
0.0
 14
31606.53222530905
 24
22359.44825190838
 34
0.0
 50
90.0
100
AcDbRotatedDimension
  0
LINE
  5
7DB
330
1F
100
AcDbEntity
  8
画層1
  6
Continuous
100
AcDbLine
 10
30632.10144990554
 20
19684.44825190791
 30
0.0
 11
30632.10144990554
 21
19734.44825190791
 31
0.0
  0
LINE
  5
7DC
330
1F
100
AcDbEntity
  8
画層1
  6
Continuous
100
AcDbLine
 10
30632.10144990554
 20
19684.44825190791
 30
0.0
 11
30715.25144990545
 21
19684.44825190791
 31
0.0
  0
LINE
  5
7DD
330
1F
100
AcDbEntity
  8
画層1
  6
Continuous
100
AcDbLine
 10
30715.25144990545
 20
19734.44825190791
 30
0.0
 11
30632.10144990554
 21
19734.44825190791
 31
0.0
  0
LINE
  5
7DE
330
1F
100
AcDbEntity
  8
画層1
  6
Continuous
100
AcDbLine
 10
30582.10144990554
 20
19684.44825190791
 30
0.0
 11
30582.10144990554
 21
19734.44825190791
 31
0.0
  0
LINE
  5
7DF
330
1F
100
AcDbEntity
  8
画層1
  6
Continuous
100
AcDbLine
 10
30498.95144990563
 20
19684.44825190791
 30
0.0
 11
30582.10144990554
 21
19684.44825190791
 31
0.0
  0
LINE
  5
7E0
330
1F
100
AcDbEntity
  8
画層1
  6
Continuous
100
AcDbLine
 10
30582.10144990554
 20
19734.44825190791
 30
0.0
 11
30498.95144990563
 21
19734.44825190791
 31
0.0
  0
LINE
  5
7E1
330
1F
100
AcDbEntity
  8
画層1
  6
Continuous
100
AcDbLine
 10
30448.95144990563
 20
19734.44825190791
 30
0.0
 11
30448.95144990563
 21
19684.44825190791
 31
0.0
  0
LINE
  5
7E2
330
1F
100
AcDbEntity
  8
画層1
  6
Continuous
100
AcDbLine
 10
30448.95144990563
 20
19709.44825190837
 30
0.0
 11
30498.95144990563
 21
19709.44825190837
 31
0.0
  0
LINE
  5
7E3
330
1F
100
AcDbEntity
  8
画層1
  6
Continuous
100
AcDbLine
 10
30557.10144990554
 20
19709.44825190837
 30
0.0
 11
30657.10144990554
 21
19709.44825190837
 31
0.0
  0
LINE
  5
7E4
330
1F
100
AcDbEntity
  8
画層1
  6
Continuous
100
AcDbLine
 10
30632.10144990554
 20
17034.44825190791
 30
0.0
 11
30632.10144990554
 21
17084.44825190791
 31
0.0
  0
LINE
  5
7E5
330
1F
100
AcDbEntity
  8
画層1
  6
Continuous
100
AcDbLine
 10
30715.25144990545
 20
17084.44825190791
 30
0.0
 11
30632.10144990554
 21
17084.44825190791
 31
0.0
  0
LINE
  5
7E6
330
1F
100
AcDbEntity
  8
画層1
  6
Continuous
100
AcDbLine
 10
30632.10144990554
 20
17034.44825190791
 30
0.0
 11
30715.25144990545
 21
17034.44825190791
 31
0.0
  0
LINE
  5
7E7
330
1F
100
AcDbEntity
  8
画層1
  6
Continuous
100
AcDbLine
 10
30582.10144990554
 20
17034.44825190791
 30
0.0
 11
30582.10144990554
 21
17084.44825190791
 31
0.0
  0
LINE
  5
7E8
330
1F
100
AcDbEntity
  8
画層1
  6
Continuous
100
AcDbLine
 10
30582.10144990554
 20
17084.44825190791
 30
0.0
 11
30498.95144990563
 21
17084.44825190791
 31
0.0
  0
LINE
  5
7E9
330
1F
100
AcDbEntity
  8
画層1
  6
Continuous
100
AcDbLine
 10
30498.95144990563
 20
17034.44825190791
 30
0.0
 11
30582.10144990554
 21
17034.44825190791
 31
0.0
  0
LINE
  5
7EA
330
1F
100
AcDbEntity
  8
画層1
  6
Continuous
100
AcDbLine
 10
30448.95144990563
 20
17084.44825190791
 30
0.0
 11
30448.95144990563
 21
17034.44825190791
 31
0.0
  0
LINE
  5
7EB
330
1F
100
AcDbEntity
  8
画層1
  6
Continuous
100
AcDbLine
 10
30448.95144990563
 20
17059.44825190837
 30
0.0
 11
30498.95144990563
 21
17059.44825190837
 31
0.0
  0
LINE
  5
7EC
330
1F
100
AcDbEntity
  8
画層1
  6
Continuous
100
AcDbLine
 10
30557.10144990554
 20
17059.44825190837
 30
0.0
 11
30657.10144990554
 21
17059.44825190837
 31
0.0
  0
DIMENSION
  5
7ED
330
1F
100
AcDbEntity
  8
寸法
  6
Continuous
100
AcDbDimension
  2
*D37
 10
32607.10144990554
 20
19709.44825190837
 30
0.0
 11
32328.53002133411
 21
18384.44825190838
 31
0.0
 70
    32
 71
     5
 42
2650.0
  3
1_100
100
AcDbAlignedDimension
 13
31606.53222530905
 23
17059.44825190837
 33
0.0
 14
31606.53222530905
 24
19709.44825190837
 34
0.0
 50
90.0
100
AcDbRotatedDimension
  0
LINE
  5
7EE
330
1F
100
AcDbEntity
  8
画層1
  6
Continuous
100
AcDbLine
 10
30498.95144990563
 20
22419.44825190791
 30
0.0
 11
30715.25144990545
 21
22419.44825190791
 31
0.0
  0
LINE
  5
7EF
330
1F
100
AcDbEntity
  8
画層1
  6
Continuous
100
AcDbLine
 10
30632.10144990554
 20
22334.44825190791
 30
0.0
 11
30632.10144990554
 21
22384.44825190791
 31
0.0
  0
LINE
  5
7F0
330
1F
100
AcDbEntity
  8
画層1
  6
Continuous
100
AcDbLine
 10
30715.25144990545
 20
22384.44825190791
 30
0.0
 11
30632.10144990554
 21
22384.44825190791
 31
0.0
  0
LINE
  5
7F1
330
1F
100
AcDbEntity
  8
画層1
  6
Continuous
100
AcDbLine
 10
30632.10144990554
 20
22334.44825190791
 30
0.0
 11
30715.25144990545
 21
22334.44825190791
 31
0.0
  0
LINE
  5
7F2
330
1F
100
AcDbEntity
  8
画層1
  6
Continuous
100
AcDbLine
 10
30582.10144990554
 20
22334.44825190791
 30
0.0
 11
30582.10144990554
 21
22384.44825190791
 31
0.0
  0
LINE
  5
7F3
330
1F
100
AcDbEntity
  8
画層1
  6
Continuous
100
AcDbLine
 10
30582.10144990554
 20
22384.44825190791
 30
0.0
 11
30498.95144990563
 21
22384.44825190791
 31
0.0
  0
LINE
  5
7F4
330
1F
100
AcDbEntity
  8
画層1
  6
Continuous
100
AcDbLine
 10
30498.95144990563
 20
22334.44825190791
 30
0.0
 11
30582.10144990554
 21
22334.44825190791
 31
0.0
  0
LINE
  5
7F5
330
1F
100
AcDbEntity
  8
画層1
  6
Continuous
100
AcDbLine
 10
30448.95144990563
 20
22384.44825190791
 30
0.0
 11
30448.95144990563
 21
22334.44825190791
 31
0.0
  0
LINE
  5
7F6
330
1F
100
AcDbEntity
  8
画層1
  6
Continuous
100
AcDbLine
 10
30448.95144990563
 20
22359.44825190838
 30
0.0
 11
30498.95144990563
 21
22359.44825190838
 31
0.0
  0
LINE
  5
7F7
330
1F
100
AcDbEntity
  8
画層1
  6
Continuous
100
AcDbLine
 10
30557.10144990554
 20
22359.44825190838
 30
0.0
 11
30657.10144990554
 21
22359.44825190838
 31
0.0
  0
LINE
  5
7F8
330
1F
100
AcDbEntity
  8
画層1
  6
Continuous
100
AcDbLine
 10
30498.95144990563
 20
22399.44825190791
 30
0.0
 11
30715.25144990545
 21
22399.44825190791
 31
0.0
  0
DIMENSION
  5
7F9
330
1F
100
AcDbEntity
  8
寸法
  6
Continuous
100
AcDbDimension
  2
*D38
 10
30715.25144990591
 20
23019.44825190838
 30
0.0
 11
30607.10144990577
 21
23319.44825190838
 31
0.0
 70
    32
  1
φ<>
 71
     5
 42
216.3000000002794
  3
1_100
100
AcDbAlignedDimension
 13
30498.95144990563
 23
22419.44825190838
 33
0.0
 14
30715.25144990591
 24
22419.44825190838
 34
0.0
100
AcDbRotatedDimension
  0
DIMENSION
  5
7FA
330
1F
100
AcDbEntity
  8
寸法
  6
Continuous
100
AcDbDimension
  2
*D39
 10
32607.10144990554
 20
22419.44825190838
 30
0.0
 11
32339.0960621346
 21
22736.53033807777
 31
0.0
 70
   160
 71
     5
 42
60.0
  3
1_100
100
AcDbAlignedDimension
 13
31606.53222530905
 23
22359.44825190838
 33
0.0
 14
31606.53222530905
 24
22419.44825190838
 34
0.0
 50
90.0
100
AcDbRotatedDimension
  0
LEADER
  5
7FB
330
1F
100
AcDbEntity
  8
寸法引出
  6
Continuous
100
AcDbLeader
  3
1_100
 71
     0
 73
     0
 74
     0
 75
     1
 40
300.0
 41
4699.285714285711
 76
     3
 10
30715.25144990545
 20
21746.8343185491
 30
0.0
 10
32124.81246101867
 20
23678.82579062573
 30
0.0
 10
32184.81246101867
 20
23678.82579062573
 30
0.0
340
7FC
  0
MTEXT
  5
7FC
102
{ACAD_REACTORS
330
7FB
102
}
330
1F
100
AcDbEntity
  8
寸法文字
  6
Continuous
100
AcDbMText
 10
32284.81246101867
 20
23778.82579062573
 30
0.0
 40
300.0
 41
0.0
 71
     7
 72
     1
  1
主柱KSポールφ216.3厚さ5.0mm
  7
1_100
 73
     1
 44
1.0
1001
ACAD
1000
ACAD_MTEXT_DEFINED_HEIGHT_BEGIN
1070
    46
1040
0.0
1000
ACAD_MTEXT_DEFINED_HEIGHT_END
1000
MTEXTBEGIN
1070
    73
1070
     1
1070
    44
1040
1.0
1070
    74
1070
     0
1000
MTEXTEND
  0
MTEXT
  5
7FD
330
1F
100
AcDbEntity
  8
寸法文字
  6
Continuous
100
AcDbMText
 10
32438.35304614214
 20
23526.77003743404
 30
0.0
 40
300.0
 41
0.0
 71
     1
 72
     1
  1
（溶融亜鉛メッキ450g/㎡）
  7
1_100
 73
     1
 44
1.0
1001
ACAD
1000
MTEXTBEGIN
1070
    73
1070
     1
1070
    44
1040
1.0
1070
    74
1070
     0
1000
MTEXTEND
  0
LWPOLYLINE
  5
7FE
330
1F
100
AcDbEntity
  8
図面枠
100
AcDbPolyline
 90
        4
 70
     1
 43
0.0
 10
573.7681165714088
 20
1185.211559105702
 10
39573.76811657141
 20
1185.211559105702
 10
39573.76811657141
 20
26685.2115591057
 10
573.7681165714088
 20
26685.2115591057
  0
LWPOLYLINE
  5
7FF
330
1F
100
AcDbEntity
  8
図面枠
100
AcDbPolyline
 90
        4
 70
     1
 43
0.0
 10
573.7681165723402
 20
1185.211559105702
 10
39573.76811657234
 20
1185.211559105702
 10
39573.76811657234
 20
26685.2115591057
 10
573.7681165723402
 20
26685.2115591057
  0
MTEXT
  5
800
330
1F
100
AcDbEntity
  8
寸法
  6
Continuous
 62
     3
100
AcDbMText
 10
20073.76811657141
 20
25213.58814699511
 30
0.0
 40
500.0
 41
0.0
 71
     8
 72
     1
  1
防球ネット　ＫＳ－Ⅱ型　Ｈ＝１０,０００
  7
MSP明朝
 73
     1
 44
1.0
1001
ACAD
1000
ACAD_MTEXT_DEFINED_HEIGHT_BEGIN
1070
    46
1040
0.0
1000
ACAD_MTEXT_DEFINED_HEIGHT_END
1000
MTEXTBEGIN
1070
    73
1070
     1
1070
    44
1040
1.0
1070
    74
1070
     0
1000
MTEXTEND
  0
LINE
  5
801
330
1F
100
AcDbEntity
  8
寸法
  6
Continuous
 62
     3
100
AcDbLine
 10
15747.00824997055
 20
25116.03852012409
 30
0.0
 11
24400.52798317413
 21
25116.03852012409
 31
0.0
  0
LINE
  5
802
330
1F
100
AcDbEntity
  8
寸法
  6
Continuous
 62
     3
100
AcDbLine
 10
15747.00824997055
 20
25056.03852012642
 30
0.0
 11
24400.52798317413
 21
25056.03852012642
 31
0.0
  0
MTEXT
  5
803
330
1F
100
AcDbEntity
  8
画層1-1
100
AcDbMText
 10
3390.366597341905
 20
5333.272518684013
 30
0.0
 40
300.0
 41
0.0
 71
     1
 72
     5
  1
{\F|c128;・※印表記のネットを使用する場合標準柱スパンは変更になる場合があります}
  7
1_100
 73
     1
 44
1.0
1001
AcDbBlockRepETag
1070
     1
1071
        0
1005
803
1001
ACAD
1000
MTEXTBEGIN
1070
    73
1070
     1
1070
    44
1040
1.0
1070
    74
1070
     0
1000
MTEXTEND
  0
MTEXT
  5
804
330
1F
100
AcDbEntity
  8
画層1-1
100
AcDbMText
 10
3390.366597341905
 20
2036.867208120014
 30
0.0
 40
300.0
 41
0.0
 71
     1
 72
     5
  1
・速度圧　q=0.6EVo （N/㎡）　・地表面粗度区分　　　・基礎　普通土質 [B] を選定
  7
1_100
 73
     1
 44
1.0
1001
AcDbBlockRepETag
1070
     1
1071
        1
1005
804
1001
ACAD
1000
MTEXTBEGIN
1070
    73
1070
     1
1070
    44
1040
1.0
1070
    74
1070
     0
1000
MTEXTEND
  0
MTEXT
  5
805
330
1F
100
AcDbEntity
  8
画層1-1
100
AcDbMText
 10
3390.366597341905
 20
7133.272518684012
 30
0.0
 40
300.0
 41
0.0
 71
     1
 72
     5
  1
・主柱．端末ポール．バンド金具．ボルトは溶融亜鉛メッキ仕上げとする
  7
1_100
 73
     1
 44
1.0
1001
AcDbBlockRepETag
1070
     1
1071
        2
1005
805
1001
ACAD
1000
MTEXTBEGIN
1070
    73
1070
     1
1070
    44
1040
1.0
1070
    74
1070
     0
1000
MTEXTEND
  0
MTEXT
  5
806
330
1F
100
AcDbEntity
  8
画層1-1
100
AcDbMText
 10
3390.366597341905
 20
6533.272518684012
 30
0.0
 40
300.0
 41
0.0
 71
     1
 72
     5
  1
・主柱ポール基礎部（ＧＬ）はＦＲＰ被覆補強とする
  7
1_100
 73
     1
 44
1.0
1001
AcDbBlockRepETag
1070
     1
1071
        3
1005
806
1001
ACAD
1000
MTEXTBEGIN
1070
    73
1070
     1
1070
    44
1040
1.0
1070
    74
1070
     0
1000
MTEXTEND
  0
MTEXT
  5
807
330
1F
100
AcDbEntity
  8
画層1-1
100
AcDbMText
 10
3390.366597341905
 20
3872.914596668636
 30
0.0
 40
300.0
 41
0.0
 71
     1
 72
     5
  1
・構造計算書．材料承認願いを提出後施工のこと
  7
1_100
 73
     1
 44
1.0
1001
AcDbBlockRepETag
1070
     1
1071
        4
1005
807
1001
ACAD
1000
MTEXTBEGIN
1070
    73
1070
     1
1070
    44
1040
1.0
1070
    74
1070
     0
1000
MTEXTEND
  0
MTEXT
  5
808
330
1F
100
AcDbEntity
  8
画層1-1
100
AcDbMText
 10
3390.366597341905
 20
5933.272518684013
 30
0.0
 40
300.0
 41
0.0
 71
     1
 72
     5
  1
・上部（補強ポール・ネット）下り防止金具付きとする
  7
1_100
 73
     1
 44
1.0
1001
AcDbBlockRepETag
1070
     1
1071
        5
1005
808
1001
ACAD
1000
MTEXTBEGIN
1070
    73
1070
     1
1070
    44
1040
1.0
1070
    74
1070
     0
1000
MTEXTEND
  0
POINT
  5
809
330
1F
100
AcDbEntity
  8
画層1-1
100
AcDbPoint
 10
573.7681948657332
 20
1350.995904835183
 30
0.0
1001
AcDbBlockRepETag
1070
     1
1071
        6
1005
809
  0
MTEXT
  5
80A
330
1F
100
AcDbEntity
  8
画層1-1
100
AcDbMText
 10
2890.366597341904
 20
3135.592081302525
 30
0.0
 40
400.0
 41
0.0
 71
     1
 72
     5
  1
設計条件
  7
1_100
 73
     1
 44
1.0
1001
AcDbBlockRepETag
1070
     1
1071
        7
1005
80A
1001
ACAD
1000
MTEXTBEGIN
1070
    73
1070
     1
1070
    44
1040
1.0
1070
    74
1070
     0
1000
MTEXTEND
  0
MTEXT
  5
80B
330
1F
100
AcDbEntity
  8
画層1-1
100
AcDbMText
 10
2890.366597341904
 20
4523.937698017684
 30
0.0
 40
400.0
 41
0.0
 71
     1
 72
     5
  1
特記
  7
1_100
 73
     1
 44
1.0
1001
AcDbBlockRepETag
1070
     1
1071
        8
1005
80B
1001
ACAD
1000
MTEXTBEGIN
1070
    73
1070
     1
1070
    44
1040
1.0
1070
    74
1070
     0
1000
MTEXTEND
  0
MTEXT
  5
80C
330
1F
100
AcDbEntity
  8
画層1-1
100
AcDbMText
 10
2890.366597341904
 20
7804.701486622786
 30
0.0
 40
400.0
 41
0.0
 71
     1
 72
     5
  1
仕様について
  7
1_100
 73
     1
 44
1.0
1001
AcDbBlockRepETag
1070
     1
1071
        9
1005
80C
1001
ACAD
1000
MTEXTBEGIN
1070
    73
1070
     1
1070
    44
1040
1.0
1070
    74
1070
     0
1000
MTEXTEND
  0
MTEXT
  5
80D
330
1F
100
AcDbEntity
  8
画層1-1
100
AcDbMText
 10
10287.09310804493
 20
1974.690726592177
 30
0.0
 40
300.0
 41
0.0
 71
     1
 72
     5
  1
Ⅲ
  7
STYLE1
 73
     1
 44
1.0
1001
AcDbBlockRepETag
1070
     1
1071
       10
1005
80D
1001
ACAD
1000
MTEXTBEGIN
1070
    73
1070
     1
1070
    44
1040
1.0
1070
    74
1070
     0
1000
MTEXTEND
  0
MTEXT
  5
80E
330
1F
100
AcDbEntity
  8
画層1-1
100
AcDbMText
 10
6373.844567353931
 20
2001.35363346887
 30
0.0
 40
120.0
 41
0.0
 71
     1
 72
     5
  1
2
  7
1_100
 73
     1
 44
1.0
1001
AcDbBlockRepETag
1070
     1
1071
       11
1005
80E
1001
ACAD
1000
MTEXTBEGIN
1070
    73
1070
     1
1070
    44
1040
1.0
1070
    74
1070
     0
1000
MTEXTEND
  0
MTEXT
  5
80F
330
1F
100
AcDbEntity
  8
画層1-1
100
AcDbMText
 10
3390.366597341905
 20
2489.857125719086
 30
0.0
 40
300.0
 41
0.0
 71
     1
 72
     5
  1
・設計荷重。建築基準法・同施工令（平成12年6月）に基づく風圧力に依る、基準風速。
  7
1_100
 73
     1
 44
1.0
1001
AcDbBlockRepETag
1070
     1
1071
       12
1005
80F
1001
ACAD
1000
ACAD_MTEXT_DEFINED_HEIGHT_BEGIN
1070
    46
1040
0.0
1000
ACAD_MTEXT_DEFINED_HEIGHT_END
1000
MTEXTBEGIN
1070
    73
1070
     1
1070
    44
1040
1.0
1070
    74
1070
     0
1000
MTEXTEND
  0
LWPOLYLINE
  5
810
330
1F
100
AcDbEntity
  8
寸法引出
  6
Continuous
100
AcDbPolyline
 90
        2
 70
     0
 43
0.0
 10
25508.35464450682
 20
7319.448251908728
 10
18107.10144990554
 20
7319.448251908609
1001
ACAD
1000
DSTYLE
1002
{
1070
    41
1040
3.0
1070
   341
1005
0
1002
}
  0
LWPOLYLINE
  5
811
330
1F
100
AcDbEntity
  8
寸法引出
  6
Continuous
100
AcDbPolyline
 90
        2
 70
     0
 43
0.0
 10
25482.05048186856
 20
8019.448251908492
 10
24107.10144990554
 20
8019.448251908377
1001
ACAD
1000
DSTYLE
1002
{
1070
    41
1040
3.0
1070
   341
1005
0
1002
}
  0
LINE
  5
812
330
1F
100
AcDbEntity
  8
寸法引出
  6
ByBlock
100
AcDbLine
 10
25208.35464450681
 20
7399.83300890872
 30
0.0
 11
25508.35464450682
 21
7319.448251908728
 31
0.0
  0
LINE
  5
813
330
1F
100
AcDbEntity
  8
寸法引出
  6
ByBlock
100
AcDbLine
 10
25508.35464450682
 20
7319.448251908728
 30
0.0
 11
25208.35464450681
 21
7239.063494908724
 31
0.0
  0
LINE
  5
814
330
1F
100
AcDbEntity
  8
寸法引出
  6
ByBlock
100
AcDbLine
 10
25182.05048186854
 20
8099.833008908468
 30
0.0
 11
25482.05048186855
 21
8019.448251908494
 31
0.0
  0
LINE
  5
815
330
1F
100
AcDbEntity
  8
寸法引出
  6
ByBlock
100
AcDbLine
 10
25482.05048186855
 20
8019.448251908494
 30
0.0
 11
25182.05048186856
 21
7939.063494908468
 31
0.0
  0
MTEXT
  5
EEF
330
1F
100
AcDbEntity
  8
寸法文字
  6
Continuous
100
AcDbMText
 10
11214.84591527913
 20
21202.52214676505
 30
0.0
 40
180.0
 41
0.0
 71
     1
 72
     1
  1
※KRP-40　1100D18本40mm目（再生ポリエステル100%）\P※KSP-24　37.5mm目（ｽｰﾊﾟｰﾎﾟﾘｴﾁﾚﾝ）
  7
1_100
 73
     1
 44
1.0
1001
ACAD
1000
MTEXTBEGIN
1070
    73
1070
     1
1070
    44
1040
1.0
1070
    74
1070
     0
1000
MTEXTEND
  0
MTEXT
  5
EF0
330
1F
100
AcDbEntity
  8
寸法文字
  6
Continuous
100
AcDbMText
 10
11192.73394820681
 20
21366.11777308628
 30
0.0
 40
270.0
 41
0.0
 71
     7
 72
     1
  1
ネット\Pクレモナ250D/80本×37.5mm目
  7
1_100
 73
     1
 44
0.6
1001
ACAD
1000
MTEXTBEGIN
1070
    73
1070
     1
1070
    44
1040
0.6
1070
    74
1070
     0
1000
MTEXTEND
  0
LEADER
  5
EF1
330
1F
100
AcDbEntity
  8
寸法引出
100
AcDbLeader
  3
1_50
 71
     0
 76
     3
 10
10719.3236902933
 20
20698.78302991591
 30
0.0
 10
11012.7339482068
 20
21276.11777308628
 30
0.0
 10
16339.93077030974
 20
21276.11777308628
 30
0.0
1001
ACAD
1000
DSTYLE
1002
{
1070
    41
1040
1.0
1070
   341
1005
87
1070
   147
1040
0.625
1070
    77
1070
     0
1002
}
  0
ENDSEC
  0
SECTION
  2
OBJECTS
  0
DICTIONARY
  5
C
330
0
100
AcDbDictionary
281
     1
  3
ACAD_COLOR
350
6B
  3
ACAD_GROUP
350
D
  3
ACAD_LAYOUT
350
1A
  3
ACAD_MATERIAL
350
6A
  3
ACAD_MLINESTYLE
350
17
  3
ACAD_PLOTSETTINGS
350
19
  3
ACAD_PLOTSTYLENAME
350
E
  3
ACAD_TABLESTYLE
350
BFB
  3
ACDBHEADERROUNDTRIPXREC
350
11E5
  3
AcDbVariableDictionary
350
5E
  3
ADE_QUERY_LIBRARY
350
EF7
  3
AEC_CLASSIFICATION_SYSTEM_DEFS
350
EED
  3
AEC_VARS
350
C28
  3
ASE_INDEX_DICTIONARY
350
EF5
  3
Autodesk_MAP
350
C2A
  3
Root
350
F0C
1001
ADE
1000
ADE02C004
1000
[Query]
1000
CaseSensitiveMatch=0
1000
SaveCurrQueryInSession=1
1000
MkSelSetWithQryObj=0
1000
ShowBlockAsInsPt=0
1000
CreateAssociativeHatchObjects=0
1000
ReferenceBoundaryForAreaLocation=1
1000
ShowImageAsBoundary=1
1000
DefaultJoinOperator=2
1000
ColorForAdd=red
1000
ColorForRemove=red
1000
BlockLocnForQuery=1
1000
TextLocnForQuery=1
1000
IncludeAllObjectsInGroups=0
1000
AlwaysUseLibraryDefinitions=0
1000
PreviewDefinitionsFrom=2
1000
[Save Back]
1000
RedefineBlockDefinitions=1
1000
RedefineLayerDefinitions=1
1000
RedefineTextStyleDefinitions=1
1000
RemoveUnusedGroups=1
1000
EraseSavedBackObjects=1
1000
RemoveLockAfterSave=1
1000
CreateHistoryFileOfChanges=0
1000
CreateBackupFileOfSourceDwg=1
1000
DontAddObjectsToSaveSet=0
1000
MarkObjectsForEditingWithoutPrompting=0
1000
[Coordinate Transformation]
1000
RestoreLastActiveDwgsOnStartup=1
1000
ActivateDwgsOnAttach=1
1000
AdjustSizesAndScalesForChangesInUnits=1
1000
AdjustRotationsForMapDistortions=1
1000
AdjustSizesAndScalesForMapDistortions=1
1000
AdjustElevations=1
1000
AdjustZeroRotationObjects=1
1000
ReconnectDbOnWSOpen=1
1000
NoOfSQLConditionsInHistory=10
  0
DICTIONARY
  5
6B
102
{ACAD_REACTORS
330
C
102
}
330
C
100
AcDbDictionary
281
     1
  0
DICTIONARY
  5
D
102
{ACAD_REACTORS
330
C
102
}
330
C
100
AcDbDictionary
281
     1
  0
DICTIONARY
  5
1A
102
{ACAD_REACTORS
330
C
102
}
330
C
100
AcDbDictionary
281
     1
  3
Model
350
22
  3
レイアウト1
350
51
  3
レイアウト2
350
56
  0
DICTIONARY
  5
6A
102
{ACAD_REACTORS
330
C
102
}
330
C
100
AcDbDictionary
281
     1
  0
DICTIONARY
  5
17
102
{ACAD_REACTORS
330
C
102
}
330
C
100
AcDbDictionary
281
     1
  3
Standard
350
18
  0
DICTIONARY
  5
19
102
{ACAD_REACTORS
330
C
102
}
330
C
100
AcDbDictionary
281
     1
  0
ACDBDICTIONARYWDFLT
  5
E
102
{ACAD_REACTORS
330
C
102
}
330
C
100
AcDbDictionary
281
     1
  3
Normal
350
F
100
AcDbDictionaryWithDefault
340
F
  0
DICTIONARY
  5
BFB
102
{ACAD_REACTORS
330
C
102
}
330
C
100
AcDbDictionary
281
     1
  3
Legend
350
C2E
  3
Standard
350
BFC
  0
DICTIONARY
  5
11E5
102
{ACAD_REACTORS
330
C
102
}
330
C
100
AcDbDictionary
281
     1
  0
DICTIONARY
  5
5E
102
{ACAD_REACTORS
330
C
102
}
330
C
100
AcDbDictionary
281
     1
  3
CTABLESTYLE
350
EF9
  3
DIMASSOC
350
5F
  3
HIDETEXT
350
63
  3
PROJECTNAME
350
B7C
  0
DICTIONARY
  5
EF7
102
{ACAD_REACTORS
330
C
102
}
330
C
100
AcDbDictionary
281
     1
  3
_CurrQry
350
11E3
  0
DICTIONARY
  5
EED
102
{ACAD_REACTORS
330
C
102
}
330
C
100
AcDbDictionary
281
     1
  0
DICTIONARY
  5
C28
102
{ACAD_REACTORS
330
C
102
}
330
C
100
AcDbDictionary
281
     1
  3
AEC_VARS_DWG_SETUP
350
F31
  0
DICTIONARY
  5
EF5
102
{ACAD_REACTORS
330
C
102
}
330
C
100
AcDbDictionary
281
     1
  3
ASEBlockHierarchyIndexRecord
350
EF6
1001
DCO15
1040
1621579618.014
  0
DICTIONARY
  5
C2A
102
{ACAD_REACTORS
330
C
102
}
330
C
100
AcDbDictionary
281
     1
  3
MAP_DISPLAY_MANAGEMENT_DICTIONARY
350
C2B
  3
MAP_DISPLAY_STYLELIBRARY_DICTIONARY
350
C2C
  0
LAYOUT
  5
22
102
{ACAD_XDICTIONARY
360
11E6
102
}
102
{ACAD_REACTORS
330
1A
102
}
330
1A
100
AcDbPlotSettings
  1

  2
EPSON PM-3000C
  4
A4
  6

 40
3.757083177566528
 41
14.7637300491333
 42
3.757080078125
 43
3.757080078125
 44
209.9733276367186
 45
296.9683227539062
 46
0.0
 47
0.0
 48
0.0
 49
0.0
140
0.0
141
0.0
142
1.0
143
143.6274429592935
 70
 11952
 72
     1
 73
     1
 74
     0
  7
2.ctb
 75
     0
147
0.0069624577267133
148
-404.2146750408937
149
925.1318593280741
100
AcDbLayout
  1
Model
 70
     1
 71
     0
 10
0.0
 20
0.0
 11
12.0
 21
9.0
 12
0.0
 22
0.0
 32
0.0
 14
0.0
 24
0.0
 34
0.0
 15
0.0
 25
0.0
 35
0.0
146
0.0
 13
0.0
 23
0.0
 33
0.0
 16
1.0
 26
0.0
 36
0.0
 17
0.0
 27
1.0
 37
0.0
 76
     0
330
1F
  0
LAYOUT
  5
51
102
{ACAD_XDICTIONARY
360
11E8
102
}
102
{ACAD_REACTORS
330
1A
102
}
330
1A
100
AcDbPlotSettings
  1

  2
None
  4

  6

 40
0.0
 41
0.0
 42
0.0
 43
0.0
 44
0.0
 45
0.0
 46
0.0
 47
0.0
 48
0.0
 49
0.0
140
0.0
141
0.0
142
1.0
143
1.0
 70
   688
 72
     0
 73
     0
 74
     5
  7

 75
    16
147
1.0
148
0.0
149
0.0
100
AcDbLayout
  1
レイアウト1
 70
     1
 71
     1
 10
0.0
 20
0.0
 11
12.0
 21
9.0
 12
0.0
 22
0.0
 32
0.0
 14
0.0
 24
0.0
 34
0.0
 15
0.0
 25
0.0
 35
0.0
146
0.0
 13
0.0
 23
0.0
 33
0.0
 16
1.0
 26
0.0
 36
0.0
 17
0.0
 27
1.0
 37
0.0
 76
     0
330
50
  0
LAYOUT
  5
56
102
{ACAD_XDICTIONARY
360
11EA
102
}
102
{ACAD_REACTORS
330
1A
102
}
330
1A
100
AcDbPlotSettings
  1

  2
None
  4

  6

 40
0.0
 41
0.0
 42
0.0
 43
0.0
 44
0.0
 45
0.0
 46
0.0
 47
0.0
 48
0.0
 49
0.0
140
0.0
141
0.0
142
1.0
143
1.0
 70
   688
 72
     0
 73
     0
 74
     5
  7

 75
    16
147
1.0
148
0.0
149
0.0
100
AcDbLayout
  1
レイアウト2
 70
     1
 71
     2
 10
0.0
 20
0.0
 11
12.0
 21
9.0
 12
0.0
 22
0.0
 32
0.0
 14
0.0
 24
0.0
 34
0.0
 15
0.0
 25
0.0
 35
0.0
146
0.0
 13
0.0
 23
0.0
 33
0.0
 16
1.0
 26
0.0
 36
0.0
 17
0.0
 27
1.0
 37
0.0
 76
     0
330
55
  0
MLINESTYLE
  5
18
102
{ACAD_REACTORS
330
17
102
}
330
17
100
AcDbMlineStyle
  2
STANDARD
 70
     0
  3

 62
   256
 51
90.0
 52
90.0
 71
     2
 49
0.5
 62
   256
  6
BYLAYER
 49
-0.5
 62
   256
  6
BYLAYER
  0
ACDBPLACEHOLDER
  5
F
102
{ACAD_REACTORS
330
E
102
}
330
E
  0
TABLESTYLE
  5
C2E
102
{ACAD_REACTORS
330
BFB
102
}
330
BFB
100
AcDbTableStyle
  3

 70
     0
 71
     1
 40
0.06
 41
0.06
280
     0
281
     0
  7
Standard
140
0.4
170
     4
 62
     0
 63
     7
283
     0
274
    -2
284
     0
 64
     0
275
    -2
285
     0
 65
     0
276
    -2
286
     1
 66
     0
277
    -2
287
     1
 67
     0
278
    -2
288
     0
 68
     0
279
    -2
289
     1
 69
     0
  7
Standard
140
0.5
170
     5
 62
     0
 63
     7
283
     0
274
    -2
284
     1
 64
     0
275
    -2
285
     0
 65
     0
276
    -2
286
     1
 66
     0
277
    -2
287
     1
 67
     0
278
    -2
288
     0
 68
     0
279
    -2
289
     1
 69
     0
  7
Standard
140
0.4
170
     4
 62
     0
 63
     7
283
     0
274
    -2
284
     1
 64
     0
275
    -2
285
     0
 65
     0
276
    -2
286
     1
 66
     0
277
    -2
287
     1
 67
     0
278
    -2
288
     0
 68
     0
279
    -2
289
     1
 69
     0
  0
TABLESTYLE
  5
BFC
102
{ACAD_REACTORS
330
BFB
102
}
330
BFB
100
AcDbTableStyle
  3
Standard
 70
     0
 71
     0
 40
1.5
 41
1.5
280
     0
281
     0
  7
Standard
140
4.5
170
     2
 62
     0
 63
     7
283
     0
274
    -2
284
     1
 64
     0
275
    -2
285
     1
 65
     0
276
    -2
286
     1
 66
     0
277
    -2
287
     1
 67
     0
278
    -2
288
     1
 68
     0
279
    -2
289
     1
 69
     0
  7
Standard
140
6.0
170
     5
 62
     0
 63
     7
283
     0
274
    -2
284
     1
 64
     0
275
    -2
285
     1
 65
     0
276
    -2
286
     1
 66
     0
277
    -2
287
     1
 67
     0
278
    -2
288
     1
 68
     0
279
    -2
289
     1
 69
     0
  7
Standard
140
4.5
170
     5
 62
     0
 63
     7
283
     0
274
    -2
284
     1
 64
     0
275
    -2
285
     1
 65
     0
276
    -2
286
     1
 66
     0
277
    -2
287
     1
 67
     0
278
    -2
288
     1
 68
     0
279
    -2
289
     1
 69
     0
  0
DICTIONARYVAR
  5
EF9
102
{ACAD_REACTORS
330
5E
102
}
330
5E
100
DictionaryVariables
280
     0
  1
STANDARD
  0
DICTIONARYVAR
  5
5F
102
{ACAD_REACTORS
330
5E
102
}
330
5E
100
DictionaryVariables
280
     0
  1
2
  0
DICTIONARYVAR
  5
63
102
{ACAD_REACTORS
330
5E
102
}
330
5E
100
DictionaryVariables
280
     0
  1
1
  0
DICTIONARYVAR
  5
B7C
102
{ACAD_REACTORS
330
5E
102
}
330
5E
100
DictionaryVariables
280
     0
  1

  0
XRECORD
  5
11E3
102
{ACAD_REACTORS
330
EF7
102
}
330
EF7
100
AcDbXrecord
280
     1
1000
ADE02C001
1070
     1
1070
     0
1002
{
1002
}
1002
{
1002
}
1002
{
1002
}
1000

  0
XRECORD
  5
EF6
102
{ACAD_REACTORS
330
EF5
102
}
330
EF5
100
AcDbXrecord
280
     1
330
63D
330
736
330
770
330
9EB
330
9EC
330
9F4
330
9F5
330
9FD
330
9FE
330
A06
330
A07
330
A10
330
A11
330
A18
330
A19
330
A21
330
A22
330
A2A
330
A2B
330
A34
330
A35
330
A3E
330
A3F
330
A48
330
A49
330
A52
330
A53
330
A5B
330
A5C
330
A64
330
A65
330
A70
330
A71
330
A78
330
A79
330
A81
330
A82
330
A8A
330
A8B
330
A96
330
A97
330
A9E
330
A9F
330
AA7
330
AA8
330
AB0
330
AB1
330
AB9
330
ABA
330
AC5
330
AC6
330
ACD
330
ACE
330
AD8
330
AD9
330
AE4
330
AE5
330
AEC
330
AED
330
AF5
330
AF6
330
B01
330
B02
330
B09
330
B0A
330
B12
330
B13
330
B1E
330
B1F
330
B26
330
B27
330
B2F
330
B30
330
B3B
330
B3C
330
B46
330
B47
  0
DMMAPMANAGER
  5
C2B
102
{ACAD_REACTORS
330
C2A
102
}
330
C2A
100
AcDbDictionary
281
     1
  3
DisplayMap1
350
C2D
100
AcDbDictionaryWithDefault
340
C2D
100
AcMapDMMapManager
 70
     1
340
C2D
  0
DMSTYLELIBRARY
  5
C2C
102
{ACAD_REACTORS
330
C2A
102
}
330
C2A
100
AcMapDMStyleLibrary
 70
     1
 70
     1
360
C32
  0
DICTIONARY
  5
11E6
330
22
100
AcDbDictionary
280
     1
281
     1
  3
ACAD_XREC_ROUNDTRIP
360
11E7
  0
DICTIONARY
  5
11E8
330
51
100
AcDbDictionary
280
     1
281
     1
  3
ACAD_XREC_ROUNDTRIP
360
11E9
  0
DICTIONARY
  5
11EA
330
56
100
AcDbDictionary
280
     1
281
     1
  3
ACAD_XREC_ROUNDTRIP
360
11EB
  0
DMMAP
  5
C2D
102
{ACAD_REACTORS
330
C2B
330
C2F
102
}
330
C2B
100
AcMapDMMap
 70
     1
  1
既定値
 70
     1
330
0
100
AcMapDMMap
 70
     1
 90
        1
360
C2F
 90
        1
 40
1.797693134862314E+99
 70
     1
100
AcMapDMMap
 70
     2
 70
     0
 40
1.797693134862314E+99
290
     0
290
     1
 40
1.0
 40
3.0
  1
Legend
 90
        1
 40
1.797693134862314E+99
  1

 70
     0
 40
1.0
 70
     1
 90
        0
 90
        1
360
C30
  0
DMSTYLECATEGORY
  5
C32
102
{ACAD_REACTORS
330
C2C
102
}
330
C2C
100
AcMapDMStyleCategory
 70
     1
  1
スタイルを表示
 70
     0
  0
XRECORD
  5
11E7
102
{ACAD_REACTORS
330
11E6
102
}
330
11E6
100
AcDbXrecord
280
     1
102
SHADEPLOT
 70
     0
102
SHADEPLOTRESLEVEL
 70
     2
102
SHADEPLOTCUSTOMDPI
 70
   300
  0
XRECORD
  5
11E9
102
{ACAD_REACTORS
330
11E8
102
}
330
11E8
100
AcDbXrecord
280
     1
102
SHADEPLOT
 70
     0
102
SHADEPLOTRESLEVEL
 70
     2
102
SHADEPLOTCUSTOMDPI
 70
   300
  0
XRECORD
  5
11EB
102
{ACAD_REACTORS
330
11EA
102
}
330
11EA
100
AcDbXrecord
280
     1
102
SHADEPLOT
 70
     0
102
SHADEPLOTRESLEVEL
 70
     2
102
SHADEPLOTCUSTOMDPI
 70
   300
  0
DMBASEELEMENT
  5
C2F
102
{ACAD_REACTORS
330
C2D
102
}
330
C2D
100
AcMapDMBaseElement
 70
     1
  1
マップ ベース
 70
     1
330
C2D
100
AcMapDMBaseElement
 70
     1
  1

 70
     2
  1

 70
     1
 40
1.797693134862314E+99
 70
     1
 70
     1
 70
     1
 70
     1
360
C31
100
AcMapDMBaseElement
 70
     1
  0
DMDEFAULTSTYLE
  5
C30
102
{ACAD_REACTORS
330
C2D
102
}
330
C2D
100
AcMapDMDefaultStyle
 70
     1
 90
        1
  1
既定値
100
AcMapDMDefaultStyle
 70
     1
280
   100
 90
     0
  0
DMSTYLEREFERENCE
  5
C31
330
C2F
100
AcMapDMStyleReference
 70
     1
 70
     0
340
C30
330
C2D
  0
ENDSEC
  0
EOF
