  0
SECTION
  2
HEADER
  9
$ACADVER
  1
AC1015
  9
$ACADMAINTVER
 70
    20
  9
$DWGCODEPAGE
  3
ANSI_932
  9
$INSBASE
 10
0.0
 20
0.0
 30
0.0
  9
$EXTMIN
 10
803.5678461286007
 20
461.9864701913248
 30
-0.0015258207003583
  9
$EXTMAX
 10
39806.66930224379
 20
26606.03274067406
 30
0.0000000349246037
  9
$LIMMIN
 10
0.0
 20
0.0
  9
$LIMMAX
 10
420.0
 20
297.0
  9
$ORTHOMODE
 70
     1
  9
$REGENMODE
 70
     1
  9
$FILLMODE
 70
     1
  9
$QTEXTMODE
 70
     0
  9
$MIRRTEXT
 70
     0
  9
$LTSCALE
 40
1.0
  9
$ATTMODE
 70
     1
  9
$TEXTSIZE
 40
2.5
  9
$TRACEWID
 40
1.0
  9
$TEXTSTYLE
  7
Standard
  9
$CLAYER
  8
0
  9
$CELTYPE
  6
ByLayer
  9
$CECOLOR
 62
   256
  9
$CELTSCALE
 40
1.0
  9
$DISPSILH
 70
     0
  9
$DIMSCALE
 40
500.0
  9
$DIMASZ
 40
0.6
  9
$DIMEXO
 40
3.0
  9
$DIMDLI
 40
10.0
  9
$DIMRND
 40
0.0
  9
$DIMDLE
 40
0.0
  9
$DIMEXE
 40
0.0
  9
$DIMTP
 40
0.0
  9
$DIMTM
 40
0.0
  9
$DIMTXT
 40
3.0
  9
$DIMCEN
 40
0.0
  9
$DIMTSZ
 40
0.0
  9
$DIMTOL
 70
     0
  9
$DIMLIM
 70
     0
  9
$DIMTIH
 70
     0
  9
$DIMTOH
 70
     0
  9
$DIMSE1
 70
     0
  9
$DIMSE2
 70
     0
  9
$DIMTAD
 70
     1
  9
$DIMZIN
 70
     8
  9
$DIMBLK
  1

  9
$DIMASO
 70
     1
  9
$DIMSHO
 70
     1
  9
$DIMPOST
  1

  9
$DIMAPOST
  1

  9
$DIMALT
 70
     0
  9
$DIMALTD
 70
     2
  9
$DIMALTF
 40
25.4
  9
$DIMLFAC
 40
1.0
  9
$DIMTOFL
 70
     1
  9
$DIMTVP
 40
0.0
  9
$DIMTIX
 70
     0
  9
$DIMSOXD
 70
     0
  9
$DIMSAH
 70
     1
  9
$DIMBLK1
  1
ORIGIN
  9
$DIMBLK2
  1
ORIGIN
  9
$DIMSTYLE
  2
1_100
  9
$DIMCLRD
 70
   256
  9
$DIMCLRE
 70
   256
  9
$DIMCLRT
 70
   256
  9
$DIMTFAC
 40
1.0
  9
$DIMGAP
 40
1.0
  9
$DIMJUST
 70
     0
  9
$DIMSD1
 70
     0
  9
$DIMSD2
 70
     0
  9
$DIMTOLJ
 70
     1
  9
$DIMTZIN
 70
     8
  9
$DIMALTZ
 70
     0
  9
$DIMALTTZ
 70
     0
  9
$DIMUPT
 70
     0
  9
$DIMDEC
 70
     1
  9
$DIMTDEC
 70
     1
  9
$DIMALTU
 70
     2
  9
$DIMALTTD
 70
     2
  9
$DIMTXSTY
  7
1_100
  9
$DIMAUNIT
 70
     0
  9
$DIMADEC
 70
     0
  9
$DIMALTRND
 40
0.0
  9
$DIMAZIN
 70
     0
  9
$DIMDSEP
 70
    46
  9
$DIMATFIT
 70
     3
  9
$DIMFRAC
 70
     0
  9
$DIMLDRBLK
  1
ORIGIN
  9
$DIMLUNIT
 70
     6
  9
$DIMLWD
 70
    -2
  9
$DIMLWE
 70
    -2
  9
$DIMTMOVE
 70
     2
  9
$LUNITS
 70
     2
  9
$LUPREC
 70
     4
  9
$SKETCHINC
 40
1.0
  9
$FILLETRAD
 40
0.0
  9
$AUNITS
 70
     0
  9
$AUPREC
 70
     0
  9
$MENU
  1
.
  9
$ELEVATION
 40
0.0
  9
$PELEVATION
 40
0.0
  9
$THICKNESS
 40
0.0
  9
$LIMCHECK
 70
     0
  9
$CHAMFERA
 40
0.0
  9
$CHAMFERB
 40
0.0
  9
$CHAMFERC
 40
0.0
  9
$CHAMFERD
 40
0.0
  9
$SKPOLY
 70
     0
  9
$TDCREATE
 40
2454361.416689988
  9
$TDUCREATE
 40
2454361.041689988
  9
$TDUPDATE
 40
2454571.453407060
  9
$TDUUPDATE
 40
2454571.078407060
  9
$TDINDWG
 40
0.0269512269
  9
$TDUSRTIMER
 40
0.0269492361
  9
$USRTIMER
 70
     1
  9
$ANGBASE
 50
0.0
  9
$ANGDIR
 70
     0
  9
$PDMODE
 70
     0
  9
$PDSIZE
 40
0.0
  9
$PLINEWID
 40
0.0
  9
$SPLFRAME
 70
     0
  9
$SPLINETYPE
 70
     6
  9
$SPLINESEGS
 70
     8
  9
$HANDSEED
  5
F0B
  9
$SURFTAB1
 70
     6
  9
$SURFTAB2
 70
     6
  9
$SURFTYPE
 70
     6
  9
$SURFU
 70
     6
  9
$SURFV
 70
     6
  9
$UCSBASE
  2

  9
$UCSNAME
  2

  9
$UCSORG
 10
0.0
 20
0.0
 30
0.0
  9
$UCSXDIR
 10
1.0
 20
0.0
 30
0.0
  9
$UCSYDIR
 10
0.0
 20
1.0
 30
0.0
  9
$UCSORTHOREF
  2

  9
$UCSORTHOVIEW
 70
     0
  9
$UCSORGTOP
 10
0.0
 20
0.0
 30
0.0
  9
$UCSORGBOTTOM
 10
0.0
 20
0.0
 30
0.0
  9
$UCSORGLEFT
 10
0.0
 20
0.0
 30
0.0
  9
$UCSORGRIGHT
 10
0.0
 20
0.0
 30
0.0
  9
$UCSORGFRONT
 10
0.0
 20
0.0
 30
0.0
  9
$UCSORGBACK
 10
0.0
 20
0.0
 30
0.0
  9
$PUCSBASE
  2

  9
$PUCSNAME
  2

  9
$PUCSORG
 10
0.0
 20
0.0
 30
0.0
  9
$PUCSXDIR
 10
1.0
 20
0.0
 30
0.0
  9
$PUCSYDIR
 10
0.0
 20
1.0
 30
0.0
  9
$PUCSORTHOREF
  2

  9
$PUCSORTHOVIEW
 70
     0
  9
$PUCSORGTOP
 10
0.0
 20
0.0
 30
0.0
  9
$PUCSORGBOTTOM
 10
0.0
 20
0.0
 30
0.0
  9
$PUCSORGLEFT
 10
0.0
 20
0.0
 30
0.0
  9
$PUCSORGRIGHT
 10
0.0
 20
0.0
 30
0.0
  9
$PUCSORGFRONT
 10
0.0
 20
0.0
 30
0.0
  9
$PUCSORGBACK
 10
0.0
 20
0.0
 30
0.0
  9
$USERI1
 70
     0
  9
$USERI2
 70
     0
  9
$USERI3
 70
     0
  9
$USERI4
 70
     0
  9
$USERI5
 70
     0
  9
$USERR1
 40
0.0
  9
$USERR2
 40
0.0
  9
$USERR3
 40
0.0
  9
$USERR4
 40
0.0
  9
$USERR5
 40
0.0
  9
$WORLDVIEW
 70
     1
  9
$SHADEDGE
 70
     3
  9
$SHADEDIF
 70
    70
  9
$TILEMODE
 70
     1
  9
$MAXACTVP
 70
    64
  9
$PINSBASE
 10
0.0
 20
0.0
 30
0.0
  9
$PLIMCHECK
 70
     0
  9
$PEXTMIN
 10
0.0
 20
0.0
 30
0.0
  9
$PEXTMAX
 10
0.0
 20
0.0
 30
0.0
  9
$PLIMMIN
 10
0.0
 20
0.0
  9
$PLIMMAX
 10
12.0
 20
9.0
  9
$UNITMODE
 70
     0
  9
$VISRETAIN
 70
     1
  9
$PLINEGEN
 70
     0
  9
$PSLTSCALE
 70
     1
  9
$TREEDEPTH
 70
  3020
  9
$CMLSTYLE
  2
Standard
  9
$CMLJUST
 70
     0
  9
$CMLSCALE
 40
20.0
  9
$PROXYGRAPHICS
 70
     1
  9
$MEASUREMENT
 70
     1
  9
$CELWEIGHT
370
    -1
  9
$ENDCAPS
280
     0
  9
$JOINSTYLE
280
     0
  9
$LWDISPLAY
290
     0
  9
$INSUNITS
 70
     6
  9
$HYPERLINKBASE
  1

  9
$STYLESHEET
  1
2.CTB
  9
$XEDIT
290
     1
  9
$CEPSNTYPE
380
     0
  9
$PSTYLEMODE
290
     1
  9
$FINGERPRINTGUID
  2
{FDEAD578-A652-11D2-9A35-0060089B3A3F}
  9
$VERSIONGUID
  2
{2B65C6BA-4937-42F8-8A1D-9C20EA1E5E75}
  9
$EXTNAMES
290
     1
  9
$PSVPSCALE
 40
0.0
  9
$OLESTARTUP
290
     0
  0
ENDSEC
  0
SECTION
  2
CLASSES
  0
CLASS
  1
ACDBDICTIONARYWDFLT
  2
AcDbDictionaryWithDefault
  3
ObjectDBX Classes
 90
        0
280
     0
281
     0
  0
CLASS
  1
ACDBPLACEHOLDER
  2
AcDbPlaceHolder
  3
ObjectDBX Classes
 90
        0
280
     0
281
     0
  0
CLASS
  1
LAYOUT
  2
AcDbLayout
  3
ObjectDBX Classes
 90
        0
280
     0
281
     0
  0
CLASS
  1
DICTIONARYVAR
  2
AcDbDictionaryVar
  3
ObjectDBX Classes
 90
        0
280
     0
281
     0
  0
CLASS
  1
SORTENTSTABLE
  2
AcDbSortentsTable
  3
ObjectDBX Classes
 90
    32768
280
     0
281
     0
  0
CLASS
  1
DIMASSOC
  2
AcDbDimAssoc
  3
"AcDbDimAssoc|Product Desc:     AcDim ARX App For Dimension|Company:          Autodesk, Inc.|WEB Address:      www.autodesk.com"
 90
    32768
280
     0
281
     0
  0
CLASS
  1
TABLESTYLE
  2
AcDbTableStyle
  3
ObjectDBX Classes
 90
     2047
280
     0
281
     0
  0
CLASS
  1
AECC_TREE_NODE
  2
AeccDbTreeNode
  3
AeccvBase10|Product Desc: Autodesk Civil 3D |Company: Autodesk,Inc. |WEB Address: www.autodesk.com
 90
     1023
280
     0
281
     0
  0
CLASS
  1
AECC_CLASS_NODE
  2
AeccDbClassNode
  3
AeccLand10|Product Desc: Autodesk Civil 3D |Company: Autodesk,Inc. |WEB Address: www.autodesk.com
 90
     1023
280
     0
281
     0
  0
CLASS
  1
AECC_ROOT_SETTINGS_NODE
  2
AeccDbRootSettingsNode
  3
AeccvBase10|Product Desc: Autodesk Civil 3D |Company: Autodesk,Inc. |WEB Address: www.autodesk.com
 90
     1023
280
     0
281
     0
  0
CLASS
  1
AEC_VARS_DWG_SETUP
  2
AecDbVarsDwgSetup
  3
AecBase40|Product Desc: Autodesk Architectural Desktop 2005 |Company: Autodesk,Inc. |WEB Address: www.autodesk.com
 90
      129
280
     0
281
     0
  0
CLASS
  1
DMMAPMANAGER
  2
AcMapDMMapManager
  3
AcMapDisplayManagement
 90
     1024
280
     0
281
     0
  0
CLASS
  1
DMSTYLELIBRARY
  2
AcMapDMStyleLibrary
  3
AcMapDisplayManagement
 90
     1024
280
     0
281
     0
  0
CLASS
  1
DMMAP
  2
AcMapDMMap
  3
AcMapDisplayManagement
 90
     1024
280
     0
281
     0
  0
CLASS
  1
DMBASEELEMENT
  2
AcMapDMBaseElement
  3
AcMapDisplayManagement
 90
     1024
280
     0
281
     0
  0
CLASS
  1
DMDEFAULTSTYLE
  2
AcMapDMDefaultStyle
  3
AcMapDisplayManagement
 90
     1024
280
     0
281
     0
  0
CLASS
  1
DMSTYLEREFERENCE
  2
AcMapDMStyleReference
  3
AcMapDisplayManagement
 90
     1024
280
     0
281
     0
  0
CLASS
  1
DMSTYLECATEGORY
  2
AcMapDMStyleCategory
  3
AcMapDisplayManagement
 90
     1024
280
     0
281
     0
  0
CLASS
  1
AECC_SETTINGS_NODE
  2
AeccDbSettingsNode
  3
AeccvBase10|Product Desc: Autodesk Civil 3D |Company: Autodesk,Inc. |WEB Address: www.autodesk.com
 90
     1023
280
     0
281
     0
  0
CLASS
  1
AECC_PROFILE_VIEW_STYLE
  2
AeccDbGraphStyleProfile
  3
AeccLand10|Product Desc: Autodesk Civil 3D |Company: Autodesk,Inc. |WEB Address: www.autodesk.com
 90
      129
280
     0
281
     0
  0
CLASS
  1
AECC_PROFILE_VIEW_BAND_STYLE_SET
  2
AeccDbGraphProfileBandStyleSet
  3
AeccLand10|Product Desc: Autodesk Civil 3D |Company: Autodesk,Inc. |WEB Address: www.autodesk.com
 90
      129
280
     0
281
     0
  0
CLASS
  1
AECC_PROFILE_VIEW_DATA_BAND_STYLE
  2
AeccDbGraphStyleProfileDataBands
  3
AeccLand10|Product Desc: Autodesk Civil 3D |Company: Autodesk,Inc. |WEB Address: www.autodesk.com
 90
      129
280
     0
281
     0
  0
CLASS
  1
AECC_LABEL_NODE
  2
AeccDbLabelNode
  3
AeccLand10|Product Desc: Autodesk Civil 3D |Company: Autodesk,Inc. |WEB Address: www.autodesk.com
 90
     1023
280
     0
281
     0
  0
CLASS
  1
AECC_LABEL_COLLECTOR_STYLE
  2
AeccDbLabelStyleCollector
  3
AeccLand10|Product Desc: Autodesk Civil 3D |Company: Autodesk,Inc. |WEB Address: www.autodesk.com
 90
     1023
280
     0
281
     0
  0
CLASS
  1
AECC_LABEL_TEXT_STYLE
  2
AeccDbLabelStyleText
  3
AeccLand10|Product Desc: Autodesk Civil 3D |Company: Autodesk,Inc. |WEB Address: www.autodesk.com
 90
     1023
280
     0
281
     0
  0
CLASS
  1
AECC_PROFILE_VIEW_HORIZONTAL_GEOMETRY_BAND_STYLE
  2
AeccDbGraphStyleHorGeometryBands
  3
AeccLand10|Product Desc: Autodesk Civil 3D |Company: Autodesk,Inc. |WEB Address: www.autodesk.com
 90
      129
280
     0
281
     0
  0
CLASS
  1
AECC_PROFILE_VIEW_VERTICAL_GEOMETRY_BAND_STYLE
  2
AeccDbGraphStyleVertGeometryBands
  3
AeccLand10|Product Desc: Autodesk Civil 3D |Company: Autodesk,Inc. |WEB Address: www.autodesk.com
 90
      129
280
     0
281
     0
  0
CLASS
  1
AECC_LABEL_RADIAL_LINE_STYLE
  2
AeccDbLabelStyleRadialLine
  3
AeccLand10|Product Desc: Autodesk Civil 3D |Company: Autodesk,Inc. |WEB Address: www.autodesk.com
 90
     1023
280
     0
281
     0
  0
CLASS
  1
AECC_POINT_STYLE
  2
AeccDbPointStyle
  3
AeccLand10|Product Desc: Autodesk Civil 3D |Company: Autodesk,Inc. |WEB Address: www.autodesk.com
 90
      895
280
     0
281
     0
  0
CLASS
  1
AECC_PROFILE_LABEL_SET
  2
AeccDbVAlignStnLabelsDlgTemplate
  3
AeccLand10|Product Desc: Autodesk Civil 3D |Company: Autodesk,Inc. |WEB Address: www.autodesk.com
 90
     1023
280
     0
281
     0
  0
CLASS
  1
AECC_SECTION_VIEW_STYLE
  2
AeccDbGraphStyleCrossSection
  3
AeccLand10|Product Desc: Autodesk Civil 3D |Company: Autodesk,Inc. |WEB Address: www.autodesk.com
 90
      129
280
     0
281
     0
  0
CLASS
  1
AECC_SECTION_VIEW_BAND_STYLE_SET
  2
AeccDbGraphSectionBandStyleSet
  3
AeccLand10|Product Desc: Autodesk Civil 3D |Company: Autodesk,Inc. |WEB Address: www.autodesk.com
 90
      129
280
     0
281
     0
  0
CLASS
  1
AECC_SECTION_VIEW_DATA_BAND_STYLE
  2
AeccDbGraphStyleSectionDataBands
  3
AeccLand10|Product Desc: Autodesk Civil 3D |Company: Autodesk,Inc. |WEB Address: www.autodesk.com
 90
      129
280
     0
281
     0
  0
CLASS
  1
AECC_SECTION_LABEL_SET
  2
AeccDbSectionLabelsDlgTemplate
  3
AeccLand10|Product Desc: Autodesk Civil 3D |Company: Autodesk,Inc. |WEB Address: www.autodesk.com
 90
     1023
280
     0
281
     0
  0
CLASS
  1
AECC_ALIGNMENT_STYLE
  2
AeccDbAlignmentStyle
  3
AeccLand10|Product Desc: Autodesk Civil 3D |Company: Autodesk,Inc. |WEB Address: www.autodesk.com
 90
     1023
280
     0
281
     0
  0
CLASS
  1
AECC_LABEL_VECTOR_ARROW_STYLE
  2
AeccDbLabelStyleVectorArrow
  3
AeccLand10|Product Desc: Autodesk Civil 3D |Company: Autodesk,Inc. |WEB Address: www.autodesk.com
 90
     1023
280
     0
281
     0
  0
CLASS
  1
AECC_ALIGNMENT_LABEL_SET
  2
AeccDbAlignStnLabelsDlgTemplate
  3
AeccLand10|Product Desc: Autodesk Civil 3D |Company: Autodesk,Inc. |WEB Address: www.autodesk.com
 90
     1023
280
     0
281
     0
  0
CLASS
  1
AECC_SURFACE_STYLE
  2
AeccDbSurfaceStyle
  3
AeccLand10|Product Desc: Autodesk Civil 3D |Company: Autodesk,Inc. |WEB Address: www.autodesk.com
 90
      129
280
     0
281
     0
  0
CLASS
  1
AECC_LEGEND_TABLE_STYLE
  2
AeccDbLegendScheduleTableStyle
  3
AeccLand10|Product Desc: Autodesk Civil 3D |Company: Autodesk,Inc. |WEB Address: www.autodesk.com
 90
     1023
280
     0
281
     0
  0
CLASS
  1
AECC_SECTION_STYLE
  2
AeccDbSectionStyle
  3
AeccLand10|Product Desc: Autodesk Civil 3D |Company: Autodesk,Inc. |WEB Address: www.autodesk.com
 90
     1023
280
     0
281
     0
  0
CLASS
  1
AECC_GRADING_STYLE
  2
AeccDbGradingStyle
  3
AeccLand10|Product Desc: Autodesk Civil 3D |Company: Autodesk,Inc. |WEB Address: www.autodesk.com
 90
     1023
280
     0
281
     0
  0
CLASS
  1
AECC_GRADING_CRITERIA
  2
AeccDbGradingCriteria
  3
AeccLand10|Product Desc: Autodesk Civil 3D |Company: Autodesk,Inc. |WEB Address: www.autodesk.com
 90
     1023
280
     0
281
     0
  0
CLASS
  1
AECC_PARCEL_STYLE
  2
AeccDbParcelStyle
  3
AeccLand10|Product Desc: Autodesk Civil 3D |Company: Autodesk,Inc. |WEB Address: www.autodesk.com
 90
      129
280
     0
281
     0
  0
CLASS
  1
AECC_SAMPLE_LINE_GROUP_STYLE
  2
AeccDbSampleLineGroupStyle
  3
AeccLand10|Product Desc: Autodesk Civil 3D |Company: Autodesk,Inc. |WEB Address: www.autodesk.com
 90
      129
280
     0
281
     0
  0
CLASS
  1
AECC_SHEET_STYLE
  2
AeccDbSheetStyle
  3
AeccLand10|Product Desc: Autodesk Civil 3D |Company: Autodesk,Inc. |WEB Address: www.autodesk.com
 90
      129
280
     0
281
     0
  0
CLASS
  1
AECC_SAMPLE_LINE_STYLE
  2
AeccDbSampleLineStyle
  3
AeccLand10|Product Desc: Autodesk Civil 3D |Company: Autodesk,Inc. |WEB Address: www.autodesk.com
 90
     1023
280
     0
281
     0
  0
CLASS
  1
AECC_PROFILE_STYLE
  2
AeccDbVAlignmentStyle
  3
AeccLand10|Product Desc: Autodesk Civil 3D |Company: Autodesk,Inc. |WEB Address: www.autodesk.com
 90
     1023
280
     0
281
     0
  0
CLASS
  1
AECC_STATION_FORMAT_STYLE
  2
AeccDbStationFormatStyle
  3
AeccLand10|Product Desc: Autodesk Civil 3D |Company: Autodesk,Inc. |WEB Address: www.autodesk.com
 90
     1023
280
     0
281
     0
  0
CLASS
  1
AECC_TABLE_STYLE
  2
AeccDbScheduleTableStyle
  3
AeccLand10|Product Desc: Autodesk Civil 3D |Company: Autodesk,Inc. |WEB Address: www.autodesk.com
 90
     1023
280
     0
281
     0
  0
CLASS
  1
AECC_GRADING_CRITERIA_SET
  2
AeccDbGradingCriteriaSet
  3
AeccLand10|Product Desc: Autodesk Civil 3D |Company: Autodesk,Inc. |WEB Address: www.autodesk.com
 90
     1023
280
     0
281
     0
  0
CLASS
  1
AECC_FORMAT_MANAGER_OBJECT
  2
AeccDbFormatManagerObject
  3
AeccLand10|Product Desc: Autodesk Civil 3D |Company: Autodesk,Inc. |WEB Address: www.autodesk.com
 90
     1023
280
     0
281
     0
  0
CLASS
  1
AECC_POINT_DESCRIPTION_KEY_SET_NODE
  2
AeccDbPointDescKeySetsNode
  3
AeccvBase10|Product Desc: Autodesk Civil 3D |Company: Autodesk,Inc. |WEB Address: www.autodesk.com
 90
     1023
280
     0
281
     0
  0
ENDSEC
  0
SECTION
  2
TABLES
  0
TABLE
  2
VPORT
  5
8
330
0
100
AcDbSymbolTable
 70
     2
  0
VPORT
  5
F03
330
8
100
AcDbSymbolTableRecord
100
AcDbViewportTableRecord
  2
*Active
 70
     0
 10
0.0
 20
0.0
 11
1.0
 21
1.0
 12
19903.33465112189
 22
13303.01637033703
 13
0.0
 23
0.0
 14
10.0
 24
10.0
 15
10.0
 25
10.0
 16
0.0
 26
0.0
 36
1.0
 17
0.0
 27
0.0
 37
0.0
 40
64194.75180427167
 41
0.6282940360610265
 42
50.0
 43
0.0
 44
0.0
 50
0.0
 51
0.0
 71
     0
 72
  1000
 73
     1
 74
     1
 75
     0
 76
     0
 77
     0
 78
     0
281
     0
 65
     1
110
0.0
120
0.0
130
0.0
111
1.0
121
0.0
131
0.0
112
0.0
122
1.0
132
0.0
 79
     0
146
0.0
  0
ENDTAB
  0
TABLE
  2
LTYPE
  5
5
330
0
100
AcDbSymbolTable
 70
     3
  0
LTYPE
  5
14
330
5
100
AcDbSymbolTableRecord
100
AcDbLinetypeTableRecord
  2
ByBlock
 70
     0
  3

 72
    65
 73
     0
 40
0.0
  0
LTYPE
  5
15
330
5
100
AcDbSymbolTableRecord
100
AcDbLinetypeTableRecord
  2
ByLayer
 70
     0
  3

 72
    65
 73
     0
 40
0.0
  0
LTYPE
  5
16
330
5
100
AcDbSymbolTableRecord
100
AcDbLinetypeTableRecord
  2
Continuous
 70
     0
  3
Solid line
 72
    65
 73
     0
 40
0.0
  0
LTYPE
  5
20E
330
5
100
AcDbSymbolTableRecord
100
AcDbLinetypeTableRecord
  2
DASHED
 70
     0
  3
__ __ __ __ __ __ __ __ __ __ __ __ __ __ __
 72
    65
 73
     2
 40
3.0
 49
2.0
 74
     0
 49
-1.0
 74
     0
  0
LTYPE
  5
20F
330
5
100
AcDbSymbolTableRecord
100
AcDbLinetypeTableRecord
  2
DASHDOT
 70
     0
  3
__ . __ . __ . __ . __ . __ . __ . __ . __ . __
 72
    65
 73
     4
 40
8.5
 49
6.0
 74
     0
 49
-1.0
 74
     0
 49
0.5
 74
     0
 49
-1.0
 74
     0
  0
ENDTAB
  0
TABLE
  2
LAYER
  5
2
330
0
100
AcDbSymbolTable
 70
    18
  0
LAYER
  5
10
330
2
100
AcDbSymbolTableRecord
100
AcDbLayerTableRecord
  2
0
 70
     0
 62
     7
  6
Continuous
370
    -3
390
F
  0
LAYER
  5
210
330
2
100
AcDbSymbolTableRecord
100
AcDbLayerTableRecord
  2
DEFPOINTS
 70
     0
 62
     4
  6
Continuous
290
     0
370
    -3
390
F
  0
LAYER
  5
211
330
2
100
AcDbSymbolTableRecord
100
AcDbLayerTableRecord
  2
寸法
 70
     0
 62
     6
  6
Continuous
370
    -3
390
F
  0
LAYER
  5
212
330
2
100
AcDbSymbolTableRecord
100
AcDbLayerTableRecord
  2
画層1-1
 70
     0
 62
    82
  6
Continuous
370
    -3
390
F
  0
LAYER
  5
213
330
2
100
AcDbSymbolTableRecord
100
AcDbLayerTableRecord
  2
図面枠
 70
     0
 62
     7
  6
Continuous
370
    -3
390
F
  0
LAYER
  5
214
330
2
100
AcDbSymbolTableRecord
100
AcDbLayerTableRecord
  2
ﾊｯﾁﾝｸﾞ
 70
     0
 62
     1
  6
Continuous
370
    -3
390
F
  0
LAYER
  5
215
330
2
100
AcDbSymbolTableRecord
100
AcDbLayerTableRecord
  2
画層1
 70
     0
 62
     7
  6
Continuous
370
    -3
390
F
  0
LAYER
  5
216
330
2
100
AcDbSymbolTableRecord
100
AcDbLayerTableRecord
  2
画層2
 70
     0
 62
    40
  6
Continuous
370
    -3
390
F
  0
LAYER
  5
217
330
2
100
AcDbSymbolTableRecord
100
AcDbLayerTableRecord
  2
通り芯
 70
     0
 62
     4
  6
Continuous
370
    13
390
F
  0
LAYER
  5
218
330
2
100
AcDbSymbolTableRecord
100
AcDbLayerTableRecord
  2
ﾈｯﾄ
 70
     0
 62
   230
  6
Continuous
370
    13
390
F
  0
LAYER
  5
219
330
2
100
AcDbSymbolTableRecord
100
AcDbLayerTableRecord
  2
画層3-3
 70
     0
 62
     1
  6
Continuous
370
    -3
390
F
  0
LAYER
  5
21A
330
2
100
AcDbSymbolTableRecord
100
AcDbLayerTableRecord
  2
画層3-1
 70
     0
 62
     3
  6
Continuous
370
    -3
390
F
  0
LAYER
  5
21B
330
2
100
AcDbSymbolTableRecord
100
AcDbLayerTableRecord
  2
画層3-2
 70
     0
 62
    60
  6
Continuous
370
    -3
390
F
  0
LAYER
  5
21C
330
2
100
AcDbSymbolTableRecord
100
AcDbLayerTableRecord
  2
画層2-1
 70
     0
 62
     7
  6
Continuous
370
    -3
390
F
  0
LAYER
  5
21D
330
2
100
AcDbSymbolTableRecord
100
AcDbLayerTableRecord
  2
画層3-通り芯
 70
     0
 62
     4
  6
Continuous
370
    -3
390
F
  0
LAYER
  5
21E
330
2
100
AcDbSymbolTableRecord
100
AcDbLayerTableRecord
  2
画層3-寸法
 70
     0
 62
     6
  6
Continuous
370
    -3
390
F
  0
LAYER
  5
21F
330
2
100
AcDbSymbolTableRecord
100
AcDbLayerTableRecord
  2
寸法文字
 70
     0
 62
     6
  6
Continuous
370
    -3
390
F
  0
LAYER
  5
220
330
2
100
AcDbSymbolTableRecord
100
AcDbLayerTableRecord
  2
寸法引出
 70
     0
 62
     3
  6
Continuous
370
    -3
390
F
  0
ENDTAB
  0
TABLE
  2
STYLE
  5
3
330
0
100
AcDbSymbolTable
 70
     4
  0
STYLE
  5
11
330
3
100
AcDbSymbolTableRecord
100
AcDbTextStyleTableRecord
  2
Standard
 70
     0
 40
0.0
 41
1.0
 50
0.0
 71
     0
 42
2.5
  3
txt
  4

  0
STYLE
  5
221
330
3
100
AcDbSymbolTableRecord
100
AcDbTextStyleTableRecord
  2
1_100
 70
     0
 40
0.0
 41
0.75
 50
0.0
 71
     0
 42
2.5
  3
romans.shx
  4
extfont2.shx
  0
STYLE
  5
222
330
3
100
AcDbSymbolTableRecord
100
AcDbTextStyleTableRecord
  2
STYLE1
 70
     0
 40
0.0
 41
0.75
 50
0.0
 71
     0
 42
0.2
  3
HGRSKP.TTF
  4

1001
ACAD
1000
HGSeikaishotaiPRO
1071
    32833
  0
STYLE
  5
223
330
3
100
AcDbSymbolTableRecord
100
AcDbTextStyleTableRecord
  2
MSP明朝
 70
     0
 40
0.0
 41
0.75
 50
0.0
 71
     0
 42
0.2
  3
MS PMincho.ttf
  4

1001
ACAD
1000
MS PMincho
1071
    32786
  0
ENDTAB
  0
TABLE
  2
VIEW
  5
6
330
0
100
AcDbSymbolTable
 70
     0
  0
ENDTAB
  0
TABLE
  2
UCS
  5
7
330
0
100
AcDbSymbolTable
 70
     0
  0
ENDTAB
  0
TABLE
  2
APPID
  5
9
330
0
100
AcDbSymbolTable
 70
     4
  0
APPID
  5
12
330
9
100
AcDbSymbolTableRecord
100
AcDbRegAppTableRecord
  2
ACAD
 70
     0
  0
APPID
  5
227
330
9
100
AcDbSymbolTableRecord
100
AcDbRegAppTableRecord
  2
AcDbBlockRepETag
 70
     0
  0
APPID
  5
EEF
330
9
100
AcDbSymbolTableRecord
100
AcDbRegAppTableRecord
  2
ADE
 70
     0
  0
APPID
  5
EF0
330
9
100
AcDbSymbolTableRecord
100
AcDbRegAppTableRecord
  2
DCO15
 70
     0
  0
ENDTAB
  0
TABLE
  2
DIMSTYLE
  5
A
330
0
100
AcDbSymbolTable
 70
     5
100
AcDbDimStyleTable
 71
     2
340
225
340
27
  0
DIMSTYLE
105
27
330
A
100
AcDbSymbolTableRecord
100
AcDbDimStyleTableRecord
  2
ISO-25
 70
     0
 41
2.5
 42
0.625
 43
3.75
 44
1.25
 73
     0
 74
     0
 77
     1
 78
     8
140
2.5
141
2.5
143
0.03937007874016
147
0.625
171
     3
172
     1
271
     2
272
     2
274
     3
278
    44
283
     0
284
     8
340
11
  0
DIMSTYLE
105
224
330
A
100
AcDbSymbolTableRecord
100
AcDbDimStyleTableRecord
  2
STANDARD
 70
     0
340
11
  0
DIMSTYLE
105
225
102
{ACAD_REACTORS
330
54C
330
551
330
557
330
56E
330
573
330
58C
330
58D
330
590
330
631
330
639
330
643
330
6E4
330
6FF
330
740
330
748
330
760
330
761
330
762
330
763
330
764
330
782
330
783
330
7C0
330
829
330
82A
330
82B
330
82C
330
847
102
}
330
A
100
AcDbSymbolTableRecord
100
AcDbDimStyleTableRecord
  2
1_100
 70
     0
 40
100.0
 41
0.6
 42
3.0
 43
10.0
 44
0.0
 73
     0
 74
     0
 77
     1
 78
     8
140
3.0
141
0.0
147
1.0
172
     1
173
     1
176
   256
177
   256
178
   256
271
     1
272
     1
277
     6
279
     2
284
     8
340
221
341
87
343
87
344
87
  0
DIMSTYLE
105
226
102
{ACAD_REACTORS
330
54E
330
6EC
330
700
330
B1B
102
}
330
A
100
AcDbSymbolTableRecord
100
AcDbDimStyleTableRecord
  2
1_100_B
 70
     0
 40
100.0
 41
0.8
 42
2.0
 43
10.0
 44
0.0
 73
     0
 74
     0
 77
     1
 78
    12
140
3.0
147
0.5
172
     1
173
     1
176
   256
177
   256
178
   256
271
     1
272
     1
277
     6
279
     2
340
221
341
87
343
87
344
87
  0
DIMSTYLE
105
EEE
330
A
100
AcDbSymbolTableRecord
100
AcDbDimStyleTableRecord
  2
1_50
 70
     0
 40
50.0
 41
1.0
 42
3.0
 43
10.0
 44
0.0
 73
     0
 74
     0
 77
     1
 78
    12
140
3.0
141
0.0
147
1.0
172
     1
173
     1
176
   256
177
   256
178
   256
271
     1
272
     1
277
     6
279
     2
340
221
341
87
343
87
344
87
  0
ENDTAB
  0
TABLE
  2
BLOCK_RECORD
  5
1
330
0
100
AcDbSymbolTable
 70
    35
  0
BLOCK_RECORD
  5
1F
330
1
100
AcDbSymbolTableRecord
100
AcDbBlockTableRecord
  2
*Model_Space
340
22
  0
BLOCK_RECORD
  5
50
330
1
100
AcDbSymbolTableRecord
100
AcDbBlockTableRecord
  2
*Paper_Space
340
51
  0
BLOCK_RECORD
  5
55
330
1
100
AcDbSymbolTableRecord
100
AcDbBlockTableRecord
  2
*Paper_Space0
340
56
  0
BLOCK_RECORD
  5
87
330
1
100
AcDbSymbolTableRecord
100
AcDbBlockTableRecord
  2
_ORIGIN
340
0
102
{BLKREFS
331
9E7
331
9E8
331
9F0
331
9F1
331
9F9
331
9FA
331
A02
331
A03
331
A0B
331
A0C
331
A14
331
A15
331
A1E
331
A1F
331
A27
331
A28
331
A2F
331
A30
331
A38
331
A39
331
A41
331
A42
331
A4A
331
A4B
331
A53
331
A54
331
A5D
331
A5E
331
A65
331
A66
331
A70
331
A71
331
A79
331
A7A
331
A82
331
A83
331
A8E
331
A8F
331
A96
331
A97
331
AA2
331
AA3
331
AAA
331
AAB
331
AB3
331
AB4
331
ABD
331
ABE
331
AC7
331
AC8
331
AD3
331
AD4
331
ADE
331
ADF
331
AE6
331
AE7
331
AEF
331
AF0
331
AF8
331
AF9
331
B04
331
B05
331
B34
331
B35
102
}
  0
BLOCK_RECORD
  5
862
330
1
100
AcDbSymbolTableRecord
100
AcDbBlockTableRecord
  2
*D2
340
0
  0
BLOCK_RECORD
  5
86E
330
1
100
AcDbSymbolTableRecord
100
AcDbBlockTableRecord
  2
*D3
340
0
  0
BLOCK_RECORD
  5
87A
330
1
100
AcDbSymbolTableRecord
100
AcDbBlockTableRecord
  2
*D4
340
0
  0
BLOCK_RECORD
  5
886
330
1
100
AcDbSymbolTableRecord
100
AcDbBlockTableRecord
  2
*D5
340
0
  0
BLOCK_RECORD
  5
892
330
1
100
AcDbSymbolTableRecord
100
AcDbBlockTableRecord
  2
*D6
340
0
  0
BLOCK_RECORD
  5
89E
330
1
100
AcDbSymbolTableRecord
100
AcDbBlockTableRecord
  2
*D7
340
0
  0
BLOCK_RECORD
  5
8AA
330
1
100
AcDbSymbolTableRecord
100
AcDbBlockTableRecord
  2
*D8
340
0
  0
BLOCK_RECORD
  5
8B6
330
1
100
AcDbSymbolTableRecord
100
AcDbBlockTableRecord
  2
*D9
340
0
  0
BLOCK_RECORD
  5
8C2
330
1
100
AcDbSymbolTableRecord
100
AcDbBlockTableRecord
  2
*D10
340
0
  0
BLOCK_RECORD
  5
8CE
330
1
100
AcDbSymbolTableRecord
100
AcDbBlockTableRecord
  2
*D11
340
0
  0
BLOCK_RECORD
  5
8DA
330
1
100
AcDbSymbolTableRecord
100
AcDbBlockTableRecord
  2
*D12
340
0
  0
BLOCK_RECORD
  5
8E6
330
1
100
AcDbSymbolTableRecord
100
AcDbBlockTableRecord
  2
*D13
340
0
  0
BLOCK_RECORD
  5
8F2
330
1
100
AcDbSymbolTableRecord
100
AcDbBlockTableRecord
  2
*D14
340
0
  0
BLOCK_RECORD
  5
8FE
330
1
100
AcDbSymbolTableRecord
100
AcDbBlockTableRecord
  2
*D15
340
0
  0
BLOCK_RECORD
  5
90A
330
1
100
AcDbSymbolTableRecord
100
AcDbBlockTableRecord
  2
*D16
340
0
  0
BLOCK_RECORD
  5
916
330
1
100
AcDbSymbolTableRecord
100
AcDbBlockTableRecord
  2
*D17
340
0
  0
BLOCK_RECORD
  5
924
330
1
100
AcDbSymbolTableRecord
100
AcDbBlockTableRecord
  2
*D18
340
0
  0
BLOCK_RECORD
  5
930
330
1
100
AcDbSymbolTableRecord
100
AcDbBlockTableRecord
  2
*D19
340
0
  0
BLOCK_RECORD
  5
93C
330
1
100
AcDbSymbolTableRecord
100
AcDbBlockTableRecord
  2
*D20
340
0
  0
BLOCK_RECORD
  5
94A
330
1
100
AcDbSymbolTableRecord
100
AcDbBlockTableRecord
  2
*D21
340
0
  0
BLOCK_RECORD
  5
956
330
1
100
AcDbSymbolTableRecord
100
AcDbBlockTableRecord
  2
*D22
340
0
  0
BLOCK_RECORD
  5
964
330
1
100
AcDbSymbolTableRecord
100
AcDbBlockTableRecord
  2
*D23
340
0
  0
BLOCK_RECORD
  5
970
330
1
100
AcDbSymbolTableRecord
100
AcDbBlockTableRecord
  2
*D24
340
0
  0
BLOCK_RECORD
  5
97C
330
1
100
AcDbSymbolTableRecord
100
AcDbBlockTableRecord
  2
*D25
340
0
  0
BLOCK_RECORD
  5
988
330
1
100
AcDbSymbolTableRecord
100
AcDbBlockTableRecord
  2
*D26
340
0
  0
BLOCK_RECORD
  5
996
330
1
100
AcDbSymbolTableRecord
100
AcDbBlockTableRecord
  2
*D27
340
0
  0
BLOCK_RECORD
  5
9A4
330
1
100
AcDbSymbolTableRecord
100
AcDbBlockTableRecord
  2
*D28
340
0
  0
BLOCK_RECORD
  5
9B2
330
1
100
AcDbSymbolTableRecord
100
AcDbBlockTableRecord
  2
*D29
340
0
  0
BLOCK_RECORD
  5
9BE
330
1
100
AcDbSymbolTableRecord
100
AcDbBlockTableRecord
  2
*D30
340
0
  0
BLOCK_RECORD
  5
9CA
330
1
100
AcDbSymbolTableRecord
100
AcDbBlockTableRecord
  2
*D31
340
0
  0
BLOCK_RECORD
  5
9D6
330
1
100
AcDbSymbolTableRecord
100
AcDbBlockTableRecord
  2
*D32
340
0
  0
BLOCK_RECORD
  5
B1C
330
1
100
AcDbSymbolTableRecord
100
AcDbBlockTableRecord
  2
*D33
340
0
  0
ENDTAB
  0
ENDSEC
  0
SECTION
  2
BLOCKS
  0
BLOCK
  5
20
330
1F
100
AcDbEntity
  8
0
100
AcDbBlockBegin
  2
*Model_Space
 70
     0
 10
0.0
 20
0.0
 30
0.0
  3
*Model_Space
  1

  0
ENDBLK
  5
21
330
1F
100
AcDbEntity
  8
0
100
AcDbBlockEnd
  0
BLOCK
  5
52
330
50
100
AcDbEntity
 67
     1
  8
0
100
AcDbBlockBegin
  2
*Paper_Space
 70
     0
 10
0.0
 20
0.0
 30
0.0
  3
*Paper_Space
  1

  0
ENDBLK
  5
53
330
50
100
AcDbEntity
 67
     1
  8
0
100
AcDbBlockEnd
  0
BLOCK
  5
57
330
55
100
AcDbEntity
  8
0
100
AcDbBlockBegin
  2
*Paper_Space0
 70
     0
 10
0.0
 20
0.0
 30
0.0
  3
*Paper_Space0
  1

  0
ENDBLK
  5
58
330
55
100
AcDbEntity
  8
0
100
AcDbBlockEnd
  0
BLOCK
  5
88
330
87
100
AcDbEntity
  8
0
100
AcDbBlockBegin
  2
_ORIGIN
 70
     0
 10
0.0
 20
0.0
 30
0.0
  3
_ORIGIN
  1

  0
CIRCLE
  5
89
330
87
100
AcDbEntity
  8
0
  6
ByBlock
 62
     0
100
AcDbCircle
 10
0.0
 20
0.0
 30
0.0
 40
0.5
  0
LINE
  5
8A
330
87
100
AcDbEntity
  8
0
  6
ByBlock
 62
     0
100
AcDbLine
 10
0.0
 20
0.0
 30
0.0
 11
-1.0
 21
0.0
 31
0.0
  0
ENDBLK
  5
8B
330
87
100
AcDbEntity
  8
0
100
AcDbBlockEnd
  0
BLOCK
  5
86C
330
862
100
AcDbEntity
  8
0
100
AcDbBlockBegin
  2
*D2
 70
     1
 10
0.0
 20
0.0
 30
0.0
  3
*D2
  1

  0
LINE
  5
9E4
330
862
100
AcDbEntity
  8
寸法
  6
Continuous
370
    -2
100
AcDbLine
 10
33138.78777682848
 20
11324.07778458737
 30
0.0
 11
33838.78777682848
 21
11324.07778458737
 31
0.0
  0
LINE
  5
9E5
330
862
100
AcDbEntity
  8
寸法
  6
Continuous
370
    -2
100
AcDbLine
 10
33138.78777682848
 20
23324.07778458738
 30
0.0
 11
33838.78777682848
 21
23324.07778458738
 31
0.0
  0
LINE
  5
9E6
330
862
100
AcDbEntity
  8
寸法
  6
Continuous
370
    -2
100
AcDbLine
 10
33838.78777682848
 20
11384.07778458737
 30
0.0
 11
33838.78777682848
 21
23264.07778458738
 31
0.0
  0
INSERT
  5
9E7
330
862
100
AcDbEntity
  8
寸法
  6
Continuous
370
    -2
100
AcDbBlockReference
  2
_ORIGIN
 10
33838.78777682848
 20
11324.07778458737
 30
0.0
 41
60.0
 42
60.0
 43
60.0
 50
270.0
  0
INSERT
  5
9E8
330
862
100
AcDbEntity
  8
寸法
  6
Continuous
370
    -2
100
AcDbBlockReference
  2
_ORIGIN
 10
33838.78777682848
 20
23324.07778458738
 30
0.0
 41
60.0
 42
60.0
 43
60.0
 50
90.0
  0
MTEXT
  5
9E9
330
862
100
AcDbEntity
  8
寸法
  6
Continuous
100
AcDbMText
 10
33560.21634825705
 20
17324.07778458738
 30
0.0
 40
300.0
 41
0.0
 71
     5
 72
     1
  1
\A1;12,000
  7
1_100
 11
0.0000000000000001
 21
1.0
 31
0.0
 73
     1
 44
1.0
1001
ACAD
1000
MTEXTBEGIN
1070
    73
1070
     1
1070
    44
1040
1.0
1070
    74
1070
     0
1000
MTEXTEND
  0
POINT
  5
9EA
330
862
100
AcDbEntity
  8
DEFPOINTS
  6
Continuous
 62
     0
100
AcDbPoint
 10
32838.78777682848
 20
11324.07778458737
 30
0.0
  0
POINT
  5
9EB
330
862
100
AcDbEntity
  8
DEFPOINTS
  6
Continuous
 62
     0
100
AcDbPoint
 10
32838.78777682848
 20
23324.07778458738
 30
0.0
  0
POINT
  5
9EC
330
862
100
AcDbEntity
  8
DEFPOINTS
  6
Continuous
 62
     0
100
AcDbPoint
 10
33838.78777682848
 20
23324.07778458738
 30
0.0
  0
ENDBLK
  5
86D
330
862
100
AcDbEntity
  8
0
100
AcDbBlockEnd
  0
BLOCK
  5
878
330
86E
100
AcDbEntity
  8
0
100
AcDbBlockBegin
  2
*D3
 70
     1
 10
0.0
 20
0.0
 30
0.0
  3
*D3
  1

  0
LINE
  5
9ED
330
86E
100
AcDbEntity
  8
DEFPOINTS
370
    -2
100
AcDbLine
 10
31672.48777682821
 20
15824.07778458702
 30
0.0
 11
37752.43432239371
 21
15824.07778458702
 31
0.0
  0
LINE
  5
9EE
330
86E
100
AcDbEntity
  8
DEFPOINTS
370
    -2
100
AcDbLine
 10
33038.78777682848
 20
8824.077784587377
 30
0.0
 11
37752.43432239371
 21
8824.077784587377
 31
0.0
  0
LINE
  5
9EF
330
86E
100
AcDbEntity
  8
DEFPOINTS
370
    -2
100
AcDbLine
 10
37752.43432239371
 20
15744.07778458702
 30
0.0
 11
37752.43432239371
 21
8904.077784587377
 31
0.0
  0
INSERT
  5
9F0
330
86E
100
AcDbEntity
  8
DEFPOINTS
370
    -2
100
AcDbBlockReference
  2
_ORIGIN
 10
37752.43432239371
 20
15824.07778458702
 30
0.0
 41
80.0
 42
80.0
 43
80.0
 50
90.0
  0
INSERT
  5
9F1
330
86E
100
AcDbEntity
  8
DEFPOINTS
370
    -2
100
AcDbBlockReference
  2
_ORIGIN
 10
37752.43432239371
 20
8824.077784587377
 30
0.0
 41
80.0
 42
80.0
 43
80.0
 50
270.0
  0
MTEXT
  5
9F2
330
86E
100
AcDbEntity
  8
DEFPOINTS
100
AcDbMText
 10
37523.86289382227
 20
12324.07778458721
 30
0.0
 40
300.0
 41
0.0
 71
     5
 72
     1
  1
\A1;7,000
  7
1_100
 11
0.0000000000000001
 21
1.0
 31
0.0
 73
     1
 44
1.0
1001
ACAD
1000
MTEXTBEGIN
1070
    73
1070
     1
1070
    44
1040
1.0
1070
    74
1070
     0
1000
MTEXTEND
  0
POINT
  5
9F3
330
86E
100
AcDbEntity
  8
DEFPOINTS
 62
     0
100
AcDbPoint
 10
31472.48777682821
 20
15824.07778458702
 30
0.0
  0
POINT
  5
9F4
330
86E
100
AcDbEntity
  8
DEFPOINTS
 62
     0
100
AcDbPoint
 10
32838.78777682848
 20
8824.077784587377
 30
0.0
  0
POINT
  5
9F5
330
86E
100
AcDbEntity
  8
DEFPOINTS
 62
     0
100
AcDbPoint
 10
37752.43432239371
 20
8824.077784587377
 30
0.0
  0
ENDBLK
  5
879
330
86E
100
AcDbEntity
  8
0
100
AcDbBlockEnd
  0
BLOCK
  5
884
330
87A
100
AcDbEntity
  8
0
100
AcDbBlockBegin
  2
*D4
 70
     1
 10
0.0
 20
0.0
 30
0.0
  3
*D4
  1

  0
LINE
  5
9F6
330
87A
100
AcDbEntity
  8
寸法
  6
Continuous
370
    -2
100
AcDbLine
 10
27138.78777682849
 20
11324.07778458737
 30
0.0
 11
29157.76096313188
 21
11324.07778458737
 31
0.0
  0
LINE
  5
9F7
330
87A
100
AcDbEntity
  8
寸法
  6
Continuous
370
    -2
100
AcDbLine
 10
27138.78777682849
 20
23324.07778458738
 30
0.0
 11
29157.76096313188
 21
23324.07778458738
 31
0.0
  0
LINE
  5
9F8
330
87A
100
AcDbEntity
  8
寸法
  6
Continuous
370
    -2
100
AcDbLine
 10
29157.76096313188
 20
11384.07778458737
 30
0.0
 11
29157.76096313188
 21
23264.07778458738
 31
0.0
  0
INSERT
  5
9F9
330
87A
100
AcDbEntity
  8
寸法
  6
Continuous
370
    -2
100
AcDbBlockReference
  2
_ORIGIN
 10
29157.76096313188
 20
11324.07778458737
 30
0.0
 41
60.0
 42
60.0
 43
60.0
 50
270.0
  0
INSERT
  5
9FA
330
87A
100
AcDbEntity
  8
寸法
  6
Continuous
370
    -2
100
AcDbBlockReference
  2
_ORIGIN
 10
29157.76096313188
 20
23324.07778458738
 30
0.0
 41
60.0
 42
60.0
 43
60.0
 50
90.0
  0
MTEXT
  5
9FB
330
87A
100
AcDbEntity
  8
寸法
  6
Continuous
100
AcDbMText
 10
28879.18953456045
 20
17324.07778458738
 30
0.0
 40
300.0
 41
0.0
 71
     5
 72
     1
  1
\A1;12,000
  7
1_100
 11
0.0000000000000001
 21
1.0
 31
0.0
 73
     1
 44
1.0
1001
ACAD
1000
MTEXTBEGIN
1070
    73
1070
     1
1070
    44
1040
1.0
1070
    74
1070
     0
1000
MTEXTEND
  0
POINT
  5
9FC
330
87A
100
AcDbEntity
  8
DEFPOINTS
  6
Continuous
 62
     0
100
AcDbPoint
 10
26838.78777682849
 20
11324.07778458737
 30
0.0
  0
POINT
  5
9FD
330
87A
100
AcDbEntity
  8
DEFPOINTS
  6
Continuous
 62
     0
100
AcDbPoint
 10
26838.78777682849
 20
23324.07778458738
 30
0.0
  0
POINT
  5
9FE
330
87A
100
AcDbEntity
  8
DEFPOINTS
  6
Continuous
 62
     0
100
AcDbPoint
 10
29157.76096313188
 20
23324.07778458738
 30
0.0
  0
ENDBLK
  5
885
330
87A
100
AcDbEntity
  8
0
100
AcDbBlockEnd
  0
BLOCK
  5
890
330
886
100
AcDbEntity
  8
0
100
AcDbBlockBegin
  2
*D5
 70
     1
 10
0.0
 20
0.0
 30
0.0
  3
*D5
  1

  0
LINE
  5
9FF
330
886
100
AcDbEntity
  8
寸法
  6
Continuous
370
    -2
100
AcDbLine
 10
27138.78777682849
 20
15794.07778458749
 30
0.0
 11
28157.76096313188
 21
15794.07778458749
 31
0.0
  0
LINE
  5
A00
330
886
100
AcDbEntity
  8
寸法
  6
Continuous
370
    -2
100
AcDbLine
 10
27138.78777682849
 20
13324.07778458726
 30
0.0
 11
28157.76096313188
 21
13324.07778458726
 31
0.0
  0
LINE
  5
A01
330
886
100
AcDbEntity
  8
寸法
  6
Continuous
370
    -2
100
AcDbLine
 10
28157.76096313188
 20
15734.07778458749
 30
0.0
 11
28157.76096313188
 21
13384.07778458726
 31
0.0
  0
INSERT
  5
A02
330
886
100
AcDbEntity
  8
寸法
  6
Continuous
370
    -2
100
AcDbBlockReference
  2
_ORIGIN
 10
28157.76096313188
 20
15794.07778458749
 30
0.0
 41
60.0
 42
60.0
 43
60.0
 50
90.0
  0
INSERT
  5
A03
330
886
100
AcDbEntity
  8
寸法
  6
Continuous
370
    -2
100
AcDbBlockReference
  2
_ORIGIN
 10
28157.76096313188
 20
13324.07778458726
 30
0.0
 41
60.0
 42
60.0
 43
60.0
 50
270.0
  0
MTEXT
  5
A04
330
886
100
AcDbEntity
  8
寸法
  6
Continuous
100
AcDbMText
 10
27879.18953456045
 20
14559.07778458738
 30
0.0
 40
300.0
 41
0.0
 71
     5
 72
     1
  1
\A1;2,470
  7
1_100
 11
0.0000000000000001
 21
1.0
 31
0.0
 73
     1
 44
1.0
1001
ACAD
1000
MTEXTBEGIN
1070
    73
1070
     1
1070
    44
1040
1.0
1070
    74
1070
     0
1000
MTEXTEND
  0
POINT
  5
A05
330
886
100
AcDbEntity
  8
DEFPOINTS
  6
Continuous
 62
     0
100
AcDbPoint
 10
26838.78777682849
 20
15794.07778458749
 30
0.0
  0
POINT
  5
A06
330
886
100
AcDbEntity
  8
DEFPOINTS
  6
Continuous
 62
     0
100
AcDbPoint
 10
26838.78777682849
 20
13324.07778458726
 30
0.0
  0
POINT
  5
A07
330
886
100
AcDbEntity
  8
DEFPOINTS
  6
Continuous
 62
     0
100
AcDbPoint
 10
28157.76096313188
 20
13324.07778458726
 30
0.0
  0
ENDBLK
  5
891
330
886
100
AcDbEntity
  8
0
100
AcDbBlockEnd
  0
BLOCK
  5
89C
330
892
100
AcDbEntity
  8
0
100
AcDbBlockBegin
  2
*D6
 70
     1
 10
0.0
 20
0.0
 30
0.0
  3
*D6
  1

  0
LINE
  5
A08
330
892
100
AcDbEntity
  8
画層3-寸法
  6
Continuous
370
    -2
100
AcDbLine
 10
10838.78777682848
 20
8424.077784587259
 30
0.0
 11
10838.78777682848
 21
7524.077784587261
 31
0.0
  0
LINE
  5
A09
330
892
100
AcDbEntity
  8
画層3-寸法
  6
Continuous
370
    -2
100
AcDbLine
 10
12838.78777682848
 20
8424.077784587259
 30
0.0
 11
12838.78777682848
 21
7524.077784587261
 31
0.0
  0
LINE
  5
A0A
330
892
100
AcDbEntity
  8
画層3-寸法
  6
Continuous
370
    -2
100
AcDbLine
 10
10898.78777682848
 20
7524.077784587261
 30
0.0
 11
12778.78777682848
 21
7524.077784587261
 31
0.0
  0
INSERT
  5
A0B
330
892
100
AcDbEntity
  8
画層3-寸法
  6
Continuous
370
    -2
100
AcDbBlockReference
  2
_ORIGIN
 10
10838.78777682848
 20
7524.077784587261
 30
0.0
 41
60.0
 42
60.0
 43
60.0
 50
180.0
  0
INSERT
  5
A0C
330
892
100
AcDbEntity
  8
画層3-寸法
  6
Continuous
370
    -2
100
AcDbBlockReference
  2
_ORIGIN
 10
12838.78777682848
 20
7524.077784587261
 30
0.0
 41
60.0
 42
60.0
 43
60.0
  0
MTEXT
  5
A0D
330
892
100
AcDbEntity
  8
画層3-寸法
  6
Continuous
100
AcDbMText
 10
11838.78777682848
 20
7802.649213158689
 30
0.0
 40
300.0
 41
0.0
 71
     5
 72
     1
  1
\A1;2,000
  7
1_100
 73
     1
 44
1.0
1001
ACAD
1000
MTEXTBEGIN
1070
    73
1070
     1
1070
    44
1040
1.0
1070
    74
1070
     0
1000
MTEXTEND
  0
POINT
  5
A0E
330
892
100
AcDbEntity
  8
DEFPOINTS
  6
Continuous
 62
     0
100
AcDbPoint
 10
10838.78777682848
 20
8724.07778458726
 30
0.0
  0
POINT
  5
A0F
330
892
100
AcDbEntity
  8
DEFPOINTS
  6
Continuous
 62
     0
100
AcDbPoint
 10
12838.78777682848
 20
8724.07778458726
 30
0.0
  0
POINT
  5
A10
330
892
100
AcDbEntity
  8
DEFPOINTS
  6
Continuous
 62
     0
100
AcDbPoint
 10
12838.78777682848
 20
7524.077784587261
 30
0.0
  0
ENDBLK
  5
89D
330
892
100
AcDbEntity
  8
0
100
AcDbBlockEnd
  0
BLOCK
  5
8A8
330
89E
100
AcDbEntity
  8
0
100
AcDbBlockBegin
  2
*D7
 70
     1
 10
0.0
 20
0.0
 30
0.0
  3
*D7
  1

  0
LINE
  5
A11
330
89E
100
AcDbEntity
  8
寸法
  6
Continuous
370
    -2
100
AcDbLine
 10
8838.787776828484
 20
7924.077784587493
 30
0.0
 11
8838.787776828484
 21
6924.077784587495
 31
0.0
  0
LINE
  5
A12
330
89E
100
AcDbEntity
  8
寸法
  6
Continuous
370
    -2
100
AcDbLine
 10
18838.78777682848
 20
7749.237097123735
 30
0.0
 11
18838.78777682848
 21
6924.077784587495
 31
0.0
  0
LINE
  5
A13
330
89E
100
AcDbEntity
  8
寸法
  6
Continuous
370
    -2
100
AcDbLine
 10
8898.787776828482
 20
6924.077784587495
 30
0.0
 11
18778.78777682848
 21
6924.077784587495
 31
0.0
  0
INSERT
  5
A14
330
89E
100
AcDbEntity
  8
寸法
  6
Continuous
370
    -2
100
AcDbBlockReference
  2
_ORIGIN
 10
8838.787776828484
 20
6924.077784587495
 30
0.0
 41
60.0
 42
60.0
 43
60.0
 50
180.0
  0
INSERT
  5
A15
330
89E
100
AcDbEntity
  8
寸法
  6
Continuous
370
    -2
100
AcDbBlockReference
  2
_ORIGIN
 10
18838.78777682848
 20
6924.077784587495
 30
0.0
 41
60.0
 42
60.0
 43
60.0
  0
MTEXT
  5
A16
330
89E
100
AcDbEntity
  8
寸法
  6
Continuous
100
AcDbMText
 10
13838.78777682848
 20
7202.649213158922
 30
0.0
 40
300.0
 41
0.0
 71
     5
 72
     1
  1
\A1;10,000
  7
1_100
 73
     1
 44
1.0
1001
ACAD
1000
MTEXTBEGIN
1070
    73
1070
     1
1070
    44
1040
1.0
1070
    74
1070
     0
1000
MTEXTEND
  0
POINT
  5
A17
330
89E
100
AcDbEntity
  8
DEFPOINTS
  6
Continuous
 62
     0
100
AcDbPoint
 10
8838.787776828484
 20
8224.077784587493
 30
0.0
  0
POINT
  5
A18
330
89E
100
AcDbEntity
  8
DEFPOINTS
  6
Continuous
 62
     0
100
AcDbPoint
 10
18838.78777682848
 20
8049.237097123734
 30
0.0
  0
POINT
  5
A19
330
89E
100
AcDbEntity
  8
DEFPOINTS
  6
Continuous
 62
     0
100
AcDbPoint
 10
18838.78777682848
 20
6924.077784587495
 30
0.0
  0
ENDBLK
  5
8A9
330
89E
100
AcDbEntity
  8
0
100
AcDbBlockEnd
  0
BLOCK
  5
8B4
330
8AA
100
AcDbEntity
  8
0
100
AcDbBlockBegin
  2
*D8
 70
     1
 10
0.0
 20
0.0
 30
0.0
  3
*D8
  1

  0
LINE
  5
A1A
330
8AA
100
AcDbEntity
  8
寸法
  6
Continuous
370
    -2
100
AcDbLine
 10
8613.787776828484
 20
8424.077784587259
 30
0.0
 11
8613.787776828484
 21
8224.077784587493
 31
0.0
  0
LINE
  5
A1B
330
8AA
100
AcDbEntity
  8
寸法
  6
Continuous
370
    -2
100
AcDbLine
 10
9063.787776828483
 20
8424.077784587259
 30
0.0
 11
9063.787776828483
 21
8224.077784587493
 31
0.0
  0
LINE
  5
A1C
330
8AA
100
AcDbEntity
  8
寸法
  6
Continuous
370
    -2
100
AcDbLine
 10
8673.787776828483
 20
8224.077784587493
 30
0.0
 11
9003.787776828483
 21
8224.077784587493
 31
0.0
  0
MTEXT
  5
A1D
330
8AA
100
AcDbEntity
  8
寸法
  6
Continuous
100
AcDbMText
 10
7884.010129831937
 20
8393.587492380039
 30
0.0
 40
300.0
 41
0.0
 71
     5
 72
     1
  1
\A1;φ450
  7
1_100
 73
     1
 44
1.0
1001
ACAD
1000
MTEXTBEGIN
1070
    73
1070
     1
1070
    44
1040
1.0
1070
    74
1070
     0
1000
MTEXTEND
  0
INSERT
  5
A1E
330
8AA
100
AcDbEntity
  8
寸法
  6
Continuous
370
    -2
100
AcDbBlockReference
  2
_ORIGIN
 10
8613.787776828484
 20
8224.077784587493
 30
0.0
 41
60.0
 42
60.0
 43
60.0
 50
180.0
  0
INSERT
  5
A1F
330
8AA
100
AcDbEntity
  8
寸法
  6
Continuous
370
    -2
100
AcDbBlockReference
  2
_ORIGIN
 10
9063.787776828483
 20
8224.077784587493
 30
0.0
 41
60.0
 42
60.0
 43
60.0
  0
POINT
  5
A20
330
8AA
100
AcDbEntity
  8
DEFPOINTS
  6
Continuous
 62
     0
100
AcDbPoint
 10
8613.787776828484
 20
8724.07778458726
 30
0.0
  0
POINT
  5
A21
330
8AA
100
AcDbEntity
  8
DEFPOINTS
  6
Continuous
 62
     0
100
AcDbPoint
 10
9063.787776828483
 20
8724.07778458726
 30
0.0
  0
POINT
  5
A22
330
8AA
100
AcDbEntity
  8
DEFPOINTS
  6
Continuous
 62
     0
100
AcDbPoint
 10
9063.787776828483
 20
8224.077784587493
 30
0.0
  0
ENDBLK
  5
8B5
330
8AA
100
AcDbEntity
  8
0
100
AcDbBlockEnd
  0
BLOCK
  5
8C0
330
8B6
100
AcDbEntity
  8
0
100
AcDbBlockBegin
  2
*D9
 70
     1
 10
0.0
 20
0.0
 30
0.0
  3
*D9
  1

  0
LINE
  5
A23
330
8B6
100
AcDbEntity
  8
寸法
  6
Continuous
370
    -2
100
AcDbLine
 10
8488.787776828484
 20
8424.077784587259
 30
0.0
 11
8488.787776828484
 21
8024.077784587261
 31
0.0
  0
LINE
  5
A24
330
8B6
100
AcDbEntity
  8
寸法
  6
Continuous
370
    -2
100
AcDbLine
 10
9188.787776828483
 20
8424.077784587259
 30
0.0
 11
9188.787776828483
 21
8024.077784587261
 31
0.0
  0
LINE
  5
A25
330
8B6
100
AcDbEntity
  8
寸法
  6
Continuous
370
    -2
100
AcDbLine
 10
8548.787776828483
 20
8024.077784587261
 30
0.0
 11
9128.787776828483
 21
8024.077784587261
 31
0.0
  0
MTEXT
  5
A26
330
8B6
100
AcDbEntity
  8
寸法
  6
Continuous
100
AcDbMText
 10
8268.669083022254
 20
7724.077784587262
 30
0.0
 40
300.0
 41
0.0
 71
     5
 72
     1
  1
\A1;□700
  7
1_100
 73
     1
 44
1.0
1001
ACAD
1000
MTEXTBEGIN
1070
    73
1070
     1
1070
    44
1040
1.0
1070
    74
1070
     0
1000
MTEXTEND
  0
INSERT
  5
A27
330
8B6
100
AcDbEntity
  8
寸法
  6
Continuous
370
    -2
100
AcDbBlockReference
  2
_ORIGIN
 10
8488.787776828484
 20
8024.077784587261
 30
0.0
 41
60.0
 42
60.0
 43
60.0
 50
180.0
  0
INSERT
  5
A28
330
8B6
100
AcDbEntity
  8
寸法
  6
Continuous
370
    -2
100
AcDbBlockReference
  2
_ORIGIN
 10
9188.787776828483
 20
8024.077784587261
 30
0.0
 41
60.0
 42
60.0
 43
60.0
  0
POINT
  5
A29
330
8B6
100
AcDbEntity
  8
DEFPOINTS
  6
Continuous
 62
     0
100
AcDbPoint
 10
8488.787776828484
 20
8724.07778458726
 30
0.0
  0
POINT
  5
A2A
330
8B6
100
AcDbEntity
  8
DEFPOINTS
  6
Continuous
 62
     0
100
AcDbPoint
 10
9188.787776828483
 20
8724.07778458726
 30
0.0
  0
POINT
  5
A2B
330
8B6
100
AcDbEntity
  8
DEFPOINTS
  6
Continuous
 62
     0
100
AcDbPoint
 10
9188.787776828483
 20
8024.077784587261
 30
0.0
  0
ENDBLK
  5
8C1
330
8B6
100
AcDbEntity
  8
0
100
AcDbBlockEnd
  0
BLOCK
  5
8CC
330
8C2
100
AcDbEntity
  8
0
100
AcDbBlockBegin
  2
*D10
 70
     1
 10
0.0
 20
0.0
 30
0.0
  3
*D10
  1

  0
LINE
  5
A2C
330
8C2
100
AcDbEntity
  8
画層3-寸法
  6
Continuous
370
    -2
100
AcDbLine
 10
8838.787776828484
 20
7924.077784587493
 30
0.0
 11
8838.787776828484
 21
7524.077784587261
 31
0.0
  0
LINE
  5
A2D
330
8C2
100
AcDbEntity
  8
画層3-寸法
  6
Continuous
370
    -2
100
AcDbLine
 10
10838.78777682848
 20
8424.077784587259
 30
0.0
 11
10838.78777682848
 21
7524.077784587261
 31
0.0
  0
LINE
  5
A2E
330
8C2
100
AcDbEntity
  8
画層3-寸法
  6
Continuous
370
    -2
100
AcDbLine
 10
8898.787776828482
 20
7524.077784587261
 30
0.0
 11
10778.78777682848
 21
7524.077784587261
 31
0.0
  0
INSERT
  5
A2F
330
8C2
100
AcDbEntity
  8
画層3-寸法
  6
Continuous
370
    -2
100
AcDbBlockReference
  2
_ORIGIN
 10
8838.787776828484
 20
7524.077784587261
 30
0.0
 41
60.0
 42
60.0
 43
60.0
 50
180.0
  0
INSERT
  5
A30
330
8C2
100
AcDbEntity
  8
画層3-寸法
  6
Continuous
370
    -2
100
AcDbBlockReference
  2
_ORIGIN
 10
10838.78777682848
 20
7524.077784587261
 30
0.0
 41
60.0
 42
60.0
 43
60.0
  0
MTEXT
  5
A31
330
8C2
100
AcDbEntity
  8
画層3-寸法
  6
Continuous
100
AcDbMText
 10
9838.787776828484
 20
7802.649213158689
 30
0.0
 40
300.0
 41
0.0
 71
     5
 72
     1
  1
\A1;2,000
  7
1_100
 73
     1
 44
1.0
1001
ACAD
1000
MTEXTBEGIN
1070
    73
1070
     1
1070
    44
1040
1.0
1070
    74
1070
     0
1000
MTEXTEND
  0
POINT
  5
A32
330
8C2
100
AcDbEntity
  8
DEFPOINTS
  6
Continuous
 62
     0
100
AcDbPoint
 10
8838.787776828484
 20
8224.077784587493
 30
0.0
  0
POINT
  5
A33
330
8C2
100
AcDbEntity
  8
DEFPOINTS
  6
Continuous
 62
     0
100
AcDbPoint
 10
10838.78777682848
 20
8724.07778458726
 30
0.0
  0
POINT
  5
A34
330
8C2
100
AcDbEntity
  8
DEFPOINTS
  6
Continuous
 62
     0
100
AcDbPoint
 10
10838.78777682848
 20
7524.077784587261
 30
0.0
  0
ENDBLK
  5
8CD
330
8C2
100
AcDbEntity
  8
0
100
AcDbBlockEnd
  0
BLOCK
  5
8D8
330
8CE
100
AcDbEntity
  8
0
100
AcDbBlockBegin
  2
*D11
 70
     1
 10
0.0
 20
0.0
 30
0.0
  3
*D11
  1

  0
LINE
  5
A35
330
8CE
100
AcDbEntity
  8
画層3-寸法
  6
Continuous
370
    -2
100
AcDbLine
 10
18838.78777682848
 20
8424.077784587259
 30
0.0
 11
18838.78777682848
 21
7524.077784587261
 31
0.0
  0
LINE
  5
A36
330
8CE
100
AcDbEntity
  8
画層3-寸法
  6
Continuous
370
    -2
100
AcDbLine
 10
20838.7877768285
 20
8424.077784587259
 30
0.0
 11
20838.7877768285
 21
7524.077784587261
 31
0.0
  0
LINE
  5
A37
330
8CE
100
AcDbEntity
  8
画層3-寸法
  6
Continuous
370
    -2
100
AcDbLine
 10
18898.78777682848
 20
7524.077784587261
 30
0.0
 11
20778.78777682848
 21
7524.077784587261
 31
0.0
  0
INSERT
  5
A38
330
8CE
100
AcDbEntity
  8
画層3-寸法
  6
Continuous
370
    -2
100
AcDbBlockReference
  2
_ORIGIN
 10
18838.78777682848
 20
7524.077784587261
 30
0.0
 41
60.0
 42
60.0
 43
60.0
 50
180.0
  0
INSERT
  5
A39
330
8CE
100
AcDbEntity
  8
画層3-寸法
  6
Continuous
370
    -2
100
AcDbBlockReference
  2
_ORIGIN
 10
20838.7877768285
 20
7524.077784587261
 30
0.0
 41
60.0
 42
60.0
 43
60.0
  0
MTEXT
  5
A3A
330
8CE
100
AcDbEntity
  8
画層3-寸法
  6
Continuous
100
AcDbMText
 10
19838.78777682848
 20
7802.649213158689
 30
0.0
 40
300.0
 41
0.0
 71
     5
 72
     1
  1
\A1;2,000
  7
1_100
 73
     1
 44
1.0
1001
ACAD
1000
MTEXTBEGIN
1070
    73
1070
     1
1070
    44
1040
1.0
1070
    74
1070
     0
1000
MTEXTEND
  0
POINT
  5
A3B
330
8CE
100
AcDbEntity
  8
DEFPOINTS
  6
Continuous
 62
     0
100
AcDbPoint
 10
18838.78777682848
 20
8724.07778458726
 30
0.0
  0
POINT
  5
A3C
330
8CE
100
AcDbEntity
  8
DEFPOINTS
  6
Continuous
 62
     0
100
AcDbPoint
 10
20838.7877768285
 20
8724.07778458726
 30
0.0
  0
POINT
  5
A3D
330
8CE
100
AcDbEntity
  8
DEFPOINTS
  6
Continuous
 62
     0
100
AcDbPoint
 10
20838.7877768285
 20
7524.077784587261
 30
0.0
  0
ENDBLK
  5
8D9
330
8CE
100
AcDbEntity
  8
0
100
AcDbBlockEnd
  0
BLOCK
  5
8E4
330
8DA
100
AcDbEntity
  8
0
100
AcDbBlockBegin
  2
*D12
 70
     1
 10
0.0
 20
0.0
 30
0.0
  3
*D12
  1

  0
LINE
  5
A3E
330
8DA
100
AcDbEntity
  8
画層3-寸法
  6
Continuous
370
    -2
100
AcDbLine
 10
16838.78777682848
 20
8424.077784587259
 30
0.0
 11
16838.78777682848
 21
7524.077784587261
 31
0.0
  0
LINE
  5
A3F
330
8DA
100
AcDbEntity
  8
画層3-寸法
  6
Continuous
370
    -2
100
AcDbLine
 10
18838.78777682848
 20
8424.077784587259
 30
0.0
 11
18838.78777682848
 21
7524.077784587261
 31
0.0
  0
LINE
  5
A40
330
8DA
100
AcDbEntity
  8
画層3-寸法
  6
Continuous
370
    -2
100
AcDbLine
 10
16898.78777682848
 20
7524.077784587261
 30
0.0
 11
18778.78777682848
 21
7524.077784587261
 31
0.0
  0
INSERT
  5
A41
330
8DA
100
AcDbEntity
  8
画層3-寸法
  6
Continuous
370
    -2
100
AcDbBlockReference
  2
_ORIGIN
 10
16838.78777682848
 20
7524.077784587261
 30
0.0
 41
60.0
 42
60.0
 43
60.0
 50
180.0
  0
INSERT
  5
A42
330
8DA
100
AcDbEntity
  8
画層3-寸法
  6
Continuous
370
    -2
100
AcDbBlockReference
  2
_ORIGIN
 10
18838.78777682848
 20
7524.077784587261
 30
0.0
 41
60.0
 42
60.0
 43
60.0
  0
MTEXT
  5
A43
330
8DA
100
AcDbEntity
  8
画層3-寸法
  6
Continuous
100
AcDbMText
 10
17838.78777682848
 20
7802.649213158689
 30
0.0
 40
300.0
 41
0.0
 71
     5
 72
     1
  1
\A1;2,000
  7
1_100
 73
     1
 44
1.0
1001
ACAD
1000
MTEXTBEGIN
1070
    73
1070
     1
1070
    44
1040
1.0
1070
    74
1070
     0
1000
MTEXTEND
  0
POINT
  5
A44
330
8DA
100
AcDbEntity
  8
DEFPOINTS
  6
Continuous
 62
     0
100
AcDbPoint
 10
16838.78777682848
 20
8724.07778458726
 30
0.0
  0
POINT
  5
A45
330
8DA
100
AcDbEntity
  8
DEFPOINTS
  6
Continuous
 62
     0
100
AcDbPoint
 10
18838.78777682848
 20
8724.07778458726
 30
0.0
  0
POINT
  5
A46
330
8DA
100
AcDbEntity
  8
DEFPOINTS
  6
Continuous
 62
     0
100
AcDbPoint
 10
18838.78777682848
 20
7524.077784587261
 30
0.0
  0
ENDBLK
  5
8E5
330
8DA
100
AcDbEntity
  8
0
100
AcDbBlockEnd
  0
BLOCK
  5
8F0
330
8E6
100
AcDbEntity
  8
0
100
AcDbBlockBegin
  2
*D13
 70
     1
 10
0.0
 20
0.0
 30
0.0
  3
*D13
  1

  0
LINE
  5
A47
330
8E6
100
AcDbEntity
  8
画層3-寸法
  6
Continuous
370
    -2
100
AcDbLine
 10
20838.7877768285
 20
8424.077784587259
 30
0.0
 11
20838.7877768285
 21
7524.077784587261
 31
0.0
  0
LINE
  5
A48
330
8E6
100
AcDbEntity
  8
画層3-寸法
  6
Continuous
370
    -2
100
AcDbLine
 10
22838.78777682848
 20
8424.077784587259
 30
0.0
 11
22838.78777682848
 21
7524.077784587261
 31
0.0
  0
LINE
  5
A49
330
8E6
100
AcDbEntity
  8
画層3-寸法
  6
Continuous
370
    -2
100
AcDbLine
 10
20898.78777682848
 20
7524.077784587261
 30
0.0
 11
22778.78777682849
 21
7524.077784587261
 31
0.0
  0
INSERT
  5
A4A
330
8E6
100
AcDbEntity
  8
画層3-寸法
  6
Continuous
370
    -2
100
AcDbBlockReference
  2
_ORIGIN
 10
20838.7877768285
 20
7524.077784587261
 30
0.0
 41
60.0
 42
60.0
 43
60.0
 50
180.0
  0
INSERT
  5
A4B
330
8E6
100
AcDbEntity
  8
画層3-寸法
  6
Continuous
370
    -2
100
AcDbBlockReference
  2
_ORIGIN
 10
22838.78777682848
 20
7524.077784587261
 30
0.0
 41
60.0
 42
60.0
 43
60.0
  0
MTEXT
  5
A4C
330
8E6
100
AcDbEntity
  8
画層3-寸法
  6
Continuous
100
AcDbMText
 10
21838.78777682849
 20
7802.649213158689
 30
0.0
 40
300.0
 41
0.0
 71
     5
 72
     1
  1
\A1;2,000
  7
1_100
 73
     1
 44
1.0
1001
ACAD
1000
MTEXTBEGIN
1070
    73
1070
     1
1070
    44
1040
1.0
1070
    74
1070
     0
1000
MTEXTEND
  0
POINT
  5
A4D
330
8E6
100
AcDbEntity
  8
DEFPOINTS
  6
Continuous
 62
     0
100
AcDbPoint
 10
20838.7877768285
 20
8724.07778458726
 30
0.0
  0
POINT
  5
A4E
330
8E6
100
AcDbEntity
  8
DEFPOINTS
  6
Continuous
 62
     0
100
AcDbPoint
 10
22838.78777682848
 20
8724.07778458726
 30
0.0
  0
POINT
  5
A4F
330
8E6
100
AcDbEntity
  8
DEFPOINTS
  6
Continuous
 62
     0
100
AcDbPoint
 10
22838.78777682848
 20
7524.077784587261
 30
0.0
  0
ENDBLK
  5
8F1
330
8E6
100
AcDbEntity
  8
0
100
AcDbBlockEnd
  0
BLOCK
  5
8FC
330
8F2
100
AcDbEntity
  8
0
100
AcDbBlockBegin
  2
*D14
 70
     1
 10
0.0
 20
0.0
 30
0.0
  3
*D14
  1

  0
LINE
  5
A50
330
8F2
100
AcDbEntity
  8
画層3-寸法
  6
Continuous
370
    -2
100
AcDbLine
 10
22838.78777682848
 20
8424.077784587259
 30
0.0
 11
22838.78777682848
 21
7524.077784587261
 31
0.0
  0
LINE
  5
A51
330
8F2
100
AcDbEntity
  8
画層3-寸法
  6
Continuous
370
    -2
100
AcDbLine
 10
24838.78777682849
 20
8424.077784587259
 30
0.0
 11
24838.78777682849
 21
7524.077784587261
 31
0.0
  0
LINE
  5
A52
330
8F2
100
AcDbEntity
  8
画層3-寸法
  6
Continuous
370
    -2
100
AcDbLine
 10
22898.78777682849
 20
7524.077784587261
 30
0.0
 11
24778.78777682849
 21
7524.077784587261
 31
0.0
  0
INSERT
  5
A53
330
8F2
100
AcDbEntity
  8
画層3-寸法
  6
Continuous
370
    -2
100
AcDbBlockReference
  2
_ORIGIN
 10
22838.78777682848
 20
7524.077784587261
 30
0.0
 41
60.0
 42
60.0
 43
60.0
 50
180.0
  0
INSERT
  5
A54
330
8F2
100
AcDbEntity
  8
画層3-寸法
  6
Continuous
370
    -2
100
AcDbBlockReference
  2
_ORIGIN
 10
24838.78777682849
 20
7524.077784587261
 30
0.0
 41
60.0
 42
60.0
 43
60.0
  0
MTEXT
  5
A55
330
8F2
100
AcDbEntity
  8
画層3-寸法
  6
Continuous
100
AcDbMText
 10
23838.78777682848
 20
7802.649213158689
 30
0.0
 40
300.0
 41
0.0
 71
     5
 72
     1
  1
\A1;2,000
  7
1_100
 73
     1
 44
1.0
1001
ACAD
1000
MTEXTBEGIN
1070
    73
1070
     1
1070
    44
1040
1.0
1070
    74
1070
     0
1000
MTEXTEND
  0
POINT
  5
A56
330
8F2
100
AcDbEntity
  8
DEFPOINTS
  6
Continuous
 62
     0
100
AcDbPoint
 10
22838.78777682848
 20
8724.07778458726
 30
0.0
  0
POINT
  5
A57
330
8F2
100
AcDbEntity
  8
DEFPOINTS
  6
Continuous
 62
     0
100
AcDbPoint
 10
24838.78777682849
 20
8724.07778458726
 30
0.0
  0
POINT
  5
A58
330
8F2
100
AcDbEntity
  8
DEFPOINTS
  6
Continuous
 62
     0
100
AcDbPoint
 10
24838.78777682849
 20
7524.077784587261
 30
0.0
  0
ENDBLK
  5
8FD
330
8F2
100
AcDbEntity
  8
0
100
AcDbBlockEnd
  0
BLOCK
  5
908
330
8FE
100
AcDbEntity
  8
0
100
AcDbBlockBegin
  2
*D15
 70
     1
 10
0.0
 20
0.0
 30
0.0
  3
*D15
  1

  0
LINE
  5
A59
330
8FE
100
AcDbEntity
  8
画層3-寸法
  6
Continuous
370
    -2
100
AcDbLine
 10
12513.78777682848
 20
11324.07778458761
 30
0.0
 11
12293.78777682848
 21
11324.07778458761
 31
0.0
  0
LINE
  5
A5A
330
8FE
100
AcDbEntity
  8
画層3-寸法
  6
Continuous
370
    -2
100
AcDbLine
 10
12513.78777682848
 20
10874.07778458761
 30
0.0
 11
12293.78777682848
 21
10874.07778458761
 31
0.0
  0
LINE
  5
A5B
330
8FE
100
AcDbEntity
  8
画層3-寸法
  6
Continuous
370
    -2
100
AcDbLine
 10
12293.78777682848
 20
11244.07778458761
 30
0.0
 11
12293.78777682848
 21
10954.07778458761
 31
0.0
  0
MTEXT
  5
A5C
330
8FE
100
AcDbEntity
  8
画層3-寸法
  6
Continuous
100
AcDbMText
 10
12027.50760062525
 20
10959.45167781375
 30
0.0
 40
300.0
 41
0.0
 71
     5
 72
     1
  1
\A1;450
  7
1_100
 11
0.0000000000000001
 21
1.0
 31
0.0
 73
     1
 44
1.0
1001
ACAD
1000
MTEXTBEGIN
1070
    73
1070
     1
1070
    44
1040
1.0
1070
    74
1070
     0
1000
MTEXTEND
  0
INSERT
  5
A5D
330
8FE
100
AcDbEntity
  8
画層3-寸法
  6
Continuous
370
    -2
100
AcDbBlockReference
  2
_ORIGIN
 10
12293.78777682848
 20
11324.07778458761
 30
0.0
 41
80.0
 42
80.0
 43
80.0
 50
90.0
  0
INSERT
  5
A5E
330
8FE
100
AcDbEntity
  8
画層3-寸法
  6
Continuous
370
    -2
100
AcDbBlockReference
  2
_ORIGIN
 10
12293.78777682848
 20
10874.07778458761
 30
0.0
 41
80.0
 42
80.0
 43
80.0
 50
270.0
  0
POINT
  5
A5F
330
8FE
100
AcDbEntity
  8
DEFPOINTS
  6
Continuous
 62
     0
100
AcDbPoint
 10
12713.78777682848
 20
11324.07778458761
 30
0.0
  0
POINT
  5
A60
330
8FE
100
AcDbEntity
  8
DEFPOINTS
  6
Continuous
 62
     0
100
AcDbPoint
 10
12713.78777682848
 20
10874.07778458761
 30
0.0
  0
POINT
  5
A61
330
8FE
100
AcDbEntity
  8
DEFPOINTS
  6
Continuous
 62
     0
100
AcDbPoint
 10
12293.78777682848
 20
10874.07778458761
 30
0.0
  0
ENDBLK
  5
909
330
8FE
100
AcDbEntity
  8
0
100
AcDbBlockEnd
  0
BLOCK
  5
914
330
90A
100
AcDbEntity
  8
0
100
AcDbBlockBegin
  2
*D16
 70
     1
 10
0.0
 20
0.0
 30
0.0
  3
*D16
  1

  0
LINE
  5
A62
330
90A
100
AcDbEntity
  8
画層3-寸法
  6
Continuous
370
    -2
100
AcDbLine
 10
12838.78777682848
 20
8424.077784587259
 30
0.0
 11
12838.78777682848
 21
7524.077784587261
 31
0.0
  0
LINE
  5
A63
330
90A
100
AcDbEntity
  8
画層3-寸法
  6
Continuous
370
    -2
100
AcDbLine
 10
14838.78777682848
 20
8424.077784587259
 30
0.0
 11
14838.78777682848
 21
7524.077784587261
 31
0.0
  0
LINE
  5
A64
330
90A
100
AcDbEntity
  8
画層3-寸法
  6
Continuous
370
    -2
100
AcDbLine
 10
12898.78777682848
 20
7524.077784587261
 30
0.0
 11
14778.78777682848
 21
7524.077784587261
 31
0.0
  0
INSERT
  5
A65
330
90A
100
AcDbEntity
  8
画層3-寸法
  6
Continuous
370
    -2
100
AcDbBlockReference
  2
_ORIGIN
 10
12838.78777682848
 20
7524.077784587261
 30
0.0
 41
60.0
 42
60.0
 43
60.0
 50
180.0
  0
INSERT
  5
A66
330
90A
100
AcDbEntity
  8
画層3-寸法
  6
Continuous
370
    -2
100
AcDbBlockReference
  2
_ORIGIN
 10
14838.78777682848
 20
7524.077784587261
 30
0.0
 41
60.0
 42
60.0
 43
60.0
  0
MTEXT
  5
A67
330
90A
100
AcDbEntity
  8
画層3-寸法
  6
Continuous
100
AcDbMText
 10
13838.78777682848
 20
7802.649213158689
 30
0.0
 40
300.0
 41
0.0
 71
     5
 72
     1
  1
\A1;2,000
  7
1_100
 73
     1
 44
1.0
1001
ACAD
1000
MTEXTBEGIN
1070
    73
1070
     1
1070
    44
1040
1.0
1070
    74
1070
     0
1000
MTEXTEND
  0
POINT
  5
A68
330
90A
100
AcDbEntity
  8
DEFPOINTS
  6
Continuous
 62
     0
100
AcDbPoint
 10
12838.78777682848
 20
8724.07778458726
 30
0.0
  0
POINT
  5
A69
330
90A
100
AcDbEntity
  8
DEFPOINTS
  6
Continuous
 62
     0
100
AcDbPoint
 10
14838.78777682848
 20
8724.07778458726
 30
0.0
  0
POINT
  5
A6A
330
90A
100
AcDbEntity
  8
DEFPOINTS
  6
Continuous
 62
     0
100
AcDbPoint
 10
14838.78777682848
 20
7524.077784587261
 30
0.0
  0
ENDBLK
  5
915
330
90A
100
AcDbEntity
  8
0
100
AcDbBlockEnd
  0
BLOCK
  5
922
330
916
100
AcDbEntity
  8
0
100
AcDbBlockBegin
  2
*D17
 70
     1
 10
0.0
 20
0.0
 30
0.0
  3
*D17
  1

  0
LINE
  5
A6B
330
916
100
AcDbEntity
  8
画層3-寸法
  6
Continuous
370
    -2
100
AcDbLine
 10
12713.78777682848
 20
10674.07778458761
 30
0.0
 11
12713.78777682848
 21
10494.07778458761
 31
0.0
  0
LINE
  5
A6C
330
916
100
AcDbEntity
  8
画層3-寸法
  6
Continuous
370
    -2
100
AcDbLine
 10
12963.78777682848
 20
10674.07778458761
 30
0.0
 11
12963.78777682848
 21
10494.07778458761
 31
0.0
  0
LINE
  5
A6D
330
916
100
AcDbEntity
  8
画層3-寸法
  6
Continuous
370
    -2
100
AcDbLine
 10
12633.78777682848
 20
10494.07778458761
 30
0.0
 11
12553.78777682848
 21
10494.07778458761
 31
0.0
  0
LINE
  5
A6E
330
916
100
AcDbEntity
  8
画層3-寸法
  6
Continuous
370
    -2
100
AcDbLine
 10
13043.78777682848
 20
10494.07778458761
 30
0.0
 11
13123.78777682848
 21
10494.07778458761
 31
0.0
  0
LINE
  5
A6F
330
916
100
AcDbEntity
  8
画層3-寸法
  6
Continuous
370
    -2
100
AcDbLine
 10
12713.78777682848
 20
10494.07778458761
 30
0.0
 11
12963.78777682848
 21
10494.07778458761
 31
0.0
  0
INSERT
  5
A70
330
916
100
AcDbEntity
  8
画層3-寸法
  6
Continuous
370
    -2
100
AcDbBlockReference
  2
_ORIGIN
 10
12713.78777682848
 20
10494.07778458761
 30
0.0
 41
80.0
 42
80.0
 43
80.0
  0
INSERT
  5
A71
330
916
100
AcDbEntity
  8
画層3-寸法
  6
Continuous
370
    -2
100
AcDbBlockReference
  2
_ORIGIN
 10
12963.78777682848
 20
10494.07778458761
 30
0.0
 41
80.0
 42
80.0
 43
80.0
 50
180.0
  0
MTEXT
  5
A72
330
916
100
AcDbEntity
  8
画層3-寸法
  6
Continuous
100
AcDbMText
 10
12838.78777682848
 20
10294.07778458761
 30
0.0
 40
300.0
 41
0.0
 71
     5
 72
     1
  1
\A1;□250
  7
1_100
 73
     1
 44
1.0
1001
ACAD
1000
MTEXTBEGIN
1070
    73
1070
     1
1070
    44
1040
1.0
1070
    74
1070
     0
1000
MTEXTEND
  0
POINT
  5
A73
330
916
100
AcDbEntity
  8
DEFPOINTS
  6
Continuous
 62
     0
100
AcDbPoint
 10
12713.78777682848
 20
10874.07778458761
 30
0.0
  0
POINT
  5
A74
330
916
100
AcDbEntity
  8
DEFPOINTS
  6
Continuous
 62
     0
100
AcDbPoint
 10
12963.78777682848
 20
10874.07778458761
 30
0.0
  0
POINT
  5
A75
330
916
100
AcDbEntity
  8
DEFPOINTS
  6
Continuous
 62
     0
100
AcDbPoint
 10
12963.78777682848
 20
10494.07778458761
 30
0.0
  0
ENDBLK
  5
923
330
916
100
AcDbEntity
  8
0
100
AcDbBlockEnd
  0
BLOCK
  5
92E
330
924
100
AcDbEntity
  8
0
100
AcDbBlockBegin
  2
*D18
 70
     1
 10
0.0
 20
0.0
 30
0.0
  3
*D18
  1

  0
LINE
  5
A76
330
924
100
AcDbEntity
  8
画層3-寸法
  6
Continuous
370
    -2
100
AcDbLine
 10
14838.78777682848
 20
8424.077784587259
 30
0.0
 11
14838.78777682848
 21
7524.077784587261
 31
0.0
  0
LINE
  5
A77
330
924
100
AcDbEntity
  8
画層3-寸法
  6
Continuous
370
    -2
100
AcDbLine
 10
16838.78777682848
 20
8424.077784587259
 30
0.0
 11
16838.78777682848
 21
7524.077784587261
 31
0.0
  0
LINE
  5
A78
330
924
100
AcDbEntity
  8
画層3-寸法
  6
Continuous
370
    -2
100
AcDbLine
 10
14898.78777682848
 20
7524.077784587261
 30
0.0
 11
16778.78777682848
 21
7524.077784587261
 31
0.0
  0
INSERT
  5
A79
330
924
100
AcDbEntity
  8
画層3-寸法
  6
Continuous
370
    -2
100
AcDbBlockReference
  2
_ORIGIN
 10
14838.78777682848
 20
7524.077784587261
 30
0.0
 41
60.0
 42
60.0
 43
60.0
 50
180.0
  0
INSERT
  5
A7A
330
924
100
AcDbEntity
  8
画層3-寸法
  6
Continuous
370
    -2
100
AcDbBlockReference
  2
_ORIGIN
 10
16838.78777682848
 20
7524.077784587261
 30
0.0
 41
60.0
 42
60.0
 43
60.0
  0
MTEXT
  5
A7B
330
924
100
AcDbEntity
  8
画層3-寸法
  6
Continuous
100
AcDbMText
 10
15838.78777682848
 20
7802.649213158689
 30
0.0
 40
300.0
 41
0.0
 71
     5
 72
     1
  1
\A1;2,000
  7
1_100
 73
     1
 44
1.0
1001
ACAD
1000
MTEXTBEGIN
1070
    73
1070
     1
1070
    44
1040
1.0
1070
    74
1070
     0
1000
MTEXTEND
  0
POINT
  5
A7C
330
924
100
AcDbEntity
  8
DEFPOINTS
  6
Continuous
 62
     0
100
AcDbPoint
 10
14838.78777682848
 20
8724.07778458726
 30
0.0
  0
POINT
  5
A7D
330
924
100
AcDbEntity
  8
DEFPOINTS
  6
Continuous
 62
     0
100
AcDbPoint
 10
16838.78777682848
 20
8724.07778458726
 30
0.0
  0
POINT
  5
A7E
330
924
100
AcDbEntity
  8
DEFPOINTS
  6
Continuous
 62
     0
100
AcDbPoint
 10
16838.78777682848
 20
7524.077784587261
 30
0.0
  0
ENDBLK
  5
92F
330
924
100
AcDbEntity
  8
0
100
AcDbBlockEnd
  0
BLOCK
  5
93A
330
930
100
AcDbEntity
  8
0
100
AcDbBlockBegin
  2
*D19
 70
     1
 10
0.0
 20
0.0
 30
0.0
  3
*D19
  1

  0
LINE
  5
A7F
330
930
100
AcDbEntity
  8
寸法
  6
Continuous
370
    -2
100
AcDbLine
 10
33138.78777682848
 20
8824.077784587377
 30
0.0
 11
33838.78777682848
 21
8824.077784587377
 31
0.0
  0
LINE
  5
A80
330
930
100
AcDbEntity
  8
寸法
  6
Continuous
370
    -2
100
AcDbLine
 10
33138.78777682848
 20
11324.07778458737
 30
0.0
 11
33838.78777682848
 21
11324.07778458737
 31
0.0
  0
LINE
  5
A81
330
930
100
AcDbEntity
  8
寸法
  6
Continuous
370
    -2
100
AcDbLine
 10
33838.78777682848
 20
8884.077784587375
 30
0.0
 11
33838.78777682848
 21
11264.07778458737
 31
0.0
  0
INSERT
  5
A82
330
930
100
AcDbEntity
  8
寸法
  6
Continuous
370
    -2
100
AcDbBlockReference
  2
_ORIGIN
 10
33838.78777682848
 20
8824.077784587377
 30
0.0
 41
60.0
 42
60.0
 43
60.0
 50
270.0
  0
INSERT
  5
A83
330
930
100
AcDbEntity
  8
寸法
  6
Continuous
370
    -2
100
AcDbBlockReference
  2
_ORIGIN
 10
33838.78777682848
 20
11324.07778458737
 30
0.0
 41
60.0
 42
60.0
 43
60.0
 50
90.0
  0
MTEXT
  5
A84
330
930
100
AcDbEntity
  8
寸法
  6
Continuous
100
AcDbMText
 10
33560.21634825705
 20
10074.07778458738
 30
0.0
 40
300.0
 41
0.0
 71
     5
 72
     1
  1
\A1;2,500
  7
1_100
 11
0.0000000000000001
 21
1.0
 31
0.0
 73
     1
 44
1.0
1001
ACAD
1000
MTEXTBEGIN
1070
    73
1070
     1
1070
    44
1040
1.0
1070
    74
1070
     0
1000
MTEXTEND
  0
POINT
  5
A85
330
930
100
AcDbEntity
  8
DEFPOINTS
  6
Continuous
 62
     0
100
AcDbPoint
 10
32838.78777682848
 20
8824.077784587377
 30
0.0
  0
POINT
  5
A86
330
930
100
AcDbEntity
  8
DEFPOINTS
  6
Continuous
 62
     0
100
AcDbPoint
 10
32838.78777682848
 20
11324.07778458737
 30
0.0
  0
POINT
  5
A87
330
930
100
AcDbEntity
  8
DEFPOINTS
  6
Continuous
 62
     0
100
AcDbPoint
 10
33838.78777682848
 20
11324.07778458737
 30
0.0
  0
ENDBLK
  5
93B
330
930
100
AcDbEntity
  8
0
100
AcDbBlockEnd
  0
BLOCK
  5
948
330
93C
100
AcDbEntity
  8
0
100
AcDbBlockBegin
  2
*D20
 70
     1
 10
0.0
 20
0.0
 30
0.0
  3
*D20
  1

  0
LINE
  5
A88
330
93C
100
AcDbEntity
  8
寸法
  6
Continuous
370
    -2
100
AcDbLine
 10
27138.78777682849
 20
11324.07778458737
 30
0.0
 11
28157.76096313188
 21
11324.07778458737
 31
0.0
  0
LINE
  5
A89
330
93C
100
AcDbEntity
  8
寸法
  6
Continuous
370
    -2
100
AcDbLine
 10
27138.78777682849
 20
11024.07778458726
 30
0.0
 11
28157.76096313188
 21
11024.07778458726
 31
0.0
  0
LINE
  5
A8A
330
93C
100
AcDbEntity
  8
寸法
  6
Continuous
370
    -2
100
AcDbLine
 10
28157.76096313188
 20
11384.07778458737
 30
0.0
 11
28157.76096313188
 21
11444.07778458737
 31
0.0
  0
LINE
  5
A8B
330
93C
100
AcDbEntity
  8
寸法
  6
Continuous
370
    -2
100
AcDbLine
 10
28157.76096313188
 20
10964.07778458726
 30
0.0
 11
28157.76096313188
 21
10904.07778458726
 31
0.0
  0
MTEXT
  5
A8C
330
93C
100
AcDbEntity
  8
寸法
  6
Continuous
100
AcDbMText
 10
28422.70214563257
 20
10912.26189047922
 30
0.0
 40
300.0
 41
0.0
 71
     5
 72
     1
  1
\A1;300
  7
1_100
 11
0.0000000000000001
 21
1.0
 31
0.0
 73
     1
 44
1.0
1001
ACAD
1000
MTEXTBEGIN
1070
    73
1070
     1
1070
    44
1040
1.0
1070
    74
1070
     0
1000
MTEXTEND
  0
LINE
  5
A8D
330
93C
100
AcDbEntity
  8
寸法
  6
Continuous
370
    -2
100
AcDbLine
 10
28157.76096313188
 20
11324.07778458737
 30
0.0
 11
28157.76096313188
 21
11024.07778458726
 31
0.0
  0
INSERT
  5
A8E
330
93C
100
AcDbEntity
  8
寸法
  6
Continuous
370
    -2
100
AcDbBlockReference
  2
_ORIGIN
 10
28157.76096313188
 20
11324.07778458737
 30
0.0
 41
60.0
 42
60.0
 43
60.0
 50
270.0
  0
INSERT
  5
A8F
330
93C
100
AcDbEntity
  8
寸法
  6
Continuous
370
    -2
100
AcDbBlockReference
  2
_ORIGIN
 10
28157.76096313188
 20
11024.07778458726
 30
0.0
 41
60.0
 42
60.0
 43
60.0
 50
90.0
  0
POINT
  5
A90
330
93C
100
AcDbEntity
  8
DEFPOINTS
  6
Continuous
 62
     0
100
AcDbPoint
 10
26838.78777682849
 20
11324.07778458737
 30
0.0
  0
POINT
  5
A91
330
93C
100
AcDbEntity
  8
DEFPOINTS
  6
Continuous
 62
     0
100
AcDbPoint
 10
26838.78777682849
 20
11024.07778458726
 30
0.0
  0
POINT
  5
A92
330
93C
100
AcDbEntity
  8
DEFPOINTS
  6
Continuous
 62
     0
100
AcDbPoint
 10
28157.76096313188
 20
11024.07778458726
 30
0.0
  0
ENDBLK
  5
949
330
93C
100
AcDbEntity
  8
0
100
AcDbBlockEnd
  0
BLOCK
  5
954
330
94A
100
AcDbEntity
  8
0
100
AcDbBlockBegin
  2
*D21
 70
     1
 10
0.0
 20
0.0
 30
0.0
  3
*D21
  1

  0
LINE
  5
A93
330
94A
100
AcDbEntity
  8
寸法
  6
Continuous
370
    -2
100
AcDbLine
 10
27138.78777682849
 20
13324.07778458726
 30
0.0
 11
28157.76096313188
 21
13324.07778458726
 31
0.0
  0
LINE
  5
A94
330
94A
100
AcDbEntity
  8
寸法
  6
Continuous
370
    -2
100
AcDbLine
 10
27138.78777682849
 20
11324.07778458737
 30
0.0
 11
28157.76096313188
 21
11324.07778458737
 31
0.0
  0
LINE
  5
A95
330
94A
100
AcDbEntity
  8
寸法
  6
Continuous
370
    -2
100
AcDbLine
 10
28157.76096313188
 20
13264.07778458726
 30
0.0
 11
28157.76096313188
 21
11384.07778458737
 31
0.0
  0
INSERT
  5
A96
330
94A
100
AcDbEntity
  8
寸法
  6
Continuous
370
    -2
100
AcDbBlockReference
  2
_ORIGIN
 10
28157.76096313188
 20
13324.07778458726
 30
0.0
 41
60.0
 42
60.0
 43
60.0
 50
90.0
  0
INSERT
  5
A97
330
94A
100
AcDbEntity
  8
寸法
  6
Continuous
370
    -2
100
AcDbBlockReference
  2
_ORIGIN
 10
28157.76096313188
 20
11324.07778458737
 30
0.0
 41
60.0
 42
60.0
 43
60.0
 50
270.0
  0
MTEXT
  5
A98
330
94A
100
AcDbEntity
  8
寸法
  6
Continuous
100
AcDbMText
 10
27879.18953456045
 20
12324.07778458732
 30
0.0
 40
300.0
 41
0.0
 71
     5
 72
     1
  1
\A1;2,000
  7
1_100
 11
0.0000000000000001
 21
1.0
 31
0.0
 73
     1
 44
1.0
1001
ACAD
1000
MTEXTBEGIN
1070
    73
1070
     1
1070
    44
1040
1.0
1070
    74
1070
     0
1000
MTEXTEND
  0
POINT
  5
A99
330
94A
100
AcDbEntity
  8
DEFPOINTS
  6
Continuous
 62
     0
100
AcDbPoint
 10
26838.78777682849
 20
13324.07778458726
 30
0.0
  0
POINT
  5
A9A
330
94A
100
AcDbEntity
  8
DEFPOINTS
  6
Continuous
 62
     0
100
AcDbPoint
 10
26838.78777682849
 20
11324.07778458737
 30
0.0
  0
POINT
  5
A9B
330
94A
100
AcDbEntity
  8
DEFPOINTS
  6
Continuous
 62
     0
100
AcDbPoint
 10
28157.76096313188
 20
11324.07778458737
 30
0.0
  0
ENDBLK
  5
955
330
94A
100
AcDbEntity
  8
0
100
AcDbBlockEnd
  0
BLOCK
  5
962
330
956
100
AcDbEntity
  8
0
100
AcDbBlockBegin
  2
*D22
 70
     1
 10
0.0
 20
0.0
 30
0.0
  3
*D22
  1

  0
LINE
  5
A9C
330
956
100
AcDbEntity
  8
寸法
  6
Continuous
370
    -2
100
AcDbLine
 10
27138.78777682849
 20
8824.077784587377
 30
0.0
 11
28157.76096313188
 21
8824.077784587377
 31
0.0
  0
LINE
  5
A9D
330
956
100
AcDbEntity
  8
寸法
  6
Continuous
370
    -2
100
AcDbLine
 10
27138.78777682849
 20
8724.077784587493
 30
0.0
 11
28157.76096313188
 21
8724.077784587493
 31
0.0
  0
LINE
  5
A9E
330
956
100
AcDbEntity
  8
寸法
  6
Continuous
370
    -2
100
AcDbLine
 10
28157.76096313188
 20
8884.077784587375
 30
0.0
 11
28157.76096313188
 21
8944.077784587376
 31
0.0
  0
LINE
  5
A9F
330
956
100
AcDbEntity
  8
寸法
  6
Continuous
370
    -2
100
AcDbLine
 10
28157.76096313188
 20
8664.07778458749
 30
0.0
 11
28157.76096313188
 21
8604.077784587493
 31
0.0
  0
MTEXT
  5
AA0
330
956
100
AcDbEntity
  8
寸法
  6
Continuous
100
AcDbMText
 10
27883.08821169635
 20
8298.718223764192
 30
0.0
 40
300.0
 41
0.0
 71
     5
 72
     1
  1
\A1;100
  7
1_100
 11
0.0000000000000001
 21
1.0
 31
0.0
 73
     1
 44
1.0
1001
ACAD
1000
MTEXTBEGIN
1070
    73
1070
     1
1070
    44
1040
1.0
1070
    74
1070
     0
1000
MTEXTEND
  0
LINE
  5
AA1
330
956
100
AcDbEntity
  8
寸法
  6
Continuous
370
    -2
100
AcDbLine
 10
28157.76096313188
 20
8824.077784587377
 30
0.0
 11
28157.76096313188
 21
8724.077784587493
 31
0.0
  0
INSERT
  5
AA2
330
956
100
AcDbEntity
  8
寸法
  6
Continuous
370
    -2
100
AcDbBlockReference
  2
_ORIGIN
 10
28157.76096313188
 20
8824.077784587377
 30
0.0
 41
60.0
 42
60.0
 43
60.0
 50
270.0
  0
INSERT
  5
AA3
330
956
100
AcDbEntity
  8
寸法
  6
Continuous
370
    -2
100
AcDbBlockReference
  2
_ORIGIN
 10
28157.76096313188
 20
8724.077784587493
 30
0.0
 41
60.0
 42
60.0
 43
60.0
 50
90.0
  0
POINT
  5
AA4
330
956
100
AcDbEntity
  8
DEFPOINTS
  6
Continuous
 62
     0
100
AcDbPoint
 10
26838.78777682849
 20
8824.077784587377
 30
0.0
  0
POINT
  5
AA5
330
956
100
AcDbEntity
  8
DEFPOINTS
  6
Continuous
 62
     0
100
AcDbPoint
 10
26838.78777682849
 20
8724.077784587493
 30
0.0
  0
POINT
  5
AA6
330
956
100
AcDbEntity
  8
DEFPOINTS
  6
Continuous
 62
     0
100
AcDbPoint
 10
28157.76096313188
 20
8724.077784587493
 30
0.0
  0
ENDBLK
  5
963
330
956
100
AcDbEntity
  8
0
100
AcDbBlockEnd
  0
BLOCK
  5
96E
330
964
100
AcDbEntity
  8
0
100
AcDbBlockBegin
  2
*D23
 70
     1
 10
0.0
 20
0.0
 30
0.0
  3
*D23
  1

  0
LINE
  5
AA7
330
964
100
AcDbEntity
  8
寸法
  6
Continuous
370
    -2
100
AcDbLine
 10
27138.78777682849
 20
11324.07778458737
 30
0.0
 11
29157.76096313188
 21
11324.07778458737
 31
0.0
  0
LINE
  5
AA8
330
964
100
AcDbEntity
  8
寸法
  6
Continuous
370
    -2
100
AcDbLine
 10
27138.78777682849
 20
8824.077784587377
 30
0.0
 11
29157.76096313188
 21
8824.077784587377
 31
0.0
  0
LINE
  5
AA9
330
964
100
AcDbEntity
  8
寸法
  6
Continuous
370
    -2
100
AcDbLine
 10
29157.76096313188
 20
11264.07778458737
 30
0.0
 11
29157.76096313188
 21
8884.077784587374
 31
0.0
  0
INSERT
  5
AAA
330
964
100
AcDbEntity
  8
寸法
  6
Continuous
370
    -2
100
AcDbBlockReference
  2
_ORIGIN
 10
29157.76096313188
 20
11324.07778458737
 30
0.0
 41
60.0
 42
60.0
 43
60.0
 50
90.0
  0
INSERT
  5
AAB
330
964
100
AcDbEntity
  8
寸法
  6
Continuous
370
    -2
100
AcDbBlockReference
  2
_ORIGIN
 10
29157.76096313188
 20
8824.077784587377
 30
0.0
 41
60.0
 42
60.0
 43
60.0
 50
270.0
  0
MTEXT
  5
AAC
330
964
100
AcDbEntity
  8
寸法
  6
Continuous
100
AcDbMText
 10
28879.18953456045
 20
10074.07778458738
 30
0.0
 40
300.0
 41
0.0
 71
     5
 72
     1
  1
\A1;2,500
  7
1_100
 11
0.0000000000000001
 21
1.0
 31
0.0
 73
     1
 44
1.0
1001
ACAD
1000
MTEXTBEGIN
1070
    73
1070
     1
1070
    44
1040
1.0
1070
    74
1070
     0
1000
MTEXTEND
  0
POINT
  5
AAD
330
964
100
AcDbEntity
  8
DEFPOINTS
  6
Continuous
 62
     0
100
AcDbPoint
 10
26838.78777682849
 20
11324.07778458737
 30
0.0
  0
POINT
  5
AAE
330
964
100
AcDbEntity
  8
DEFPOINTS
  6
Continuous
 62
     0
100
AcDbPoint
 10
26838.78777682849
 20
8824.077784587377
 30
0.0
  0
POINT
  5
AAF
330
964
100
AcDbEntity
  8
DEFPOINTS
  6
Continuous
 62
     0
100
AcDbPoint
 10
29157.76096313188
 20
8824.077784587377
 30
0.0
  0
ENDBLK
  5
96F
330
964
100
AcDbEntity
  8
0
100
AcDbBlockEnd
  0
BLOCK
  5
97A
330
970
100
AcDbEntity
  8
0
100
AcDbBlockBegin
  2
*D24
 70
     1
 10
0.0
 20
0.0
 30
0.0
  3
*D24
  1

  0
LINE
  5
AB0
330
970
100
AcDbEntity
  8
寸法
  6
Continuous
370
    -2
100
AcDbLine
 10
27138.78777682849
 20
11024.07778458726
 30
0.0
 11
28157.76096313188
 21
11024.07778458726
 31
0.0
  0
LINE
  5
AB1
330
970
100
AcDbEntity
  8
寸法
  6
Continuous
370
    -2
100
AcDbLine
 10
27138.78777682849
 20
8824.077784587377
 30
0.0
 11
28157.76096313188
 21
8824.077784587377
 31
0.0
  0
LINE
  5
AB2
330
970
100
AcDbEntity
  8
寸法
  6
Continuous
370
    -2
100
AcDbLine
 10
28157.76096313188
 20
10964.07778458726
 30
0.0
 11
28157.76096313188
 21
8884.077784587375
 31
0.0
  0
INSERT
  5
AB3
330
970
100
AcDbEntity
  8
寸法
  6
Continuous
370
    -2
100
AcDbBlockReference
  2
_ORIGIN
 10
28157.76096313188
 20
11024.07778458726
 30
0.0
 41
60.0
 42
60.0
 43
60.0
 50
90.0
  0
INSERT
  5
AB4
330
970
100
AcDbEntity
  8
寸法
  6
Continuous
370
    -2
100
AcDbBlockReference
  2
_ORIGIN
 10
28157.76096313188
 20
8824.077784587377
 30
0.0
 41
60.0
 42
60.0
 43
60.0
 50
270.0
  0
MTEXT
  5
AB5
330
970
100
AcDbEntity
  8
寸法
  6
Continuous
100
AcDbMText
 10
27879.18953456045
 20
9924.077784587325
 30
0.0
 40
300.0
 41
0.0
 71
     5
 72
     1
  1
\A1;2,200
  7
1_100
 11
0.0000000000000001
 21
1.0
 31
0.0
 73
     1
 44
1.0
1001
ACAD
1000
MTEXTBEGIN
1070
    73
1070
     1
1070
    44
1040
1.0
1070
    74
1070
     0
1000
MTEXTEND
  0
POINT
  5
AB6
330
970
100
AcDbEntity
  8
DEFPOINTS
  6
Continuous
 62
     0
100
AcDbPoint
 10
26838.78777682849
 20
11024.07778458726
 30
0.0
  0
POINT
  5
AB7
330
970
100
AcDbEntity
  8
DEFPOINTS
  6
Continuous
 62
     0
100
AcDbPoint
 10
26838.78777682849
 20
8824.077784587377
 30
0.0
  0
POINT
  5
AB8
330
970
100
AcDbEntity
  8
DEFPOINTS
  6
Continuous
 62
     0
100
AcDbPoint
 10
28157.76096313188
 20
8824.077784587377
 30
0.0
  0
ENDBLK
  5
97B
330
970
100
AcDbEntity
  8
0
100
AcDbBlockEnd
  0
BLOCK
  5
986
330
97C
100
AcDbEntity
  8
0
100
AcDbBlockBegin
  2
*D25
 70
     1
 10
0.0
 20
0.0
 30
0.0
  3
*D25
  1

  0
LINE
  5
AB9
330
97C
100
AcDbEntity
  8
寸法
  6
Continuous
370
    -2
100
AcDbLine
 10
31113.78777682848
 20
8424.077784587494
 30
0.0
 11
31113.78777682848
 21
8224.077784587493
 31
0.0
  0
LINE
  5
ABA
330
97C
100
AcDbEntity
  8
寸法
  6
Continuous
370
    -2
100
AcDbLine
 10
31563.78777682848
 20
8424.077784587494
 30
0.0
 11
31563.78777682848
 21
8224.077784587493
 31
0.0
  0
LINE
  5
ABB
330
97C
100
AcDbEntity
  8
寸法
  6
Continuous
370
    -2
100
AcDbLine
 10
31173.78777682849
 20
8224.077784587493
 30
0.0
 11
31503.78777682849
 21
8224.077784587493
 31
0.0
  0
MTEXT
  5
ABC
330
97C
100
AcDbEntity
  8
寸法
  6
Continuous
100
AcDbMText
 10
30384.01012983194
 20
8424.865496749271
 30
0.0
 40
300.0
 41
0.0
 71
     5
 72
     1
  1
\A1;φ450
  7
1_100
 73
     1
 44
1.0
1001
ACAD
1000
MTEXTBEGIN
1070
    73
1070
     1
1070
    44
1040
1.0
1070
    74
1070
     0
1000
MTEXTEND
  0
INSERT
  5
ABD
330
97C
100
AcDbEntity
  8
寸法
  6
Continuous
370
    -2
100
AcDbBlockReference
  2
_ORIGIN
 10
31113.78777682848
 20
8224.077784587493
 30
0.0
 41
60.0
 42
60.0
 43
60.0
 50
180.0
  0
INSERT
  5
ABE
330
97C
100
AcDbEntity
  8
寸法
  6
Continuous
370
    -2
100
AcDbBlockReference
  2
_ORIGIN
 10
31563.78777682848
 20
8224.077784587493
 30
0.0
 41
60.0
 42
60.0
 43
60.0
  0
POINT
  5
ABF
330
97C
100
AcDbEntity
  8
DEFPOINTS
  6
Continuous
 62
     0
100
AcDbPoint
 10
31113.78777682848
 20
8724.077784587493
 30
0.0
  0
POINT
  5
AC0
330
97C
100
AcDbEntity
  8
DEFPOINTS
  6
Continuous
 62
     0
100
AcDbPoint
 10
31563.78777682848
 20
8724.077784587493
 30
0.0
  0
POINT
  5
AC1
330
97C
100
AcDbEntity
  8
DEFPOINTS
  6
Continuous
 62
     0
100
AcDbPoint
 10
31563.78777682848
 20
8224.077784587493
 30
0.0
  0
ENDBLK
  5
987
330
97C
100
AcDbEntity
  8
0
100
AcDbBlockEnd
  0
BLOCK
  5
994
330
988
100
AcDbEntity
  8
0
100
AcDbBlockBegin
  2
*D26
 70
     1
 10
0.0
 20
0.0
 30
0.0
  3
*D26
  1

  0
LINE
  5
AC2
330
988
100
AcDbEntity
  8
寸法
  6
Continuous
370
    -2
100
AcDbLine
 10
30988.78777682849
 20
8424.077784587259
 30
0.0
 11
30988.78777682849
 21
7924.077784587261
 31
0.0
  0
LINE
  5
AC3
330
988
100
AcDbEntity
  8
寸法
  6
Continuous
370
    -2
100
AcDbLine
 10
31688.78777682849
 20
8424.077784587259
 30
0.0
 11
31688.78777682849
 21
7924.077784587261
 31
0.0
  0
LINE
  5
AC4
330
988
100
AcDbEntity
  8
寸法
  6
Continuous
370
    -2
100
AcDbLine
 10
30928.78777682849
 20
7924.077784587261
 30
0.0
 11
30868.78777682849
 21
7924.077784587261
 31
0.0
  0
LINE
  5
AC5
330
988
100
AcDbEntity
  8
寸法
  6
Continuous
370
    -2
100
AcDbLine
 10
31748.78777682849
 20
7924.077784587261
 30
0.0
 11
31808.78777682849
 21
7924.077784587261
 31
0.0
  0
LINE
  5
AC6
330
988
100
AcDbEntity
  8
寸法
  6
Continuous
370
    -2
100
AcDbLine
 10
30988.78777682849
 20
7924.077784587261
 30
0.0
 11
31688.78777682849
 21
7924.077784587261
 31
0.0
  0
INSERT
  5
AC7
330
988
100
AcDbEntity
  8
寸法
  6
Continuous
370
    -2
100
AcDbBlockReference
  2
_ORIGIN
 10
30988.78777682849
 20
7924.077784587261
 30
0.0
 41
60.0
 42
60.0
 43
60.0
  0
INSERT
  5
AC8
330
988
100
AcDbEntity
  8
寸法
  6
Continuous
370
    -2
100
AcDbBlockReference
  2
_ORIGIN
 10
31688.78777682849
 20
7924.077784587261
 30
0.0
 41
60.0
 42
60.0
 43
60.0
 50
180.0
  0
MTEXT
  5
AC9
330
988
100
AcDbEntity
  8
寸法
  6
Continuous
100
AcDbMText
 10
31338.78777682848
 20
7674.077784587261
 30
0.0
 40
300.0
 41
0.0
 71
     5
 72
     1
  1
\A1;□700
  7
1_100
 73
     1
 44
1.0
1001
ACAD
1000
MTEXTBEGIN
1070
    73
1070
     1
1070
    44
1040
1.0
1070
    74
1070
     0
1000
MTEXTEND
  0
POINT
  5
ACA
330
988
100
AcDbEntity
  8
DEFPOINTS
  6
Continuous
 62
     0
100
AcDbPoint
 10
30988.78777682849
 20
8724.07778458726
 30
0.0
  0
POINT
  5
ACB
330
988
100
AcDbEntity
  8
DEFPOINTS
  6
Continuous
 62
     0
100
AcDbPoint
 10
31688.78777682849
 20
8724.07778458726
 30
0.0
  0
POINT
  5
ACC
330
988
100
AcDbEntity
  8
DEFPOINTS
  6
Continuous
 62
     0
100
AcDbPoint
 10
31688.78777682849
 20
7924.077784587261
 30
0.0
  0
ENDBLK
  5
995
330
988
100
AcDbEntity
  8
0
100
AcDbBlockEnd
  0
BLOCK
  5
9A2
330
996
100
AcDbEntity
  8
0
100
AcDbBlockBegin
  2
*D27
 70
     1
 10
0.0
 20
0.0
 30
0.0
  3
*D27
  1

  0
LINE
  5
ACD
330
996
100
AcDbEntity
  8
寸法
  6
Continuous
370
    -2
100
AcDbLine
 10
8730.637776828578
 20
23624.07778458738
 30
0.0
 11
8730.637776828578
 21
23924.07778458738
 31
0.0
  0
LINE
  5
ACE
330
996
100
AcDbEntity
  8
寸法
  6
Continuous
370
    -2
100
AcDbLine
 10
8946.93777682839
 20
23624.07778458738
 30
0.0
 11
8946.93777682839
 21
23924.07778458738
 31
0.0
  0
LINE
  5
ACF
330
996
100
AcDbEntity
  8
寸法
  6
Continuous
370
    -2
100
AcDbLine
 10
8670.637776828575
 20
23924.07778458738
 30
0.0
 11
8610.637776828577
 21
23924.07778458738
 31
0.0
  0
LINE
  5
AD0
330
996
100
AcDbEntity
  8
寸法
  6
Continuous
370
    -2
100
AcDbLine
 10
9006.93777682839
 20
23924.07778458738
 30
0.0
 11
9066.937776828392
 21
23924.07778458738
 31
0.0
  0
MTEXT
  5
AD1
330
996
100
AcDbEntity
  8
寸法
  6
Continuous
100
AcDbMText
 10
8838.787776828484
 20
24224.07778458738
 30
0.0
 40
300.0
 41
0.0
 71
     5
 72
     1
  1
\A1;φ216.3
  7
1_100
 73
     1
 44
1.0
1001
ACAD
1000
MTEXTBEGIN
1070
    73
1070
     1
1070
    44
1040
1.0
1070
    74
1070
     0
1000
MTEXTEND
  0
LINE
  5
AD2
330
996
100
AcDbEntity
  8
寸法
  6
Continuous
370
    -2
100
AcDbLine
 10
8730.637776828578
 20
23924.07778458738
 30
0.0
 11
8946.93777682839
 21
23924.07778458738
 31
0.0
  0
INSERT
  5
AD3
330
996
100
AcDbEntity
  8
寸法
  6
Continuous
370
    -2
100
AcDbBlockReference
  2
_ORIGIN
 10
8730.637776828578
 20
23924.07778458738
 30
0.0
 41
60.0
 42
60.0
 43
60.0
  0
INSERT
  5
AD4
330
996
100
AcDbEntity
  8
寸法
  6
Continuous
370
    -2
100
AcDbBlockReference
  2
_ORIGIN
 10
8946.93777682839
 20
23924.07778458738
 30
0.0
 41
60.0
 42
60.0
 43
60.0
 50
180.0
  0
POINT
  5
AD5
330
996
100
AcDbEntity
  8
DEFPOINTS
  6
Continuous
 62
     0
100
AcDbPoint
 10
8730.637776828578
 20
23324.07778458738
 30
0.0
  0
POINT
  5
AD6
330
996
100
AcDbEntity
  8
DEFPOINTS
  6
Continuous
 62
     0
100
AcDbPoint
 10
8946.93777682839
 20
23324.07778458738
 30
0.0
  0
POINT
  5
AD7
330
996
100
AcDbEntity
  8
DEFPOINTS
  6
Continuous
 62
     0
100
AcDbPoint
 10
8946.93777682839
 20
23924.07778458738
 30
0.0
  0
ENDBLK
  5
9A3
330
996
100
AcDbEntity
  8
0
100
AcDbBlockEnd
  0
BLOCK
  5
9B0
330
9A4
100
AcDbEntity
  8
0
100
AcDbBlockBegin
  2
*D28
 70
     1
 10
0.0
 20
0.0
 30
0.0
  3
*D28
  1

  0
LINE
  5
AD8
330
9A4
100
AcDbEntity
  8
寸法
  6
Continuous
370
    -2
100
AcDbLine
 10
27138.78777682849
 20
23324.07778458738
 30
0.0
 11
28157.76096313188
 21
23324.07778458738
 31
0.0
  0
LINE
  5
AD9
330
9A4
100
AcDbEntity
  8
寸法
  6
Continuous
370
    -2
100
AcDbLine
 10
27138.78777682849
 20
23264.07778458738
 30
0.0
 11
28157.76096313188
 21
23264.07778458738
 31
0.0
  0
LINE
  5
ADA
330
9A4
100
AcDbEntity
  8
寸法
  6
Continuous
370
    -2
100
AcDbLine
 10
28157.76096313188
 20
23384.07778458738
 30
0.0
 11
28157.76096313188
 21
23444.07778458738
 31
0.0
  0
LINE
  5
ADB
330
9A4
100
AcDbEntity
  8
寸法
  6
Continuous
370
    -2
100
AcDbLine
 10
28157.76096313188
 20
23204.07778458738
 30
0.0
 11
28157.76096313188
 21
23144.07778458738
 31
0.0
  0
MTEXT
  5
ADC
330
9A4
100
AcDbEntity
  8
寸法
  6
Continuous
100
AcDbMText
 10
27876.44201945674
 20
23653.44169636057
 30
0.0
 40
300.0
 41
0.0
 71
     5
 72
     1
  1
\A1;60
  7
1_100
 11
0.0000000000000001
 21
1.0
 31
0.0
 73
     1
 44
1.0
1001
ACAD
1000
MTEXTBEGIN
1070
    73
1070
     1
1070
    44
1040
1.0
1070
    74
1070
     0
1000
MTEXTEND
  0
LINE
  5
ADD
330
9A4
100
AcDbEntity
  8
寸法
  6
Continuous
370
    -2
100
AcDbLine
 10
28157.76096313188
 20
23324.07778458738
 30
0.0
 11
28157.76096313188
 21
23264.07778458738
 31
0.0
  0
INSERT
  5
ADE
330
9A4
100
AcDbEntity
  8
寸法
  6
Continuous
370
    -2
100
AcDbBlockReference
  2
_ORIGIN
 10
28157.76096313188
 20
23324.07778458738
 30
0.0
 41
60.0
 42
60.0
 43
60.0
 50
270.0
  0
INSERT
  5
ADF
330
9A4
100
AcDbEntity
  8
寸法
  6
Continuous
370
    -2
100
AcDbBlockReference
  2
_ORIGIN
 10
28157.76096313188
 20
23264.07778458738
 30
0.0
 41
60.0
 42
60.0
 43
60.0
 50
90.0
  0
POINT
  5
AE0
330
9A4
100
AcDbEntity
  8
DEFPOINTS
  6
Continuous
 62
     0
100
AcDbPoint
 10
26838.78777682849
 20
23324.07778458738
 30
0.0
  0
POINT
  5
AE1
330
9A4
100
AcDbEntity
  8
DEFPOINTS
  6
Continuous
 62
     0
100
AcDbPoint
 10
26838.78777682849
 20
23264.07778458738
 30
0.0
  0
POINT
  5
AE2
330
9A4
100
AcDbEntity
  8
DEFPOINTS
  6
Continuous
 62
     0
100
AcDbPoint
 10
28157.76096313188
 20
23264.07778458738
 30
0.0
  0
ENDBLK
  5
9B1
330
9A4
100
AcDbEntity
  8
0
100
AcDbBlockEnd
  0
BLOCK
  5
9BC
330
9B2
100
AcDbEntity
  8
0
100
AcDbBlockBegin
  2
*D29
 70
     1
 10
0.0
 20
0.0
 30
0.0
  3
*D29
  1

  0
LINE
  5
AE3
330
9B2
100
AcDbEntity
  8
寸法
  6
Continuous
370
    -2
100
AcDbLine
 10
27138.78777682849
 20
20774.07778458749
 30
0.0
 11
28157.76096313188
 21
20774.07778458749
 31
0.0
  0
LINE
  5
AE4
330
9B2
100
AcDbEntity
  8
寸法
  6
Continuous
370
    -2
100
AcDbLine
 10
27138.78777682849
 20
18284.07778458749
 30
0.0
 11
28157.76096313188
 21
18284.07778458749
 31
0.0
  0
LINE
  5
AE5
330
9B2
100
AcDbEntity
  8
寸法
  6
Continuous
370
    -2
100
AcDbLine
 10
28157.76096313188
 20
20714.0777845875
 30
0.0
 11
28157.76096313188
 21
18344.07778458749
 31
0.0
  0
INSERT
  5
AE6
330
9B2
100
AcDbEntity
  8
寸法
  6
Continuous
370
    -2
100
AcDbBlockReference
  2
_ORIGIN
 10
28157.76096313188
 20
20774.07778458749
 30
0.0
 41
60.0
 42
60.0
 43
60.0
 50
90.0
  0
INSERT
  5
AE7
330
9B2
100
AcDbEntity
  8
寸法
  6
Continuous
370
    -2
100
AcDbBlockReference
  2
_ORIGIN
 10
28157.76096313188
 20
18284.07778458749
 30
0.0
 41
60.0
 42
60.0
 43
60.0
 50
270.0
  0
MTEXT
  5
AE8
330
9B2
100
AcDbEntity
  8
寸法
  6
Continuous
100
AcDbMText
 10
27879.18953456045
 20
19529.0777845875
 30
0.0
 40
300.0
 41
0.0
 71
     5
 72
     1
  1
\A1;2,490
  7
1_100
 11
0.0000000000000001
 21
1.0
 31
0.0
 73
     1
 44
1.0
1001
ACAD
1000
MTEXTBEGIN
1070
    73
1070
     1
1070
    44
1040
1.0
1070
    74
1070
     0
1000
MTEXTEND
  0
POINT
  5
AE9
330
9B2
100
AcDbEntity
  8
DEFPOINTS
  6
Continuous
 62
     0
100
AcDbPoint
 10
26838.78777682849
 20
20774.07778458749
 30
0.0
  0
POINT
  5
AEA
330
9B2
100
AcDbEntity
  8
DEFPOINTS
  6
Continuous
 62
     0
100
AcDbPoint
 10
26838.78777682849
 20
18284.07778458749
 30
0.0
  0
POINT
  5
AEB
330
9B2
100
AcDbEntity
  8
DEFPOINTS
  6
Continuous
 62
     0
100
AcDbPoint
 10
28157.76096313188
 20
18284.07778458749
 30
0.0
  0
ENDBLK
  5
9BD
330
9B2
100
AcDbEntity
  8
0
100
AcDbBlockEnd
  0
BLOCK
  5
9C8
330
9BE
100
AcDbEntity
  8
0
100
AcDbBlockBegin
  2
*D30
 70
     1
 10
0.0
 20
0.0
 30
0.0
  3
*D30
  1

  0
LINE
  5
AEC
330
9BE
100
AcDbEntity
  8
寸法
  6
Continuous
370
    -2
100
AcDbLine
 10
27138.78777682849
 20
18284.07778458773
 30
0.0
 11
28157.76096313188
 21
18284.07778458773
 31
0.0
  0
LINE
  5
AED
330
9BE
100
AcDbEntity
  8
寸法
  6
Continuous
370
    -2
100
AcDbLine
 10
27138.78777682849
 20
15794.07778458749
 30
0.0
 11
28157.76096313188
 21
15794.07778458749
 31
0.0
  0
LINE
  5
AEE
330
9BE
100
AcDbEntity
  8
寸法
  6
Continuous
370
    -2
100
AcDbLine
 10
28157.76096313188
 20
18224.07778458773
 30
0.0
 11
28157.76096313188
 21
15854.07778458749
 31
0.0
  0
INSERT
  5
AEF
330
9BE
100
AcDbEntity
  8
寸法
  6
Continuous
370
    -2
100
AcDbBlockReference
  2
_ORIGIN
 10
28157.76096313188
 20
18284.07778458773
 30
0.0
 41
60.0
 42
60.0
 43
60.0
 50
90.0
  0
INSERT
  5
AF0
330
9BE
100
AcDbEntity
  8
寸法
  6
Continuous
370
    -2
100
AcDbBlockReference
  2
_ORIGIN
 10
28157.76096313188
 20
15794.07778458749
 30
0.0
 41
60.0
 42
60.0
 43
60.0
 50
270.0
  0
MTEXT
  5
AF1
330
9BE
100
AcDbEntity
  8
寸法
  6
Continuous
100
AcDbMText
 10
27879.18953456045
 20
17039.07778458761
 30
0.0
 40
300.0
 41
0.0
 71
     5
 72
     1
  1
\A1;2,490
  7
1_100
 11
0.0000000000000001
 21
1.0
 31
0.0
 73
     1
 44
1.0
1001
ACAD
1000
MTEXTBEGIN
1070
    73
1070
     1
1070
    44
1040
1.0
1070
    74
1070
     0
1000
MTEXTEND
  0
POINT
  5
AF2
330
9BE
100
AcDbEntity
  8
DEFPOINTS
  6
Continuous
 62
     0
100
AcDbPoint
 10
26838.78777682849
 20
18284.07778458773
 30
0.0
  0
POINT
  5
AF3
330
9BE
100
AcDbEntity
  8
DEFPOINTS
  6
Continuous
 62
     0
100
AcDbPoint
 10
26838.78777682849
 20
15794.07778458749
 30
0.0
  0
POINT
  5
AF4
330
9BE
100
AcDbEntity
  8
DEFPOINTS
  6
Continuous
 62
     0
100
AcDbPoint
 10
28157.76096313188
 20
15794.07778458749
 30
0.0
  0
ENDBLK
  5
9C9
330
9BE
100
AcDbEntity
  8
0
100
AcDbBlockEnd
  0
BLOCK
  5
9D4
330
9CA
100
AcDbEntity
  8
0
100
AcDbBlockBegin
  2
*D31
 70
     1
 10
0.0
 20
0.0
 30
0.0
  3
*D31
  1

  0
LINE
  5
AF5
330
9CA
100
AcDbEntity
  8
寸法
  6
Continuous
370
    -2
100
AcDbLine
 10
27138.78777682849
 20
23264.07778458738
 30
0.0
 11
28157.76096313188
 21
23264.07778458738
 31
0.0
  0
LINE
  5
AF6
330
9CA
100
AcDbEntity
  8
寸法
  6
Continuous
370
    -2
100
AcDbLine
 10
27138.78777682849
 20
20774.07778458749
 30
0.0
 11
28157.76096313188
 21
20774.07778458749
 31
0.0
  0
LINE
  5
AF7
330
9CA
100
AcDbEntity
  8
寸法
  6
Continuous
370
    -2
100
AcDbLine
 10
28157.76096313188
 20
23204.07778458738
 30
0.0
 11
28157.76096313188
 21
20834.0777845875
 31
0.0
  0
INSERT
  5
AF8
330
9CA
100
AcDbEntity
  8
寸法
  6
Continuous
370
    -2
100
AcDbBlockReference
  2
_ORIGIN
 10
28157.76096313188
 20
23264.07778458738
 30
0.0
 41
60.0
 42
60.0
 43
60.0
 50
90.0
  0
INSERT
  5
AF9
330
9CA
100
AcDbEntity
  8
寸法
  6
Continuous
370
    -2
100
AcDbBlockReference
  2
_ORIGIN
 10
28157.76096313188
 20
20774.07778458749
 30
0.0
 41
60.0
 42
60.0
 43
60.0
 50
270.0
  0
MTEXT
  5
AFA
330
9CA
100
AcDbEntity
  8
寸法
  6
Continuous
100
AcDbMText
 10
27879.18953456045
 20
22019.07778458744
 30
0.0
 40
300.0
 41
0.0
 71
     5
 72
     1
  1
\A1;2,490
  7
1_100
 11
0.0000000000000001
 21
1.0
 31
0.0
 73
     1
 44
1.0
1001
ACAD
1000
MTEXTBEGIN
1070
    73
1070
     1
1070
    44
1040
1.0
1070
    74
1070
     0
1000
MTEXTEND
  0
POINT
  5
AFB
330
9CA
100
AcDbEntity
  8
DEFPOINTS
  6
Continuous
 62
     0
100
AcDbPoint
 10
26838.78777682849
 20
23264.07778458738
 30
0.0
  0
POINT
  5
AFC
330
9CA
100
AcDbEntity
  8
DEFPOINTS
  6
Continuous
 62
     0
100
AcDbPoint
 10
26838.78777682849
 20
20774.07778458749
 30
0.0
  0
POINT
  5
AFD
330
9CA
100
AcDbEntity
  8
DEFPOINTS
  6
Continuous
 62
     0
100
AcDbPoint
 10
28157.76096313188
 20
20774.07778458749
 30
0.0
  0
ENDBLK
  5
9D5
330
9CA
100
AcDbEntity
  8
0
100
AcDbBlockEnd
  0
BLOCK
  5
9E2
330
9D6
100
AcDbEntity
  8
0
100
AcDbBlockBegin
  2
*D32
 70
     1
 10
0.0
 20
0.0
 30
0.0
  3
*D32
  1

  0
LINE
  5
AFE
330
9D6
100
AcDbEntity
  8
寸法
  6
Continuous
370
    -2
100
AcDbLine
 10
31230.63777682858
 20
23624.0777845875
 30
0.0
 11
31230.63777682858
 21
23924.07778458738
 31
0.0
  0
LINE
  5
AFF
330
9D6
100
AcDbEntity
  8
寸法
  6
Continuous
370
    -2
100
AcDbLine
 10
31446.93777682839
 20
23624.0777845875
 30
0.0
 11
31446.93777682839
 21
23924.07778458738
 31
0.0
  0
LINE
  5
B00
330
9D6
100
AcDbEntity
  8
寸法
  6
Continuous
370
    -2
100
AcDbLine
 10
31170.63777682858
 20
23924.07778458738
 30
0.0
 11
31110.63777682858
 21
23924.07778458738
 31
0.0
  0
LINE
  5
B01
330
9D6
100
AcDbEntity
  8
寸法
  6
Continuous
370
    -2
100
AcDbLine
 10
31506.93777682839
 20
23924.07778458738
 30
0.0
 11
31566.93777682839
 21
23924.07778458738
 31
0.0
  0
MTEXT
  5
B02
330
9D6
100
AcDbEntity
  8
寸法
  6
Continuous
100
AcDbMText
 10
31338.78777682848
 20
24224.07778458738
 30
0.0
 40
300.0
 41
0.0
 71
     5
 72
     1
  1
\A1;φ216.3
  7
1_100
 73
     1
 44
1.0
1001
ACAD
1000
MTEXTBEGIN
1070
    73
1070
     1
1070
    44
1040
1.0
1070
    74
1070
     0
1000
MTEXTEND
  0
LINE
  5
B03
330
9D6
100
AcDbEntity
  8
寸法
  6
Continuous
370
    -2
100
AcDbLine
 10
31230.63777682858
 20
23924.07778458738
 30
0.0
 11
31446.93777682839
 21
23924.07778458738
 31
0.0
  0
INSERT
  5
B04
330
9D6
100
AcDbEntity
  8
寸法
  6
Continuous
370
    -2
100
AcDbBlockReference
  2
_ORIGIN
 10
31230.63777682858
 20
23924.07778458738
 30
0.0
 41
60.0
 42
60.0
 43
60.0
  0
INSERT
  5
B05
330
9D6
100
AcDbEntity
  8
寸法
  6
Continuous
370
    -2
100
AcDbBlockReference
  2
_ORIGIN
 10
31446.93777682839
 20
23924.07778458738
 30
0.0
 41
60.0
 42
60.0
 43
60.0
 50
180.0
  0
POINT
  5
B06
330
9D6
100
AcDbEntity
  8
DEFPOINTS
  6
Continuous
 62
     0
100
AcDbPoint
 10
31230.63777682858
 20
23324.07778458749
 30
0.0
  0
POINT
  5
B07
330
9D6
100
AcDbEntity
  8
DEFPOINTS
  6
Continuous
 62
     0
100
AcDbPoint
 10
31446.93777682839
 20
23324.07778458749
 30
0.0
  0
POINT
  5
B08
330
9D6
100
AcDbEntity
  8
DEFPOINTS
  6
Continuous
 62
     0
100
AcDbPoint
 10
31446.93777682839
 20
23924.07778458738
 30
0.0
  0
ENDBLK
  5
9E3
330
9D6
100
AcDbEntity
  8
0
100
AcDbBlockEnd
  0
BLOCK
  5
B26
330
B1C
100
AcDbEntity
  8
0
100
AcDbBlockBegin
  2
*D33
 70
     1
 10
0.0
 20
0.0
 30
0.0
  3
*D33
  1

  0
LINE
  5
B31
330
B1C
100
AcDbEntity
  8
DEFPOINTS
370
    -2
100
AcDbLine
 10
31672.48777682821
 20
15824.07778458702
 30
0.0
 11
37752.43432239371
 21
15824.07778458702
 31
0.0
  0
LINE
  5
B32
330
B1C
100
AcDbEntity
  8
DEFPOINTS
370
    -2
100
AcDbLine
 10
33038.78777682848
 20
23324.07778458738
 30
0.0
 11
37752.43432239371
 21
23324.07778458738
 31
0.0
  0
LINE
  5
B33
330
B1C
100
AcDbEntity
  8
DEFPOINTS
370
    -2
100
AcDbLine
 10
37752.43432239371
 20
15904.07778458702
 30
0.0
 11
37752.43432239371
 21
23244.07778458738
 31
0.0
  0
INSERT
  5
B34
330
B1C
100
AcDbEntity
  8
DEFPOINTS
370
    -2
100
AcDbBlockReference
  2
_ORIGIN
 10
37752.43432239371
 20
15824.07778458702
 30
0.0
 41
80.0
 42
80.0
 43
80.0
 50
270.0
  0
INSERT
  5
B35
330
B1C
100
AcDbEntity
  8
DEFPOINTS
370
    -2
100
AcDbBlockReference
  2
_ORIGIN
 10
37752.43432239371
 20
23324.07778458738
 30
0.0
 41
80.0
 42
80.0
 43
80.0
 50
90.0
  0
MTEXT
  5
B36
330
B1C
100
AcDbEntity
  8
DEFPOINTS
100
AcDbMText
 10
37523.86289382227
 20
19574.07778458721
 30
0.0
 40
300.0
 41
0.0
 71
     5
 72
     1
  1
\A1;7,500
  7
1_100
 11
0.0000000000000001
 21
1.0
 31
0.0
 73
     1
 44
1.0
1001
ACAD
1000
MTEXTBEGIN
1070
    73
1070
     1
1070
    44
1040
1.0
1070
    74
1070
     0
1000
MTEXTEND
  0
POINT
  5
B37
330
B1C
100
AcDbEntity
  8
DEFPOINTS
 62
     0
100
AcDbPoint
 10
31472.48777682821
 20
15824.07778458702
 30
0.0
  0
POINT
  5
B38
330
B1C
100
AcDbEntity
  8
DEFPOINTS
 62
     0
100
AcDbPoint
 10
32838.78777682848
 20
23324.07778458738
 30
0.0
  0
POINT
  5
B39
330
B1C
100
AcDbEntity
  8
DEFPOINTS
 62
     0
100
AcDbPoint
 10
37752.43432239371
 20
23324.07778458738
 30
0.0
  0
ENDBLK
  5
B27
330
B1C
100
AcDbEntity
  8
0
100
AcDbBlockEnd
  0
ENDSEC
  0
SECTION
  2
ENTITIES
  0
LEADER
  5
54A
330
1F
100
AcDbEntity
  8
寸法引出
  6
Continuous
100
AcDbLeader
  3
1_100
 71
     0
 73
     0
 74
     0
 75
     1
 40
800.0
 41
3415.714285714287
 76
     3
 10
31472.48777682821
 20
14593.99089069232
 30
0.0
 10
34313.85318755845
 20
16668.75809811461
 30
0.0
 10
34373.85318755845
 20
16668.75809811461
 30
0.0
340
54B
  0
MTEXT
  5
54B
102
{ACAD_REACTORS
330
54A
102
}
330
1F
100
AcDbEntity
  8
寸法文字
  6
Continuous
100
AcDbMText
 10
34473.85318755844
 20
16768.75809811461
 30
0.0
 40
300.0
 41
0.0
 71
     7
 72
     1
  1
主柱KSポール　　　　　\Pφ267.4厚さ5.0mm　　
  7
1_100
 73
     1
 44
1.0
1001
ACAD
1000
ACAD_MTEXT_DEFINED_HEIGHT_BEGIN
1070
    46
1040
0.0
1000
ACAD_MTEXT_DEFINED_HEIGHT_END
1000
MTEXTBEGIN
1070
    73
1070
     1
1070
    44
1040
1.0
1070
    74
1070
     0
1000
MTEXTEND
  0
DIMENSION
  5
54C
330
1F
100
AcDbEntity
  8
寸法
  6
Continuous
100
AcDbDimension
  2
*D2
 10
33838.78777682848
 20
23324.07778458738
 30
0.0
 11
33560.21634825705
 21
17324.07778458738
 31
0.0
 70
    32
 71
     5
 42
12000.0
  3
1_100
100
AcDbAlignedDimension
 13
32838.78777682848
 23
11324.07778458737
 33
0.0
 14
32838.78777682848
 24
23324.07778458738
 34
0.0
 50
90.0
100
AcDbRotatedDimension
  0
LINE
  5
54D
330
1F
100
AcDbEntity
  8
画層1
  6
Continuous
100
AcDbLine
 10
31472.48777682821
 20
15824.07778458702
 30
0.0
 11
31472.48777682821
 21
8824.077784587377
 31
0.0
  0
DIMENSION
  5
54E
330
1F
100
AcDbEntity
  8
DEFPOINTS
100
AcDbDimension
  2
*D3
 10
37752.43432239371
 20
8824.077784587377
 30
0.0
 11
37523.86289382227
 21
12324.07778458721
 31
0.0
 70
    32
 71
     5
 42
6999.99999999965
  3
1_100_B
100
AcDbAlignedDimension
 13
31472.48777682821
 23
15824.07778458702
 33
0.0
 14
32838.78777682848
 24
8824.077784587377
 34
0.0
 50
90.0
100
AcDbRotatedDimension
  0
LINE
  5
54F
330
1F
100
AcDbEntity
  8
寸法引出
  6
Continuous
100
AcDbLine
 10
20077.0762849997
 20
15814.07778458726
 30
0.0
 11
20821.74361868736
 21
13896.27313651643
 31
0.0
  0
LINE
  5
550
102
{ACAD_REACTORS
330
55C
102
}
330
1F
100
AcDbEntity
  8
DEFPOINTS
100
AcDbLine
 10
26338.78777682848
 20
23324.07778458749
 30
0.0
 11
26338.78777682848
 21
11324.07778458726
 31
0.0
  0
DIMENSION
  5
551
330
1F
100
AcDbEntity
  8
寸法
  6
Continuous
100
AcDbDimension
  2
*D4
 10
29157.76096313188
 20
23324.07778458738
 30
0.0
 11
28879.18953456045
 21
17324.07778458738
 31
0.0
 70
    32
 71
     5
 42
12000.0
  3
1_100
100
AcDbAlignedDimension
 13
26838.78777682849
 23
11324.07778458737
 33
0.0
 14
26838.78777682849
 24
23324.07778458738
 34
0.0
 50
90.0
100
AcDbRotatedDimension
  0
LINE
  5
552
330
1F
100
AcDbEntity
  8
通り芯
  6
DASHDOT
 48
100.0
100
AcDbLine
 10
31338.78777682848
 20
8517.051316354985
 30
0.0
 11
31338.78777682848
 21
23442.17646988957
 31
0.0
  0
LINE
  5
553
330
1F
100
AcDbEntity
  8
画層1
  6
Continuous
100
AcDbLine
 10
31205.0877768283
 20
8824.077784587377
 30
0.0
 11
31205.0877768283
 21
15824.07778458702
 31
0.0
  0
LINE
  5
554
330
1F
100
AcDbEntity
  8
通り芯
  6
DASHDOT
 48
100.0
100
AcDbLine
 10
18838.78777682848
 20
8517.051316354869
 30
0.0
 11
18838.78777682848
 21
23442.17646988957
 31
0.0
  0
LINE
  5
555
330
1F
100
AcDbEntity
  8
画層1
  6
Continuous
100
AcDbLine
 10
18705.08777682876
 20
8824.077784587377
 30
0.0
 11
18705.08777682876
 21
15824.07778458691
 31
0.0
  0
LINE
  5
556
330
1F
100
AcDbEntity
  8
画層1
  6
Continuous
100
AcDbLine
 10
18972.48777682866
 20
15824.07778458691
 30
0.0
 11
18972.48777682866
 21
8824.077784587377
 31
0.0
  0
DIMENSION
  5
557
330
1F
100
AcDbEntity
  8
寸法
  6
Continuous
100
AcDbDimension
  2
*D5
 10
28157.76096313188
 20
13324.07778458726
 30
0.0
 11
27879.18953456045
 21
14559.07778458738
 31
0.0
 70
    32
 71
     5
 42
2470.000000000233
  3
1_100
100
AcDbAlignedDimension
 13
26838.78777682849
 23
15794.07778458749
 33
0.0
 14
26838.78777682849
 24
13324.07778458726
 34
0.0
 50
90.0
100
AcDbRotatedDimension
  0
LINE
  5
558
102
{ACAD_REACTORS
330
55C
102
}
330
1F
100
AcDbEntity
  8
DEFPOINTS
100
AcDbLine
 10
23737.86797953465
 20
23321.2277845874
 30
0.0
 11
25087.30272512905
 21
13260.97778458728
 31
0.0
  0
LINE
  5
559
330
1F
100
AcDbEntity
  8
画層1-1
  6
Continuous
100
AcDbLine
 10
26338.78777682848
 20
20840.7026822249
 30
0.0
 11
18997.48777682867
 21
13324.07778458749
 31
0.0
  0
LINE
  5
55A
330
1F
100
AcDbEntity
  8
画層1
  6
Continuous
100
AcDbLine
 10
31338.78777682848
 20
23264.07778458738
 30
0.0
 11
31338.78777682848
 21
13324.07778458726
 31
0.0
  0
LINE
  5
55B
330
1F
100
AcDbEntity
  8
画層1-1
  6
DASHED
 48
100.0
100
AcDbLine
 10
31180.0877768283
 20
23264.07778458738
 30
0.0
 11
31180.0877768283
 21
13324.07778458726
 31
0.0
  0
HATCH
  5
55C
330
1F
100
AcDbEntity
  8
ﾈｯﾄ
 62
   230
370
    13
100
AcDbHatch
 10
0.0
 20
0.0
 30
0.0
210
0.0
220
0.0
230
1.0
  2
NET
 70
     0
 71
     1
 91
        1
 92
        7
 72
     0
 73
     1
 93
        4
 10
25078.83878711087
 20
13324.07778458747
 10
26338.78777682848
 20
13324.07778458749
 10
26338.78777682848
 20
23264.0777845875
 10
23745.53381246232
 20
23264.07778458749
 97
        4
330
793
330
558
330
575
330
550
 75
     0
 76
     1
 52
0.0
 41
1000.0
 77
     0
 78
     2
 53
0.0
 43
-209640.979361256
 44
-242495.731562874
 45
0.0
 46
125.0
 79
     0
 53
90.0
 43
-209640.979361256
 44
-242495.731562874
 45
-125.0
 46
0.0000000000000077
 79
     0
 47
41.62756989047418
 98
        1
 10
25023.75406889825
 20
21202.56602473998
  0
LINE
  5
55D
330
1F
100
AcDbEntity
  8
通り芯
  6
DASHDOT
 48
100.0
100
AcDbLine
 10
8838.787776828484
 20
8517.051316354869
 30
0.0
 11
8838.787776828484
 21
23442.17646988957
 31
0.0
  0
LINE
  5
55E
330
1F
100
AcDbEntity
  8
画層1
  6
Continuous
100
AcDbLine
 10
8705.087776828763
 20
8824.077784587377
 30
0.0
 11
8705.087776828763
 21
15824.07778458691
 31
0.0
  0
LINE
  5
55F
330
1F
100
AcDbEntity
  8
画層1
  6
Continuous
100
AcDbLine
 10
8972.487776828669
 20
15824.07778458691
 30
0.0
 11
8972.487776828669
 21
8824.077784587377
 31
0.0
  0
LINE
  5
560
330
1F
100
AcDbEntity
  8
画層1
  6
Continuous
100
AcDbLine
 10
8838.787776828484
 20
23264.07778458726
 30
0.0
 11
8838.787776828484
 21
13324.07778458726
 31
0.0
  0
LINE
  5
561
330
1F
100
AcDbEntity
  8
DEFPOINTS
100
AcDbLine
 10
10812.73229958044
 20
23321.2277845874
 30
0.0
 11
12162.16704517484
 21
13260.97778458716
 31
0.0
  0
HATCH
  5
562
330
1F
100
AcDbEntity
  8
ﾈｯﾄ
 62
   230
370
    13
100
AcDbHatch
 10
0.0
 20
0.0
 30
0.0
210
0.0
220
0.0
230
1.0
  2
NET
 70
     0
 71
     0
 91
        2
 92
        7
 72
     0
 73
     1
 93
       29
 10
10834.77073090171
 20
23156.92778458736
 10
9046.937776828857
 20
23156.92778458736
 10
9046.937776828857
 20
23264.07778458738
 10
8996.937776828856
 20
23264.07778458738
 10
8996.937776828856
 20
23239.07778458738
 10
8996.937776828856
 20
23189.07778458726
 10
8946.93777682839
 20
23189.07778458726
 10
8946.93777682839
 20
20799.07778458726
 10
8996.93777682839
 20
20799.07778458726
 10
8996.93777682839
 20
20749.07778458726
 10
8946.93777682839
 20
20749.07778458726
 10
8946.93777682839
 20
18309.07778458738
 10
8996.93777682839
 20
18309.07778458726
 10
8996.93777682839
 20
18259.07778458726
 10
8946.93777682839
 20
18259.07778458726
 10
8946.93777682839
 20
16324.07778458726
 10
8972.487776828669
 20
16324.07778458726
 10
8972.487776828669
 20
15829.07778458691
 10
9022.487776828672
 20
15829.07778458691
 10
9022.487776828672
 20
15779.07778458691
 10
8972.487776828669
 20
15779.07778458691
 10
8972.487776828669
 20
13349.07778458725
 10
9022.487776828672
 20
13349.07778458725
 10
9022.487776828205
 20
13324.07778458726
 10
9123.037776828484
 20
13324.07778458726
 10
9123.037776828484
 20
13344.07778458726
 10
9297.487776828672
 20
13344.07778458726
 10
9297.487776828672
 20
13324.07778458726
 10
12153.70310715699
 20
13324.07778458726
 97
        0
 92
        7
 72
     0
 73
     1
 93
        8
 10
10820.39813250836
 20
23264.07778458738
 10
9271.937776828856
 20
23264.0777845875
 10
9271.937776828393
 20
23244.07778458738
 10
9097.487776828668
 20
23244.07778458738
 10
9097.487776828668
 20
23264.07778458738
 10
9046.937776828857
 20
23264.07778458738
 10
9046.937776828857
 20
23156.92778458736
 10
10834.77073090171
 20
23156.92778458736
 97
        0
 75
     0
 76
     1
 52
0.0
 41
1000.0
 77
     0
 78
     2
 53
0.0
 43
-209640.979361256
 44
-242495.731562874
 45
0.0
 46
125.0
 79
     0
 53
90.0
 43
-209640.979361256
 44
-242495.731562874
 45
-125.0
 46
0.0000000000000077
 79
     0
 47
14.03577546330496
 98
        2
 10
10219.7745486132
 20
19539.13285427306
 10
10298.356048763
 20
23197.93446892824
  0
LINE
  5
563
330
1F
100
AcDbEntity
  8
画層1-1
  6
Continuous
100
AcDbLine
 10
8971.937776828857
 20
23214.07778458738
 30
0.0
 11
18680.08777682876
 21
13324.07778458702
 31
0.0
  0
LINE
  5
564
330
1F
100
AcDbEntity
  8
画層1-1
  6
Continuous
100
AcDbLine
 10
18705.63777682858
 20
23214.07778458738
 30
0.0
 11
8997.487776828672
 21
13324.07778458749
 31
0.0
  0
LEADER
  5
565
330
1F
100
AcDbEntity
  8
寸法引出
  6
Continuous
100
AcDbLeader
  3
1_100_B
 71
     0
 73
     0
 74
     0
 75
     1
 40
300.0
 41
1095.0
 76
     3
 10
11045.82421189753
 20
12004.07778458772
 30
0.0
 10
11202.28240086671
 20
12167.59788385218
 30
0.0
 10
11282.28240086671
 20
12167.59788385218
 30
0.0
  0
MTEXT
  5
566
102
{ACAD_REACTORS
330
565
102
}
330
1F
100
AcDbEntity
  8
寸法文字
  6
Continuous
100
AcDbMText
 10
11332.28240086671
 20
12217.59788385218
 30
0.0
 40
300.0
 41
0.0
 71
     7
 72
     1
  1
4mm線
  7
1_100
 73
     1
 44
1.0
1001
ACAD
1000
MTEXTBEGIN
1070
    73
1070
     1
1070
    44
1040
1.0
1070
    74
1070
     0
1000
MTEXTEND
  0
LINE
  5
567
330
1F
100
AcDbEntity
  8
画層3-1
  6
Continuous
100
AcDbLine
 10
10864.18777682885
 20
11344.07778458726
 30
0.0
 11
12813.38777682857
 21
11344.07778458726
 31
0.0
  0
LINE
  5
568
330
1F
100
AcDbEntity
  8
画層3-1
  6
Continuous
100
AcDbLine
 10
10864.18777682885
 20
11382.17778458723
 30
0.0
 11
12813.38777682857
 21
11382.17778458735
 31
0.0
  0
LINE
  5
569
330
1F
100
AcDbEntity
  8
画層3-2
  6
Continuous
100
AcDbLine
 10
10919.13777682858
 20
12664.07778458725
 30
0.0
 11
12758.43777682885
 21
12664.07778458725
 31
0.0
  0
LINE
  5
56A
330
1F
100
AcDbEntity
  8
画層3-2
  6
Continuous
100
AcDbLine
 10
12758.43777682885
 20
12004.07778458726
 30
0.0
 11
10919.13777682858
 21
12004.07778458726
 31
0.0
  0
LINE
  5
56B
330
1F
100
AcDbEntity
  8
画層3-1
  6
Continuous
100
AcDbLine
 10
10879.18777682885
 20
13260.97778458716
 30
0.0
 11
12798.38777682857
 21
13260.97778458716
 31
0.0
  0
LEADER
  5
56C
330
1F
100
AcDbEntity
  8
寸法引出
  6
Continuous
100
AcDbLeader
  3
1_100_B
 71
     0
 73
     0
 74
     0
 75
     1
 40
300.0
 41
3098.571428571429
 76
     3
 10
11136.07744609818
 20
11382.17778458782
 30
0.0
 10
11197.65998101022
 20
11470.87901161201
 30
0.0
 10
11277.65998101022
 20
11470.87901161201
 30
0.0
213
69.95590756242018
223
0.0
233
0.0
  0
MTEXT
  5
56D
102
{ACAD_REACTORS
330
56C
102
}
330
1F
100
AcDbEntity
  8
寸法文字
  6
Continuous
100
AcDbMText
 10
11257.70407344794
 20
11520.87901161201
 30
0.0
 40
300.0
 41
0.0
 71
     7
 72
     1
  1
φ38.1×1.6ｔ（上下）
  7
1_100
 73
     1
 44
1.0
1001
ACAD
1000
MTEXTBEGIN
1070
    73
1070
     1
1070
    44
1040
1.0
1070
    74
1070
     0
1000
MTEXTEND
  0
DIMENSION
  5
56E
330
1F
100
AcDbEntity
  8
画層3-寸法
  6
Continuous
100
AcDbDimension
  2
*D6
 10
12838.78777682848
 20
7524.077784587261
 30
0.0
 11
11838.78777682848
 21
7802.649213158689
 31
0.0
 70
    32
 71
     5
 42
2000.0
  3
1_100
100
AcDbAlignedDimension
 13
10838.78777682848
 23
8724.07778458726
 33
0.0
 14
12838.78777682848
 24
8724.07778458726
 34
0.0
100
AcDbRotatedDimension
  0
LEADER
  5
56F
330
1F
100
AcDbEntity
  8
寸法引出
  6
Continuous
100
AcDbLeader
  3
1_100_B
 71
     0
 73
     0
 74
     0
 75
     1
 40
300.0
 41
2635.714285714287
 76
     3
 10
10864.18777682885
 20
12743.40525394106
 30
0.0
 10
10962.55008140646
 20
12814.20996175204
 30
0.0
 10
11042.55008140646
 20
12814.20996175204
 30
0.0
  0
MTEXT
  5
570
102
{ACAD_REACTORS
330
56F
102
}
330
1F
100
AcDbEntity
  8
寸法文字
  6
Continuous
100
AcDbMText
 10
11092.55008140646
 20
12864.20996175204
 30
0.0
 40
300.0
 41
0.0
 71
     7
 72
     1
  1
主柱φ50.8×2.3ｔ
  7
1_100
 73
     1
 44
1.0
1001
ACAD
1000
MTEXTBEGIN
1070
    73
1070
     1
1070
    44
1040
1.0
1070
    74
1070
     0
1000
MTEXTEND
  0
LEADER
  5
571
330
1F
100
AcDbEntity
  8
寸法引出
  6
Continuous
100
AcDbLeader
  3
1_100
 71
     0
 73
     0
 74
     0
 75
     1
 40
300.0
 41
1547.142857142856
 76
     3
 10
9063.787776828483
 20
9483.413377974745
 30
0.0
 10
9704.156314220952
 20
9964.218862832272
 30
0.0
 10
9764.156314220953
 20
9964.218862832272
 30
0.0
340
572
  0
MTEXT
  5
572
102
{ACAD_REACTORS
330
571
102
}
330
1F
100
AcDbEntity
  8
寸法文字
  6
Continuous
100
AcDbMText
 10
9864.156314220949
 20
10064.21886283227
 30
0.0
 40
300.0
 41
0.0
 71
     7
 72
     1
  1
コンクリート
  7
1_100
 73
     1
 44
1.0
1001
ACAD
1000
MTEXTBEGIN
1070
    73
1070
     1
1070
    44
1040
1.0
1070
    74
1070
     0
1000
MTEXTEND
  0
DIMENSION
  5
573
330
1F
100
AcDbEntity
  8
寸法
  6
Continuous
100
AcDbDimension
  2
*D7
 10
18838.78777682848
 20
6924.077784587495
 30
0.0
 11
13838.78777682848
 21
7202.649213158922
 31
0.0
 70
    32
 71
     5
 42
10000.0
  3
1_100
100
AcDbAlignedDimension
 13
8838.787776828484
 23
8224.077784587493
 33
0.0
 14
18838.78777682848
 24
8049.237097123734
 34
0.0
100
AcDbRotatedDimension
  0
LINE
  5
574
330
1F
100
AcDbEntity
  8
画層3-1
  6
Continuous
100
AcDbLine
 10
8838.787776828484
 20
13299.07778458726
 30
0.0
 11
26338.78777682848
 21
13299.07778458726
 31
0.0
  0
LINE
  5
575
102
{ACAD_REACTORS
330
55C
102
}
330
1F
100
AcDbEntity
  8
画層1
  6
Continuous
100
AcDbLine
 10
8838.787776828484
 20
13324.07778458726
 30
0.0
 11
26338.78777682848
 21
13324.07778458749
 31
0.0
  0
LINE
  5
576
330
1F
100
AcDbEntity
  8
画層2
  6
Continuous
100
AcDbLine
 10
5285.630716020913
 20
11324.07778458726
 30
0.0
 11
26338.78777682848
 21
11324.07778458714
 31
0.0
  0
TEXT
  5
577
330
1F
100
AcDbEntity
  8
図面枠
  6
Continuous
 62
     3
100
AcDbText
 10
1146.488811602571
 20
563.7762079762531
 30
0.0
 40
300.0
  1
1/100
 41
0.75
  7
1_100
 11
1146.488811602571
 21
563.7762079762531
 31
0.0
100
AcDbText
 73
     1
  0
TEXT
  5
578
330
1F
100
AcDbEntity
  8
図面枠
  6
Continuous
 62
     3
100
AcDbText
 10
2868.861310702038
 20
563.9954554677013
 30
0.0
 40
300.0
  1
KS2-H12
 41
0.75
  7
1_100
 11
2868.861310702038
 21
563.9954554677013
 31
0.0
100
AcDbText
 73
     1
  0
LWPOLYLINE
  5
579
330
1F
100
AcDbEntity
  8
画層1
100
AcDbPolyline
 90
        4
 70
     1
 43
0.0
 10
8818.787776828484
 20
13749.07778458702
 10
8858.787776828483
 20
13749.07778458702
 10
8858.787776828483
 20
13549.07778458702
 10
8818.787776828484
 20
13549.07778458702
  0
MTEXT
  5
57A
330
1F
100
AcDbEntity
  8
寸法文字
  6
Continuous
100
AcDbMText
 10
6464.833144075443
 20
15126.20361819077
 30
0.0
 40
300.0
 41
0.0
 71
     3
 72
     1
  1
（STKT-590鋼管）
  7
1_100
 73
     1
 44
1.0
1001
ACAD
1000
MTEXTBEGIN
1070
    73
1070
     1
1070
    44
1040
1.0
1070
    74
1070
     0
1000
MTEXTEND
  0
LEADER
  5
57B
330
1F
100
AcDbEntity
  8
寸法引出
  6
Continuous
100
AcDbLeader
  3
1_100
 71
     0
 73
     0
 75
     1
 40
300.0
 41
4699.285714285712
 76
     3
 10
8705.087776828763
 20
14641.98071061084
 30
0.0
 10
7816.135041099248
 20
15278.87171873075
 30
0.0
 10
7756.135041099248
 20
15278.87171873075
 30
0.0
340
57C
  0
MTEXT
  5
57C
102
{ACAD_REACTORS
330
57B
102
}
330
1F
100
AcDbEntity
  8
寸法文字
  6
Continuous
100
AcDbMText
 10
7656.135041099247
 20
15378.87171873076
 30
0.0
 40
300.0
 41
0.0
 71
     9
 72
     1
  1
主柱KSポールφ267.4厚さ5.0mm
  7
1_100
 73
     1
 44
1.0
1001
ACAD
1000
ACAD_MTEXT_DEFINED_HEIGHT_BEGIN
1070
    46
1040
0.0
1000
ACAD_MTEXT_DEFINED_HEIGHT_END
1000
MTEXTBEGIN
1070
    73
1070
     1
1070
    44
1040
1.0
1070
    74
1070
     0
1000
MTEXTEND
  0
LINE
  5
57D
330
1F
100
AcDbEntity
  8
画層3-通り芯
  6
DASHDOT
 48
100.0
100
AcDbLine
 10
10838.78777682848
 20
10777.70822945549
 30
0.0
 11
10838.78777682848
 21
13324.07778458737
 31
0.0
  0
LINE
  5
57E
330
1F
100
AcDbEntity
  8
画層3-1
  6
Continuous
100
AcDbLine
 10
10813.38777682858
 20
11989.07778458726
 30
0.0
 11
10813.38777682858
 21
11382.17778458723
 31
0.0
  0
LINE
  5
57F
330
1F
100
AcDbEntity
  8
画層3-2
  6
Continuous
100
AcDbLine
 10
10904.13777682857
 20
11989.07778458726
 30
0.0
 11
10904.13777682857
 21
11324.07778458726
 31
0.0
  0
LINE
  5
580
330
1F
100
AcDbEntity
  8
画層3-2
  6
Continuous
100
AcDbLine
 10
10773.43777682885
 20
11324.07778458726
 30
0.0
 11
10773.43777682885
 21
11989.07778458726
 31
0.0
  0
LINE
  5
581
330
1F
100
AcDbEntity
  8
画層3-1
  6
Continuous
100
AcDbLine
 10
10864.18777682885
 20
11989.07778458726
 30
0.0
 11
10864.18777682885
 21
11382.17778458735
 31
0.0
  0
LINE
  5
582
330
1F
100
AcDbEntity
  8
画層3-1
  6
Continuous
100
AcDbLine
 10
8813.387776828577
 20
13260.9777845874
 30
0.0
 11
8813.387776828577
 21
11344.07778458726
 31
0.0
  0
LINE
  5
583
330
1F
100
AcDbEntity
  8
画層3-1
  6
Continuous
100
AcDbLine
 10
8864.187776828856
 20
11989.07778458726
 30
0.0
 11
8864.187776828856
 21
11382.17778458735
 31
0.0
  0
LINE
  5
584
330
1F
100
AcDbEntity
  8
画層3-2
  6
Continuous
100
AcDbLine
 10
8904.137776828575
 20
11989.07778458726
 30
0.0
 11
8904.137776828575
 21
11324.07778458726
 31
0.0
  0
HATCH
  5
585
330
1F
100
AcDbEntity
  8
画層3-3
 62
   230
370
    13
100
AcDbHatch
 10
0.0
 20
0.0
 30
0.0
210
0.0
220
0.0
230
1.0
  2
NET
 70
     0
 71
     0
 91
        3
 92
        7
 72
     0
 73
     1
 93
       12
 10
10758.43777682885
 20
12664.07778458725
 10
10758.43777682885
 20
12679.07778458726
 10
10813.38777682858
 20
12679.07778458726
 10
10813.38777682858
 20
13245.97778458728
 10
10802.98777682867
 20
13245.97778458728
 10
10787.98777682913
 20
13260.97778458716
 10
8889.587776828763
 20
13260.97778458716
 10
8874.587776828763
 20
13245.97778458717
 10
8864.187776828856
 20
13245.97778458717
 10
8864.187776828856
 20
12679.07778458726
 10
8919.137776828575
 20
12679.07778458726
 10
8919.137776828575
 20
12664.07778458725
 97
        0
 92
        7
 72
     0
 73
     1
 93
       12
 10
8919.137776828575
 20
12664.07778458725
 10
8919.137776828575
 20
12649.07778458726
 10
8864.187776828856
 20
12649.07778458726
 10
8864.187776828856
 20
12019.07778458725
 10
8919.137776828575
 20
12019.07778458725
 10
8919.137776828575
 20
12004.07778458726
 10
10758.43777682885
 20
12004.07778458726
 10
10758.43777682885
 20
12019.07778458725
 10
10813.38777682858
 20
12019.07778458725
 10
10813.38777682858
 20
12649.07778458726
 10
10758.43777682885
 20
12649.07778458726
 10
10758.43777682885
 20
12664.07778458725
 97
        0
 92
        7
 72
     0
 73
     1
 93
        8
 10
10813.38777682858
 20
11382.17778458723
 10
10813.38777682858
 20
11989.07778458726
 10
10758.43777682885
 20
11989.07778458726
 10
10758.43777682885
 20
12004.07778458726
 10
8919.137776828575
 20
12004.07778458726
 10
8919.137776828575
 20
11989.07778458726
 10
8864.187776828856
 20
11989.07778458726
 10
8864.187776828856
 20
11382.17778458723
 97
        0
 75
     0
 76
     1
 52
45.0
 41
1200.0
 77
     0
 78
     2
 53
45.0
 43
805.4544434973236
 44
1540.744451254005
 45
-106.0660171779821
 46
106.0660171779821
 79
     0
 53
135.0
 43
805.4544434973236
 44
1540.744451254005
 45
-106.0660171779821
 46
-106.0660171779821
 79
     0
 47
13.5006982236132
 98
        3
 10
10071.52745775293
 20
12852.39683890829
 10
10085.03868832739
 20
12379.87240563505
 10
10085.03868832739
 20
11677.83604095688
  0
LINE
  5
586
330
1F
100
AcDbEntity
  8
画層3-1
  6
Continuous
100
AcDbLine
 10
10773.43777682885
 20
11402.17778458735
 30
0.0
 11
10904.13777682857
 21
11402.17778458735
 31
0.0
  0
HATCH
  5
587
330
1F
100
AcDbEntity
  8
画層3-3
100
AcDbHatch
 10
0.0
 20
0.0
 30
0.0
210
0.0
220
0.0
230
1.0
  2
PLAST
 70
     0
 71
     0
 91
        1
 92
        7
 72
     0
 73
     1
 93
        4
 10
10963.78777682848
 20
11324.07778458726
 10
10713.78777682848
 20
11324.07778458726
 10
10713.78777682848
 20
10874.07778458726
 10
10963.78777682848
 20
10874.07778458726
 97
        0
 75
     0
 76
     1
 52
45.0
 41
1800.0
 77
     0
 78
     3
 53
45.0
 43
4696.445121062659
 44
4882.410768076059
 45
-318.1980515339463
 46
318.1980515339464
 79
     0
 53
45.0
 43
4656.670364620835
 44
4922.185524517768
 45
-318.1980515339463
 46
318.1980515339464
 79
     0
 53
45.0
 43
4616.895608179011
 44
4961.960280959591
 45
-318.1980515339463
 46
318.1980515339464
 79
     0
 47
2.4753793195157
 98
        1
 10
10952.68097459219
 20
11083.28523259503
  0
LWPOLYLINE
  5
588
330
1F
100
AcDbEntity
  8
画層3-2
100
AcDbPolyline
 90
        4
 70
     0
 43
0.0
 10
10963.78777682848
 20
11324.07778458726
 10
10963.78777682848
 20
10874.07778458726
 10
10713.78777682848
 20
10874.07778458726
 10
10713.78777682848
 20
11324.07778458726
  0
LINE
  5
589
330
1F
100
AcDbEntity
  8
画層2-1
  6
Continuous
100
AcDbLine
 10
8705.087776828763
 20
11174.07778458726
 30
0.0
 11
8972.487776828669
 21
11174.07778458726
 31
0.0
  0
LINE
  5
58A
330
1F
100
AcDbEntity
  8
画層3-1
  6
Continuous
100
AcDbLine
 10
8813.387776828577
 20
11382.17778458723
 30
0.0
 11
10813.38777682858
 21
11382.17778458723
 31
0.0
  0
LINE
  5
58B
330
1F
100
AcDbEntity
  8
画層3-1
  6
Continuous
100
AcDbLine
 10
8813.387776828577
 20
11344.07778458726
 30
0.0
 11
10813.38777682858
 21
11344.07778458726
 31
0.0
  0
DIMENSION
  5
58C
330
1F
100
AcDbEntity
  8
寸法
  6
Continuous
100
AcDbDimension
  2
*D8
 10
9063.787776828483
 20
8224.077784587493
 30
0.0
 11
7884.010129831937
 21
8393.587492380039
 31
0.0
 70
   160
  1
φ<>
 71
     5
 42
450.0
  3
1_100
100
AcDbAlignedDimension
 13
8613.787776828484
 23
8724.07778458726
 33
0.0
 14
9063.787776828483
 24
8724.07778458726
 34
0.0
100
AcDbRotatedDimension
  0
DIMENSION
  5
58D
330
1F
100
AcDbEntity
  8
寸法
  6
Continuous
100
AcDbDimension
  2
*D9
 10
9188.787776828483
 20
8024.077784587261
 30
0.0
 11
8268.669083022254
 21
7724.077784587262
 31
0.0
 70
   160
  1
□<>
 71
     5
 42
700.0
  3
1_100
100
AcDbAlignedDimension
 13
8488.787776828484
 23
8724.07778458726
 33
0.0
 14
9188.787776828483
 24
8724.07778458726
 34
0.0
100
AcDbRotatedDimension
1001
ACAD
1000
DSTYLE
1002
{
1070
    77
1070
     2
1070
   174
1070
     1
1002
}
  0
LEADER
  5
58E
330
1F
100
AcDbEntity
  8
寸法引出
  6
Continuous
100
AcDbLeader
  3
1_100
 71
     0
 73
     0
 74
     0
 75
     1
 40
300.0
 41
495.0
 76
     3
 10
9063.787776828483
 20
8772.148125366172
 30
0.0
 10
9723.713275996708
 20
9268.110881945331
 30
0.0
 10
9783.713275996708
 20
9268.110881945331
 30
0.0
340
58F
  0
MTEXT
  5
58F
102
{ACAD_REACTORS
330
58E
102
}
330
1F
100
AcDbEntity
  8
寸法文字
  6
Continuous
100
AcDbMText
 10
9883.713275996708
 20
9368.110881945332
 30
0.0
 40
300.0
 41
0.0
 71
     7
 72
     1
  1
砕石
  7
1_100
 73
     1
 44
1.0
1001
ACAD
1000
MTEXTBEGIN
1070
    73
1070
     1
1070
    44
1040
1.0
1070
    74
1070
     0
1000
MTEXTEND
  0
DIMENSION
  5
590
330
1F
100
AcDbEntity
  8
画層3-寸法
  6
Continuous
100
AcDbDimension
  2
*D10
 10
10838.78777682848
 20
7524.077784587261
 30
0.0
 11
9838.787776828484
 21
7802.649213158689
 31
0.0
 70
    32
 71
     5
 42
2000.0
  3
1_100
100
AcDbAlignedDimension
 13
8838.787776828484
 23
8224.077784587493
 33
0.0
 14
10838.78777682848
 24
8724.07778458726
 34
0.0
100
AcDbRotatedDimension
  0
LINE
  5
591
330
1F
100
AcDbEntity
  8
画層3-1
  6
Continuous
100
AcDbLine
 10
10874.58777682876
 20
13245.97778458717
 30
0.0
 11
10802.98777682867
 21
13245.97778458728
 31
0.0
  0
LINE
  5
592
330
1F
100
AcDbEntity
  8
画層3-1
  6
Continuous
100
AcDbLine
 10
10787.98777682867
 20
13260.97778458728
 30
0.0
 11
10802.98777682867
 21
13245.97778458728
 31
0.0
  0
ARC
  5
593
330
1F
100
AcDbEntity
  8
画層3-1
  6
Continuous
100
AcDbCircle
 10
10798.38777682857
 20
13245.97778458728
 30
0.0
 40
15.0
100
AcDbArc
 50
0.0
 51
90.0
  0
LINE
  5
594
330
1F
100
AcDbEntity
  8
画層3-1
  6
Continuous
100
AcDbLine
 10
10787.98777682867
 20
13299.07778458726
 30
0.0
 11
10787.98777682867
 21
13260.97778458728
 31
0.0
  0
LINE
  5
595
330
1F
100
AcDbEntity
  8
画層3-1
  6
Continuous
100
AcDbLine
 10
10889.58777682876
 20
13260.97778458716
 30
0.0
 11
10889.58777682876
 21
13299.07778458726
 31
0.0
  0
LINE
  5
596
330
1F
100
AcDbEntity
  8
画層3-1
  6
Continuous
100
AcDbLine
 10
10874.58777682876
 20
13245.97778458717
 30
0.0
 11
10889.58777682876
 21
13260.97778458716
 31
0.0
  0
ARC
  5
597
330
1F
100
AcDbEntity
  8
画層3-1
  6
Continuous
100
AcDbCircle
 10
10879.18777682885
 20
13245.97778458717
 30
0.0
 40
15.0
100
AcDbArc
 50
90.0
 51
180.0
  0
LINE
  5
598
330
1F
100
AcDbEntity
  8
画層3-1
  6
Continuous
100
AcDbLine
 10
10758.43777682885
 20
12649.07778458726
 30
0.0
 11
10919.13777682858
 21
12649.07778458726
 31
0.0
  0
LINE
  5
599
330
1F
100
AcDbEntity
  8
画層3-1
  6
Continuous
100
AcDbLine
 10
10758.43777682885
 20
12679.07778458726
 30
0.0
 11
10758.43777682885
 21
12649.07778458726
 31
0.0
  0
LINE
  5
59A
330
1F
100
AcDbEntity
  8
画層3-1
  6
Continuous
100
AcDbLine
 10
10919.13777682858
 20
12679.07778458726
 30
0.0
 11
10758.43777682885
 21
12679.07778458726
 31
0.0
  0
LINE
  5
59B
330
1F
100
AcDbEntity
  8
画層3-1
  6
Continuous
100
AcDbLine
 10
10919.13777682858
 20
12649.07778458726
 30
0.0
 11
10919.13777682858
 21
12679.07778458726
 31
0.0
  0
LINE
  5
59C
330
1F
100
AcDbEntity
  8
画層3-1
  6
Continuous
100
AcDbLine
 10
10758.43777682885
 20
11989.07778458726
 30
0.0
 11
10919.13777682858
 21
11989.07778458726
 31
0.0
  0
LINE
  5
59D
330
1F
100
AcDbEntity
  8
画層3-1
  6
Continuous
100
AcDbLine
 10
10758.43777682885
 20
12019.07778458725
 30
0.0
 11
10758.43777682885
 21
11989.07778458726
 31
0.0
  0
LINE
  5
59E
330
1F
100
AcDbEntity
  8
画層3-1
  6
Continuous
100
AcDbLine
 10
10919.13777682858
 20
12019.07778458725
 30
0.0
 11
10758.43777682885
 21
12019.07778458725
 31
0.0
  0
LINE
  5
59F
330
1F
100
AcDbEntity
  8
画層3-1
  6
Continuous
100
AcDbLine
 10
10919.13777682858
 20
11989.07778458726
 30
0.0
 11
10919.13777682858
 21
12019.07778458725
 31
0.0
  0
LINE
  5
5A0
330
1F
100
AcDbEntity
  8
画層3-1
  6
Continuous
100
AcDbLine
 10
10813.38777682858
 20
12649.07778458726
 30
0.0
 11
10813.38777682858
 21
12019.07778458725
 31
0.0
  0
LINE
  5
5A1
330
1F
100
AcDbEntity
  8
画層3-2
  6
Continuous
100
AcDbLine
 10
10904.13777682857
 20
12649.07778458726
 30
0.0
 11
10904.13777682857
 21
12019.07778458725
 31
0.0
  0
LINE
  5
5A2
330
1F
100
AcDbEntity
  8
画層3-2
  6
Continuous
100
AcDbLine
 10
10773.43777682885
 20
12019.07778458725
 30
0.0
 11
10773.43777682885
 21
12649.07778458726
 31
0.0
  0
LINE
  5
5A3
330
1F
100
AcDbEntity
  8
画層3-1
  6
Continuous
100
AcDbLine
 10
10864.18777682885
 20
12649.07778458726
 30
0.0
 11
10864.18777682885
 21
12019.07778458725
 31
0.0
  0
LINE
  5
5A4
330
1F
100
AcDbEntity
  8
画層3-1
  6
Continuous
100
AcDbLine
 10
10813.38777682858
 20
13245.97778458728
 30
0.0
 11
10813.38777682858
 21
12679.07778458726
 31
0.0
  0
LINE
  5
5A5
330
1F
100
AcDbEntity
  8
画層3-2
  6
Continuous
100
AcDbLine
 10
10773.43777682885
 20
12679.07778458726
 30
0.0
 11
10773.43777682885
 21
13260.97778458728
 31
0.0
  0
LINE
  5
5A6
330
1F
100
AcDbEntity
  8
画層3-2
  6
Continuous
100
AcDbLine
 10
10904.13777682857
 20
13260.97778458728
 30
0.0
 11
10904.13777682857
 21
12679.07778458726
 31
0.0
  0
LINE
  5
5A7
330
1F
100
AcDbEntity
  8
画層3-1
  6
Continuous
100
AcDbLine
 10
10864.18777682885
 20
13245.97778458717
 30
0.0
 11
10864.18777682885
 21
12679.07778458726
 31
0.0
  0
LINE
  5
5A8
330
1F
100
AcDbEntity
  8
寸法引出
  6
Continuous
100
AcDbLine
 10
11202.28240086671
 20
12167.59788385218
 30
0.0
 11
11051.32476477671
 21
12664.07778458772
 31
0.0
  0
LWPOLYLINE
  5
5A9
330
1F
100
AcDbEntity
  8
画層1
100
AcDbPolyline
 90
        4
 70
     1
 43
0.0
 10
9123.037776828484
 20
13304.07778458726
 10
9297.487776828672
 20
13304.07778458726
 10
9297.487776828672
 20
13344.07778458726
 10
9123.037776828484
 20
13344.07778458726
  0
LINE
  5
5AA
330
1F
100
AcDbEntity
  8
画層3-1
  6
Continuous
100
AcDbLine
 10
8874.587776828763
 20
13245.97778458717
 30
0.0
 11
8889.587776828763
 21
13260.97778458716
 31
0.0
  0
LINE
  5
5AB
330
1F
100
AcDbEntity
  8
画層3-1
  6
Continuous
100
AcDbLine
 10
8874.587776828763
 20
13245.97778458717
 30
0.0
 11
8813.387776828577
 21
13245.97778458728
 31
0.0
  0
ARC
  5
5AC
330
1F
100
AcDbEntity
  8
画層3-1
  6
Continuous
100
AcDbCircle
 10
8850.9948178583
 20
13263.42309056744
 30
0.0
 40
37.68645720078001
100
AcDbArc
 50
108.8995839705432
 51
183.7202809730122
  0
ARC
  5
5AD
330
1F
100
AcDbEntity
  8
画層3-1
  6
Continuous
100
AcDbCircle
 10
8879.187776828855
 20
13245.97778458717
 30
0.0
 40
15.0
100
AcDbArc
 50
90.0
 51
180.0
  0
LINE
  5
5AE
330
1F
100
AcDbEntity
  8
画層3-1
  6
Continuous
100
AcDbLine
 10
8889.587776828763
 20
13260.97778458716
 30
0.0
 11
8889.587776828763
 21
13299.07778458726
 31
0.0
  0
CIRCLE
  5
5AF
330
1F
100
AcDbEntity
  8
画層1
  6
Continuous
100
AcDbCircle
 10
8838.787776828484
 20
13324.07778458726
 30
0.0
 40
10.7662971851
  0
CIRCLE
  5
5B0
330
1F
100
AcDbEntity
  8
画層1
  6
Continuous
100
AcDbCircle
 10
8997.487776828672
 20
13324.07778458726
 30
0.0
 40
10.7662971851
  0
LINE
  5
5B1
330
1F
100
AcDbEntity
  8
画層1
  6
Continuous
100
AcDbLine
 10
8813.787776828483
 20
13349.07778458725
 30
0.0
 11
8813.787776828483
 21
13299.07778458726
 31
0.0
  0
LINE
  5
5B2
330
1F
100
AcDbEntity
  8
画層1
  6
Continuous
100
AcDbLine
 10
8863.787776828484
 20
13299.07778458726
 30
0.0
 11
8863.787776828484
 21
13349.07778458725
 31
0.0
  0
CIRCLE
  5
5B3
330
1F
100
AcDbEntity
  8
画層1
  6
Continuous
100
AcDbCircle
 10
8680.087776828299
 20
13324.07778458726
 30
0.0
 40
10.7662971851
  0
LINE
  5
5B4
330
1F
100
AcDbEntity
  8
画層3-1
  6
Continuous
100
AcDbLine
 10
8919.137776828575
 20
12649.07778458726
 30
0.0
 11
8919.137776828575
 21
12679.07778458726
 31
0.0
  0
LINE
  5
5B5
330
1F
100
AcDbEntity
  8
画層3-1
  6
Continuous
100
AcDbLine
 10
8813.387776828577
 20
12649.07778458726
 30
0.0
 11
8919.137776828575
 21
12649.07778458726
 31
0.0
  0
LINE
  5
5B6
330
1F
100
AcDbEntity
  8
画層3-1
  6
Continuous
100
AcDbLine
 10
8919.137776828575
 20
12679.07778458726
 30
0.0
 11
8813.387776828577
 21
12679.07778458726
 31
0.0
  0
LINE
  5
5B7
330
1F
100
AcDbEntity
  8
画層3-1
  6
Continuous
100
AcDbLine
 10
8919.137776828575
 20
11989.07778458726
 30
0.0
 11
8919.137776828575
 21
12019.07778458725
 31
0.0
  0
LINE
  5
5B8
330
1F
100
AcDbEntity
  8
画層3-1
  6
Continuous
100
AcDbLine
 10
8813.387776828577
 20
11989.07778458726
 30
0.0
 11
8919.137776828575
 21
11989.07778458726
 31
0.0
  0
LINE
  5
5B9
330
1F
100
AcDbEntity
  8
画層3-1
  6
Continuous
100
AcDbLine
 10
8919.137776828575
 20
12019.07778458725
 30
0.0
 11
8813.387776828577
 21
12019.07778458725
 31
0.0
  0
LINE
  5
5BA
330
1F
100
AcDbEntity
  8
画層3-1
  6
Continuous
100
AcDbLine
 10
8864.187776828856
 20
12649.07778458726
 30
0.0
 11
8864.187776828856
 21
12019.07778458725
 31
0.0
  0
LINE
  5
5BB
330
1F
100
AcDbEntity
  8
画層3-2
  6
Continuous
100
AcDbLine
 10
8904.137776828575
 20
12649.07778458726
 30
0.0
 11
8904.137776828575
 21
12019.07778458725
 31
0.0
  0
LINE
  5
5BC
330
1F
100
AcDbEntity
  8
画層3-1
  6
Continuous
100
AcDbLine
 10
8864.187776828856
 20
13245.97778458717
 30
0.0
 11
8864.187776828856
 21
12679.07778458726
 31
0.0
  0
LINE
  5
5BD
330
1F
100
AcDbEntity
  8
画層3-2
  6
Continuous
100
AcDbLine
 10
8904.137776828575
 20
13260.97778458728
 30
0.0
 11
8904.137776828575
 21
12679.07778458726
 31
0.0
  0
LINE
  5
5BE
330
1F
100
AcDbEntity
  8
画層2-1
  6
Continuous
100
AcDbLine
 10
8705.087776828763
 20
11424.07778458726
 30
0.0
 11
8972.487776828669
 21
11424.07778458726
 31
0.0
  0
LINE
  5
5BF
330
1F
100
AcDbEntity
  8
画層3-2
  6
Continuous
100
AcDbLine
 10
10758.43777682885
 20
12004.07778458726
 30
0.0
 11
8919.137776828575
 21
12004.07778458726
 31
0.0
  0
LINE
  5
5C0
330
1F
100
AcDbEntity
  8
画層3-2
  6
Continuous
100
AcDbLine
 10
8919.137776828575
 20
12664.07778458725
 30
0.0
 11
10758.43777682885
 21
12664.07778458725
 31
0.0
  0
LINE
  5
5C1
330
1F
100
AcDbEntity
  8
画層3-1
  6
Continuous
100
AcDbLine
 10
8879.187776828855
 20
13260.97778458716
 30
0.0
 11
10798.38777682857
 21
13260.97778458716
 31
0.0
  0
LWPOLYLINE
  5
5C2
330
1F
100
AcDbEntity
  8
画層3-1
100
AcDbPolyline
 90
        4
 70
     0
 43
0.0
 10
10864.18777682885
 20
11344.07778458726
 10
10864.18777682885
 20
11024.07778458726
 10
10813.38777682858
 20
11024.07778458726
 10
10813.38777682858
 20
11344.07778458749
  0
LWPOLYLINE
  5
5C3
330
1F
100
AcDbEntity
  8
画層3-1
100
AcDbPolyline
 90
        4
 70
     0
 43
0.0
 10
8864.187776828856
 20
11344.07778458726
 10
8864.187776828856
 20
11024.07778458726
 10
8813.387776828577
 20
11024.07778458726
 10
8813.387776828577
 20
11344.07778458749
  0
LWPOLYLINE
  5
5C4
330
1F
100
AcDbEntity
  8
画層1
  6
Continuous
100
AcDbPolyline
 90
        4
 70
     1
 43
0.0
 10
8655.087776828297
 20
13349.07778458725
 10
9022.487776828672
 20
13349.07778458725
 10
9022.487776828672
 20
13299.07778458726
 10
8655.087776828297
 20
13299.07778458726
  0
LINE
  5
5C5
330
1F
100
AcDbEntity
  8
ﾊｯﾁﾝｸﾞ
  6
Continuous
100
AcDbLine
 10
8274.540157626589
 20
11324.07778458726
 30
0.0
 11
8394.540157627053
 21
11204.07778458726
 31
0.0
  0
LINE
  5
5C6
330
1F
100
AcDbEntity
  8
ﾊｯﾁﾝｸﾞ
  6
Continuous
100
AcDbLine
 10
8326.612439407243
 20
11272.00550280672
 30
0.0
 11
8258.684721187895
 21
11204.07778458726
 31
0.0
  0
LINE
  5
5C7
330
1F
100
AcDbEntity
  8
ﾊｯﾁﾝｸﾞ
  6
Continuous
100
AcDbLine
 10
8287.014459660484
 20
11311.60348255313
 30
0.0
 11
8179.488761694841
 21
11204.07778458726
 31
0.0
  0
LINE
  5
5C8
330
1F
100
AcDbEntity
  8
ﾊｯﾁﾝｸﾞ
  6
Continuous
100
AcDbLine
 10
8128.622540674378
 20
11232.40752306031
 30
0.0
 11
8100.29280220179
 21
11204.07778458726
 31
0.0
  0
LINE
  5
5C9
330
1F
100
AcDbEntity
  8
ﾊｯﾁﾝｸﾞ
  6
Continuous
100
AcDbLine
 10
8089.024560928086
 20
11272.00550280672
 30
0.0
 11
8021.096842708272
 21
11204.07778458726
 31
0.0
  0
LINE
  5
5CA
330
1F
100
AcDbEntity
  8
ﾊｯﾁﾝｸﾞ
  6
Continuous
100
AcDbLine
 10
8195.344198133536
 20
11324.07778458737
 30
0.0
 11
8247.416479914189
 21
11272.00550280672
 31
0.0
  0
LINE
  5
5CB
330
1F
100
AcDbEntity
  8
ﾊｯﾁﾝｸﾞ
  6
Continuous
100
AcDbLine
 10
8116.148238640018
 20
11324.07778458726
 30
0.0
 11
8207.818500167896
 21
11232.40752306019
 31
0.0
  0
LINE
  5
5CC
330
1F
100
AcDbEntity
  8
ﾊｯﾁﾝｸﾞ
  6
Continuous
100
AcDbLine
 10
8036.952279146966
 20
11324.07778458726
 30
0.0
 11
8156.952279147898
 21
11204.07778458726
 31
0.0
  0
LINE
  5
5CD
330
1F
100
AcDbEntity
  8
ﾊｯﾁﾝｸﾞ
  6
Continuous
100
AcDbLine
 10
8049.426581181327
 20
11311.60348255313
 30
0.0
 11
7995.663732198273
 21
11257.84063357019
 31
0.0
  0
LINE
  5
5CE
330
1F
100
AcDbEntity
  8
ﾊｯﾁﾝｸﾞ
  6
Continuous
100
AcDbLine
 10
8432.932076612692
 20
11324.07778458726
 30
0.0
 11
8488.787776828484
 21
11268.2220843717
 31
0.0
  0
LINE
  5
5CF
330
1F
100
AcDbEntity
  8
ﾊｯﾁﾝｸﾞ
  6
Continuous
100
AcDbLine
 10
8353.736117119641
 20
11324.07778458726
 30
0.0
 11
8473.736117120109
 21
11204.07778458726
 31
0.0
  0
LINE
  5
5D0
330
1F
100
AcDbEntity
  8
ﾊｯﾁﾝｸﾞ
  6
Continuous
100
AcDbLine
 10
8366.210419153535
 20
11232.40752306031
 30
0.0
 11
8337.880680680946
 21
11204.07778458726
 31
0.0
  0
LINE
  5
5D1
330
1F
100
AcDbEntity
  8
ﾊｯﾁﾝｸﾞ
  6
Continuous
100
AcDbLine
 10
9482.231355523897
 20
11324.07778458737
 30
0.0
 11
9430.159073742776
 21
11272.00550280672
 31
0.0
  0
LINE
  5
5D2
330
1F
100
AcDbEntity
  8
ﾊｯﾁﾝｸﾞ
  6
Continuous
100
AcDbLine
 10
9390.561093996485
 20
11311.60348255313
 30
0.0
 11
9498.086791962123
 21
11204.07778458726
 31
0.0
  0
LINE
  5
5D3
330
1F
100
AcDbEntity
  8
ﾊｯﾁﾝｸﾞ
  6
Continuous
100
AcDbLine
 10
9350.963114250191
 20
11272.00550280672
 30
0.0
 11
9418.890832469541
 21
11204.07778458726
 31
0.0
  0
LINE
  5
5D4
330
1F
100
AcDbEntity
  8
ﾊｯﾁﾝｸﾞ
  6
Continuous
100
AcDbLine
 10
9311.365134503432
 20
11232.40752306031
 30
0.0
 11
9339.694872976021
 21
11204.07778458726
 31
0.0
  0
LINE
  5
5D5
330
1F
100
AcDbEntity
  8
ﾊｯﾁﾝｸﾞ
  6
Continuous
100
AcDbLine
 10
9403.035396030844
 20
11324.07778458726
 30
0.0
 11
9283.035396029912
 21
11204.07778458726
 31
0.0
  0
LINE
  5
5D6
330
1F
100
AcDbEntity
  8
ﾊｯﾁﾝｸﾞ
  6
Continuous
100
AcDbLine
 10
9323.839436537792
 20
11324.07778458726
 30
0.0
 11
9203.839436536858
 21
11204.07778458726
 31
0.0
  0
LINE
  5
5D7
330
1F
100
AcDbEntity
  8
ﾊｯﾁﾝｸﾞ
  6
Continuous
100
AcDbLine
 10
9244.643477044274
 20
11324.07778458726
 30
0.0
 11
9188.787776828483
 21
11268.2220843717
 31
0.0
  0
LINE
  5
5D8
330
1F
100
AcDbEntity
  8
ﾊｯﾁﾝｸﾞ
  6
Continuous
100
AcDbLine
 10
9628.148972475642
 20
11311.60348255313
 30
0.0
 11
9681.911821458697
 21
11257.84063357019
 31
0.0
  0
LINE
  5
5D9
330
1F
100
AcDbEntity
  8
ﾊｯﾁﾝｸﾞ
  6
Continuous
100
AcDbLine
 10
9640.623274510003
 20
11324.07778458726
 30
0.0
 11
9520.623274509068
 21
11204.07778458726
 31
0.0
  0
LINE
  5
5DA
330
1F
100
AcDbEntity
  8
ﾊｯﾁﾝｸﾞ
  6
Continuous
100
AcDbLine
 10
9561.427315016947
 20
11324.07778458726
 30
0.0
 11
9469.757053489535
 21
11232.40752306031
 31
0.0
  0
LINE
  5
5DB
330
1F
100
AcDbEntity
  8
ﾊｯﾁﾝｸﾞ
  6
Continuous
100
AcDbLine
 10
9588.550992729349
 20
11272.00550280672
 30
0.0
 11
9656.478710948697
 21
11204.07778458726
 31
0.0
  0
LINE
  5
5DC
330
1F
100
AcDbEntity
  8
ﾊｯﾁﾝｸﾞ
  6
Continuous
100
AcDbLine
 10
9548.953012982591
 20
11232.40752306031
 30
0.0
 11
9577.282751455642
 21
11204.07778458726
 31
0.0
  0
LWPOLYLINE
  5
5DD
330
1F
100
AcDbEntity
  8
画層2
100
AcDbPolyline
 90
        8
 70
     0
 43
0.0
 10
8488.787776828484
 20
11324.07778458726
 10
8488.787776828484
 20
11024.07778458726
 10
8613.787776828484
 20
11024.07778458726
 10
8613.787776828484
 20
8724.07778458726
 10
9063.787776828483
 20
8724.07778458726
 10
9063.787776828483
 20
11024.07778458726
 10
9188.787776828483
 20
11024.07778458726
 10
9188.787776828483
 20
11324.07778458726
  0
LINE
  5
5DE
330
1F
100
AcDbEntity
  8
画層2
100
AcDbLine
 10
9063.787776828483
 20
8824.077784587259
 30
0.0
 11
8613.787776828484
 21
8824.077784587259
 31
0.0
  0
LINE
  5
5DF
330
1F
100
AcDbEntity
  8
ﾊｯﾁﾝｸﾞ
  6
Continuous
100
AcDbLine
 10
8806.992857585401
 20
8724.07778458726
 30
0.0
 11
8864.727884504217
 21
8824.077784587259
 31
0.0
  0
LINE
  5
5E0
330
1F
100
AcDbEntity
  8
ﾊｯﾁﾝｸﾞ
  6
Continuous
100
AcDbLine
 10
8893.59539796386
 20
8724.07778458726
 30
0.0
 11
8951.330424882677
 21
8824.077784587259
 31
0.0
  0
LINE
  5
5E1
330
1F
100
AcDbEntity
  8
ﾊｯﾁﾝｸﾞ
  6
Continuous
100
AcDbLine
 10
8819.83114144506
 20
8746.314344514024
 30
0.0
 11
8832.669425304253
 21
8724.07778458726
 31
0.0
  0
LINE
  5
5E2
330
1F
100
AcDbEntity
  8
ﾊｯﾁﾝｸﾞ
  6
Continuous
100
AcDbLine
 10
8906.43368182352
 20
8746.314344514024
 30
0.0
 11
8919.271965683178
 21
8724.07778458726
 31
0.0
  0
LINE
  5
5E3
330
1F
100
AcDbEntity
  8
ﾊｯﾁﾝｸﾞ
  6
Continuous
100
AcDbLine
 10
8836.009645603338
 20
8824.077784587259
 30
0.0
 11
8852.116778910366
 21
8802.234708958868
 31
0.0
  0
LINE
  5
5E4
330
1F
100
AcDbEntity
  8
ﾊｯﾁﾝｸﾞ
  6
Continuous
100
AcDbLine
 10
8922.612185981796
 20
8824.077784587259
 30
0.0
 11
8938.719319288825
 21
8802.234708958868
 31
0.0
  0
LINE
  5
5E5
330
1F
100
AcDbEntity
  8
ﾊｯﾁﾝｸﾞ
  6
Continuous
100
AcDbLine
 10
8720.390317206939
 20
8724.07778458726
 30
0.0
 11
8778.12534412576
 21
8824.077784587259
 31
0.0
  0
LINE
  5
5E6
330
1F
100
AcDbEntity
  8
ﾊｯﾁﾝｸﾞ
  6
Continuous
100
AcDbLine
 10
8733.228601066601
 20
8746.314344514024
 30
0.0
 11
8746.066884926261
 21
8724.07778458726
 31
0.0
  0
LINE
  5
5E7
330
1F
100
AcDbEntity
  8
ﾊｯﾁﾝｸﾞ
  6
Continuous
100
AcDbLine
 10
8749.407105224879
 20
8824.077784587259
 30
0.0
 11
8765.514238531904
 21
8802.234708958868
 31
0.0
  0
LINE
  5
5E8
330
1F
100
AcDbEntity
  8
ﾊｯﾁﾝｸﾞ
  6
Continuous
100
AcDbLine
 10
8633.787776828484
 20
8724.07778458726
 30
0.0
 11
8691.522803747766
 21
8824.077784587259
 31
0.0
  0
LINE
  5
5E9
330
1F
100
AcDbEntity
  8
ﾊｯﾁﾝｸﾞ
  6
Continuous
100
AcDbLine
 10
8646.62606068814
 20
8746.314344514024
 30
0.0
 11
8659.464344547801
 21
8724.07778458726
 31
0.0
  0
LINE
  5
5EA
330
1F
100
AcDbEntity
  8
ﾊｯﾁﾝｸﾞ
  6
Continuous
100
AcDbLine
 10
8662.804564846418
 20
8824.077784587259
 30
0.0
 11
8678.911698153447
 21
8802.234708958868
 31
0.0
  0
LINE
  5
5EB
330
1F
100
AcDbEntity
  8
ﾊｯﾁﾝｸﾞ
  6
Continuous
100
AcDbLine
 10
8980.197938342319
 20
8724.07778458726
 30
0.0
 11
9037.932965261136
 21
8824.077784587259
 31
0.0
  0
LINE
  5
5EC
330
1F
100
AcDbEntity
  8
ﾊｯﾁﾝｸﾞ
  6
Continuous
100
AcDbLine
 10
8993.036222201977
 20
8746.314344514024
 30
0.0
 11
9005.874506061173
 21
8724.07778458726
 31
0.0
  0
LINE
  5
5ED
330
1F
100
AcDbEntity
  8
ﾊｯﾁﾝｸﾞ
  6
Continuous
100
AcDbLine
 10
9009.214726360252
 20
8824.077784587259
 30
0.0
 11
9025.321859667284
 21
8802.234708958868
 31
0.0
  0
HATCH
  5
5EE
330
1F
100
AcDbEntity
  8
ﾊｯﾁﾝｸﾞ
100
AcDbHatch
 10
0.0
 20
0.0
 30
0.0
210
0.0
220
0.0
230
1.0
  2
PLAST
 70
     0
 71
     0
 91
        2
 92
        7
 72
     0
 73
     1
 93
        8
 10
9063.787776828483
 20
11024.07778458726
 10
9188.787776828483
 20
11024.07778458714
 10
9188.787776828483
 20
11324.07778458726
 10
8864.187776828856
 20
11324.07778458726
 10
8864.187776828856
 20
11024.07778458726
 10
8838.787776828484
 20
11024.07778458726
 10
8838.787776828484
 20
8824.077784587259
 10
9063.787776828483
 20
8824.077784587144
 97
        0
 92
        7
 72
     0
 73
     1
 93
        8
 10
8838.787776828484
 20
11024.07778458726
 10
8813.387776828577
 20
11024.07778458726
 10
8813.387776828577
 20
11324.07778458726
 10
8488.787776828484
 20
11324.07778458726
 10
8488.787776828484
 20
11024.07778458726
 10
8613.787776828484
 20
11024.07778458726
 10
8613.787776828484
 20
8824.077784587259
 10
8838.787776828484
 20
8824.077784587259
 97
        0
 75
     0
 76
     1
 52
45.0
 41
2000.0
 77
     0
 78
     3
 53
45.0
 43
-159640.9793612559
 44
-242495.731562874
 45
-353.5533905932737
 46
353.5533905932738
 79
     0
 53
45.0
 43
-159685.17353508
 44
-242451.5373890498
 45
-353.5533905932737
 46
353.5533905932738
 79
     0
 53
45.0
 43
-159729.3677089042
 44
-242407.3432152257
 45
-353.5533905932737
 46
353.5533905932738
 79
     0
 47
8.65004576169923
 98
        2
 10
8931.229347191026
 20
10543.84493864267
 10
8706.128932972644
 20
10543.84493864267
  0
TEXT
  5
5EF
330
1F
100
AcDbEntity
  8
寸法
  6
Continuous
100
AcDbText
 10
5513.17048792475
 20
11397.76695422209
 30
0.0
 40
300.0
  1
▽GL
 41
0.75
  7
1_100
 72
     2
 11
6179.599059353321
 21
11397.76695422209
 31
0.0
100
AcDbText
 73
     1
  0
MTEXT
  5
5F0
330
1F
100
AcDbEntity
  8
寸法文字
  6
Continuous
100
AcDbMText
 10
7516.3011059819
 20
11932.0866198855
 30
0.0
 40
300.0
 41
0.0
 71
     3
 72
     1
  1
（250）
  7
1_100
 73
     1
 44
1.0
1001
ACAD
1000
MTEXTBEGIN
1070
    73
1070
     1
1070
    44
1040
1.0
1070
    74
1070
     0
1000
MTEXTEND
  0
LEADER
  5
5F1
330
1F
100
AcDbEntity
  8
寸法引出
  6
Continuous
100
AcDbLeader
  3
1_100
 71
     0
 73
     0
 75
     1
 40
300.0
 41
1095.0
 76
     3
 10
8724.580497043879
 20
11390.43010348603
 30
0.0
 10
7751.237913633437
 20
11984.62128422593
 30
0.0
 10
7691.237913633436
 20
11984.62128422593
 30
0.0
340
5F2
  0
MTEXT
  5
5F2
102
{ACAD_REACTORS
330
5F1
102
}
330
1F
100
AcDbEntity
  8
寸法文字
  6
Continuous
100
AcDbMText
 10
7591.237913633436
 20
12234.62128422593
 30
0.0
 40
300.0
 41
0.0
 71
     6
 72
     1
  1
FRP被覆
  7
1_100
 73
     1
 44
1.0
1001
ACAD
1000
MTEXTBEGIN
1070
    73
1070
     1
1070
    44
1040
1.0
1070
    74
1070
     0
1000
MTEXTEND
  0
LWPOLYLINE
  5
5F3
330
1F
100
AcDbEntity
  8
画層1-1
100
AcDbPolyline
 90
        4
 70
     1
 43
0.0
 10
9189.809892933089
 20
13549.61694301092
 10
9218.425929004999
 20
13521.66837454096
 10
9096.535234764893
 20
13396.86668722201
 10
9067.919198692981
 20
13424.81525569209
  0
LINE
  5
5F4
330
1F
100
AcDbEntity
  8
画層3-1
  6
Continuous
100
AcDbLine
 10
24864.18777682886
 20
11344.07778458726
 30
0.0
 11
26338.78777682848
 21
11344.07778458726
 31
0.0
  0
LINE
  5
5F5
330
1F
100
AcDbEntity
  8
画層3-1
  6
Continuous
100
AcDbLine
 10
24864.18777682886
 20
11382.17778458735
 30
0.0
 11
26338.78777682848
 21
11382.17778458712
 31
0.0
  0
LINE
  5
5F6
330
1F
100
AcDbEntity
  8
画層3-2
  6
Continuous
100
AcDbLine
 10
26338.78777682848
 20
12004.07778458726
 30
0.0
 11
24919.13777682858
 21
12004.07778458726
 31
0.0
  0
LINE
  5
5F7
330
1F
100
AcDbEntity
  8
画層3-2
  6
Continuous
100
AcDbLine
 10
24919.13777682858
 20
12664.07778458725
 30
0.0
 11
26338.78777682848
 21
12664.07778458725
 31
0.0
  0
LINE
  5
5F8
330
1F
100
AcDbEntity
  8
画層3-1
  6
Continuous
100
AcDbLine
 10
24879.18777682886
 20
13260.97778458728
 30
0.0
 11
26338.78777682848
 21
13260.97778458728
 31
0.0
  0
HATCH
  5
5F9
330
1F
100
AcDbEntity
  8
画層3-3
 62
   230
370
    13
100
AcDbHatch
 10
0.0
 20
0.0
 30
0.0
210
0.0
220
0.0
230
1.0
  2
NET
 70
     0
 71
     0
 91
        6
 92
        7
 72
     0
 73
     1
 93
        8
 10
24889.58777682876
 20
13260.97778458728
 10
24874.58777682876
 20
13245.97778458717
 10
24864.18777682886
 20
13245.97778458717
 10
24864.18777682886
 20
12679.07778458726
 10
24919.13777682858
 20
12679.07778458726
 10
24919.13777682858
 20
12664.07778458725
 10
26338.78777682848
 20
12664.07778458725
 10
26338.78777682848
 20
13260.97778458728
 97
        0
 92
        7
 72
     0
 73
     1
 93
        8
 10
24919.13777682858
 20
12664.07778458725
 10
24919.13777682905
 20
12649.07778458726
 10
24864.18777682886
 20
12649.07778458726
 10
24864.18777682886
 20
12019.07778458725
 10
24919.13777682858
 20
12019.07778458725
 10
24919.13777682858
 20
12004.07778458726
 10
26338.78777682848
 20
12004.07778458726
 10
26338.78777682848
 20
12664.07778458725
 97
        0
 92
        7
 72
     0
 73
     1
 93
        6
 10
24919.13777682858
 20
12004.07778458726
 10
24919.13777682905
 20
11989.07778458726
 10
24864.18777682886
 20
11989.07778458726
 10
24864.18777682886
 20
11382.17778458723
 10
26338.78777682848
 20
11382.17778458712
 10
26338.78777682848
 20
12004.07778458726
 97
        0
 92
        7
 72
     0
 73
     1
 93
        8
 10
22919.13777682858
 20
12004.07778458726
 10
22919.13777682858
 20
11989.07778458726
 10
22864.18777682886
 20
11989.07778458726
 10
22864.18777682886
 20
11382.17778458723
 10
24813.38777682858
 20
11382.17778458723
 10
24813.38777682858
 20
11989.07778458726
 10
24758.43777682886
 20
11989.07778458726
 10
24758.43777682886
 20
12004.07778458726
 97
        0
 92
        7
 72
     0
 73
     1
 93
       12
 10
22919.13777682858
 20
12664.07778458725
 10
22919.13777682858
 20
12649.07778458726
 10
22864.18777682886
 20
12649.07778458726
 10
22864.18777682886
 20
12019.07778458725
 10
22919.13777682858
 20
12019.07778458725
 10
22919.13777682858
 20
12004.07778458726
 10
24758.43777682886
 20
12004.07778458726
 10
24758.43777682886
 20
12019.07778458725
 10
24813.38777682858
 20
12019.07778458725
 10
24813.38777682858
 20
12649.07778458726
 10
24758.43777682886
 20
12649.07778458726
 10
24758.43777682886
 20
12664.07778458725
 97
        0
 92
        7
 72
     0
 73
     1
 93
       12
 10
24758.43777682886
 20
12664.07778458725
 10
24758.43777682886
 20
12679.07778458726
 10
24813.38777682858
 20
12679.07778458726
 10
24813.38777682858
 20
13245.97778458728
 10
24802.98777682867
 20
13245.97778458728
 10
24787.98777682867
 20
13260.97778458728
 10
22889.58777682876
 20
13260.97778458728
 10
22874.58777682877
 20
13245.97778458728
 10
22864.18777682886
 20
13245.97778458728
 10
22864.18777682886
 20
12679.07778458726
 10
22919.13777682858
 20
12679.07778458726
 10
22919.13777682858
 20
12664.07778458725
 97
        0
 75
     0
 76
     1
 52
45.0
 41
1200.0
 77
     0
 78
     2
 53
45.0
 43
805.4544434973236
 44
1540.744451254005
 45
-106.0660171779821
 46
106.0660171779821
 79
     0
 53
135.0
 43
805.4544434973236
 44
1540.744451254005
 45
-106.0660171779821
 46
-106.0660171779821
 79
     0
 47
13.72685409126766
 98
        6
 10
25736.51944846262
 20
13003.59769468834
 10
25654.09407880364
 20
12523.15775502331
 10
25626.61899695334
 20
11850.54195477159
 10
24129.2243677878
 20
11795.63451456858
 10
24156.69944963811
 20
12344.70870045023
 10
24239.12494340513
 20
12880.0560082687
  0
LINE
  5
5FA
330
1F
100
AcDbEntity
  8
画層3-通り芯
  6
DASHDOT
 48
100.0
100
AcDbLine
 10
24838.78777682849
 20
10777.70822945549
 30
0.0
 11
24838.78777682849
 21
13324.07778458737
 31
0.0
  0
LINE
  5
5FB
330
1F
100
AcDbEntity
  8
画層3-1
  6
Continuous
100
AcDbLine
 10
24813.38777682858
 20
11989.07778458726
 30
0.0
 11
24813.38777682858
 21
11382.17778458723
 31
0.0
  0
LINE
  5
5FC
330
1F
100
AcDbEntity
  8
画層3-1
  6
Continuous
100
AcDbLine
 10
24864.18777682886
 20
11989.07778458726
 30
0.0
 11
24864.18777682886
 21
11382.17778458735
 31
0.0
  0
LINE
  5
5FD
330
1F
100
AcDbEntity
  8
画層3-2
  6
Continuous
100
AcDbLine
 10
24904.13777682858
 20
11989.07778458726
 30
0.0
 11
24904.13777682858
 21
11324.07778458726
 31
0.0
  0
LINE
  5
5FE
330
1F
100
AcDbEntity
  8
画層3-2
  6
Continuous
100
AcDbLine
 10
24773.43777682886
 20
11324.07778458726
 30
0.0
 11
24773.43777682886
 21
11989.07778458726
 31
0.0
  0
LINE
  5
5FF
330
1F
100
AcDbEntity
  8
画層3-1
  6
Continuous
100
AcDbLine
 10
24773.43777682886
 20
11402.17778458735
 30
0.0
 11
24904.13777682858
 21
11402.17778458735
 31
0.0
  0
HATCH
  5
600
330
1F
100
AcDbEntity
  8
画層3-3
100
AcDbHatch
 10
0.0
 20
0.0
 30
0.0
210
0.0
220
0.0
230
1.0
  2
PLAST
 70
     0
 71
     0
 91
        1
 92
        7
 72
     0
 73
     1
 93
        4
 10
24963.78777682849
 20
11324.07778458714
 10
24713.78777682849
 20
11324.07778458714
 10
24713.78777682849
 20
10874.07778458714
 10
24963.78777682849
 20
10874.07778458714
 97
        0
 75
     0
 76
     1
 52
45.0
 41
1800.0
 77
     0
 78
     3
 53
45.0
 43
18696.44512106266
 44
4882.410768075942
 45
-318.1980515339463
 46
318.1980515339464
 79
     0
 53
45.0
 43
18656.67036462084
 44
4922.185524517768
 45
-318.1980515339463
 46
318.1980515339464
 79
     0
 53
45.0
 43
18616.89560817901
 44
4961.960280959475
 45
-318.1980515339463
 46
318.1980515339464
 79
     0
 47
2.4753793195157
 98
        1
 10
24952.6809745922
 20
11083.28523259491
  0
LWPOLYLINE
  5
601
330
1F
100
AcDbEntity
  8
画層3-2
100
AcDbPolyline
 90
        4
 70
     0
 43
0.0
 10
24963.78777682849
 20
11324.07778458714
 10
24963.78777682849
 20
10874.07778458714
 10
24713.78777682849
 20
10874.07778458714
 10
24713.78777682849
 20
11324.07778458714
  0
TEXT
  5
602
330
1F
100
AcDbEntity
  8
画層3-寸法
  6
Continuous
100
AcDbText
 10
25123.32576053517
 20
7662.39992286298
 30
0.0
 40
300.0
  1
2,000
 41
0.75
  7
1_100
100
AcDbText
  0
LINE
  5
603
330
1F
100
AcDbEntity
  8
画層3-1
  6
Continuous
100
AcDbLine
 10
24874.58777682876
 20
13245.97778458717
 30
0.0
 11
24802.98777682867
 21
13245.97778458728
 31
0.0
  0
LINE
  5
604
330
1F
100
AcDbEntity
  8
画層3-1
  6
Continuous
100
AcDbLine
 10
24874.58777682876
 20
13245.97778458717
 30
0.0
 11
24889.58777682876
 21
13260.97778458716
 31
0.0
  0
ARC
  5
605
330
1F
100
AcDbEntity
  8
画層3-1
  6
Continuous
100
AcDbCircle
 10
24798.38777682858
 20
13245.97778458728
 30
0.0
 40
15.0
100
AcDbArc
 50
0.0
 51
90.0
  0
LINE
  5
606
330
1F
100
AcDbEntity
  8
画層3-1
  6
Continuous
100
AcDbLine
 10
24889.58777682876
 20
13260.97778458716
 30
0.0
 11
24889.58777682876
 21
13299.07778458726
 31
0.0
  0
ARC
  5
607
330
1F
100
AcDbEntity
  8
画層3-1
  6
Continuous
100
AcDbCircle
 10
24879.18777682886
 20
13245.97778458717
 30
0.0
 40
15.0
100
AcDbArc
 50
90.0
 51
180.0
  0
LINE
  5
608
330
1F
100
AcDbEntity
  8
画層3-1
  6
Continuous
100
AcDbLine
 10
24787.98777682867
 20
13299.07778458726
 30
0.0
 11
24787.98777682867
 21
13260.97778458728
 31
0.0
  0
LINE
  5
609
330
1F
100
AcDbEntity
  8
画層3-1
  6
Continuous
100
AcDbLine
 10
24787.98777682867
 20
13260.97778458728
 30
0.0
 11
24802.98777682867
 21
13245.97778458728
 31
0.0
  0
LINE
  5
60A
330
1F
100
AcDbEntity
  8
画層3-1
  6
Continuous
100
AcDbLine
 10
24919.13777682858
 20
12649.07778458726
 30
0.0
 11
24919.13777682858
 21
12679.07778458726
 31
0.0
  0
LINE
  5
60B
330
1F
100
AcDbEntity
  8
画層3-1
  6
Continuous
100
AcDbLine
 10
24919.13777682858
 20
11989.07778458726
 30
0.0
 11
24919.13777682858
 21
12019.07778458725
 31
0.0
  0
LINE
  5
60C
330
1F
100
AcDbEntity
  8
画層3-1
  6
Continuous
100
AcDbLine
 10
24813.38777682858
 20
12649.07778458726
 30
0.0
 11
24813.38777682858
 21
12019.07778458725
 31
0.0
  0
LINE
  5
60D
330
1F
100
AcDbEntity
  8
画層3-1
  6
Continuous
100
AcDbLine
 10
24864.18777682886
 20
12649.07778458726
 30
0.0
 11
24864.18777682886
 21
12019.07778458725
 31
0.0
  0
LINE
  5
60E
330
1F
100
AcDbEntity
  8
画層3-2
  6
Continuous
100
AcDbLine
 10
24904.13777682858
 20
12649.07778458726
 30
0.0
 11
24904.13777682858
 21
12019.07778458725
 31
0.0
  0
LINE
  5
60F
330
1F
100
AcDbEntity
  8
画層3-1
  6
Continuous
100
AcDbLine
 10
24758.43777682886
 20
12679.07778458726
 30
0.0
 11
24758.43777682886
 21
12649.07778458726
 31
0.0
  0
LINE
  5
610
330
1F
100
AcDbEntity
  8
画層3-1
  6
Continuous
100
AcDbLine
 10
24758.43777682886
 20
12019.07778458725
 30
0.0
 11
24758.43777682886
 21
11989.07778458726
 31
0.0
  0
LINE
  5
611
330
1F
100
AcDbEntity
  8
画層3-2
  6
Continuous
100
AcDbLine
 10
24773.43777682886
 20
12019.07778458725
 30
0.0
 11
24773.43777682886
 21
12649.07778458726
 31
0.0
  0
LINE
  5
612
330
1F
100
AcDbEntity
  8
画層3-1
  6
Continuous
100
AcDbLine
 10
24919.13777682858
 20
12679.07778458726
 30
0.0
 11
24758.43777682886
 21
12679.07778458726
 31
0.0
  0
LINE
  5
613
330
1F
100
AcDbEntity
  8
画層3-1
  6
Continuous
100
AcDbLine
 10
24758.43777682886
 20
12649.07778458726
 30
0.0
 11
24919.13777682858
 21
12649.07778458726
 31
0.0
  0
LINE
  5
614
330
1F
100
AcDbEntity
  8
画層3-1
  6
Continuous
100
AcDbLine
 10
24919.13777682858
 20
12019.07778458725
 30
0.0
 11
24758.43777682886
 21
12019.07778458725
 31
0.0
  0
LINE
  5
615
330
1F
100
AcDbEntity
  8
画層3-1
  6
Continuous
100
AcDbLine
 10
24758.43777682886
 20
11989.07778458726
 30
0.0
 11
24919.13777682858
 21
11989.07778458726
 31
0.0
  0
LINE
  5
616
330
1F
100
AcDbEntity
  8
画層3-1
  6
Continuous
100
AcDbLine
 10
24813.38777682858
 20
13245.97778458728
 30
0.0
 11
24813.38777682858
 21
12679.07778458726
 31
0.0
  0
LINE
  5
617
330
1F
100
AcDbEntity
  8
画層3-1
  6
Continuous
100
AcDbLine
 10
24864.18777682886
 20
13245.97778458717
 30
0.0
 11
24864.18777682886
 21
12679.07778458726
 31
0.0
  0
LINE
  5
618
330
1F
100
AcDbEntity
  8
画層3-2
  6
Continuous
100
AcDbLine
 10
24773.43777682886
 20
12679.07778458726
 30
0.0
 11
24773.43777682886
 21
13260.97778458728
 31
0.0
  0
LINE
  5
619
330
1F
100
AcDbEntity
  8
画層3-2
  6
Continuous
100
AcDbLine
 10
24904.13777682858
 20
13260.97778458728
 30
0.0
 11
24904.13777682858
 21
12679.07778458726
 31
0.0
  0
LWPOLYLINE
  5
61A
330
1F
100
AcDbEntity
  8
画層3-1
100
AcDbPolyline
 90
        4
 70
     0
 43
0.0
 10
24864.18777682886
 20
11344.07778458726
 10
24864.18777682886
 20
11024.07778458726
 10
24813.38777682858
 20
11024.07778458726
 10
24813.38777682858
 20
11344.07778458749
  0
LINE
  5
61B
330
1F
100
AcDbEntity
  8
画層3-通り芯
  6
DASHDOT
 48
100.0
100
AcDbLine
 10
22838.78777682848
 20
10777.70822945549
 30
0.0
 11
22838.78777682848
 21
13324.07778458737
 31
0.0
  0
LINE
  5
61C
330
1F
100
AcDbEntity
  8
画層3-2
  6
Continuous
100
AcDbLine
 10
22773.43777682886
 20
11324.07778458726
 30
0.0
 11
22773.43777682886
 21
11989.07778458726
 31
0.0
  0
LINE
  5
61D
330
1F
100
AcDbEntity
  8
画層3-2
  6
Continuous
100
AcDbLine
 10
22904.13777682858
 20
11989.07778458726
 30
0.0
 11
22904.13777682858
 21
11324.07778458726
 31
0.0
  0
LINE
  5
61E
330
1F
100
AcDbEntity
  8
画層3-1
  6
Continuous
100
AcDbLine
 10
22864.18777682886
 20
11989.07778458726
 30
0.0
 11
22864.18777682886
 21
11382.17778458735
 31
0.0
  0
LINE
  5
61F
330
1F
100
AcDbEntity
  8
画層3-1
  6
Continuous
100
AcDbLine
 10
22813.38777682858
 20
11989.07778458726
 30
0.0
 11
22813.38777682858
 21
11382.17778458723
 31
0.0
  0
LINE
  5
620
330
1F
100
AcDbEntity
  8
画層3-通り芯
  6
DASHDOT
 48
100.0
100
AcDbLine
 10
20838.7877768285
 20
10777.70822945549
 30
0.0
 11
20838.7877768285
 21
13324.07778458737
 31
0.0
  0
LINE
  5
621
330
1F
100
AcDbEntity
  8
画層3-1
  6
Continuous
100
AcDbLine
 10
20813.38777682858
 20
11989.07778458726
 30
0.0
 11
20813.38777682858
 21
11382.17778458723
 31
0.0
  0
LINE
  5
622
330
1F
100
AcDbEntity
  8
画層3-1
  6
Continuous
100
AcDbLine
 10
20864.18777682886
 20
11989.07778458726
 30
0.0
 11
20864.18777682886
 21
11382.17778458735
 31
0.0
  0
LINE
  5
623
330
1F
100
AcDbEntity
  8
画層3-2
  6
Continuous
100
AcDbLine
 10
20904.13777682858
 20
11989.07778458726
 30
0.0
 11
20904.13777682858
 21
11324.07778458726
 31
0.0
  0
LINE
  5
624
330
1F
100
AcDbEntity
  8
画層3-2
  6
Continuous
100
AcDbLine
 10
20773.43777682886
 20
11324.07778458726
 30
0.0
 11
20773.43777682886
 21
11989.07778458726
 31
0.0
  0
LINE
  5
625
330
1F
100
AcDbEntity
  8
画層3-1
  6
Continuous
100
AcDbLine
 10
16813.38777682858
 20
11465.46043738546
 30
0.0
 11
16813.38777682858
 21
11382.17778458723
 31
0.0
  0
LINE
  5
626
330
1F
100
AcDbEntity
  8
画層3-1
  6
Continuous
100
AcDbLine
 10
16864.18777682886
 20
11465.46043738546
 30
0.0
 11
16864.18777682886
 21
11382.17778458735
 31
0.0
  0
LINE
  5
627
330
1F
100
AcDbEntity
  8
画層3-2
  6
Continuous
100
AcDbLine
 10
16773.43777682886
 20
11324.07778458726
 30
0.0
 11
16773.43777682886
 21
11465.46043738546
 31
0.0
  0
LINE
  5
628
330
1F
100
AcDbEntity
  8
画層3-2
  6
Continuous
100
AcDbLine
 10
16904.13777682858
 20
11465.46043738546
 30
0.0
 11
16904.13777682858
 21
11324.07778458726
 31
0.0
  0
LINE
  5
629
330
1F
100
AcDbEntity
  8
画層3-通り芯
  6
DASHDOT
 48
100.0
100
AcDbLine
 10
16838.78777682848
 20
10777.70822945549
 30
0.0
 11
16838.78777682848
 21
11465.46043738546
 31
0.0
  0
LINE
  5
62A
330
1F
100
AcDbEntity
  8
画層3-1
  6
Continuous
100
AcDbLine
 10
18813.38777682858
 20
11989.07778458726
 30
0.0
 11
18813.38777682858
 21
11382.17778458723
 31
0.0
  0
LINE
  5
62B
330
1F
100
AcDbEntity
  8
画層3-2
  6
Continuous
100
AcDbLine
 10
18904.13777682858
 20
11989.07778458726
 30
0.0
 11
18904.13777682858
 21
11324.07778458726
 31
0.0
  0
LINE
  5
62C
330
1F
100
AcDbEntity
  8
画層3-2
  6
Continuous
100
AcDbLine
 10
18773.43777682886
 20
11324.07778458726
 30
0.0
 11
18773.43777682886
 21
11989.07778458726
 31
0.0
  0
LINE
  5
62D
330
1F
100
AcDbEntity
  8
画層3-1
  6
Continuous
100
AcDbLine
 10
18864.18777682886
 20
11989.07778458726
 30
0.0
 11
18864.18777682886
 21
11382.17778458735
 31
0.0
  0
HATCH
  5
62E
330
1F
100
AcDbEntity
  8
画層3-3
 62
   230
370
    13
100
AcDbHatch
 10
0.0
 20
0.0
 30
0.0
210
0.0
220
0.0
230
1.0
  2
NET
 70
     0
 71
     0
 91
        6
 92
        7
 72
     0
 73
     1
 93
       12
 10
22758.43777682886
 20
12664.07778458725
 10
22758.43777682886
 20
12679.07778458726
 10
22813.38777682858
 20
12679.07778458726
 10
22813.38777682858
 20
13245.97778458728
 10
22802.98777682867
 20
13245.97778458728
 10
22787.98777682867
 20
13260.9777845874
 10
20889.58777682877
 20
13260.97778458728
 10
20874.58777682877
 20
13245.97778458728
 10
20864.18777682886
 20
13245.97778458728
 10
20864.18777682886
 20
12679.07778458726
 10
20919.13777682858
 20
12679.07778458726
 10
20919.13777682858
 20
12664.07778458725
 97
        0
 92
        7
 72
     0
 73
     1
 93
       12
 10
20919.13777682858
 20
12664.07778458725
 10
20919.13777682858
 20
12649.07778458726
 10
20864.18777682886
 20
12649.07778458726
 10
20864.18777682886
 20
12019.07778458725
 10
20919.13777682858
 20
12019.07778458725
 10
20919.13777682858
 20
12004.07778458726
 10
22758.43777682886
 20
12004.07778458737
 10
22758.43777682886
 20
12019.07778458725
 10
22813.38777682858
 20
12019.07778458725
 10
22813.38777682858
 20
12649.07778458726
 10
22758.43777682886
 20
12649.07778458726
 10
22758.43777682886
 20
12664.07778458737
 97
        0
 92
        7
 72
     0
 73
     1
 93
        8
 10
20919.13777682858
 20
12004.07778458726
 10
20919.13777682858
 20
11989.07778458726
 10
20864.18777682886
 20
11989.07778458726
 10
20864.18777682886
 20
11382.17778458723
 10
22813.38777682858
 20
11382.17778458723
 10
22813.38777682858
 20
11989.07778458726
 10
22758.43777682886
 20
11989.07778458726
 10
22758.43777682886
 20
12004.07778458737
 97
        0
 92
        7
 72
     0
 73
     1
 93
        8
 10
18919.13777682858
 20
12004.07778458714
 10
18919.13777682858
 20
11989.07778458726
 10
18864.18777682886
 20
11989.07778458726
 10
18864.18777682886
 20
11382.17778458723
 10
20813.38777682858
 20
11382.17778458723
 10
20813.38777682858
 20
11989.07778458726
 10
20758.43777682886
 20
11989.07778458726
 10
20758.43777682886
 20
12004.07778458726
 97
        0
 92
        7
 72
     0
 73
     1
 93
       12
 10
20758.43777682886
 20
12004.07778458726
 10
20758.43777682886
 20
12019.07778458725
 10
20813.38777682858
 20
12019.07778458725
 10
20813.38777682858
 20
12649.07778458726
 10
20758.43777682886
 20
12649.07778458726
 10
20758.43777682886
 20
12664.07778458725
 10
18919.13777682858
 20
12664.07778458725
 10
18919.13777682858
 20
12649.07778458726
 10
18864.18777682886
 20
12649.07778458726
 10
18864.18777682886
 20
12019.07778458725
 10
18919.13777682858
 20
12019.07778458725
 10
18919.13777682858
 20
12004.07778458714
 97
        0
 92
        7
 72
     0
 73
     1
 93
       12
 10
20758.43777682886
 20
12664.07778458725
 10
20758.43777682886
 20
12679.07778458726
 10
20813.38777682858
 20
12679.07778458726
 10
20813.38777682858
 20
13245.97778458728
 10
20802.98777682867
 20
13245.97778458728
 10
20787.98777682867
 20
13260.97778458728
 10
18889.58777682876
 20
13260.97778458716
 10
18874.58777682876
 20
13245.97778458717
 10
18864.18777682886
 20
13245.97778458728
 10
18864.18777682886
 20
12679.07778458726
 10
18919.13777682858
 20
12679.07778458726
 10
18919.13777682858
 20
12664.07778458725
 97
        0
 75
     0
 76
     1
 52
45.0
 41
1200.0
 77
     0
 78
     2
 53
45.0
 43
805.4544434973236
 44
1540.744451254005
 45
-106.0660171779821
 46
106.0660171779821
 79
     0
 53
135.0
 43
805.4544434973236
 44
1540.744451254005
 45
-106.0660171779821
 46
-106.0660171779821
 79
     0
 47
13.72685409126766
 98
        6
 10
21999.90186320033
 20
12852.60225214237
 10
21944.95157539167
 20
12372.1623845269
 10
21890.001287583
 20
11795.63451456858
 10
20090.38026163189
 20
11795.63451456858
 10
20159.0681524195
 20
12221.1670140306
 10
20310.1812887585
 20
12921.23657040854
  0
LINE
  5
62F
330
1F
100
AcDbEntity
  8
画層3-1
  6
Continuous
100
AcDbLine
 10
18864.18777682886
 20
11344.07778458726
 30
0.0
 11
20813.38777682858
 21
11344.07778458726
 31
0.0
  0
LINE
  5
630
330
1F
100
AcDbEntity
  8
画層3-1
  6
Continuous
100
AcDbLine
 10
18864.18777682886
 20
11382.17778458735
 30
0.0
 11
20813.38777682858
 21
11382.17778458735
 31
0.0
  0
DIMENSION
  5
631
330
1F
100
AcDbEntity
  8
画層3-寸法
  6
Continuous
100
AcDbDimension
  2
*D11
 10
20838.7877768285
 20
7524.077784587261
 30
0.0
 11
19838.78777682848
 21
7802.649213158689
 31
0.0
 70
    32
 71
     5
 42
2000.0
  3
1_100
100
AcDbAlignedDimension
 13
18838.78777682848
 23
8724.07778458726
 33
0.0
 14
20838.7877768285
 24
8724.07778458726
 34
0.0
100
AcDbRotatedDimension
  0
LINE
  5
632
330
1F
100
AcDbEntity
  8
画層3-1
  6
Continuous
100
AcDbLine
 10
18773.43777682886
 20
11402.17778458735
 30
0.0
 11
18904.13777682858
 21
11402.17778458735
 31
0.0
  0
LINE
  5
633
330
1F
100
AcDbEntity
  8
画層2-1
  6
Continuous
100
AcDbLine
 10
18705.08777682876
 20
11174.07778458726
 30
0.0
 11
18972.48777682866
 21
11174.07778458726
 31
0.0
  0
LINE
  5
634
330
1F
100
AcDbEntity
  8
画層3-1
  6
Continuous
100
AcDbLine
 10
16773.43777682886
 20
11402.17778458735
 30
0.0
 11
16904.13777682858
 21
11402.17778458735
 31
0.0
  0
HATCH
  5
635
330
1F
100
AcDbEntity
  8
画層3-3
100
AcDbHatch
 10
0.0
 20
0.0
 30
0.0
210
0.0
220
0.0
230
1.0
  2
PLAST
 70
     0
 71
     0
 91
        1
 92
        7
 72
     0
 73
     1
 93
        4
 10
16963.78777682848
 20
11324.07778458726
 10
16713.78777682848
 20
11324.07778458726
 10
16713.78777682848
 20
10874.07778458726
 10
16963.78777682848
 20
10874.07778458726
 97
        0
 75
     0
 76
     1
 52
45.0
 41
1800.0
 77
     0
 78
     3
 53
45.0
 43
10696.44512106266
 44
4882.410768076059
 45
-318.1980515339463
 46
318.1980515339464
 79
     0
 53
45.0
 43
10656.67036462083
 44
4922.185524517768
 45
-318.1980515339463
 46
318.1980515339464
 79
     0
 53
45.0
 43
10616.89560817901
 44
4961.960280959591
 45
-318.1980515339463
 46
318.1980515339464
 79
     0
 47
2.4753793195157
 98
        1
 10
16952.68097459219
 20
11083.28523259503
  0
LWPOLYLINE
  5
636
330
1F
100
AcDbEntity
  8
画層3-2
100
AcDbPolyline
 90
        4
 70
     0
 43
0.0
 10
16963.78777682848
 20
11324.07778458726
 10
16963.78777682848
 20
10874.07778458726
 10
16713.78777682848
 20
10874.07778458726
 10
16713.78777682848
 20
11324.07778458726
  0
LINE
  5
637
330
1F
100
AcDbEntity
  8
画層3-1
  6
Continuous
100
AcDbLine
 10
16864.18777682886
 20
11382.17778458735
 30
0.0
 11
18813.38777682858
 21
11382.17778458723
 31
0.0
  0
LINE
  5
638
330
1F
100
AcDbEntity
  8
画層3-1
  6
Continuous
100
AcDbLine
 10
16864.18777682886
 20
11344.07778458726
 30
0.0
 11
18813.38777682858
 21
11344.07778458726
 31
0.0
  0
DIMENSION
  5
639
330
1F
100
AcDbEntity
  8
画層3-寸法
  6
Continuous
100
AcDbDimension
  2
*D12
 10
18838.78777682848
 20
7524.077784587261
 30
0.0
 11
17838.78777682848
 21
7802.649213158689
 31
0.0
 70
    32
 71
     5
 42
2000.0
  3
1_100
100
AcDbAlignedDimension
 13
16838.78777682848
 23
8724.07778458726
 33
0.0
 14
18838.78777682848
 24
8724.07778458726
 34
0.0
100
AcDbRotatedDimension
  0
LINE
  5
63A
330
1F
100
AcDbEntity
  8
画層3-1
  6
Continuous
100
AcDbLine
 10
22773.43777682886
 20
11402.17778458735
 30
0.0
 11
22904.13777682858
 21
11402.17778458735
 31
0.0
  0
HATCH
  5
63B
330
1F
100
AcDbEntity
  8
画層3-3
100
AcDbHatch
 10
0.0
 20
0.0
 30
0.0
210
0.0
220
0.0
230
1.0
  2
PLAST
 70
     0
 71
     0
 91
        1
 92
        7
 72
     0
 73
     1
 93
        4
 10
22963.78777682849
 20
11324.07778458726
 10
22713.7877768285
 20
11324.07778458714
 10
22713.7877768285
 20
10874.07778458726
 10
22963.78777682849
 20
10874.07778458726
 97
        0
 75
     0
 76
     1
 52
45.0
 41
1800.0
 77
     0
 78
     3
 53
45.0
 43
16696.44512106265
 44
4882.410768075942
 45
-318.1980515339463
 46
318.1980515339464
 79
     0
 53
45.0
 43
16656.67036462084
 44
4922.185524517768
 45
-318.1980515339463
 46
318.1980515339464
 79
     0
 53
45.0
 43
16616.89560817901
 44
4961.960280959475
 45
-318.1980515339463
 46
318.1980515339464
 79
     0
 47
2.4753793195157
 98
        1
 10
22952.6809745922
 20
11083.28523259491
  0
LWPOLYLINE
  5
63C
330
1F
100
AcDbEntity
  8
画層3-2
100
AcDbPolyline
 90
        4
 70
     0
 43
0.0
 10
22963.78777682849
 20
11324.07778458726
 10
22963.78777682849
 20
10874.07778458726
 10
22713.7877768285
 20
10874.07778458726
 10
22713.7877768285
 20
11324.07778458726
  0
LINE
  5
63D
330
1F
100
AcDbEntity
  8
画層3-1
  6
Continuous
100
AcDbLine
 10
20773.43777682886
 20
11402.17778458735
 30
0.0
 11
20904.13777682858
 21
11402.17778458735
 31
0.0
  0
HATCH
  5
63E
330
1F
100
AcDbEntity
  8
画層3-3
100
AcDbHatch
 10
0.0
 20
0.0
 30
0.0
210
0.0
220
0.0
230
1.0
  2
PLAST
 70
     0
 71
     0
 91
        1
 92
        7
 72
     0
 73
     1
 93
        4
 10
20963.78777682848
 20
11324.07778458726
 10
20713.78777682848
 20
11324.07778458726
 10
20713.78777682848
 20
10874.07778458726
 10
20963.78777682848
 20
10874.07778458726
 97
        0
 75
     0
 76
     1
 52
45.0
 41
1800.0
 77
     0
 78
     3
 53
45.0
 43
14696.44512106266
 44
4882.410768075942
 45
-318.1980515339463
 46
318.1980515339464
 79
     0
 53
45.0
 43
14656.67036462083
 44
4922.185524517768
 45
-318.1980515339463
 46
318.1980515339464
 79
     0
 53
45.0
 43
14616.89560817901
 44
4961.960280959475
 45
-318.1980515339463
 46
318.1980515339464
 79
     0
 47
2.4753793195157
 98
        1
 10
20952.6809745922
 20
11083.28523259491
  0
LWPOLYLINE
  5
63F
330
1F
100
AcDbEntity
  8
画層3-2
100
AcDbPolyline
 90
        4
 70
     0
 43
0.0
 10
20963.78777682848
 20
11324.07778458726
 10
20963.78777682848
 20
10874.07778458726
 10
20713.78777682848
 20
10874.07778458726
 10
20713.78777682848
 20
11324.07778458726
  0
LINE
  5
640
330
1F
100
AcDbEntity
  8
画層3-1
  6
Continuous
100
AcDbLine
 10
20864.18777682886
 20
11382.17778458723
 30
0.0
 11
22813.38777682858
 21
11382.17778458735
 31
0.0
  0
LINE
  5
641
330
1F
100
AcDbEntity
  8
画層3-1
  6
Continuous
100
AcDbLine
 10
20864.18777682886
 20
11344.07778458726
 30
0.0
 11
22813.38777682858
 21
11344.07778458726
 31
0.0
  0
TEXT
  5
642
330
1F
100
AcDbEntity
  8
寸法
  6
Continuous
100
AcDbText
 10
21999.30676203707
 20
7019.483259281241
 30
0.0
 40
300.0
  1
10,000
 41
0.75
  7
1_100
 11
21999.30676203707
 21
7019.483259281241
 31
0.0
100
AcDbText
 73
     1
  0
DIMENSION
  5
643
330
1F
100
AcDbEntity
  8
画層3-寸法
  6
Continuous
100
AcDbDimension
  2
*D13
 10
22838.78777682848
 20
7524.077784587261
 30
0.0
 11
21838.78777682849
 21
7802.649213158689
 31
0.0
 70
    32
 71
     5
 42
2000.0
  3
1_100
100
AcDbAlignedDimension
 13
20838.7877768285
 23
8724.07778458726
 33
0.0
 14
22838.78777682848
 24
8724.07778458726
 34
0.0
100
AcDbRotatedDimension
  0
LINE
  5
644
330
1F
100
AcDbEntity
  8
画層3-2
  6
Continuous
100
AcDbLine
 10
18919.13777682858
 20
12664.07778458725
 30
0.0
 11
20758.43777682886
 21
12664.07778458725
 31
0.0
  0
LINE
  5
645
330
1F
100
AcDbEntity
  8
画層3-2
  6
Continuous
100
AcDbLine
 10
20758.43777682886
 20
12004.07778458726
 30
0.0
 11
18919.13777682858
 21
12004.07778458726
 31
0.0
  0
LINE
  5
646
330
1F
100
AcDbEntity
  8
画層3-1
  6
Continuous
100
AcDbLine
 10
18879.18777682886
 20
13260.97778458716
 30
0.0
 11
20798.38777682858
 21
13260.97778458728
 31
0.0
  0
ARC
  5
647
330
1F
100
AcDbEntity
  8
画層3-1
  6
Continuous
100
AcDbCircle
 10
18798.38777682858
 20
13245.97778458728
 30
0.0
 40
15.0
100
AcDbArc
 50
0.0
 51
90.0
  0
LINE
  5
648
330
1F
100
AcDbEntity
  8
画層3-1
  6
Continuous
100
AcDbLine
 10
18787.98777682867
 20
13299.07778458726
 30
0.0
 11
18787.98777682867
 21
13260.97778458728
 31
0.0
  0
LINE
  5
649
330
1F
100
AcDbEntity
  8
画層3-1
  6
Continuous
100
AcDbLine
 10
18787.98777682867
 20
13260.97778458728
 30
0.0
 11
18802.98777682867
 21
13245.97778458728
 31
0.0
  0
ARC
  5
64A
330
1F
100
AcDbEntity
  8
画層3-1
  6
Continuous
100
AcDbCircle
 10
18879.18777682886
 20
13245.97778458717
 30
0.0
 40
15.0
100
AcDbArc
 50
90.0
 51
180.0
  0
LINE
  5
64B
330
1F
100
AcDbEntity
  8
画層3-1
  6
Continuous
100
AcDbLine
 10
18874.58777682876
 20
13245.97778458717
 30
0.0
 11
18802.98777682867
 21
13245.97778458728
 31
0.0
  0
LINE
  5
64C
330
1F
100
AcDbEntity
  8
画層3-1
  6
Continuous
100
AcDbLine
 10
18874.58777682876
 20
13245.97778458717
 30
0.0
 11
18889.58777682876
 21
13260.97778458716
 31
0.0
  0
LINE
  5
64D
330
1F
100
AcDbEntity
  8
画層3-1
  6
Continuous
100
AcDbLine
 10
18889.58777682876
 20
13260.97778458716
 30
0.0
 11
18889.58777682876
 21
13299.07778458726
 31
0.0
  0
CIRCLE
  5
64E
330
1F
100
AcDbEntity
  8
画層1
  6
Continuous
100
AcDbCircle
 10
18838.78777682848
 20
13324.07778458726
 30
0.0
 40
10.7662971851
  0
LINE
  5
64F
330
1F
100
AcDbEntity
  8
画層1
  6
Continuous
100
AcDbLine
 10
18813.78777682848
 20
13349.07778458725
 30
0.0
 11
18813.78777682848
 21
13299.07778458726
 31
0.0
  0
LINE
  5
650
330
1F
100
AcDbEntity
  8
画層1
  6
Continuous
100
AcDbLine
 10
18863.78777682848
 20
13299.07778458726
 30
0.0
 11
18863.78777682848
 21
13349.07778458725
 31
0.0
  0
CIRCLE
  5
651
330
1F
100
AcDbEntity
  8
画層1
  6
Continuous
100
AcDbCircle
 10
18997.48777682867
 20
13324.07778458726
 30
0.0
 40
10.7662971851
  0
CIRCLE
  5
652
330
1F
100
AcDbEntity
  8
画層1
  6
Continuous
100
AcDbCircle
 10
18680.08777682876
 20
13324.07778458726
 30
0.0
 40
10.7662971851
  0
LINE
  5
653
330
1F
100
AcDbEntity
  8
画層3-1
  6
Continuous
100
AcDbLine
 10
18758.43777682885
 20
12679.07778458726
 30
0.0
 11
18758.43777682885
 21
12649.07778458726
 31
0.0
  0
LINE
  5
654
330
1F
100
AcDbEntity
  8
画層3-1
  6
Continuous
100
AcDbLine
 10
18758.43777682885
 20
12649.07778458726
 30
0.0
 11
18919.13777682858
 21
12649.07778458726
 31
0.0
  0
LINE
  5
655
330
1F
100
AcDbEntity
  8
画層3-1
  6
Continuous
100
AcDbLine
 10
18919.13777682858
 20
12649.07778458726
 30
0.0
 11
18919.13777682858
 21
12679.07778458726
 31
0.0
  0
LINE
  5
656
330
1F
100
AcDbEntity
  8
画層3-1
  6
Continuous
100
AcDbLine
 10
18919.13777682858
 20
12679.07778458726
 30
0.0
 11
18758.43777682885
 21
12679.07778458726
 31
0.0
  0
LINE
  5
657
330
1F
100
AcDbEntity
  8
画層3-1
  6
Continuous
100
AcDbLine
 10
18758.43777682885
 20
12019.07778458725
 30
0.0
 11
18758.43777682885
 21
11989.07778458726
 31
0.0
  0
LINE
  5
658
330
1F
100
AcDbEntity
  8
画層3-1
  6
Continuous
100
AcDbLine
 10
18758.43777682885
 20
11989.07778458726
 30
0.0
 11
18919.13777682858
 21
11989.07778458726
 31
0.0
  0
LINE
  5
659
330
1F
100
AcDbEntity
  8
画層3-1
  6
Continuous
100
AcDbLine
 10
18919.13777682858
 20
11989.07778458726
 30
0.0
 11
18919.13777682858
 21
12019.07778458725
 31
0.0
  0
LINE
  5
65A
330
1F
100
AcDbEntity
  8
画層3-1
  6
Continuous
100
AcDbLine
 10
18919.13777682858
 20
12019.07778458725
 30
0.0
 11
18758.43777682885
 21
12019.07778458725
 31
0.0
  0
LINE
  5
65B
330
1F
100
AcDbEntity
  8
画層3-1
  6
Continuous
100
AcDbLine
 10
18813.38777682858
 20
12649.07778458726
 30
0.0
 11
18813.38777682858
 21
12019.07778458725
 31
0.0
  0
LINE
  5
65C
330
1F
100
AcDbEntity
  8
画層3-2
  6
Continuous
100
AcDbLine
 10
18904.13777682858
 20
12649.07778458726
 30
0.0
 11
18904.13777682858
 21
12019.07778458725
 31
0.0
  0
LINE
  5
65D
330
1F
100
AcDbEntity
  8
画層3-2
  6
Continuous
100
AcDbLine
 10
18773.43777682886
 20
12019.07778458725
 30
0.0
 11
18773.43777682886
 21
12649.07778458726
 31
0.0
  0
LINE
  5
65E
330
1F
100
AcDbEntity
  8
画層3-1
  6
Continuous
100
AcDbLine
 10
18864.18777682886
 20
12649.07778458726
 30
0.0
 11
18864.18777682886
 21
12019.07778458725
 31
0.0
  0
LINE
  5
65F
330
1F
100
AcDbEntity
  8
画層3-2
  6
Continuous
100
AcDbLine
 10
18758.43777682885
 20
12004.07778458726
 30
0.0
 11
18100.58593807809
 21
12004.07778458726
 31
0.0
  0
LINE
  5
660
330
1F
100
AcDbEntity
  8
画層3-1
  6
Continuous
100
AcDbLine
 10
18813.38777682858
 20
13245.97778458728
 30
0.0
 11
18813.38777682858
 21
12679.07778458726
 31
0.0
  0
LINE
  5
661
330
1F
100
AcDbEntity
  8
画層3-2
  6
Continuous
100
AcDbLine
 10
18773.43777682886
 20
12679.07778458726
 30
0.0
 11
18773.43777682886
 21
13260.97778458728
 31
0.0
  0
LINE
  5
662
330
1F
100
AcDbEntity
  8
画層3-2
  6
Continuous
100
AcDbLine
 10
18904.13777682858
 20
13260.97778458728
 30
0.0
 11
18904.13777682858
 21
12679.07778458726
 31
0.0
  0
LINE
  5
663
330
1F
100
AcDbEntity
  8
画層3-1
  6
Continuous
100
AcDbLine
 10
18864.18777682886
 20
13245.97778458717
 30
0.0
 11
18864.18777682886
 21
12679.07778458726
 31
0.0
  0
LINE
  5
664
330
1F
100
AcDbEntity
  8
画層3-1
  6
Continuous
100
AcDbLine
 10
16813.38777682858
 20
13245.97778458728
 30
0.0
 11
16813.38777682858
 21
13210.49330654447
 31
0.0
  0
LINE
  5
665
330
1F
100
AcDbEntity
  8
画層3-1
  6
Continuous
100
AcDbLine
 10
16864.18777682886
 20
13245.97778458717
 30
0.0
 11
16864.18777682886
 21
13210.49330654447
 31
0.0
  0
LINE
  5
666
330
1F
100
AcDbEntity
  8
画層3-2
  6
Continuous
100
AcDbLine
 10
16904.13777682858
 20
13260.97778458728
 30
0.0
 11
16904.13777682858
 21
13210.49330654447
 31
0.0
  0
LINE
  5
667
330
1F
100
AcDbEntity
  8
画層3-1
  6
Continuous
100
AcDbLine
 10
16874.58777682876
 20
13245.97778458717
 30
0.0
 11
16802.98777682867
 21
13245.97778458728
 31
0.0
  0
LINE
  5
668
330
1F
100
AcDbEntity
  8
画層3-1
  6
Continuous
100
AcDbLine
 10
16787.98777682867
 20
13260.97778458728
 30
0.0
 11
16802.98777682867
 21
13245.97778458728
 31
0.0
  0
LINE
  5
669
330
1F
100
AcDbEntity
  8
画層3-1
  6
Continuous
100
AcDbLine
 10
16787.98777682867
 20
13299.07778458726
 30
0.0
 11
16787.98777682867
 21
13260.97778458728
 31
0.0
  0
LINE
  5
66A
330
1F
100
AcDbEntity
  8
画層3-1
  6
Continuous
100
AcDbLine
 10
16874.58777682876
 20
13245.97778458717
 30
0.0
 11
16889.58777682876
 21
13260.97778458716
 31
0.0
  0
ARC
  5
66B
330
1F
100
AcDbEntity
  8
画層3-1
  6
Continuous
100
AcDbCircle
 10
16798.38777682858
 20
13245.97778458728
 30
0.0
 40
15.0
100
AcDbArc
 50
0.0
 51
90.0
  0
LINE
  5
66C
330
1F
100
AcDbEntity
  8
画層3-1
  6
Continuous
100
AcDbLine
 10
16889.58777682876
 20
13260.97778458716
 30
0.0
 11
16889.58777682876
 21
13299.07778458726
 31
0.0
  0
ARC
  5
66D
330
1F
100
AcDbEntity
  8
画層3-1
  6
Continuous
100
AcDbCircle
 10
16879.18777682886
 20
13245.97778458717
 30
0.0
 40
15.0
100
AcDbArc
 50
90.0
 51
180.0
  0
LINE
  5
66E
330
1F
100
AcDbEntity
  8
画層3-2
  6
Continuous
100
AcDbLine
 10
16773.43777682886
 20
13210.49330654447
 30
0.0
 11
16773.43777682886
 21
13260.97778458728
 31
0.0
  0
LINE
  5
66F
330
1F
100
AcDbEntity
  8
画層3-通り芯
  6
DASHDOT
 48
100.0
100
AcDbLine
 10
16838.78777682848
 20
13210.49330654447
 30
0.0
 11
16838.78777682848
 21
13324.07778458737
 31
0.0
  0
LINE
  5
670
330
1F
100
AcDbEntity
  8
画層3-2
  6
Continuous
100
AcDbLine
 10
16773.43777682886
 20
12679.07778458726
 30
0.0
 11
16773.43777682886
 21
12731.36811294369
 31
0.0
  0
LINE
  5
671
330
1F
100
AcDbEntity
  8
画層3-1
  6
Continuous
100
AcDbLine
 10
16758.43777682886
 20
12679.07778458726
 30
0.0
 11
16758.43777682886
 21
12649.07778458726
 31
0.0
  0
LINE
  5
672
330
1F
100
AcDbEntity
  8
画層3-1
  6
Continuous
100
AcDbLine
 10
16919.13777682858
 20
12679.07778458726
 30
0.0
 11
16758.43777682886
 21
12679.07778458726
 31
0.0
  0
LINE
  5
673
330
1F
100
AcDbEntity
  8
画層3-1
  6
Continuous
100
AcDbLine
 10
16758.43777682886
 20
12649.07778458726
 30
0.0
 11
16919.13777682858
 21
12649.07778458726
 31
0.0
  0
LINE
  5
674
330
1F
100
AcDbEntity
  8
画層3-1
  6
Continuous
100
AcDbLine
 10
16813.38777682858
 20
12649.07778458726
 30
0.0
 11
16813.38777682858
 21
12503.3384312327
 31
0.0
  0
LINE
  5
675
330
1F
100
AcDbEntity
  8
画層3-1
  6
Continuous
100
AcDbLine
 10
16919.13777682858
 20
12649.07778458726
 30
0.0
 11
16919.13777682858
 21
12679.07778458726
 31
0.0
  0
LINE
  5
676
330
1F
100
AcDbEntity
  8
画層3-1
  6
Continuous
100
AcDbLine
 10
16864.18777682886
 20
12649.07778458726
 30
0.0
 11
16864.18777682886
 21
12503.3384312327
 31
0.0
  0
LINE
  5
677
330
1F
100
AcDbEntity
  8
画層3-2
  6
Continuous
100
AcDbLine
 10
16904.13777682858
 20
12649.07778458726
 30
0.0
 11
16904.13777682858
 21
12503.3384312327
 31
0.0
  0
LINE
  5
678
330
1F
100
AcDbEntity
  8
画層3-1
  6
Continuous
100
AcDbLine
 10
16813.38777682858
 20
12731.36811294369
 30
0.0
 11
16813.38777682858
 21
12679.07778458726
 31
0.0
  0
LINE
  5
679
330
1F
100
AcDbEntity
  8
画層3-1
  6
Continuous
100
AcDbLine
 10
16864.18777682886
 20
12731.36811294369
 30
0.0
 11
16864.18777682886
 21
12679.07778458726
 31
0.0
  0
LINE
  5
67A
330
1F
100
AcDbEntity
  8
画層3-2
  6
Continuous
100
AcDbLine
 10
16904.13777682858
 20
12731.36811294369
 30
0.0
 11
16904.13777682858
 21
12679.07778458726
 31
0.0
  0
LINE
  5
67B
330
1F
100
AcDbEntity
  8
画層3-2
  6
Continuous
100
AcDbLine
 10
16773.43777682886
 20
12503.3384312327
 30
0.0
 11
16773.43777682886
 21
12649.07778458726
 31
0.0
  0
LINE
  5
67C
330
1F
100
AcDbEntity
  8
画層3-通り芯
  6
DASHDOT
 48
100.0
100
AcDbLine
 10
16838.78777682848
 20
12503.3384312327
 30
0.0
 11
16838.78777682848
 21
12731.36811294369
 31
0.0
  0
LINE
  5
67D
330
1F
100
AcDbEntity
  8
画層3-2
  6
Continuous
100
AcDbLine
 10
16919.13777682858
 20
12664.07778458725
 30
0.0
 11
18758.43777682885
 21
12664.07778458725
 31
0.0
  0
LINE
  5
67E
330
1F
100
AcDbEntity
  8
画層3-1
  6
Continuous
100
AcDbLine
 10
16879.18777682886
 20
13260.97778458716
 30
0.0
 11
18773.43777682886
 21
13260.97778458728
 31
0.0
  0
LINE
  5
67F
330
1F
100
AcDbEntity
  8
画層2-1
  6
Continuous
100
AcDbLine
 10
18705.08777682876
 20
11424.07778458726
 30
0.0
 11
18972.48777682866
 21
11424.07778458726
 31
0.0
  0
MTEXT
  5
680
330
1F
100
AcDbEntity
  8
寸法文字
  6
Continuous
100
AcDbMText
 10
16803.81939082706
 20
11635.47261908497
 30
0.0
 40
300.0
 41
0.0
 71
     8
 72
     1
  1
φ2.6×40mm目
  7
1_100
 73
     1
 44
1.0
1001
ACAD
1000
MTEXTBEGIN
1070
    73
1070
     1
1070
    44
1040
1.0
1070
    74
1070
     0
1000
MTEXTEND
  0
MTEXT
  5
681
330
1F
100
AcDbEntity
  8
寸法文字
  6
Continuous
100
AcDbMText
 10
16815.24678321715
 20
12038.65403244293
 30
0.0
 40
300.0
 41
0.0
 71
     8
 72
     1
  1
カラーハガネ線
  7
1_100
 73
     1
 44
1.0
1001
ACAD
1000
MTEXTBEGIN
1070
    73
1070
     1
1070
    44
1040
1.0
1070
    74
1070
     0
1000
MTEXTEND
  0
ARC
  5
682
330
1F
100
AcDbEntity
  8
画層3-1
  6
Continuous
100
AcDbCircle
 10
22879.18777682886
 20
13245.97778458717
 30
0.0
 40
15.0
100
AcDbArc
 50
90.0
 51
180.0
  0
LINE
  5
683
330
1F
100
AcDbEntity
  8
画層3-1
  6
Continuous
100
AcDbLine
 10
22889.58777682876
 20
13260.97778458716
 30
0.0
 11
22889.58777682876
 21
13299.07778458726
 31
0.0
  0
ARC
  5
684
330
1F
100
AcDbEntity
  8
画層3-1
  6
Continuous
100
AcDbCircle
 10
22798.38777682858
 20
13245.97778458728
 30
0.0
 40
15.0
100
AcDbArc
 50
0.0
 51
90.0
  0
LINE
  5
685
330
1F
100
AcDbEntity
  8
画層3-1
  6
Continuous
100
AcDbLine
 10
22874.58777682877
 20
13245.97778458717
 30
0.0
 11
22889.58777682876
 21
13260.97778458716
 31
0.0
  0
LINE
  5
686
330
1F
100
AcDbEntity
  8
画層3-1
  6
Continuous
100
AcDbLine
 10
22787.98777682867
 20
13299.07778458726
 30
0.0
 11
22787.98777682867
 21
13260.97778458728
 31
0.0
  0
LINE
  5
687
330
1F
100
AcDbEntity
  8
画層3-1
  6
Continuous
100
AcDbLine
 10
22787.98777682867
 20
13260.97778458728
 30
0.0
 11
22802.98777682867
 21
13245.97778458728
 31
0.0
  0
LINE
  5
688
330
1F
100
AcDbEntity
  8
画層3-1
  6
Continuous
100
AcDbLine
 10
22874.58777682877
 20
13245.97778458717
 30
0.0
 11
22802.98777682867
 21
13245.97778458728
 31
0.0
  0
LINE
  5
689
330
1F
100
AcDbEntity
  8
画層3-1
  6
Continuous
100
AcDbLine
 10
22919.13777682858
 20
12649.07778458726
 30
0.0
 11
22919.13777682858
 21
12679.07778458726
 31
0.0
  0
LINE
  5
68A
330
1F
100
AcDbEntity
  8
画層3-1
  6
Continuous
100
AcDbLine
 10
22758.43777682886
 20
12679.07778458726
 30
0.0
 11
22758.43777682886
 21
12649.07778458726
 31
0.0
  0
LINE
  5
68B
330
1F
100
AcDbEntity
  8
画層3-1
  6
Continuous
100
AcDbLine
 10
22758.43777682886
 20
12649.07778458726
 30
0.0
 11
22919.13777682858
 21
12649.07778458726
 31
0.0
  0
LINE
  5
68C
330
1F
100
AcDbEntity
  8
画層3-1
  6
Continuous
100
AcDbLine
 10
22919.13777682858
 20
12679.07778458726
 30
0.0
 11
22758.43777682886
 21
12679.07778458726
 31
0.0
  0
LINE
  5
68D
330
1F
100
AcDbEntity
  8
画層3-1
  6
Continuous
100
AcDbLine
 10
22919.13777682858
 20
11989.07778458726
 30
0.0
 11
22919.13777682858
 21
12019.07778458725
 31
0.0
  0
LINE
  5
68E
330
1F
100
AcDbEntity
  8
画層3-1
  6
Continuous
100
AcDbLine
 10
22758.43777682886
 20
12019.07778458725
 30
0.0
 11
22758.43777682886
 21
11989.07778458726
 31
0.0
  0
LINE
  5
68F
330
1F
100
AcDbEntity
  8
画層3-1
  6
Continuous
100
AcDbLine
 10
22758.43777682886
 20
11989.07778458726
 30
0.0
 11
22919.13777682858
 21
11989.07778458726
 31
0.0
  0
LINE
  5
690
330
1F
100
AcDbEntity
  8
画層3-1
  6
Continuous
100
AcDbLine
 10
22919.13777682858
 20
12019.07778458725
 30
0.0
 11
22758.43777682886
 21
12019.07778458725
 31
0.0
  0
LINE
  5
691
330
1F
100
AcDbEntity
  8
画層3-2
  6
Continuous
100
AcDbLine
 10
22773.43777682886
 20
12019.07778458725
 30
0.0
 11
22773.43777682886
 21
12649.07778458726
 31
0.0
  0
LINE
  5
692
330
1F
100
AcDbEntity
  8
画層3-2
  6
Continuous
100
AcDbLine
 10
22904.13777682858
 20
12649.07778458726
 30
0.0
 11
22904.13777682858
 21
12019.07778458725
 31
0.0
  0
LINE
  5
693
330
1F
100
AcDbEntity
  8
画層3-1
  6
Continuous
100
AcDbLine
 10
22864.18777682886
 20
12649.07778458726
 30
0.0
 11
22864.18777682886
 21
12019.07778458725
 31
0.0
  0
LINE
  5
694
330
1F
100
AcDbEntity
  8
画層3-1
  6
Continuous
100
AcDbLine
 10
22813.38777682858
 20
12649.07778458726
 30
0.0
 11
22813.38777682858
 21
12019.07778458725
 31
0.0
  0
LINE
  5
695
330
1F
100
AcDbEntity
  8
画層3-2
  6
Continuous
100
AcDbLine
 10
22904.13777682858
 20
13260.97778458728
 30
0.0
 11
22904.13777682858
 21
12679.07778458726
 31
0.0
  0
LINE
  5
696
330
1F
100
AcDbEntity
  8
画層3-2
  6
Continuous
100
AcDbLine
 10
22773.43777682886
 20
12679.07778458726
 30
0.0
 11
22773.43777682886
 21
13260.97778458728
 31
0.0
  0
LINE
  5
697
330
1F
100
AcDbEntity
  8
画層3-1
  6
Continuous
100
AcDbLine
 10
22864.18777682886
 20
13245.97778458717
 30
0.0
 11
22864.18777682886
 21
12679.07778458726
 31
0.0
  0
LINE
  5
698
330
1F
100
AcDbEntity
  8
画層3-1
  6
Continuous
100
AcDbLine
 10
22813.38777682858
 20
13245.97778458728
 30
0.0
 11
22813.38777682858
 21
12679.07778458726
 31
0.0
  0
LINE
  5
699
330
1F
100
AcDbEntity
  8
画層3-1
  6
Continuous
100
AcDbLine
 10
20874.58777682877
 20
13245.97778458717
 30
0.0
 11
20802.98777682867
 21
13245.97778458728
 31
0.0
  0
LINE
  5
69A
330
1F
100
AcDbEntity
  8
画層3-1
  6
Continuous
100
AcDbLine
 10
20787.98777682867
 20
13260.97778458728
 30
0.0
 11
20802.98777682867
 21
13245.97778458728
 31
0.0
  0
LINE
  5
69B
330
1F
100
AcDbEntity
  8
画層3-1
  6
Continuous
100
AcDbLine
 10
20787.98777682867
 20
13299.07778458726
 30
0.0
 11
20787.98777682867
 21
13260.97778458728
 31
0.0
  0
LINE
  5
69C
330
1F
100
AcDbEntity
  8
画層3-1
  6
Continuous
100
AcDbLine
 10
20874.58777682877
 20
13245.97778458717
 30
0.0
 11
20889.58777682877
 21
13260.97778458716
 31
0.0
  0
ARC
  5
69D
330
1F
100
AcDbEntity
  8
画層3-1
  6
Continuous
100
AcDbCircle
 10
20798.38777682858
 20
13245.97778458728
 30
0.0
 40
15.0
100
AcDbArc
 50
0.0
 51
90.0
  0
LINE
  5
69E
330
1F
100
AcDbEntity
  8
画層3-1
  6
Continuous
100
AcDbLine
 10
20889.58777682877
 20
13260.97778458716
 30
0.0
 11
20889.58777682877
 21
13299.07778458726
 31
0.0
  0
ARC
  5
69F
330
1F
100
AcDbEntity
  8
画層3-1
  6
Continuous
100
AcDbCircle
 10
20879.18777682886
 20
13245.97778458717
 30
0.0
 40
15.0
100
AcDbArc
 50
90.0
 51
180.0
  0
LINE
  5
6A0
330
1F
100
AcDbEntity
  8
画層3-1
  6
Continuous
100
AcDbLine
 10
20758.43777682886
 20
12679.07778458726
 30
0.0
 11
20758.43777682886
 21
12649.07778458726
 31
0.0
  0
LINE
  5
6A1
330
1F
100
AcDbEntity
  8
画層3-1
  6
Continuous
100
AcDbLine
 10
20919.13777682858
 20
12679.07778458726
 30
0.0
 11
20758.43777682886
 21
12679.07778458726
 31
0.0
  0
LINE
  5
6A2
330
1F
100
AcDbEntity
  8
画層3-1
  6
Continuous
100
AcDbLine
 10
20758.43777682886
 20
12649.07778458726
 30
0.0
 11
20919.13777682858
 21
12649.07778458726
 31
0.0
  0
LINE
  5
6A3
330
1F
100
AcDbEntity
  8
画層3-1
  6
Continuous
100
AcDbLine
 10
20919.13777682858
 20
12649.07778458726
 30
0.0
 11
20919.13777682858
 21
12679.07778458726
 31
0.0
  0
LINE
  5
6A4
330
1F
100
AcDbEntity
  8
画層3-1
  6
Continuous
100
AcDbLine
 10
20758.43777682886
 20
12019.07778458725
 30
0.0
 11
20758.43777682886
 21
11989.07778458726
 31
0.0
  0
LINE
  5
6A5
330
1F
100
AcDbEntity
  8
画層3-1
  6
Continuous
100
AcDbLine
 10
20919.13777682858
 20
12019.07778458725
 30
0.0
 11
20758.43777682886
 21
12019.07778458725
 31
0.0
  0
LINE
  5
6A6
330
1F
100
AcDbEntity
  8
画層3-1
  6
Continuous
100
AcDbLine
 10
20758.43777682886
 20
11989.07778458726
 30
0.0
 11
20919.13777682858
 21
11989.07778458726
 31
0.0
  0
LINE
  5
6A7
330
1F
100
AcDbEntity
  8
画層3-1
  6
Continuous
100
AcDbLine
 10
20919.13777682858
 20
11989.07778458726
 30
0.0
 11
20919.13777682858
 21
12019.07778458725
 31
0.0
  0
LINE
  5
6A8
330
1F
100
AcDbEntity
  8
画層3-1
  6
Continuous
100
AcDbLine
 10
20813.38777682858
 20
12649.07778458726
 30
0.0
 11
20813.38777682858
 21
12019.07778458725
 31
0.0
  0
LINE
  5
6A9
330
1F
100
AcDbEntity
  8
画層3-1
  6
Continuous
100
AcDbLine
 10
20864.18777682886
 20
12649.07778458726
 30
0.0
 11
20864.18777682886
 21
12019.07778458725
 31
0.0
  0
LINE
  5
6AA
330
1F
100
AcDbEntity
  8
画層3-2
  6
Continuous
100
AcDbLine
 10
20904.13777682858
 20
12649.07778458726
 30
0.0
 11
20904.13777682858
 21
12019.07778458725
 31
0.0
  0
LINE
  5
6AB
330
1F
100
AcDbEntity
  8
画層3-2
  6
Continuous
100
AcDbLine
 10
20773.43777682886
 20
12019.07778458725
 30
0.0
 11
20773.43777682886
 21
12649.07778458726
 31
0.0
  0
LINE
  5
6AC
330
1F
100
AcDbEntity
  8
画層3-1
  6
Continuous
100
AcDbLine
 10
20813.38777682858
 20
13245.97778458728
 30
0.0
 11
20813.38777682858
 21
12679.07778458726
 31
0.0
  0
LINE
  5
6AD
330
1F
100
AcDbEntity
  8
画層3-1
  6
Continuous
100
AcDbLine
 10
20864.18777682886
 20
13245.97778458717
 30
0.0
 11
20864.18777682886
 21
12679.07778458726
 31
0.0
  0
LINE
  5
6AE
330
1F
100
AcDbEntity
  8
画層3-2
  6
Continuous
100
AcDbLine
 10
20773.43777682886
 20
12679.07778458726
 30
0.0
 11
20773.43777682886
 21
13260.97778458728
 31
0.0
  0
LINE
  5
6AF
330
1F
100
AcDbEntity
  8
画層3-2
  6
Continuous
100
AcDbLine
 10
20904.13777682858
 20
13260.97778458728
 30
0.0
 11
20904.13777682858
 21
12679.07778458726
 31
0.0
  0
LINE
  5
6B0
330
1F
100
AcDbEntity
  8
画層3-2
  6
Continuous
100
AcDbLine
 10
20919.13777682858
 20
12664.07778458725
 30
0.0
 11
22758.43777682886
 21
12664.07778458725
 31
0.0
  0
LINE
  5
6B1
330
1F
100
AcDbEntity
  8
画層3-2
  6
Continuous
100
AcDbLine
 10
22758.43777682886
 20
12004.07778458737
 30
0.0
 11
20919.13777682858
 21
12004.07778458726
 31
0.0
  0
LINE
  5
6B2
330
1F
100
AcDbEntity
  8
画層3-1
  6
Continuous
100
AcDbLine
 10
20879.18777682886
 20
13260.97778458728
 30
0.0
 11
22798.38777682858
 21
13260.9777845874
 31
0.0
  0
LWPOLYLINE
  5
6B3
330
1F
100
AcDbEntity
  8
画層3-1
100
AcDbPolyline
 90
        4
 70
     0
 43
0.0
 10
16864.18777682886
 20
11344.07778458726
 10
16864.18777682886
 20
11024.07778458726
 10
16813.38777682858
 20
11024.07778458726
 10
16813.38777682858
 20
11344.07778458749
  0
LWPOLYLINE
  5
6B4
330
1F
100
AcDbEntity
  8
画層3-1
100
AcDbPolyline
 90
        4
 70
     0
 43
0.0
 10
18864.18777682886
 20
11344.07778458726
 10
18864.18777682886
 20
11024.07778458726
 10
18813.38777682858
 20
11024.07778458726
 10
18813.38777682858
 20
11344.07778458749
  0
LWPOLYLINE
  5
6B5
330
1F
100
AcDbEntity
  8
画層3-1
100
AcDbPolyline
 90
        4
 70
     0
 43
0.0
 10
20864.18777682886
 20
11344.07778458726
 10
20864.18777682886
 20
11024.07778458726
 10
20813.38777682858
 20
11024.07778458726
 10
20813.38777682858
 20
11344.07778458749
  0
LWPOLYLINE
  5
6B6
330
1F
100
AcDbEntity
  8
画層3-1
100
AcDbPolyline
 90
        4
 70
     0
 43
0.0
 10
22864.18777682886
 20
11344.07778458726
 10
22864.18777682886
 20
11024.07778458726
 10
22813.38777682858
 20
11024.07778458726
 10
22813.38777682858
 20
11344.07778458749
  0
LWPOLYLINE
  5
6B7
330
1F
100
AcDbEntity
  8
画層1
  6
Continuous
100
AcDbPolyline
 90
        4
 70
     1
 43
0.0
 10
18655.08777682876
 20
13349.07778458725
 10
19022.48777682867
 20
13349.07778458725
 10
19022.48777682867
 20
13299.07778458726
 10
18655.08777682876
 20
13299.07778458726
  0
LINE
  5
6B8
330
1F
100
AcDbEntity
  8
ﾊｯﾁﾝｸﾞ
  6
Continuous
100
AcDbLine
 10
18274.54015762659
 20
11324.07778458737
 30
0.0
 11
18394.54015762705
 21
11204.07778458726
 31
0.0
  0
LINE
  5
6B9
330
1F
100
AcDbEntity
  8
ﾊｯﾁﾝｸﾞ
  6
Continuous
100
AcDbLine
 10
18326.61243940724
 20
11272.00550280672
 30
0.0
 11
18258.68472118789
 21
11204.07778458726
 31
0.0
  0
LINE
  5
6BA
330
1F
100
AcDbEntity
  8
ﾊｯﾁﾝｸﾞ
  6
Continuous
100
AcDbLine
 10
18287.01445966095
 20
11311.60348255313
 30
0.0
 11
18179.48876169484
 21
11204.07778458726
 31
0.0
  0
LINE
  5
6BB
330
1F
100
AcDbEntity
  8
ﾊｯﾁﾝｸﾞ
  6
Continuous
100
AcDbLine
 10
18128.62254067438
 20
11232.40752306031
 30
0.0
 11
18100.29280220179
 21
11204.07778458726
 31
0.0
  0
LINE
  5
6BC
330
1F
100
AcDbEntity
  8
ﾊｯﾁﾝｸﾞ
  6
Continuous
100
AcDbLine
 10
18089.02456092808
 20
11272.00550280672
 30
0.0
 11
18021.09684270874
 21
11204.07778458726
 31
0.0
  0
LINE
  5
6BD
330
1F
100
AcDbEntity
  8
ﾊｯﾁﾝｸﾞ
  6
Continuous
100
AcDbLine
 10
18195.34419813354
 20
11324.07778458737
 30
0.0
 11
18247.41647991419
 21
11272.00550280672
 31
0.0
  0
LINE
  5
6BE
330
1F
100
AcDbEntity
  8
ﾊｯﾁﾝｸﾞ
  6
Continuous
100
AcDbLine
 10
18116.14823864048
 20
11324.07778458726
 30
0.0
 11
18207.81850016789
 21
11232.40752306019
 31
0.0
  0
LINE
  5
6BF
330
1F
100
AcDbEntity
  8
ﾊｯﾁﾝｸﾞ
  6
Continuous
100
AcDbLine
 10
18036.95227914743
 20
11324.07778458726
 30
0.0
 11
18156.95227914836
 21
11204.07778458726
 31
0.0
  0
LINE
  5
6C0
330
1F
100
AcDbEntity
  8
ﾊｯﾁﾝｸﾞ
  6
Continuous
100
AcDbLine
 10
18049.42658118133
 20
11311.60348255313
 30
0.0
 11
17995.66373219874
 21
11257.84063357019
 31
0.0
  0
LINE
  5
6C1
330
1F
100
AcDbEntity
  8
ﾊｯﾁﾝｸﾞ
  6
Continuous
100
AcDbLine
 10
18432.93207661269
 20
11324.07778458726
 30
0.0
 11
18488.78777682848
 21
11268.2220843717
 31
0.0
  0
LINE
  5
6C2
330
1F
100
AcDbEntity
  8
ﾊｯﾁﾝｸﾞ
  6
Continuous
100
AcDbLine
 10
18353.73611711964
 20
11324.07778458737
 30
0.0
 11
18473.73611712057
 21
11204.07778458726
 31
0.0
  0
LINE
  5
6C3
330
1F
100
AcDbEntity
  8
ﾊｯﾁﾝｸﾞ
  6
Continuous
100
AcDbLine
 10
18366.21041915353
 20
11232.40752306031
 30
0.0
 11
18337.88068068095
 21
11204.07778458726
 31
0.0
  0
LINE
  5
6C4
330
1F
100
AcDbEntity
  8
ﾊｯﾁﾝｸﾞ
  6
Continuous
100
AcDbLine
 10
19482.2313555239
 20
11324.07778458737
 30
0.0
 11
19430.15907374278
 21
11272.00550280672
 31
0.0
  0
LINE
  5
6C5
330
1F
100
AcDbEntity
  8
ﾊｯﾁﾝｸﾞ
  6
Continuous
100
AcDbLine
 10
19390.56109399649
 20
11311.60348255313
 30
0.0
 11
19498.08679196259
 21
11204.07778458726
 31
0.0
  0
LINE
  5
6C6
330
1F
100
AcDbEntity
  8
ﾊｯﾁﾝｸﾞ
  6
Continuous
100
AcDbLine
 10
19350.96311425019
 20
11272.00550280672
 30
0.0
 11
19418.89083246954
 21
11204.07778458726
 31
0.0
  0
LINE
  5
6C7
330
1F
100
AcDbEntity
  8
ﾊｯﾁﾝｸﾞ
  6
Continuous
100
AcDbLine
 10
19311.36513450343
 20
11232.40752306031
 30
0.0
 11
19339.69487297649
 21
11204.07778458726
 31
0.0
  0
LINE
  5
6C8
330
1F
100
AcDbEntity
  8
ﾊｯﾁﾝｸﾞ
  6
Continuous
100
AcDbLine
 10
19403.03539603084
 20
11324.07778458737
 30
0.0
 11
19283.03539602991
 21
11204.07778458726
 31
0.0
  0
LINE
  5
6C9
330
1F
100
AcDbEntity
  8
ﾊｯﾁﾝｸﾞ
  6
Continuous
100
AcDbLine
 10
19323.83943653779
 20
11324.07778458737
 30
0.0
 11
19203.83943653686
 21
11204.07778458726
 31
0.0
  0
LINE
  5
6CA
330
1F
100
AcDbEntity
  8
ﾊｯﾁﾝｸﾞ
  6
Continuous
100
AcDbLine
 10
19244.64347704474
 20
11324.07778458726
 30
0.0
 11
19188.78777682848
 21
11268.2220843717
 31
0.0
  0
LINE
  5
6CB
330
1F
100
AcDbEntity
  8
ﾊｯﾁﾝｸﾞ
  6
Continuous
100
AcDbLine
 10
19628.14897247564
 20
11311.60348255313
 30
0.0
 11
19681.91182145869
 21
11257.84063357019
 31
0.0
  0
LINE
  5
6CC
330
1F
100
AcDbEntity
  8
ﾊｯﾁﾝｸﾞ
  6
Continuous
100
AcDbLine
 10
19640.62327451
 20
11324.07778458726
 30
0.0
 11
19520.62327450907
 21
11204.07778458726
 31
0.0
  0
LINE
  5
6CD
330
1F
100
AcDbEntity
  8
ﾊｯﾁﾝｸﾞ
  6
Continuous
100
AcDbLine
 10
19561.42731501695
 20
11324.07778458726
 30
0.0
 11
19469.75705348954
 21
11232.40752306031
 31
0.0
  0
LINE
  5
6CE
330
1F
100
AcDbEntity
  8
ﾊｯﾁﾝｸﾞ
  6
Continuous
100
AcDbLine
 10
19588.55099272935
 20
11272.00550280672
 30
0.0
 11
19656.47871094869
 21
11204.07778458726
 31
0.0
  0
LINE
  5
6CF
330
1F
100
AcDbEntity
  8
ﾊｯﾁﾝｸﾞ
  6
Continuous
100
AcDbLine
 10
19548.95301298305
 20
11232.40752306031
 30
0.0
 11
19577.28275145564
 21
11204.07778458726
 31
0.0
  0
LWPOLYLINE
  5
6D0
330
1F
100
AcDbEntity
  8
画層2
100
AcDbPolyline
 90
        8
 70
     0
 43
0.0
 10
18488.78777682848
 20
11324.07778458726
 10
18488.78777682848
 20
11024.07778458726
 10
18613.78777682848
 20
11024.07778458726
 10
18613.78777682848
 20
8724.07778458726
 10
19063.78777682848
 20
8724.07778458726
 10
19063.78777682848
 20
11024.07778458726
 10
19188.78777682848
 20
11024.07778458726
 10
19188.78777682848
 20
11324.07778458726
  0
LINE
  5
6D1
330
1F
100
AcDbEntity
  8
画層2
100
AcDbLine
 10
19063.78777682848
 20
8824.077784587259
 30
0.0
 11
18613.78777682848
 21
8824.077784587259
 31
0.0
  0
LINE
  5
6D2
330
1F
100
AcDbEntity
  8
ﾊｯﾁﾝｸﾞ
  6
Continuous
100
AcDbLine
 10
18806.9928575854
 20
8724.07778458726
 30
0.0
 11
18864.72788450468
 21
8824.077784587259
 31
0.0
  0
LINE
  5
6D3
330
1F
100
AcDbEntity
  8
ﾊｯﾁﾝｸﾞ
  6
Continuous
100
AcDbLine
 10
18893.59539796386
 20
8724.07778458726
 30
0.0
 11
18951.33042488314
 21
8824.077784587259
 31
0.0
  0
LINE
  5
6D4
330
1F
100
AcDbEntity
  8
ﾊｯﾁﾝｸﾞ
  6
Continuous
100
AcDbLine
 10
18819.83114144506
 20
8746.314344514024
 30
0.0
 11
18832.66942530472
 21
8724.07778458726
 31
0.0
  0
LINE
  5
6D5
330
1F
100
AcDbEntity
  8
ﾊｯﾁﾝｸﾞ
  6
Continuous
100
AcDbLine
 10
18906.43368182352
 20
8746.314344514024
 30
0.0
 11
18919.27196568318
 21
8724.07778458726
 31
0.0
  0
LINE
  5
6D6
330
1F
100
AcDbEntity
  8
ﾊｯﾁﾝｸﾞ
  6
Continuous
100
AcDbLine
 10
18836.00964560334
 20
8824.077784587259
 30
0.0
 11
18852.11677891037
 21
8802.234708958984
 31
0.0
  0
LINE
  5
6D7
330
1F
100
AcDbEntity
  8
ﾊｯﾁﾝｸﾞ
  6
Continuous
100
AcDbLine
 10
18922.61218598179
 20
8824.077784587259
 30
0.0
 11
18938.71931928929
 21
8802.234708958984
 31
0.0
  0
LINE
  5
6D8
330
1F
100
AcDbEntity
  8
ﾊｯﾁﾝｸﾞ
  6
Continuous
100
AcDbLine
 10
18720.39031720694
 20
8724.07778458726
 30
0.0
 11
18778.12534412623
 21
8824.077784587259
 31
0.0
  0
LINE
  5
6D9
330
1F
100
AcDbEntity
  8
ﾊｯﾁﾝｸﾞ
  6
Continuous
100
AcDbLine
 10
18733.2286010666
 20
8746.314344514024
 30
0.0
 11
18746.06688492626
 21
8724.07778458726
 31
0.0
  0
LINE
  5
6DA
330
1F
100
AcDbEntity
  8
ﾊｯﾁﾝｸﾞ
  6
Continuous
100
AcDbLine
 10
18749.40710522488
 20
8824.077784587259
 30
0.0
 11
18765.51423853237
 21
8802.234708958984
 31
0.0
  0
LINE
  5
6DB
330
1F
100
AcDbEntity
  8
ﾊｯﾁﾝｸﾞ
  6
Continuous
100
AcDbLine
 10
18633.78777682848
 20
8724.07778458726
 30
0.0
 11
18691.52280374777
 21
8824.077784587259
 31
0.0
  0
LINE
  5
6DC
330
1F
100
AcDbEntity
  8
ﾊｯﾁﾝｸﾞ
  6
Continuous
100
AcDbLine
 10
18646.62606068814
 20
8746.314344514024
 30
0.0
 11
18659.4643445478
 21
8724.07778458726
 31
0.0
  0
LINE
  5
6DD
330
1F
100
AcDbEntity
  8
ﾊｯﾁﾝｸﾞ
  6
Continuous
100
AcDbLine
 10
18662.80456484641
 20
8824.077784587259
 30
0.0
 11
18678.91169815345
 21
8802.234708958984
 31
0.0
  0
LINE
  5
6DE
330
1F
100
AcDbEntity
  8
ﾊｯﾁﾝｸﾞ
  6
Continuous
100
AcDbLine
 10
18980.19793834232
 20
8724.07778458726
 30
0.0
 11
19037.93296526114
 21
8824.077784587259
 31
0.0
  0
LINE
  5
6DF
330
1F
100
AcDbEntity
  8
ﾊｯﾁﾝｸﾞ
  6
Continuous
100
AcDbLine
 10
18993.03622220198
 20
8746.314344514024
 30
0.0
 11
19005.87450606164
 21
8724.07778458726
 31
0.0
  0
LINE
  5
6E0
330
1F
100
AcDbEntity
  8
ﾊｯﾁﾝｸﾞ
  6
Continuous
100
AcDbLine
 10
19009.21472636025
 20
8824.077784587259
 30
0.0
 11
19025.32185966728
 21
8802.234708958984
 31
0.0
  0
HATCH
  5
6E1
330
1F
100
AcDbEntity
  8
ﾊｯﾁﾝｸﾞ
100
AcDbHatch
 10
0.0
 20
0.0
 30
0.0
210
0.0
220
0.0
230
1.0
  2
PLAST
 70
     0
 71
     0
 91
        2
 92
        7
 72
     0
 73
     1
 93
        6
 10
19063.78777682848
 20
11024.07778458726
 10
19188.78777682848
 20
11024.07778458726
 10
19188.78777682848
 20
11324.07778458714
 10
18838.78777682848
 20
11324.07778458714
 10
18838.78777682848
 20
8824.077784587259
 10
19063.78777682848
 20
8824.077784587259
 97
        0
 92
        7
 72
     0
 73
     1
 93
        6
 10
18838.78777682848
 20
11324.07778458726
 10
18488.78777682848
 20
11324.07778458726
 10
18488.78777682848
 20
11024.07778458726
 10
18613.78777682848
 20
11024.07778458726
 10
18613.78777682848
 20
8824.077784587259
 10
18838.78777682848
 20
8824.077784587259
 97
        0
 75
     0
 76
     1
 52
45.0
 41
2000.0
 77
     0
 78
     3
 53
45.0
 43
-159640.9793612559
 44
-242495.731562874
 45
-353.5533905932737
 46
353.5533905932738
 79
     0
 53
45.0
 43
-159685.17353508
 44
-242451.5373890498
 45
-353.5533905932737
 46
353.5533905932738
 79
     0
 53
45.0
 43
-159729.3677089042
 44
-242407.3432152257
 45
-353.5533905932737
 46
353.5533905932738
 79
     0
 47
9.889458178331846
 98
        2
 10
18969.50505854862
 20
10723.59025005191
 10
18722.09800358882
 20
10634.58557086028
  0
LINE
  5
6E2
330
1F
100
AcDbEntity
  8
画層3-1
  6
Continuous
100
AcDbLine
 10
22864.18777682886
 20
11382.17778458735
 30
0.0
 11
24813.38777682858
 21
11382.17778458712
 31
0.0
  0
LINE
  5
6E3
330
1F
100
AcDbEntity
  8
画層3-1
  6
Continuous
100
AcDbLine
 10
22864.18777682886
 20
11344.07778458726
 30
0.0
 11
24813.38777682858
 21
11344.07778458726
 31
0.0
  0
DIMENSION
  5
6E4
330
1F
100
AcDbEntity
  8
画層3-寸法
  6
Continuous
100
AcDbDimension
  2
*D14
 10
24838.78777682849
 20
7524.077784587261
 30
0.0
 11
23838.78777682848
 21
7802.649213158689
 31
0.0
 70
    32
 71
     5
 42
2000.0
  3
1_100
100
AcDbAlignedDimension
 13
22838.78777682848
 23
8724.07778458726
 33
0.0
 14
24838.78777682849
 24
8724.07778458726
 34
0.0
100
AcDbRotatedDimension
  0
LINE
  5
6E5
330
1F
100
AcDbEntity
  8
画層3-2
  6
Continuous
100
AcDbLine
 10
22919.13777682858
 20
12664.07778458725
 30
0.0
 11
24758.43777682886
 21
12664.07778458725
 31
0.0
  0
LINE
  5
6E6
330
1F
100
AcDbEntity
  8
画層3-2
  6
Continuous
100
AcDbLine
 10
24758.43777682886
 20
12004.07778458726
 30
0.0
 11
22919.13777682858
 21
12004.07778458726
 31
0.0
  0
LINE
  5
6E7
330
1F
100
AcDbEntity
  8
画層3-1
  6
Continuous
100
AcDbLine
 10
22879.18777682886
 20
13260.97778458728
 30
0.0
 11
24798.38777682858
 21
13260.97778458728
 31
0.0
  0
LWPOLYLINE
  5
6E8
330
1F
100
AcDbEntity
  8
画層1-1
100
AcDbPolyline
 90
        4
 70
     1
 43
0.0
 10
18487.76566072434
 20
13549.61694301116
 10
18459.14962465197
 20
13521.66837454096
 10
18581.04031889208
 20
13396.86668722201
 10
18609.65635496445
 20
13424.81525569209
  0
LWPOLYLINE
  5
6E9
330
1F
100
AcDbEntity
  8
画層1-1
100
AcDbPolyline
 90
        4
 70
     1
 43
0.0
 10
19189.80989293309
 20
13549.61694301092
 10
19218.425929005
 20
13521.66837454096
 10
19096.53523476489
 20
13396.86668722201
 10
19067.91919869298
 20
13424.81525569209
  0
MTEXT
  5
6EA
102
{ACAD_REACTORS
330
6EB
102
}
330
1F
100
AcDbEntity
  8
寸法文字
  6
Continuous
100
AcDbMText
 10
20981.74361868736
 20
13996.27313651643
 30
0.0
 40
300.0
 41
0.0
 71
     7
 72
     1
  1
メッセンワイヤー22m㎡
  7
1_100
 73
     1
 44
1.0
1001
ACAD
1000
MTEXTBEGIN
1070
    73
1070
     1
1070
    44
1040
1.0
1070
    74
1070
     0
1000
MTEXTEND
  0
LEADER
  5
6EB
330
1F
100
AcDbEntity
  8
寸法引出
  6
Continuous
100
AcDbLeader
  3
1_100
 71
     0
 73
     0
 74
     0
 75
     1
 40
346.6666666666666
 41
3117.142857142858
 76
     3
 10
20428.18034444165
 20
13324.07778458737
 30
0.0
 10
20821.74361868736
 20
13896.27313651643
 30
0.0
 10
20881.74361868736
 20
13896.27313651643
 30
0.0
340
6EA
  0
DIMENSION
  5
6EC
330
1F
100
AcDbEntity
  8
画層3-寸法
  6
Continuous
100
AcDbDimension
  2
*D15
 10
12293.78777682848
 20
10874.07778458761
 30
0.0
 11
12027.50760062525
 21
10959.45167781375
 31
0.0
 70
   160
 71
     5
 42
450.0
  3
1_100_B
100
AcDbAlignedDimension
 13
12713.78777682848
 23
11324.07778458761
 33
0.0
 14
12713.78777682848
 24
10874.07778458761
 34
0.0
 50
90.0
100
AcDbRotatedDimension
  0
LINE
  5
6ED
330
1F
100
AcDbEntity
  8
画層3-1
  6
Continuous
100
AcDbLine
 10
12813.38777682857
 20
11461.35852928993
 30
0.0
 11
12813.38777682857
 21
11382.17778458723
 31
0.0
  0
LINE
  5
6EE
330
1F
100
AcDbEntity
  8
画層3-1
  6
Continuous
100
AcDbLine
 10
12864.18777682885
 20
11461.35852928993
 30
0.0
 11
12864.18777682885
 21
11382.17778458735
 31
0.0
  0
LINE
  5
6EF
330
1F
100
AcDbEntity
  8
画層3-2
  6
Continuous
100
AcDbLine
 10
12773.43777682885
 20
11324.07778458726
 30
0.0
 11
12773.43777682885
 21
11461.35852928993
 31
0.0
  0
LINE
  5
6F0
330
1F
100
AcDbEntity
  8
画層3-2
  6
Continuous
100
AcDbLine
 10
12904.13777682857
 20
11461.35852928993
 30
0.0
 11
12904.13777682857
 21
11324.07778458726
 31
0.0
  0
LINE
  5
6F1
330
1F
100
AcDbEntity
  8
画層3-通り芯
  6
DASHDOT
 48
100.0
100
AcDbLine
 10
12838.78777682848
 20
10777.70822945549
 30
0.0
 11
12838.78777682848
 21
11461.35852928993
 31
0.0
  0
LINE
  5
6F2
330
1F
100
AcDbEntity
  8
画層3-通り芯
  6
DASHDOT
 48
100.0
100
AcDbLine
 10
14838.78777682848
 20
10777.70822945549
 30
0.0
 11
14838.78777682848
 21
13324.07778458737
 31
0.0
  0
LINE
  5
6F3
330
1F
100
AcDbEntity
  8
画層3-1
  6
Continuous
100
AcDbLine
 10
14864.18777682885
 20
11989.07778458726
 30
0.0
 11
14864.18777682885
 21
11382.17778458735
 31
0.0
  0
LINE
  5
6F4
330
1F
100
AcDbEntity
  8
画層3-2
  6
Continuous
100
AcDbLine
 10
14773.43777682885
 20
11324.07778458726
 30
0.0
 11
14773.43777682885
 21
11989.07778458726
 31
0.0
  0
LINE
  5
6F5
330
1F
100
AcDbEntity
  8
画層3-2
  6
Continuous
100
AcDbLine
 10
14904.13777682857
 20
11989.07778458726
 30
0.0
 11
14904.13777682857
 21
11324.07778458726
 31
0.0
  0
LINE
  5
6F6
330
1F
100
AcDbEntity
  8
画層3-1
  6
Continuous
100
AcDbLine
 10
14813.38777682857
 20
11989.07778458726
 30
0.0
 11
14813.38777682857
 21
11382.17778458723
 31
0.0
  0
LINE
  5
6F7
330
1F
100
AcDbEntity
  8
画層3-1
  6
Continuous
100
AcDbLine
 10
14773.43777682885
 20
11402.17778458735
 30
0.0
 11
14904.13777682857
 21
11402.17778458735
 31
0.0
  0
HATCH
  5
6F8
330
1F
100
AcDbEntity
  8
画層3-3
100
AcDbHatch
 10
0.0
 20
0.0
 30
0.0
210
0.0
220
0.0
230
1.0
  2
PLAST
 70
     0
 71
     0
 91
        1
 92
        7
 72
     0
 73
     1
 93
        4
 10
14963.78777682848
 20
11324.07778458726
 10
14713.78777682848
 20
11324.07778458726
 10
14713.78777682848
 20
10874.07778458726
 10
14963.78777682848
 20
10874.07778458726
 97
        0
 75
     0
 76
     1
 52
45.0
 41
1800.0
 77
     0
 78
     3
 53
45.0
 43
8696.445121062659
 44
4882.410768076059
 45
-318.1980515339463
 46
318.1980515339464
 79
     0
 53
45.0
 43
8656.670364620834
 44
4922.185524517768
 45
-318.1980515339463
 46
318.1980515339464
 79
     0
 53
45.0
 43
8616.895608179012
 44
4961.960280959591
 45
-318.1980515339463
 46
318.1980515339464
 79
     0
 47
2.4753793195157
 98
        1
 10
14952.68097459219
 20
11083.28523259503
  0
LWPOLYLINE
  5
6F9
330
1F
100
AcDbEntity
  8
画層3-2
100
AcDbPolyline
 90
        4
 70
     0
 43
0.0
 10
14963.78777682848
 20
11324.07778458726
 10
14963.78777682848
 20
10874.07778458726
 10
14713.78777682848
 20
10874.07778458726
 10
14713.78777682848
 20
11324.07778458726
  0
LINE
  5
6FA
330
1F
100
AcDbEntity
  8
画層3-1
  6
Continuous
100
AcDbLine
 10
12773.43777682885
 20
11402.17778458735
 30
0.0
 11
12904.13777682857
 21
11402.17778458735
 31
0.0
  0
HATCH
  5
6FB
330
1F
100
AcDbEntity
  8
画層3-3
100
AcDbHatch
 10
0.0
 20
0.0
 30
0.0
210
0.0
220
0.0
230
1.0
  2
PLAST
 70
     0
 71
     0
 91
        1
 92
        7
 72
     0
 73
     1
 93
        4
 10
12963.78777682848
 20
11324.07778458726
 10
12713.78777682848
 20
11324.07778458726
 10
12713.78777682848
 20
10874.07778458726
 10
12963.78777682848
 20
10874.07778458726
 97
        0
 75
     0
 76
     1
 52
45.0
 41
1800.0
 77
     0
 78
     3
 53
45.0
 43
6696.445121062659
 44
4882.410768076059
 45
-318.1980515339463
 46
318.1980515339464
 79
     0
 53
45.0
 43
6656.670364620835
 44
4922.185524517768
 45
-318.1980515339463
 46
318.1980515339464
 79
     0
 53
45.0
 43
6616.895608179011
 44
4961.960280959591
 45
-318.1980515339463
 46
318.1980515339464
 79
     0
 47
2.4753793195157
 98
        1
 10
12952.68097459219
 20
11083.28523259503
  0
LWPOLYLINE
  5
6FC
330
1F
100
AcDbEntity
  8
画層3-2
100
AcDbPolyline
 90
        4
 70
     0
 43
0.0
 10
12963.78777682848
 20
11324.07778458726
 10
12963.78777682848
 20
10874.07778458726
 10
12713.78777682848
 20
10874.07778458726
 10
12713.78777682848
 20
11324.07778458726
  0
LINE
  5
6FD
330
1F
100
AcDbEntity
  8
画層3-1
  6
Continuous
100
AcDbLine
 10
12864.18777682885
 20
11382.17778458735
 30
0.0
 11
14813.38777682857
 21
11382.17778458735
 31
0.0
  0
LINE
  5
6FE
330
1F
100
AcDbEntity
  8
画層3-1
  6
Continuous
100
AcDbLine
 10
12864.18777682885
 20
11344.07778458726
 30
0.0
 11
14813.38777682857
 21
11344.07778458726
 31
0.0
  0
DIMENSION
  5
6FF
330
1F
100
AcDbEntity
  8
画層3-寸法
  6
Continuous
100
AcDbDimension
  2
*D16
 10
14838.78777682848
 20
7524.077784587261
 30
0.0
 11
13838.78777682848
 21
7802.649213158689
 31
0.0
 70
    32
 71
     5
 42
2000.0
  3
1_100
100
AcDbAlignedDimension
 13
12838.78777682848
 23
8724.07778458726
 33
0.0
 14
14838.78777682848
 24
8724.07778458726
 34
0.0
100
AcDbRotatedDimension
  0
DIMENSION
  5
700
330
1F
100
AcDbEntity
  8
画層3-寸法
  6
Continuous
100
AcDbDimension
  2
*D17
 10
12963.78777682848
 20
10494.07778458761
 30
0.0
 11
12838.78777682848
 21
10294.07778458761
 31
0.0
 70
    32
  1
□<>
 71
     5
 42
250.0
  3
1_100_B
100
AcDbAlignedDimension
 13
12713.78777682848
 23
10874.07778458761
 33
0.0
 14
12963.78777682848
 24
10874.07778458761
 34
0.0
100
AcDbRotatedDimension
1001
ACAD
1000
DSTYLE
1002
{
1070
    77
1070
     2
1070
   174
1070
     1
1002
}
  0
LINE
  5
701
330
1F
100
AcDbEntity
  8
画層3-1
  6
Continuous
100
AcDbLine
 10
14889.58777682876
 20
13260.97778458716
 30
0.0
 11
14889.58777682876
 21
13299.07778458726
 31
0.0
  0
LINE
  5
702
330
1F
100
AcDbEntity
  8
画層3-1
  6
Continuous
100
AcDbLine
 10
14874.58777682876
 20
13245.97778458717
 30
0.0
 11
14889.58777682876
 21
13260.97778458716
 31
0.0
  0
LINE
  5
703
330
1F
100
AcDbEntity
  8
画層3-1
  6
Continuous
100
AcDbLine
 10
14874.58777682876
 20
13245.97778458717
 30
0.0
 11
14802.98777682867
 21
13245.97778458728
 31
0.0
  0
ARC
  5
704
330
1F
100
AcDbEntity
  8
画層3-1
  6
Continuous
100
AcDbCircle
 10
14879.18777682885
 20
13245.97778458717
 30
0.0
 40
15.0
100
AcDbArc
 50
90.0
 51
180.0
  0
LINE
  5
705
330
1F
100
AcDbEntity
  8
画層3-1
  6
Continuous
100
AcDbLine
 10
14787.98777682867
 20
13260.97778458728
 30
0.0
 11
14802.98777682867
 21
13245.97778458728
 31
0.0
  0
LINE
  5
706
330
1F
100
AcDbEntity
  8
画層3-1
  6
Continuous
100
AcDbLine
 10
14787.98777682867
 20
13299.07778458726
 30
0.0
 11
14787.98777682867
 21
13260.97778458728
 31
0.0
  0
ARC
  5
707
330
1F
100
AcDbEntity
  8
画層3-1
  6
Continuous
100
AcDbCircle
 10
14798.38777682857
 20
13245.97778458728
 30
0.0
 40
15.0
100
AcDbArc
 50
0.0
 51
90.0
  0
LINE
  5
708
330
1F
100
AcDbEntity
  8
画層3-1
  6
Continuous
100
AcDbLine
 10
14919.13777682857
 20
12679.07778458726
 30
0.0
 11
14758.43777682885
 21
12679.07778458726
 31
0.0
  0
LINE
  5
709
330
1F
100
AcDbEntity
  8
画層3-1
  6
Continuous
100
AcDbLine
 10
14919.13777682857
 20
12649.07778458726
 30
0.0
 11
14919.13777682857
 21
12679.07778458726
 31
0.0
  0
LINE
  5
70A
330
1F
100
AcDbEntity
  8
画層3-1
  6
Continuous
100
AcDbLine
 10
14758.43777682885
 20
12649.07778458726
 30
0.0
 11
14919.13777682857
 21
12649.07778458726
 31
0.0
  0
LINE
  5
70B
330
1F
100
AcDbEntity
  8
画層3-1
  6
Continuous
100
AcDbLine
 10
14758.43777682885
 20
12679.07778458726
 30
0.0
 11
14758.43777682885
 21
12649.07778458726
 31
0.0
  0
LINE
  5
70C
330
1F
100
AcDbEntity
  8
画層3-1
  6
Continuous
100
AcDbLine
 10
14919.13777682857
 20
12019.07778458725
 30
0.0
 11
14758.43777682885
 21
12019.07778458725
 31
0.0
  0
LINE
  5
70D
330
1F
100
AcDbEntity
  8
画層3-1
  6
Continuous
100
AcDbLine
 10
14919.13777682857
 20
11989.07778458726
 30
0.0
 11
14919.13777682857
 21
12019.07778458725
 31
0.0
  0
LINE
  5
70E
330
1F
100
AcDbEntity
  8
画層3-1
  6
Continuous
100
AcDbLine
 10
14758.43777682885
 20
11989.07778458726
 30
0.0
 11
14919.13777682857
 21
11989.07778458726
 31
0.0
  0
LINE
  5
70F
330
1F
100
AcDbEntity
  8
画層3-1
  6
Continuous
100
AcDbLine
 10
14758.43777682885
 20
12019.07778458725
 30
0.0
 11
14758.43777682885
 21
11989.07778458726
 31
0.0
  0
LINE
  5
710
330
1F
100
AcDbEntity
  8
画層3-1
  6
Continuous
100
AcDbLine
 10
14864.18777682885
 20
12649.07778458726
 30
0.0
 11
14864.18777682885
 21
12019.07778458725
 31
0.0
  0
LINE
  5
711
330
1F
100
AcDbEntity
  8
画層3-2
  6
Continuous
100
AcDbLine
 10
14773.43777682885
 20
12019.07778458725
 30
0.0
 11
14773.43777682885
 21
12649.07778458726
 31
0.0
  0
LINE
  5
712
330
1F
100
AcDbEntity
  8
画層3-2
  6
Continuous
100
AcDbLine
 10
14904.13777682857
 20
12649.07778458726
 30
0.0
 11
14904.13777682857
 21
12019.07778458725
 31
0.0
  0
LINE
  5
713
330
1F
100
AcDbEntity
  8
画層3-1
  6
Continuous
100
AcDbLine
 10
14813.38777682857
 20
12649.07778458726
 30
0.0
 11
14813.38777682857
 21
12019.07778458725
 31
0.0
  0
LINE
  5
714
330
1F
100
AcDbEntity
  8
画層3-1
  6
Continuous
100
AcDbLine
 10
14864.18777682885
 20
13245.97778458717
 30
0.0
 11
14864.18777682885
 21
12679.07778458726
 31
0.0
  0
LINE
  5
715
330
1F
100
AcDbEntity
  8
画層3-2
  6
Continuous
100
AcDbLine
 10
14904.13777682857
 20
13260.97778458728
 30
0.0
 11
14904.13777682857
 21
12679.07778458726
 31
0.0
  0
LINE
  5
716
330
1F
100
AcDbEntity
  8
画層3-2
  6
Continuous
100
AcDbLine
 10
14773.43777682885
 20
12679.07778458726
 30
0.0
 11
14773.43777682885
 21
13260.97778458728
 31
0.0
  0
LINE
  5
717
330
1F
100
AcDbEntity
  8
画層3-1
  6
Continuous
100
AcDbLine
 10
14813.38777682857
 20
13245.97778458728
 30
0.0
 11
14813.38777682857
 21
12679.07778458726
 31
0.0
  0
LINE
  5
718
330
1F
100
AcDbEntity
  8
画層3-2
  6
Continuous
100
AcDbLine
 10
12904.13777682857
 20
13260.97778458728
 30
0.0
 11
12904.13777682857
 21
13213.71473698304
 31
0.0
  0
LINE
  5
719
330
1F
100
AcDbEntity
  8
画層3-1
  6
Continuous
100
AcDbLine
 10
12864.18777682885
 20
13245.97778458717
 30
0.0
 11
12864.18777682885
 21
13213.71473698304
 31
0.0
  0
LINE
  5
71A
330
1F
100
AcDbEntity
  8
画層3-1
  6
Continuous
100
AcDbLine
 10
12813.38777682857
 20
13245.97778458728
 30
0.0
 11
12813.38777682857
 21
13213.71473698304
 31
0.0
  0
ARC
  5
71B
330
1F
100
AcDbEntity
  8
画層3-1
  6
Continuous
100
AcDbCircle
 10
12879.18777682885
 20
13245.97778458717
 30
0.0
 40
15.0
100
AcDbArc
 50
90.0
 51
180.0
  0
LINE
  5
71C
330
1F
100
AcDbEntity
  8
画層3-1
  6
Continuous
100
AcDbLine
 10
12874.58777682876
 20
13245.97778458717
 30
0.0
 11
12889.58777682876
 21
13260.97778458716
 31
0.0
  0
LINE
  5
71D
330
1F
100
AcDbEntity
  8
画層3-1
  6
Continuous
100
AcDbLine
 10
12889.58777682876
 20
13260.97778458716
 30
0.0
 11
12889.58777682876
 21
13299.07778458726
 31
0.0
  0
LINE
  5
71E
330
1F
100
AcDbEntity
  8
画層3-1
  6
Continuous
100
AcDbLine
 10
12874.58777682876
 20
13245.97778458717
 30
0.0
 11
12802.98777682867
 21
13245.97778458728
 31
0.0
  0
LINE
  5
71F
330
1F
100
AcDbEntity
  8
画層3-1
  6
Continuous
100
AcDbLine
 10
12787.98777682867
 20
13260.97778458728
 30
0.0
 11
12802.98777682867
 21
13245.97778458728
 31
0.0
  0
LINE
  5
720
330
1F
100
AcDbEntity
  8
画層3-1
  6
Continuous
100
AcDbLine
 10
12787.98777682867
 20
13299.07778458726
 30
0.0
 11
12787.98777682867
 21
13260.97778458728
 31
0.0
  0
ARC
  5
721
330
1F
100
AcDbEntity
  8
画層3-1
  6
Continuous
100
AcDbCircle
 10
12798.38777682857
 20
13245.97778458728
 30
0.0
 40
15.0
100
AcDbArc
 50
0.0
 51
90.0
  0
LINE
  5
722
330
1F
100
AcDbEntity
  8
画層3-2
  6
Continuous
100
AcDbLine
 10
12773.43777682885
 20
13213.71473698304
 30
0.0
 11
12773.43777682885
 21
13260.97778458728
 31
0.0
  0
LINE
  5
723
330
1F
100
AcDbEntity
  8
画層3-通り芯
  6
DASHDOT
 48
100.0
100
AcDbLine
 10
12838.78777682848
 20
13213.71473698304
 30
0.0
 11
12838.78777682848
 21
13324.07778458737
 31
0.0
  0
LINE
  5
724
330
1F
100
AcDbEntity
  8
画層3-2
  6
Continuous
100
AcDbLine
 10
12773.43777682885
 20
12679.07778458726
 30
0.0
 11
12773.43777682885
 21
12725.25801923415
 31
0.0
  0
LINE
  5
725
330
1F
100
AcDbEntity
  8
画層3-1
  6
Continuous
100
AcDbLine
 10
12919.13777682857
 20
12649.07778458726
 30
0.0
 11
12919.13777682857
 21
12679.07778458726
 31
0.0
  0
LINE
  5
726
330
1F
100
AcDbEntity
  8
画層3-1
  6
Continuous
100
AcDbLine
 10
12758.43777682885
 20
12649.07778458726
 30
0.0
 11
12919.13777682857
 21
12649.07778458726
 31
0.0
  0
LINE
  5
727
330
1F
100
AcDbEntity
  8
画層3-1
  6
Continuous
100
AcDbLine
 10
12919.13777682857
 20
12679.07778458726
 30
0.0
 11
12758.43777682885
 21
12679.07778458726
 31
0.0
  0
LINE
  5
728
330
1F
100
AcDbEntity
  8
画層3-1
  6
Continuous
100
AcDbLine
 10
12758.43777682885
 20
12679.07778458726
 30
0.0
 11
12758.43777682885
 21
12649.07778458726
 31
0.0
  0
LINE
  5
729
330
1F
100
AcDbEntity
  8
画層3-1
  6
Continuous
100
AcDbLine
 10
12813.38777682857
 20
12725.25801923415
 30
0.0
 11
12813.38777682857
 21
12679.07778458726
 31
0.0
  0
LINE
  5
72A
330
1F
100
AcDbEntity
  8
画層3-1
  6
Continuous
100
AcDbLine
 10
12864.18777682885
 20
12725.25801923415
 30
0.0
 11
12864.18777682885
 21
12679.07778458726
 31
0.0
  0
LINE
  5
72B
330
1F
100
AcDbEntity
  8
画層3-2
  6
Continuous
100
AcDbLine
 10
12904.13777682857
 20
12725.25801923415
 30
0.0
 11
12904.13777682857
 21
12679.07778458726
 31
0.0
  0
LINE
  5
72C
330
1F
100
AcDbEntity
  8
画層3-2
  6
Continuous
100
AcDbLine
 10
12904.13777682857
 20
11989.07778458726
 30
0.0
 11
12904.13777682857
 21
11963.65896609028
 31
0.0
  0
LINE
  5
72D
330
1F
100
AcDbEntity
  8
画層3-1
  6
Continuous
100
AcDbLine
 10
12864.18777682885
 20
11989.07778458726
 30
0.0
 11
12864.18777682885
 21
11963.65896609028
 31
0.0
  0
LINE
  5
72E
330
1F
100
AcDbEntity
  8
画層3-1
  6
Continuous
100
AcDbLine
 10
12919.13777682857
 20
11989.07778458726
 30
0.0
 11
12919.13777682857
 21
12019.07778458725
 31
0.0
  0
LINE
  5
72F
330
1F
100
AcDbEntity
  8
画層3-1
  6
Continuous
100
AcDbLine
 10
12758.43777682885
 20
11989.07778458726
 30
0.0
 11
12919.13777682857
 21
11989.07778458726
 31
0.0
  0
LINE
  5
730
330
1F
100
AcDbEntity
  8
画層3-1
  6
Continuous
100
AcDbLine
 10
12919.13777682857
 20
12019.07778458725
 30
0.0
 11
12758.43777682885
 21
12019.07778458725
 31
0.0
  0
LINE
  5
731
330
1F
100
AcDbEntity
  8
画層3-1
  6
Continuous
100
AcDbLine
 10
12813.38777682857
 20
11989.07778458726
 30
0.0
 11
12813.38777682857
 21
11963.65896609028
 31
0.0
  0
LINE
  5
732
330
1F
100
AcDbEntity
  8
画層3-1
  6
Continuous
100
AcDbLine
 10
12758.43777682885
 20
12019.07778458725
 30
0.0
 11
12758.43777682885
 21
11989.07778458726
 31
0.0
  0
LINE
  5
733
330
1F
100
AcDbEntity
  8
画層3-2
  6
Continuous
100
AcDbLine
 10
12773.43777682885
 20
11963.65896609028
 30
0.0
 11
12773.43777682885
 21
11989.07778458726
 31
0.0
  0
LINE
  5
734
330
1F
100
AcDbEntity
  8
画層3-2
  6
Continuous
100
AcDbLine
 10
12904.13777682857
 20
12649.07778458726
 30
0.0
 11
12904.13777682857
 21
12019.07778458725
 31
0.0
  0
LINE
  5
735
330
1F
100
AcDbEntity
  8
画層3-1
  6
Continuous
100
AcDbLine
 10
12864.18777682885
 20
12649.07778458726
 30
0.0
 11
12864.18777682885
 21
12019.07778458725
 31
0.0
  0
LINE
  5
736
330
1F
100
AcDbEntity
  8
画層3-2
  6
Continuous
100
AcDbLine
 10
12773.43777682885
 20
12019.07778458725
 30
0.0
 11
12773.43777682885
 21
12649.07778458726
 31
0.0
  0
LINE
  5
737
330
1F
100
AcDbEntity
  8
画層3-1
  6
Continuous
100
AcDbLine
 10
12813.38777682857
 20
12649.07778458726
 30
0.0
 11
12813.38777682857
 21
12019.07778458725
 31
0.0
  0
LINE
  5
738
330
1F
100
AcDbEntity
  8
画層3-通り芯
  6
DASHDOT
 48
100.0
100
AcDbLine
 10
12838.78777682848
 20
11963.65896609028
 30
0.0
 11
12838.78777682848
 21
12725.25801923415
 31
0.0
  0
LINE
  5
739
330
1F
100
AcDbEntity
  8
画層3-2
  6
Continuous
100
AcDbLine
 10
14758.43777682885
 20
12004.07778458726
 30
0.0
 11
12919.13777682857
 21
12004.07778458726
 31
0.0
  0
LINE
  5
73A
330
1F
100
AcDbEntity
  8
画層3-2
  6
Continuous
100
AcDbLine
 10
12919.13777682857
 20
12664.07778458725
 30
0.0
 11
14758.43777682885
 21
12664.07778458725
 31
0.0
  0
LINE
  5
73B
330
1F
100
AcDbEntity
  8
画層3-1
  6
Continuous
100
AcDbLine
 10
12879.18777682885
 20
13260.97778458716
 30
0.0
 11
14798.38777682857
 21
13260.97778458728
 31
0.0
  0
LWPOLYLINE
  5
73C
330
1F
100
AcDbEntity
  8
画層3-1
100
AcDbPolyline
 90
        4
 70
     0
 43
0.0
 10
12864.18777682885
 20
11344.07778458726
 10
12864.18777682885
 20
11024.07778458726
 10
12813.38777682857
 20
11024.07778458726
 10
12813.38777682857
 20
11344.07778458749
  0
LWPOLYLINE
  5
73D
330
1F
100
AcDbEntity
  8
画層3-1
100
AcDbPolyline
 90
        4
 70
     0
 43
0.0
 10
14864.18777682885
 20
11344.07778458726
 10
14864.18777682885
 20
11024.07778458726
 10
14813.38777682857
 20
11024.07778458726
 10
14813.38777682857
 20
11344.07778458749
  0
LINE
  5
73E
330
1F
100
AcDbEntity
  8
画層3-1
  6
Continuous
100
AcDbLine
 10
14864.18777682885
 20
11382.17778458735
 30
0.0
 11
16813.38777682858
 21
11382.17778458712
 31
0.0
  0
LINE
  5
73F
330
1F
100
AcDbEntity
  8
画層3-1
  6
Continuous
100
AcDbLine
 10
14864.18777682885
 20
11344.07778458726
 30
0.0
 11
16813.38777682858
 21
11344.07778458726
 31
0.0
  0
DIMENSION
  5
740
330
1F
100
AcDbEntity
  8
画層3-寸法
  6
Continuous
100
AcDbDimension
  2
*D18
 10
16838.78777682848
 20
7524.077784587261
 30
0.0
 11
15838.78777682848
 21
7802.649213158689
 31
0.0
 70
    32
 71
     5
 42
2000.000000000002
  3
1_100
100
AcDbAlignedDimension
 13
14838.78777682848
 23
8724.07778458726
 33
0.0
 14
16838.78777682848
 24
8724.07778458726
 34
0.0
100
AcDbRotatedDimension
  0
LINE
  5
741
330
1F
100
AcDbEntity
  8
画層3-2
  6
Continuous
100
AcDbLine
 10
15579.17158870838
 20
12004.07778458726
 30
0.0
 11
14919.13777682857
 21
12004.07778458726
 31
0.0
  0
LINE
  5
742
330
1F
100
AcDbEntity
  8
画層3-2
  6
Continuous
100
AcDbLine
 10
14919.13777682857
 20
12664.07778458725
 30
0.0
 11
16758.43777682886
 21
12664.07778458725
 31
0.0
  0
LINE
  5
743
330
1F
100
AcDbEntity
  8
画層3-1
  6
Continuous
100
AcDbLine
 10
14879.18777682885
 20
13260.97778458728
 30
0.0
 11
16798.38777682858
 21
13260.97778458728
 31
0.0
  0
LEADER
  5
744
330
1F
100
AcDbEntity
  8
寸法引出
  6
Continuous
100
AcDbLeader
  3
1_100_B
 71
     0
 73
     0
 74
     0
 75
     1
 40
300.0
 41
1845.0
 76
     3
 10
14904.13777682904
 20
13024.92132791816
 30
0.0
 10
15115.87694204712
 20
12763.36674116282
 30
0.0
 10
15195.87694204712
 20
12763.36674116282
 30
0.0
  0
MTEXT
  5
745
102
{ACAD_REACTORS
330
744
102
}
330
1F
100
AcDbEntity
  8
寸法文字
  6
Continuous
100
AcDbMText
 10
15245.87694204712
 20
12813.36674116282
 30
0.0
 40
300.0
 41
0.0
 71
     7
 72
     1
  1
FB-4.5×19
  7
1_100
 73
     1
 44
1.0
1001
ACAD
1000
MTEXTBEGIN
1070
    73
1070
     1
1070
    44
1040
1.0
1070
    74
1070
     0
1000
MTEXTEND
  0
LEADER
  5
746
330
1F
100
AcDbEntity
  8
寸法引出
  6
Continuous
100
AcDbLeader
  3
1_100
 71
     0
 73
     0
 75
     1
 40
300.0
 41
2603.571428571428
 76
     3
 10
18520.09497177202
 20
13459.26753088143
 30
0.0
 10
17615.67765409054
 20
13865.25990787461
 30
0.0
 10
17555.67765409054
 20
13865.25990787461
 30
0.0
340
747
  0
MTEXT
  5
747
102
{ACAD_REACTORS
330
746
102
}
330
1F
100
AcDbEntity
  8
寸法文字
  6
Continuous
100
AcDbMText
 10
17455.67765409054
 20
13965.2599078746
 30
0.0
 40
300.0
 41
0.0
 71
     9
 72
     1
  1
タンバックル12mm
  7
1_100
 73
     1
 44
1.0
1001
ACAD
1000
MTEXTBEGIN
1070
    73
1070
     1
1070
    44
1040
1.0
1070
    74
1070
     0
1000
MTEXTEND
  0
DIMENSION
  5
748
330
1F
100
AcDbEntity
  8
寸法
  6
Continuous
100
AcDbDimension
  2
*D19
 10
33838.78777682848
 20
11324.07778458737
 30
0.0
 11
33560.21634825705
 21
10074.07778458738
 31
0.0
 70
    32
 71
     5
 42
2500.0
  3
1_100
100
AcDbAlignedDimension
 13
32838.78777682848
 23
8824.077784587377
 33
0.0
 14
32838.78777682848
 24
11324.07778458737
 34
0.0
 50
90.0
100
AcDbRotatedDimension
  0
LINE
  5
749
330
1F
100
AcDbEntity
  8
画層1
  6
Continuous
100
AcDbLine
 10
31363.78777682848
 20
13299.07778458726
 30
0.0
 11
31472.48777682821
 21
13299.07778458726
 31
0.0
  0
LINE
  5
74A
330
1F
100
AcDbEntity
  8
画層1
  6
Continuous
100
AcDbLine
 10
31472.48777682821
 20
13349.07778458725
 30
0.0
 11
31363.78777682848
 21
13349.07778458725
 31
0.0
  0
LINE
  5
74B
330
1F
100
AcDbEntity
  8
画層1
  6
Continuous
100
AcDbLine
 10
31363.78777682848
 20
13299.07778458726
 30
0.0
 11
31363.78777682848
 21
13349.07778458725
 31
0.0
  0
LINE
  5
74C
330
1F
100
AcDbEntity
  8
ﾊｯﾁﾝｸﾞ
  6
Continuous
100
AcDbLine
 10
32128.14897247564
 20
11311.60348255313
 30
0.0
 11
32181.9118214587
 21
11257.84063357031
 31
0.0
  0
LINE
  5
74D
330
1F
100
AcDbEntity
  8
ﾊｯﾁﾝｸﾞ
  6
Continuous
100
AcDbLine
 10
32048.95301298259
 20
11232.40752306031
 30
0.0
 11
32077.28275145518
 21
11204.07778458726
 31
0.0
  0
LINE
  5
74E
330
1F
100
AcDbEntity
  8
ﾊｯﾁﾝｸﾞ
  6
Continuous
100
AcDbLine
 10
32088.55099272935
 20
11272.00550280684
 30
0.0
 11
32156.4787109487
 21
11204.07778458726
 31
0.0
  0
LINE
  5
74F
330
1F
100
AcDbEntity
  8
ﾊｯﾁﾝｸﾞ
  6
Continuous
100
AcDbLine
 10
32061.42731501695
 20
11324.07778458726
 30
0.0
 11
31969.75705348906
 21
11232.40752306031
 31
0.0
  0
LINE
  5
750
330
1F
100
AcDbEntity
  8
ﾊｯﾁﾝｸﾞ
  6
Continuous
100
AcDbLine
 10
32140.62327451
 20
11324.07778458726
 30
0.0
 11
32020.62327450907
 21
11204.07778458726
 31
0.0
  0
LINE
  5
751
330
1F
100
AcDbEntity
  8
ﾊｯﾁﾝｸﾞ
  6
Continuous
100
AcDbLine
 10
31744.64347704428
 20
11324.07778458726
 30
0.0
 11
31688.78777682849
 21
11268.2220843717
 31
0.0
  0
LINE
  5
752
330
1F
100
AcDbEntity
  8
ﾊｯﾁﾝｸﾞ
  6
Continuous
100
AcDbLine
 10
31823.83943653779
 20
11324.07778458737
 30
0.0
 11
31703.83943653686
 21
11204.07778458726
 31
0.0
  0
LINE
  5
753
330
1F
100
AcDbEntity
  8
ﾊｯﾁﾝｸﾞ
  6
Continuous
100
AcDbLine
 10
31903.03539603038
 20
11324.07778458737
 30
0.0
 11
31783.03539602992
 21
11204.07778458726
 31
0.0
  0
LINE
  5
754
330
1F
100
AcDbEntity
  8
ﾊｯﾁﾝｸﾞ
  6
Continuous
100
AcDbLine
 10
31811.36513450343
 20
11232.40752306031
 30
0.0
 11
31839.69487297602
 21
11204.07778458726
 31
0.0
  0
LINE
  5
755
330
1F
100
AcDbEntity
  8
ﾊｯﾁﾝｸﾞ
  6
Continuous
100
AcDbLine
 10
31850.96311424973
 20
11272.00550280684
 30
0.0
 11
31918.89083246908
 21
11204.07778458726
 31
0.0
  0
LINE
  5
756
330
1F
100
AcDbEntity
  8
ﾊｯﾁﾝｸﾞ
  6
Continuous
100
AcDbLine
 10
31890.56109399649
 20
11311.60348255313
 30
0.0
 11
31998.08679196213
 21
11204.07778458726
 31
0.0
  0
LINE
  5
757
330
1F
100
AcDbEntity
  8
ﾊｯﾁﾝｸﾞ
  6
Continuous
100
AcDbLine
 10
31982.2313555239
 20
11324.07778458749
 30
0.0
 11
31930.15907374278
 21
11272.00550280684
 31
0.0
  0
LINE
  5
758
330
1F
100
AcDbEntity
  8
ﾊｯﾁﾝｸﾞ
  6
Continuous
100
AcDbLine
 10
31509.21472636027
 20
8824.077784587259
 30
0.0
 11
31525.32185966729
 21
8802.234708958984
 31
0.0
  0
LINE
  5
759
330
1F
100
AcDbEntity
  8
ﾊｯﾁﾝｸﾞ
  6
Continuous
100
AcDbLine
 10
31493.03622220199
 20
8746.314344514024
 30
0.0
 11
31505.87450606118
 21
8724.07778458726
 31
0.0
  0
LINE
  5
75A
330
1F
100
AcDbEntity
  8
ﾊｯﾁﾝｸﾞ
  6
Continuous
100
AcDbLine
 10
31480.19793834232
 20
8724.07778458726
 30
0.0
 11
31537.93296526114
 21
8824.077784587259
 31
0.0
  0
LINE
  5
75B
330
1F
100
AcDbEntity
  8
ﾊｯﾁﾝｸﾞ
  6
Continuous
100
AcDbLine
 10
31422.6121859818
 20
8824.077784587259
 30
0.0
 11
31438.71931928884
 21
8802.234708958984
 31
0.0
  0
LINE
  5
75C
330
1F
100
AcDbEntity
  8
ﾊｯﾁﾝｸﾞ
  6
Continuous
100
AcDbLine
 10
31406.43368182352
 20
8746.314344514024
 30
0.0
 11
31419.27196568271
 21
8724.07778458726
 31
0.0
  0
LINE
  5
75D
330
1F
100
AcDbEntity
  8
ﾊｯﾁﾝｸﾞ
  6
Continuous
100
AcDbLine
 10
31393.59539796386
 20
8724.07778458726
 30
0.0
 11
31451.33042488268
 21
8824.077784587259
 31
0.0
  0
TEXT
  5
75E
330
1F
100
AcDbEntity
  8
寸法
  6
Continuous
100
AcDbText
 10
29965.6396586446
 20
11376.26188968457
 30
0.0
 40
300.0
  1
▽GL
 41
0.75
  7
1_100
 72
     2
 11
30632.06823007317
 21
11376.26188968457
 31
0.0
100
AcDbText
 73
     1
  0
LWPOLYLINE
  5
75F
330
1F
100
AcDbEntity
  8
画層3-1
100
AcDbPolyline
 90
        4
 70
     0
 43
0.0
 10
31182.83777682877
 20
13324.07778458702
 10
31182.83777682877
 20
11024.07778458726
 10
31132.03777682849
 20
11024.07778458726
 10
31132.03777682849
 20
13324.07778458702
  0
DIMENSION
  5
760
330
1F
100
AcDbEntity
  8
寸法
  6
Continuous
100
AcDbDimension
  2
*D20
 10
28157.76096313188
 20
11024.07778458726
 30
0.0
 11
28422.70214563257
 21
10912.26189047922
 31
0.0
 70
   160
 71
     5
 42
300.0000000001163
  3
1_100
100
AcDbAlignedDimension
 13
26838.78777682849
 23
11324.07778458737
 33
0.0
 14
26838.78777682849
 24
11024.07778458726
 34
0.0
 50
90.0
100
AcDbRotatedDimension
  0
DIMENSION
  5
761
330
1F
100
AcDbEntity
  8
寸法
  6
Continuous
100
AcDbDimension
  2
*D21
 10
28157.76096313188
 20
11324.07778458737
 30
0.0
 11
27879.18953456045
 21
12324.07778458732
 31
0.0
 70
    32
 71
     5
 42
1999.999999999883
  3
1_100
100
AcDbAlignedDimension
 13
26838.78777682849
 23
13324.07778458726
 33
0.0
 14
26838.78777682849
 24
11324.07778458737
 34
0.0
 50
90.0
100
AcDbRotatedDimension
  0
DIMENSION
  5
762
330
1F
100
AcDbEntity
  8
寸法
  6
Continuous
100
AcDbDimension
  2
*D22
 10
28157.76096313188
 20
8724.077784587493
 30
0.0
 11
27883.08821169635
 21
8298.718223764192
 31
0.0
 70
   160
 71
     5
 42
99.99999999988361
  3
1_100
100
AcDbAlignedDimension
 13
26838.78777682849
 23
8824.077784587377
 33
0.0
 14
26838.78777682849
 24
8724.077784587493
 34
0.0
 50
90.0
100
AcDbRotatedDimension
  0
DIMENSION
  5
763
330
1F
100
AcDbEntity
  8
寸法
  6
Continuous
100
AcDbDimension
  2
*D23
 10
29157.76096313188
 20
8824.077784587377
 30
0.0
 11
28879.18953456045
 21
10074.07778458738
 31
0.0
 70
    32
 71
     5
 42
2500.0
  3
1_100
100
AcDbAlignedDimension
 13
26838.78777682849
 23
11324.07778458737
 33
0.0
 14
26838.78777682849
 24
8824.077784587377
 34
0.0
 50
90.0
100
AcDbRotatedDimension
  0
DIMENSION
  5
764
330
1F
100
AcDbEntity
  8
寸法
  6
Continuous
100
AcDbDimension
  2
*D24
 10
28157.76096313188
 20
8824.077784587377
 30
0.0
 11
27879.18953456045
 21
9924.077784587325
 31
0.0
 70
    32
 71
     5
 42
2199.999999999883
  3
1_100
100
AcDbAlignedDimension
 13
26838.78777682849
 23
11024.07778458726
 33
0.0
 14
26838.78777682849
 24
8824.077784587377
 34
0.0
 50
90.0
100
AcDbRotatedDimension
  0
LINE
  5
765
330
1F
100
AcDbEntity
  8
画層1
  6
Continuous
100
AcDbLine
 10
31313.78777682849
 20
13349.07778458725
 30
0.0
 11
31313.78777682849
 21
13299.07778458726
 31
0.0
  0
LINE
  5
766
330
1F
100
AcDbEntity
  8
画層1
  6
Continuous
100
AcDbLine
 10
31155.0877768283
 20
13324.07778458714
 30
0.0
 11
31205.0877768283
 21
13324.07778458726
 31
0.0
  0
LINE
  5
767
330
1F
100
AcDbEntity
  8
画層1
  6
Continuous
100
AcDbLine
 10
31155.0877768283
 20
13349.07778458714
 30
0.0
 11
31155.0877768283
 21
13299.07778458714
 31
0.0
  0
CIRCLE
  5
768
330
1F
100
AcDbEntity
  8
画層3-1
100
AcDbCircle
 10
31157.43777682839
 20
13324.07778458702
 30
0.0
 40
25.40000000002328
  0
LINE
  5
769
330
1F
100
AcDbEntity
  8
画層1
  6
Continuous
100
AcDbLine
 10
31205.0877768283
 20
13299.07778458726
 30
0.0
 11
31313.78777682849
 21
13299.07778458726
 31
0.0
  0
LINE
  5
76A
330
1F
100
AcDbEntity
  8
画層1
  6
Continuous
100
AcDbLine
 10
31313.78777682849
 20
13349.07778458725
 30
0.0
 11
31205.0877768283
 21
13349.07778458725
 31
0.0
  0
LINE
  5
76B
330
1F
100
AcDbEntity
  8
画層3-1
100
AcDbLine
 10
31182.83777682877
 20
11452.75237049079
 30
0.0
 11
31132.03777682849
 21
11452.75237049079
 31
0.0
  0
LINE
  5
76C
330
1F
100
AcDbEntity
  8
画層3-1
100
AcDbLine
 10
31182.83777682877
 20
11427.75237049079
 30
0.0
 11
31132.03777682849
 21
11427.75237049079
 31
0.0
  0
LINE
  5
76D
330
1F
100
AcDbEntity
  8
画層3-1
100
AcDbLine
 10
31157.43777682839
 20
11452.75237049079
 30
0.0
 11
31157.43777682839
 21
13298.67778458688
 31
0.0
  0
LINE
  5
76E
330
1F
100
AcDbEntity
  8
ﾊｯﾁﾝｸﾞ
  6
Continuous
100
AcDbLine
 10
30866.21041915354
 20
11232.40752306031
 30
0.0
 11
30837.88068068095
 21
11204.07778458726
 31
0.0
  0
LINE
  5
76F
330
1F
100
AcDbEntity
  8
ﾊｯﾁﾝｸﾞ
  6
Continuous
100
AcDbLine
 10
30853.73611711918
 20
11324.07778458737
 30
0.0
 11
30973.73611712011
 21
11204.07778458726
 31
0.0
  0
LINE
  5
770
330
1F
100
AcDbEntity
  8
ﾊｯﾁﾝｸﾞ
  6
Continuous
100
AcDbLine
 10
30932.9320766127
 20
11324.07778458726
 30
0.0
 11
30988.78777682849
 21
11268.2220843717
 31
0.0
  0
LINE
  5
771
330
1F
100
AcDbEntity
  8
ﾊｯﾁﾝｸﾞ
  6
Continuous
100
AcDbLine
 10
30549.42658118134
 20
11311.60348255313
 30
0.0
 11
30495.66373219827
 21
11257.84063357031
 31
0.0
  0
LINE
  5
772
330
1F
100
AcDbEntity
  8
ﾊｯﾁﾝｸﾞ
  6
Continuous
100
AcDbLine
 10
30536.95227914697
 20
11324.07778458726
 30
0.0
 11
30656.9522791479
 21
11204.07778458726
 31
0.0
  0
LINE
  5
773
330
1F
100
AcDbEntity
  8
ﾊｯﾁﾝｸﾞ
  6
Continuous
100
AcDbLine
 10
30616.14823864002
 20
11324.07778458726
 30
0.0
 11
30707.8185001679
 21
11232.40752306031
 31
0.0
  0
LINE
  5
774
330
1F
100
AcDbEntity
  8
ﾊｯﾁﾝｸﾞ
  6
Continuous
100
AcDbLine
 10
30695.34419813307
 20
11324.07778458749
 30
0.0
 11
30747.41647991419
 21
11272.00550280684
 31
0.0
  0
LINE
  5
775
330
1F
100
AcDbEntity
  8
ﾊｯﾁﾝｸﾞ
  6
Continuous
100
AcDbLine
 10
30589.02456092762
 20
11272.00550280684
 30
0.0
 11
30521.09684270827
 21
11204.07778458726
 31
0.0
  0
LINE
  5
776
330
1F
100
AcDbEntity
  8
ﾊｯﾁﾝｸﾞ
  6
Continuous
100
AcDbLine
 10
30628.62254067438
 20
11232.40752306031
 30
0.0
 11
30600.29280220179
 21
11204.07778458726
 31
0.0
  0
LINE
  5
777
330
1F
100
AcDbEntity
  8
ﾊｯﾁﾝｸﾞ
  6
Continuous
100
AcDbLine
 10
30787.01445966049
 20
11311.60348255313
 30
0.0
 11
30679.48876169484
 21
11204.07778458726
 31
0.0
  0
LINE
  5
778
330
1F
100
AcDbEntity
  8
ﾊｯﾁﾝｸﾞ
  6
Continuous
100
AcDbLine
 10
30826.61243940724
 20
11272.00550280684
 30
0.0
 11
30758.6847211879
 21
11204.07778458726
 31
0.0
  0
LINE
  5
779
330
1F
100
AcDbEntity
  8
ﾊｯﾁﾝｸﾞ
  6
Continuous
100
AcDbLine
 10
30774.54015762659
 20
11324.07778458737
 30
0.0
 11
30894.54015762706
 21
11204.07778458726
 31
0.0
  0
LINE
  5
77A
330
1F
100
AcDbEntity
  8
ﾊｯﾁﾝｸﾞ
  6
Continuous
100
AcDbLine
 10
31162.80456484642
 20
8824.077784587259
 30
0.0
 11
31178.91169815345
 21
8802.234708958984
 31
0.0
  0
LINE
  5
77B
330
1F
100
AcDbEntity
  8
ﾊｯﾁﾝｸﾞ
  6
Continuous
100
AcDbLine
 10
31146.62606068815
 20
8746.314344514024
 30
0.0
 11
31159.46434454734
 21
8724.07778458726
 31
0.0
  0
LINE
  5
77C
330
1F
100
AcDbEntity
  8
ﾊｯﾁﾝｸﾞ
  6
Continuous
100
AcDbLine
 10
31133.78777682849
 20
8724.07778458726
 30
0.0
 11
31191.5228037473
 21
8824.077784587259
 31
0.0
  0
LINE
  5
77D
330
1F
100
AcDbEntity
  8
ﾊｯﾁﾝｸﾞ
  6
Continuous
100
AcDbLine
 10
31249.40710522488
 20
8824.077784587259
 30
0.0
 11
31265.51423853191
 21
8802.234708958984
 31
0.0
  0
LINE
  5
77E
330
1F
100
AcDbEntity
  8
ﾊｯﾁﾝｸﾞ
  6
Continuous
100
AcDbLine
 10
31233.2286010666
 20
8746.314344514024
 30
0.0
 11
31246.0668849258
 21
8724.07778458726
 31
0.0
  0
LINE
  5
77F
330
1F
100
AcDbEntity
  8
ﾊｯﾁﾝｸﾞ
  6
Continuous
100
AcDbLine
 10
31220.39031720694
 20
8724.07778458726
 30
0.0
 11
31278.12534412576
 21
8824.077784587259
 31
0.0
  0
LINE
  5
780
330
1F
100
AcDbEntity
  8
ﾊｯﾁﾝｸﾞ
  6
Continuous
100
AcDbLine
 10
31319.83114144506
 20
8746.314344514024
 30
0.0
 11
31332.66942530426
 21
8724.07778458726
 31
0.0
  0
LINE
  5
781
330
1F
100
AcDbEntity
  8
画層2-1
  6
Continuous
100
AcDbLine
 10
31205.0877768283
 20
11174.07778458726
 30
0.0
 11
31472.48777682821
 21
11174.07778458726
 31
0.0
  0
DIMENSION
  5
782
330
1F
100
AcDbEntity
  8
寸法
  6
Continuous
100
AcDbDimension
  2
*D25
 10
31563.78777682848
 20
8224.077784587493
 30
0.0
 11
30384.01012983194
 21
8424.865496749271
 31
0.0
 70
   160
  1
φ<>
 71
     5
 42
450.0
  3
1_100
100
AcDbAlignedDimension
 13
31113.78777682848
 23
8724.077784587493
 33
0.0
 14
31563.78777682848
 24
8724.077784587493
 34
0.0
100
AcDbRotatedDimension
  0
DIMENSION
  5
783
330
1F
100
AcDbEntity
  8
寸法
  6
Continuous
100
AcDbDimension
  2
*D26
 10
31688.78777682849
 20
7924.077784587261
 30
0.0
 11
31338.78777682848
 21
7674.077784587261
 31
0.0
 70
    32
  1
□<>
 71
     5
 42
700.0
  3
1_100
100
AcDbAlignedDimension
 13
30988.78777682849
 23
8724.07778458726
 33
0.0
 14
31688.78777682849
 24
8724.07778458726
 34
0.0
100
AcDbRotatedDimension
1001
ACAD
1000
DSTYLE
1002
{
1070
    77
1070
     2
1070
   174
1070
     1
1002
}
  0
LINE
  5
784
330
1F
100
AcDbEntity
  8
画層2
  6
Continuous
100
AcDbLine
 10
29947.75785095545
 20
11324.07778458726
 30
0.0
 11
32259.06789817404
 21
11324.07778458726
 31
0.0
  0
LWPOLYLINE
  5
785
330
1F
100
AcDbEntity
  8
画層1
100
AcDbPolyline
 90
        4
 70
     1
 43
0.0
 10
31318.78777682849
 20
13749.07778458726
 10
31358.78777682849
 20
13749.07778458726
 10
31358.78777682849
 20
13549.07778458726
 10
31318.78777682849
 20
13549.07778458726
  0
CIRCLE
  5
786
330
1F
100
AcDbEntity
  8
画層1
  6
Continuous
100
AcDbCircle
 10
31338.78777682848
 20
13324.07778458726
 30
0.0
 40
10.7662971851
  0
LINE
  5
787
330
1F
100
AcDbEntity
  8
画層2-1
  6
Continuous
100
AcDbLine
 10
31205.0877768283
 20
11424.07778458726
 30
0.0
 11
31472.48777682821
 21
11424.07778458726
 31
0.0
  0
LWPOLYLINE
  5
788
330
1F
100
AcDbEntity
  8
画層2
100
AcDbPolyline
 90
        8
 70
     0
 43
0.0
 10
30988.78777682849
 20
11324.07778458726
 10
30988.78777682849
 20
11024.07778458726
 10
31113.78777682848
 20
11024.07778458726
 10
31113.78777682848
 20
8724.07778458726
 10
31563.78777682848
 20
8724.07778458726
 10
31563.78777682848
 20
11024.07778458726
 10
31688.78777682849
 20
11024.07778458726
 10
31688.78777682849
 20
11324.07778458726
  0
LINE
  5
789
330
1F
100
AcDbEntity
  8
画層2
100
AcDbLine
 10
31563.78777682848
 20
8824.077784587259
 30
0.0
 11
31113.78777682848
 21
8824.077784587259
 31
0.0
  0
LINE
  5
78A
330
1F
100
AcDbEntity
  8
ﾊｯﾁﾝｸﾞ
  6
Continuous
100
AcDbLine
 10
31336.00964560334
 20
8824.077784587259
 30
0.0
 11
31352.11677891037
 21
8802.234708958984
 31
0.0
  0
LINE
  5
78B
330
1F
100
AcDbEntity
  8
ﾊｯﾁﾝｸﾞ
  6
Continuous
100
AcDbLine
 10
31306.9928575854
 20
8724.07778458726
 30
0.0
 11
31364.72788450422
 21
8824.077784587259
 31
0.0
  0
HATCH
  5
78C
330
1F
100
AcDbEntity
  8
ﾊｯﾁﾝｸﾞ
100
AcDbHatch
 10
0.0
 20
0.0
 30
0.0
210
0.0
220
0.0
230
1.0
  2
PLAST
 70
     0
 71
     0
 91
        2
 92
        7
 72
     0
 73
     1
 93
        6
 10
31563.78777682848
 20
11024.07778458726
 10
31688.78777682849
 20
11024.07778458726
 10
31688.78777682849
 20
11324.07778458726
 10
31338.78777682848
 20
11324.07778458726
 10
31338.78777682848
 20
8824.077784587259
 10
31563.78777682848
 20
8824.077784587259
 97
        0
 92
        7
 72
     0
 73
     1
 93
       10
 10
31338.78777682848
 20
11324.07778458726
 10
31182.83777682877
 20
11324.07778458726
 10
31182.83777682877
 20
11024.07778458726
 10
31132.03777682849
 20
11024.07778458726
 10
31132.03777682849
 20
11324.07778458726
 10
30988.78777682849
 20
11324.07778458726
 10
30988.78777682849
 20
11024.07778458726
 10
31113.78777682848
 20
11024.07778458726
 10
31113.78777682848
 20
8824.077784587259
 10
31338.78777682848
 20
8824.077784587259
 97
        0
 75
     0
 76
     1
 52
45.0
 41
2000.0
 77
     0
 78
     3
 53
45.0
 43
-159640.9793612559
 44
-242495.731562874
 45
-353.5533905932737
 46
353.5533905932738
 79
     0
 53
45.0
 43
-159685.17353508
 44
-242451.5373890498
 45
-353.5533905932737
 46
353.5533905932738
 79
     0
 53
45.0
 43
-159729.3677089042
 44
-242407.3432152257
 45
-353.5533905932737
 46
353.5533905932738
 79
     0
 47
15.94747715696962
 98
        2
 10
31507.16619137556
 20
10052.36606751462
 10
31235.81686872358
 20
10052.36606751462
  0
LWPOLYLINE
  5
78D
330
1F
100
AcDbEntity
  8
画層1-1
100
AcDbPolyline
 90
        4
 70
     1
 43
0.0
 10
9046.937776828857
 20
23283.97778458739
 10
18630.63777682858
 20
23283.97778458739
 10
18630.63777682858
 20
23144.17778458738
 10
9046.937776828857
 20
23144.17778458738
  0
LINE
  5
790
330
1F
100
AcDbEntity
  8
画層1-1
  6
Continuous
100
AcDbLine
 10
8838.787776828484
 20
20774.07778458738
 30
0.0
 11
26338.78777682848
 21
20774.07778458738
 31
0.0
  0
LINE
  5
791
330
1F
100
AcDbEntity
  8
画層1-1
  6
Continuous
100
AcDbLine
 10
8838.787776828484
 20
18284.07778458726
 30
0.0
 11
26338.78777682848
 21
18284.07778458749
 31
0.0
  0
LINE
  5
792
330
1F
100
AcDbEntity
  8
画層1-1
  6
Continuous
100
AcDbLine
 10
8838.787776828484
 20
15794.07778458691
 30
0.0
 11
26338.78777682848
 21
15794.07778458714
 31
0.0
  0
LINE
  5
793
102
{ACAD_REACTORS
330
55C
102
}
330
1F
100
AcDbEntity
  8
画層1
  6
Continuous
100
AcDbLine
 10
8838.787776828484
 20
23264.07778458738
 30
0.0
 11
26338.78777682848
 21
23264.0777845875
 31
0.0
  0
LINE
  5
794
330
1F
100
AcDbEntity
  8
画層1
  6
Continuous
100
AcDbLine
 10
8730.637776828578
 20
23324.07778458738
 30
0.0
 11
8730.637776828578
 21
15824.07778458691
 31
0.0
  0
LINE
  5
795
330
1F
100
AcDbEntity
  8
画層1
  6
Continuous
100
AcDbLine
 10
8946.93777682839
 20
23324.07778458738
 30
0.0
 11
8946.93777682839
 21
15824.07778458691
 31
0.0
  0
LWPOLYLINE
  5
796
330
1F
100
AcDbEntity
  8
画層1-1
100
AcDbPolyline
 90
        4
 70
     1
 43
0.0
 10
9097.487776828668
 20
18304.07778458726
 10
9271.937776828393
 20
18304.07778458726
 10
9271.937776828393
 20
18264.07778458726
 10
9097.487776828668
 20
18264.07778458726
  0
CIRCLE
  5
797
330
1F
100
AcDbEntity
  8
画層1
  6
Continuous
100
AcDbCircle
 10
8838.787776828484
 20
18284.07778458726
 30
0.0
 40
10.7662971851
  0
CIRCLE
  5
798
330
1F
100
AcDbEntity
  8
画層1
  6
Continuous
100
AcDbCircle
 10
8971.93777682839
 20
18284.07778458726
 30
0.0
 40
10.7662971851
  0
LINE
  5
799
330
1F
100
AcDbEntity
  8
画層1
  6
Continuous
100
AcDbLine
 10
8813.787776828483
 20
18309.07778458726
 30
0.0
 11
8813.787776828483
 21
18259.07778458726
 31
0.0
  0
LINE
  5
79A
330
1F
100
AcDbEntity
  8
画層1
  6
Continuous
100
AcDbLine
 10
8863.787776828484
 20
18259.07778458726
 30
0.0
 11
8863.787776828484
 21
18309.07778458726
 31
0.0
  0
LINE
  5
79B
330
1F
100
AcDbEntity
  8
画層1
  6
Continuous
100
AcDbLine
 10
8996.93777682839
 20
18259.07778458726
 30
0.0
 11
8996.93777682839
 21
18309.07778458726
 31
0.0
  0
CIRCLE
  5
79C
330
1F
100
AcDbEntity
  8
画層1
  6
Continuous
100
AcDbCircle
 10
8705.637776828577
 20
18284.07778458726
 30
0.0
 40
10.7662971851
  0
LINE
  5
79D
330
1F
100
AcDbEntity
  8
画層1
  6
Continuous
100
AcDbLine
 10
8680.637776828577
 20
18309.07778458726
 30
0.0
 11
8680.637776828577
 21
18259.07778458726
 31
0.0
  0
LINE
  5
79E
330
1F
100
AcDbEntity
  8
画層1
  6
Continuous
100
AcDbLine
 10
8680.637776828577
 20
18259.07778458726
 30
0.0
 11
8996.93777682839
 21
18259.07778458726
 31
0.0
  0
LINE
  5
79F
330
1F
100
AcDbEntity
  8
画層1
  6
Continuous
100
AcDbLine
 10
8996.93777682839
 20
18309.07778458726
 30
0.0
 11
8680.637776828577
 21
18309.07778458726
 31
0.0
  0
LINE
  5
7A0
330
1F
100
AcDbEntity
  8
画層1
  6
Continuous
100
AcDbLine
 10
8705.087776828763
 20
15824.07778458691
 30
0.0
 11
8972.487776828669
 21
15824.07778458691
 31
0.0
  0
LWPOLYLINE
  5
7A1
330
1F
100
AcDbEntity
  8
画層1-1
100
AcDbPolyline
 90
        4
 70
     1
 43
0.0
 10
9123.037776828484
 20
15774.07778458691
 10
9297.487776828672
 20
15774.07778458691
 10
9297.487776828672
 20
15814.07778458691
 10
9123.037776828484
 20
15814.07778458691
  0
LINE
  5
7A2
330
1F
100
AcDbEntity
  8
画層1
  6
Continuous
100
AcDbLine
 10
8813.787776828483
 20
15819.07778458691
 30
0.0
 11
8813.787776828483
 21
15769.07778458691
 31
0.0
  0
LINE
  5
7A3
330
1F
100
AcDbEntity
  8
画層1
  6
Continuous
100
AcDbLine
 10
8863.787776828484
 20
15769.07778458691
 30
0.0
 11
8863.787776828484
 21
15819.07778458691
 31
0.0
  0
CIRCLE
  5
7A4
330
1F
100
AcDbEntity
  8
画層1
  6
Continuous
100
AcDbCircle
 10
8838.787776828484
 20
15794.07778458691
 30
0.0
 40
10.7662971851
  0
CIRCLE
  5
7A5
330
1F
100
AcDbEntity
  8
画層1
  6
Continuous
100
AcDbCircle
 10
8997.487776828672
 20
15794.07778458691
 30
0.0
 40
10.7662971851
  0
LINE
  5
7A6
330
1F
100
AcDbEntity
  8
画層1
  6
Continuous
100
AcDbLine
 10
9022.487776828672
 20
15769.07778458691
 30
0.0
 11
9022.487776828672
 21
15819.07778458691
 31
0.0
  0
LINE
  5
7A7
330
1F
100
AcDbEntity
  8
画層1
  6
Continuous
100
AcDbLine
 10
8655.087776828297
 20
15819.07778458691
 30
0.0
 11
8655.087776828297
 21
15769.07778458691
 31
0.0
  0
CIRCLE
  5
7A8
330
1F
100
AcDbEntity
  8
画層1
  6
Continuous
100
AcDbCircle
 10
8680.087776828299
 20
15794.07778458691
 30
0.0
 40
10.7662971851
  0
LINE
  5
7A9
330
1F
100
AcDbEntity
  8
画層1
  6
Continuous
100
AcDbLine
 10
8655.087776828297
 20
15769.07778458691
 30
0.0
 11
9022.487776828672
 21
15769.07778458691
 31
0.0
  0
LINE
  5
7AA
330
1F
100
AcDbEntity
  8
画層1
  6
Continuous
100
AcDbLine
 10
9022.487776828672
 20
15819.07778458691
 30
0.0
 11
8655.087776828297
 21
15819.07778458691
 31
0.0
  0
LINE
  5
7AB
330
1F
100
AcDbEntity
  8
画層1
  6
Continuous
100
AcDbLine
 10
8730.637776828578
 20
23324.07778458738
 30
0.0
 11
8946.93777682839
 21
23324.07778458738
 31
0.0
  0
LWPOLYLINE
  5
7AC
330
1F
100
AcDbEntity
  8
画層1
100
AcDbPolyline
 90
        4
 70
     1
 43
0.0
 10
9097.487776828668
 20
23284.07778458738
 10
9271.937776828856
 20
23284.07778458738
 10
9271.937776828856
 20
23244.07778458738
 10
9097.487776828668
 20
23244.07778458738
  0
CIRCLE
  5
7AD
330
1F
100
AcDbEntity
  8
画層1
  6
Continuous
100
AcDbCircle
 10
8838.787776828484
 20
23264.07778458738
 30
0.0
 40
10.7662971851
  0
CIRCLE
  5
7AE
330
1F
100
AcDbEntity
  8
画層1
  6
Continuous
100
AcDbCircle
 10
8971.937776828857
 20
23264.07778458738
 30
0.0
 40
10.7662971851
  0
LINE
  5
7AF
330
1F
100
AcDbEntity
  8
画層1
  6
Continuous
100
AcDbLine
 10
8813.787776828483
 20
23289.07778458738
 30
0.0
 11
8813.787776828483
 21
23239.07778458738
 31
0.0
  0
LINE
  5
7B0
330
1F
100
AcDbEntity
  8
画層1
  6
Continuous
100
AcDbLine
 10
8863.787776828484
 20
23239.07778458738
 30
0.0
 11
8863.787776828484
 21
23289.07778458738
 31
0.0
  0
CIRCLE
  5
7B1
330
1F
100
AcDbEntity
  8
画層1
  6
Continuous
100
AcDbCircle
 10
8705.637776828577
 20
23264.07778458738
 30
0.0
 40
10.7662971851
  0
LINE
  5
7B2
330
1F
100
AcDbEntity
  8
画層1
  6
Continuous
100
AcDbLine
 10
8680.637776828577
 20
23289.07778458738
 30
0.0
 11
8680.637776828577
 21
23239.07778458738
 31
0.0
  0
LINE
  5
7B3
330
1F
100
AcDbEntity
  8
画層1
  6
Continuous
100
AcDbLine
 10
8996.937776828856
 20
23239.07778458738
 30
0.0
 11
8996.937776828856
 21
23289.07778458738
 31
0.0
  0
LINE
  5
7B4
330
1F
100
AcDbEntity
  8
画層1
  6
Continuous
100
AcDbLine
 10
8680.637776828577
 20
23239.07778458738
 30
0.0
 11
8996.937776828856
 21
23239.07778458738
 31
0.0
  0
LINE
  5
7B5
330
1F
100
AcDbEntity
  8
画層1
  6
Continuous
100
AcDbLine
 10
8996.937776828856
 20
23289.07778458738
 30
0.0
 11
8680.637776828577
 21
23289.07778458738
 31
0.0
  0
LINE
  5
7B6
330
1F
100
AcDbEntity
  8
画層1
  6
Continuous
100
AcDbLine
 10
8996.937776828856
 20
23239.07778458738
 30
0.0
 11
8680.637776828577
 21
23239.07778458738
 31
0.0
  0
LINE
  5
7B7
330
1F
100
AcDbEntity
  8
画層1
  6
Continuous
100
AcDbLine
 10
8680.637776828577
 20
23189.07778458738
 30
0.0
 11
8996.937776828856
 21
23189.07778458738
 31
0.0
  0
LINE
  5
7B8
330
1F
100
AcDbEntity
  8
画層1
  6
Continuous
100
AcDbLine
 10
8996.937776828856
 20
23189.07778458738
 30
0.0
 11
8996.937776828856
 21
23239.07778458738
 31
0.0
  0
LINE
  5
7B9
330
1F
100
AcDbEntity
  8
画層1
  6
Continuous
100
AcDbLine
 10
8680.637776828577
 20
23239.07778458738
 30
0.0
 11
8680.637776828577
 21
23189.07778458738
 31
0.0
  0
CIRCLE
  5
7BA
330
1F
100
AcDbEntity
  8
画層1
  6
Continuous
100
AcDbCircle
 10
8705.637776828577
 20
23214.07778458738
 30
0.0
 40
10.7662971851
  0
LINE
  5
7BB
330
1F
100
AcDbEntity
  8
画層1
  6
Continuous
100
AcDbLine
 10
8863.787776828484
 20
23189.07778458738
 30
0.0
 11
8863.787776828484
 21
23239.07778458738
 31
0.0
  0
LINE
  5
7BC
330
1F
100
AcDbEntity
  8
画層1
  6
Continuous
100
AcDbLine
 10
8813.787776828483
 20
23239.07778458738
 30
0.0
 11
8813.787776828483
 21
23189.07778458738
 31
0.0
  0
CIRCLE
  5
7BD
330
1F
100
AcDbEntity
  8
画層1
  6
Continuous
100
AcDbCircle
 10
8971.937776828857
 20
23214.07778458738
 30
0.0
 40
10.7662971851
  0
CIRCLE
  5
7BE
330
1F
100
AcDbEntity
  8
画層1
  6
Continuous
100
AcDbCircle
 10
8838.787776828484
 20
23214.07778458738
 30
0.0
 40
10.7662971851
  0
LINE
  5
7BF
330
1F
100
AcDbEntity
  8
画層1
  6
Continuous
100
AcDbLine
 10
8971.937776828857
 20
23264.07778458738
 30
0.0
 11
9097.487776828668
 21
23264.07778458738
 31
0.0
  0
DIMENSION
  5
7C0
330
1F
100
AcDbEntity
  8
寸法
  6
Continuous
100
AcDbDimension
  2
*D27
 10
8946.93777682839
 20
23924.07778458738
 30
0.0
 11
8838.787776828484
 21
24224.07778458738
 31
0.0
 70
    32
  1
φ<>
 71
     5
 42
216.2999999998137
  3
1_100
100
AcDbAlignedDimension
 13
8730.637776828578
 23
23324.07778458738
 33
0.0
 14
8946.93777682839
 24
23324.07778458738
 34
0.0
100
AcDbRotatedDimension
  0
LWPOLYLINE
  5
7C1
330
1F
100
AcDbEntity
  8
画層1-1
100
AcDbPolyline
 90
        4
 70
     1
 43
0.0
 10
9097.487776828668
 20
20794.07778458726
 10
9271.937776828393
 20
20794.07778458726
 10
9271.937776828393
 20
20754.07778458726
 10
9097.487776828668
 20
20754.07778458726
  0
LINE
  5
7C2
330
1F
100
AcDbEntity
  8
画層1
  6
Continuous
100
AcDbLine
 10
8813.787776828483
 20
20799.07778458726
 30
0.0
 11
8813.787776828483
 21
20749.07778458726
 31
0.0
  0
LINE
  5
7C3
330
1F
100
AcDbEntity
  8
画層1
  6
Continuous
100
AcDbLine
 10
8863.787776828484
 20
20749.07778458726
 30
0.0
 11
8863.787776828484
 21
20799.07778458726
 31
0.0
  0
CIRCLE
  5
7C4
330
1F
100
AcDbEntity
  8
画層1
  6
Continuous
100
AcDbCircle
 10
8838.787776828484
 20
20774.07778458726
 30
0.0
 40
10.7662971851
  0
CIRCLE
  5
7C5
330
1F
100
AcDbEntity
  8
画層1
  6
Continuous
100
AcDbCircle
 10
8971.93777682839
 20
20774.07778458726
 30
0.0
 40
10.7662971851
  0
LINE
  5
7C6
330
1F
100
AcDbEntity
  8
画層1
  6
Continuous
100
AcDbLine
 10
8996.93777682839
 20
20749.07778458726
 30
0.0
 11
8996.93777682839
 21
20799.07778458726
 31
0.0
  0
LINE
  5
7C7
330
1F
100
AcDbEntity
  8
画層1
  6
Continuous
100
AcDbLine
 10
8680.637776828577
 20
20799.07778458726
 30
0.0
 11
8680.637776828577
 21
20749.07778458726
 31
0.0
  0
CIRCLE
  5
7C8
330
1F
100
AcDbEntity
  8
画層1
  6
Continuous
100
AcDbCircle
 10
8705.637776828577
 20
20774.07778458726
 30
0.0
 40
10.7662971851
  0
LINE
  5
7C9
330
1F
100
AcDbEntity
  8
画層1
  6
Continuous
100
AcDbLine
 10
8680.637776828577
 20
20749.07778458726
 30
0.0
 11
8996.93777682839
 21
20749.07778458726
 31
0.0
  0
LINE
  5
7CA
330
1F
100
AcDbEntity
  8
画層1
  6
Continuous
100
AcDbLine
 10
8996.93777682839
 20
20799.07778458726
 30
0.0
 11
8680.637776828577
 21
20799.07778458726
 31
0.0
  0
LINE
  5
7CB
330
1F
100
AcDbEntity
  8
画層1-1
100
AcDbLine
 10
9046.937776828857
 20
23214.07778458738
 30
0.0
 11
8996.937776828856
 21
23214.07778458738
 31
0.0
  0
MTEXT
  5
7CC
330
1F
100
AcDbEntity
  8
寸法文字
  6
Continuous
100
AcDbMText
 10
6654.340419477988
 20
21930.87136596752
 30
0.0
 40
300.0
 41
0.0
 71
     3
 72
     1
  1
（STKT-590鋼管）
  7
1_100
 73
     1
 44
1.0
1001
ACAD
1000
MTEXTBEGIN
1070
    73
1070
     1
1070
    44
1040
1.0
1070
    74
1070
     0
1000
MTEXTEND
  0
LEADER
  5
7CD
330
1F
100
AcDbEntity
  8
寸法引出
  6
Continuous
100
AcDbLeader
  3
1_100
 71
     0
 73
     0
 75
     1
 40
346.6666666666666
 41
3117.142857142858
 76
     3
 10
8838.787776828484
 20
18849.83096746213
 30
0.0
 10
7751.240597065278
 20
19598.34230733509
 30
0.0
 10
7691.240597065278
 20
19598.34230733509
 30
0.0
340
7CE
  0
MTEXT
  5
7CE
102
{ACAD_REACTORS
330
7CD
102
}
330
1F
100
AcDbEntity
  8
寸法文字
  6
Continuous
100
AcDbMText
 10
7591.240597065278
 20
19698.34230733509
 30
0.0
 40
300.0
 41
0.0
 71
     9
 72
     1
  1
メッセンワイヤー22m㎡
  7
1_100
 73
     1
 44
1.0
1001
ACAD
1000
MTEXTBEGIN
1070
    73
1070
     1
1070
    44
1040
1.0
1070
    74
1070
     0
1000
MTEXTEND
  0
LEADER
  5
7CF
330
1F
100
AcDbEntity
  8
寸法引出
  6
Continuous
100
AcDbLeader
  3
1_100
 71
     0
 73
     0
 75
     1
 40
300.0
 41
2603.571428571428
 76
     3
 10
9210.262776828574
 20
15814.07778458691
 30
0.0
 10
7808.421454425642
 20
16790.02746052095
 30
0.0
 10
7748.421454425642
 20
16790.02746052095
 30
0.0
340
7D0
  0
MTEXT
  5
7D0
102
{ACAD_REACTORS
330
7CF
102
}
330
1F
100
AcDbEntity
  8
寸法文字
  6
Continuous
100
AcDbMText
 10
7648.421454425641
 20
16890.02746052095
 30
0.0
 40
300.0
 41
0.0
 71
     9
 72
     1
  1
タンバックル12mm
  7
1_100
 73
     1
 44
1.0
1001
ACAD
1000
MTEXTBEGIN
1070
    73
1070
     1
1070
    44
1040
1.0
1070
    74
1070
     0
1000
MTEXTEND
  0
LEADER
  5
7D1
330
1F
100
AcDbEntity
  8
寸法引出
  6
Continuous
100
AcDbLeader
  3
1_100
 71
     0
 73
     0
 75
     1
 40
300.0
 41
4699.285714285712
 76
     3
 10
8730.637776828578
 20
21361.09925707393
 30
0.0
 10
7673.447920959649
 20
22113.22965363423
 30
0.0
 10
7613.447920959649
 20
22113.22965363423
 30
0.0
340
7D2
  0
MTEXT
  5
7D2
102
{ACAD_REACTORS
330
7D1
102
}
330
1F
100
AcDbEntity
  8
寸法文字
  6
Continuous
100
AcDbMText
 10
7513.447920959649
 20
22213.22965363423
 30
0.0
 40
300.0
 41
0.0
 71
     9
 72
     1
  1
主柱KSポールφ216.3厚さ3.5mm
  7
1_100
 73
     1
 44
1.0
1001
ACAD
1000
ACAD_MTEXT_DEFINED_HEIGHT_BEGIN
1070
    46
1040
0.0
1000
ACAD_MTEXT_DEFINED_HEIGHT_END
1000
MTEXTBEGIN
1070
    73
1070
     1
1070
    44
1040
1.0
1070
    74
1070
     0
1000
MTEXTEND
  0
MTEXT
  5
7D3
102
{ACAD_REACTORS
330
7D4
102
}
330
1F
100
AcDbEntity
  8
寸法文字
  6
Continuous
100
AcDbMText
 10
7465.067580297795
 20
24199.28874436752
 30
0.0
 40
300.0
 41
0.0
 71
     9
 72
     1
  1
上部ネット下り防止付き
  7
1_100
 73
     1
 44
1.0
1001
ACAD
1000
MTEXTBEGIN
1070
    73
1070
     1
1070
    44
1040
1.0
1070
    74
1070
     0
1000
MTEXTEND
  0
LEADER
  5
7D4
330
1F
100
AcDbEntity
  8
寸法引出
  6
Continuous
100
AcDbLeader
  3
1_100
 71
     0
 73
     0
 75
     1
 40
300.0
 41
2940.000000000001
 76
     3
 10
8838.787776828484
 20
23324.07778458738
 30
0.0
 10
7625.067580297794
 20
24099.28874436753
 30
0.0
 10
7565.067580297794
 20
24099.28874436753
 30
0.0
340
7D3
  0
LINE
  5
7D5
330
1F
100
AcDbEntity
  8
画層1-1
  6
Continuous
100
AcDbLine
 10
18971.93777682885
 20
23213.38537123577
 30
0.0
 11
22718.68547097942
 21
19402.9398031831
 31
0.0
  0
LINE
  5
7D6
330
1F
100
AcDbEntity
  8
画層1
  6
Continuous
100
AcDbLine
 10
18813.78777682848
 20
18309.07778458738
 30
0.0
 11
18813.78777682848
 21
18259.07778458738
 31
0.0
  0
CIRCLE
  5
7D7
330
1F
100
AcDbEntity
  8
画層1
  6
Continuous
100
AcDbCircle
 10
18838.78777682848
 20
18284.07778458736
 30
0.0
 40
10.7662971851
  0
LINE
  5
7D8
330
1F
100
AcDbEntity
  8
画層1
  6
Continuous
100
AcDbLine
 10
18863.78777682848
 20
18259.07778458738
 30
0.0
 11
18863.78777682848
 21
18309.07778458738
 31
0.0
  0
CIRCLE
  5
7D9
330
1F
100
AcDbEntity
  8
画層1
  6
Continuous
100
AcDbCircle
 10
18971.93777682839
 20
18284.07778458736
 30
0.0
 40
10.7662971851
  0
LINE
  5
7DA
330
1F
100
AcDbEntity
  8
画層1
  6
Continuous
100
AcDbLine
 10
18996.93777682839
 20
18259.07778458738
 30
0.0
 11
18996.93777682839
 21
18309.07778458738
 31
0.0
  0
CIRCLE
  5
7DB
330
1F
100
AcDbEntity
  8
画層1
  6
Continuous
100
AcDbCircle
 10
18705.63777682858
 20
18284.07778458736
 30
0.0
 40
10.7662971851
  0
LINE
  5
7DC
330
1F
100
AcDbEntity
  8
画層1
  6
Continuous
100
AcDbLine
 10
18680.63777682858
 20
18309.07778458738
 30
0.0
 11
18680.63777682858
 21
18259.07778458738
 31
0.0
  0
LINE
  5
7DD
330
1F
100
AcDbEntity
  8
画層1
  6
Continuous
100
AcDbLine
 10
18996.93777682839
 20
18309.07778458738
 30
0.0
 11
18680.63777682858
 21
18309.07778458738
 31
0.0
  0
LINE
  5
7DE
330
1F
100
AcDbEntity
  8
画層1
  6
Continuous
100
AcDbLine
 10
18680.63777682858
 20
18259.07778458738
 30
0.0
 11
18996.93777682839
 21
18259.07778458738
 31
0.0
  0
LINE
  5
7DF
330
1F
100
AcDbEntity
  8
画層1
  6
Continuous
100
AcDbLine
 10
18705.08777682876
 20
15824.07778458691
 30
0.0
 11
18972.48777682866
 21
15824.07778458691
 31
0.0
  0
LINE
  5
7E0
330
1F
100
AcDbEntity
  8
画層1
  6
Continuous
100
AcDbLine
 10
18813.78777682848
 20
15819.07778458691
 30
0.0
 11
18813.78777682848
 21
15769.07778458691
 31
0.0
  0
CIRCLE
  5
7E1
330
1F
100
AcDbEntity
  8
画層1
  6
Continuous
100
AcDbCircle
 10
18838.78777682848
 20
15794.07778458691
 30
0.0
 40
10.7662971851
  0
LINE
  5
7E2
330
1F
100
AcDbEntity
  8
画層1
  6
Continuous
100
AcDbLine
 10
18863.78777682848
 20
15769.07778458691
 30
0.0
 11
18863.78777682848
 21
15819.07778458691
 31
0.0
  0
LINE
  5
7E3
330
1F
100
AcDbEntity
  8
画層1
  6
Continuous
100
AcDbLine
 10
19022.48777682867
 20
15769.07778458691
 30
0.0
 11
19022.48777682867
 21
15819.07778458691
 31
0.0
  0
CIRCLE
  5
7E4
330
1F
100
AcDbEntity
  8
画層1
  6
Continuous
100
AcDbCircle
 10
18997.48777682867
 20
15794.07778458691
 30
0.0
 40
10.7662971851
  0
LINE
  5
7E5
330
1F
100
AcDbEntity
  8
画層1
  6
Continuous
100
AcDbLine
 10
18655.08777682876
 20
15819.07778458691
 30
0.0
 11
18655.08777682876
 21
15769.07778458691
 31
0.0
  0
CIRCLE
  5
7E6
330
1F
100
AcDbEntity
  8
画層1
  6
Continuous
100
AcDbCircle
 10
18680.08777682876
 20
15794.07778458691
 30
0.0
 40
10.7662971851
  0
LINE
  5
7E7
330
1F
100
AcDbEntity
  8
画層1
  6
Continuous
100
AcDbLine
 10
18655.08777682876
 20
15769.07778458691
 30
0.0
 11
19022.48777682867
 21
15769.07778458691
 31
0.0
  0
LINE
  5
7E8
330
1F
100
AcDbEntity
  8
画層1
  6
Continuous
100
AcDbLine
 10
19022.48777682867
 20
15819.07778458691
 30
0.0
 11
18655.08777682876
 21
15819.07778458691
 31
0.0
  0
LEADER
  5
7E9
330
1F
100
AcDbEntity
  8
寸法引出
  6
Continuous
100
AcDbLeader
  3
1_100
 71
     0
 73
     0
 75
     1
 40
300.0
 41
1319.999999999999
 76
     3
 10
18674.34826807931
 20
15819.07778458691
 30
0.0
 10
18321.67915472083
 20
16296.68163461457
 30
0.0
 10
18261.67915472083
 20
16296.68163461457
 30
0.0
340
7EA
  0
MTEXT
  5
7EA
102
{ACAD_REACTORS
330
7E9
102
}
330
1F
100
AcDbEntity
  8
寸法文字
  6
Continuous
100
AcDbMText
 10
18161.67915472083
 20
16396.68163461457
 30
0.0
 40
300.0
 41
0.0
 71
     9
 72
     1
  1
バンド金具
  7
1_100
 73
     1
 44
1.0
1001
ACAD
1000
MTEXTBEGIN
1070
    73
1070
     1
1070
    44
1040
1.0
1070
    74
1070
     0
1000
MTEXTEND
  0
LINE
  5
7EB
330
1F
100
AcDbEntity
  8
画層1
  6
Continuous
100
AcDbLine
 10
18946.93777682886
 20
15824.07778458691
 30
0.0
 11
18946.93777682886
 21
23324.07778458738
 31
0.0
  0
LINE
  5
7EC
330
1F
100
AcDbEntity
  8
画層1
  6
Continuous
100
AcDbLine
 10
18730.63777682858
 20
15824.07778458691
 30
0.0
 11
18730.63777682858
 21
23324.07778458738
 31
0.0
  0
LINE
  5
7ED
330
1F
100
AcDbEntity
  8
画層1
  6
Continuous
100
AcDbLine
 10
18730.63777682858
 20
23324.07778458738
 30
0.0
 11
18946.93777682886
 21
23324.07778458738
 31
0.0
  0
CIRCLE
  5
7EE
330
1F
100
AcDbEntity
  8
画層1
  6
Continuous
100
AcDbCircle
 10
18838.78777682848
 20
23264.07778458738
 30
0.0
 40
10.7662971851
  0
LINE
  5
7EF
330
1F
100
AcDbEntity
  8
画層1
  6
Continuous
100
AcDbLine
 10
18813.78777682848
 20
23289.07778458738
 30
0.0
 11
18813.78777682848
 21
23239.07778458738
 31
0.0
  0
LINE
  5
7F0
330
1F
100
AcDbEntity
  8
画層1
  6
Continuous
100
AcDbLine
 10
18863.78777682848
 20
23239.07778458738
 30
0.0
 11
18863.78777682848
 21
23289.07778458738
 31
0.0
  0
CIRCLE
  5
7F1
330
1F
100
AcDbEntity
  8
画層1
  6
Continuous
100
AcDbCircle
 10
18971.93777682885
 20
23264.07778458738
 30
0.0
 40
10.7662971851
  0
LINE
  5
7F2
330
1F
100
AcDbEntity
  8
画層1
  6
Continuous
100
AcDbLine
 10
18996.93777682886
 20
23239.07778458738
 30
0.0
 11
18996.93777682886
 21
23289.07778458738
 31
0.0
  0
LINE
  5
7F3
330
1F
100
AcDbEntity
  8
画層1
  6
Continuous
100
AcDbLine
 10
18996.93777682886
 20
23189.07778458738
 30
0.0
 11
18996.93777682886
 21
23239.07778458738
 31
0.0
  0
CIRCLE
  5
7F4
330
1F
100
AcDbEntity
  8
画層1
  6
Continuous
100
AcDbCircle
 10
18971.93777682885
 20
23214.07778458738
 30
0.0
 40
10.7662971851
  0
LINE
  5
7F5
330
1F
100
AcDbEntity
  8
画層1
  6
Continuous
100
AcDbLine
 10
18863.78777682848
 20
23189.07778458738
 30
0.0
 11
18863.78777682848
 21
23239.07778458738
 31
0.0
  0
LINE
  5
7F6
330
1F
100
AcDbEntity
  8
画層1
  6
Continuous
100
AcDbLine
 10
18813.78777682848
 20
23239.07778458738
 30
0.0
 11
18813.78777682848
 21
23189.07778458738
 31
0.0
  0
CIRCLE
  5
7F7
330
1F
100
AcDbEntity
  8
画層1
  6
Continuous
100
AcDbCircle
 10
18838.78777682848
 20
23214.07778458738
 30
0.0
 40
10.7662971851
  0
CIRCLE
  5
7F8
330
1F
100
AcDbEntity
  8
画層1
  6
Continuous
100
AcDbCircle
 10
18705.63777682858
 20
23264.07778458738
 30
0.0
 40
10.7662971851
  0
LINE
  5
7F9
330
1F
100
AcDbEntity
  8
画層1
  6
Continuous
100
AcDbLine
 10
18680.63777682858
 20
23289.07778458738
 30
0.0
 11
18680.63777682858
 21
23239.07778458738
 31
0.0
  0
LINE
  5
7FA
330
1F
100
AcDbEntity
  8
画層1
  6
Continuous
100
AcDbLine
 10
18680.63777682858
 20
23239.07778458738
 30
0.0
 11
18680.63777682858
 21
23189.07778458738
 31
0.0
  0
CIRCLE
  5
7FB
330
1F
100
AcDbEntity
  8
画層1
  6
Continuous
100
AcDbCircle
 10
18705.63777682858
 20
23214.07778458738
 30
0.0
 40
10.7662971851
  0
LINE
  5
7FC
330
1F
100
AcDbEntity
  8
画層1
  6
Continuous
100
AcDbLine
 10
18680.63777682858
 20
23239.07778458738
 30
0.0
 11
18996.93777682886
 21
23239.07778458738
 31
0.0
  0
LINE
  5
7FD
330
1F
100
AcDbEntity
  8
画層1
  6
Continuous
100
AcDbLine
 10
18996.93777682886
 20
23289.07778458738
 30
0.0
 11
18680.63777682858
 21
23289.07778458738
 31
0.0
  0
LINE
  5
7FE
330
1F
100
AcDbEntity
  8
画層1
  6
Continuous
100
AcDbLine
 10
18996.93777682886
 20
23239.07778458738
 30
0.0
 11
18680.63777682858
 21
23239.07778458738
 31
0.0
  0
LINE
  5
7FF
330
1F
100
AcDbEntity
  8
画層1
  6
Continuous
100
AcDbLine
 10
18680.63777682858
 20
23189.07778458738
 30
0.0
 11
18996.93777682886
 21
23189.07778458738
 31
0.0
  0
LINE
  5
800
330
1F
100
AcDbEntity
  8
画層1
  6
Continuous
100
AcDbLine
 10
18813.78777682848
 20
20799.07778458738
 30
0.0
 11
18813.78777682848
 21
20749.07778458738
 31
0.0
  0
LINE
  5
801
330
1F
100
AcDbEntity
  8
画層1
  6
Continuous
100
AcDbLine
 10
18863.78777682848
 20
20749.07778458738
 30
0.0
 11
18863.78777682848
 21
20799.07778458738
 31
0.0
  0
LINE
  5
802
330
1F
100
AcDbEntity
  8
画層1
  6
Continuous
100
AcDbLine
 10
18996.93777682839
 20
20749.07778458738
 30
0.0
 11
18996.93777682839
 21
20799.07778458738
 31
0.0
  0
CIRCLE
  5
803
330
1F
100
AcDbEntity
  8
画層1
  6
Continuous
100
AcDbCircle
 10
18838.78777682848
 20
20774.07778458738
 30
0.0
 40
10.7662971851
  0
CIRCLE
  5
804
330
1F
100
AcDbEntity
  8
画層1
  6
Continuous
100
AcDbCircle
 10
18971.93777682839
 20
20774.07778458738
 30
0.0
 40
10.7662971851
  0
LINE
  5
805
330
1F
100
AcDbEntity
  8
画層1
  6
Continuous
100
AcDbLine
 10
18680.63777682858
 20
20799.07778458738
 30
0.0
 11
18680.63777682858
 21
20749.07778458738
 31
0.0
  0
CIRCLE
  5
806
330
1F
100
AcDbEntity
  8
画層1
  6
Continuous
100
AcDbCircle
 10
18705.63777682858
 20
20774.07778458738
 30
0.0
 40
10.7662971851
  0
LINE
  5
807
330
1F
100
AcDbEntity
  8
画層1
  6
Continuous
100
AcDbLine
 10
18680.63777682858
 20
20749.07778458738
 30
0.0
 11
18996.93777682839
 21
20749.07778458738
 31
0.0
  0
LINE
  5
808
330
1F
100
AcDbEntity
  8
画層1
  6
Continuous
100
AcDbLine
 10
18996.93777682839
 20
20799.07778458738
 30
0.0
 11
18680.63777682858
 21
20799.07778458738
 31
0.0
  0
LINE
  5
809
330
1F
100
AcDbEntity
  8
画層1-1
100
AcDbLine
 10
18680.63777682858
 20
23214.07778458738
 30
0.0
 11
18630.63777682858
 21
23214.07778458738
 31
0.0
  0
LINE
  5
80A
330
1F
100
AcDbEntity
  8
寸法引出
  6
Continuous
100
AcDbLine
 10
19613.36642215561
 20
20774.07778458738
 30
0.0
 11
20358.03375584327
 21
18856.27313651643
 31
0.0
  0
MTEXT
  5
80B
102
{ACAD_REACTORS
330
80C
102
}
330
1F
100
AcDbEntity
  8
寸法文字
  6
Continuous
100
AcDbMText
 10
20676.19323711847
 20
23849.03592062058
 30
0.0
 40
300.0
 41
0.0
 71
     7
 72
     1
  1
ネット上下6mm合繊ロープに4mm合繊\Pロープにて38m㎡ワイヤーに巻付
  7
1_100
 73
     1
 44
1.0
1001
ACAD
1000
MTEXTBEGIN
1070
    73
1070
     1
1070
    44
1040
1.0
1070
    74
1070
     0
1000
MTEXTEND
  0
LEADER
  5
80C
330
1F
100
AcDbEntity
  8
寸法引出
  6
Continuous
100
AcDbLeader
  3
1_100
 71
     0
 73
     0
 74
     0
 75
     1
 40
846.6666666666665
 41
5162.142857142854
 76
     3
 10
20274.07746563873
 20
23264.0777845875
 30
0.0
 10
20516.19323711847
 20
23749.03592062058
 30
0.0
 10
20576.19323711847
 20
23749.03592062058
 30
0.0
340
80B
  0
LEADER
  5
80D
330
1F
100
AcDbEntity
  8
寸法引出
  6
Continuous
100
AcDbLeader
  3
1_100
 71
     0
 73
     0
 74
     0
 75
     1
 40
346.6666666666666
 41
3117.142857142857
 76
     3
 10
19822.70196736997
 20
23264.07778458738
 30
0.0
 10
20163.61118177439
 20
22441.74292917408
 30
0.0
 10
20223.61118177439
 20
22441.74292917408
 30
0.0
340
80E
  0
MTEXT
  5
80E
102
{ACAD_REACTORS
330
80D
102
}
330
1F
100
AcDbEntity
  8
寸法文字
  6
Continuous
100
AcDbMText
 10
20323.61118177438
 20
22541.74292917408
 30
0.0
 40
300.0
 41
0.0
 71
     7
 72
     1
  1
メッセンワイヤー38m㎡
  7
1_100
 73
     1
 44
1.0
1001
ACAD
1000
MTEXTBEGIN
1070
    73
1070
     1
1070
    44
1040
1.0
1070
    74
1070
     0
1000
MTEXTEND
  0
MTEXT
  5
80F
102
{ACAD_REACTORS
330
810
102
}
330
1F
100
AcDbEntity
  8
寸法文字
  6
Continuous
100
AcDbMText
 10
20518.03375584327
 20
18956.27313651643
 30
0.0
 40
300.0
 41
0.0
 71
     7
 72
     1
  1
メッセンワイヤー22m㎡
  7
1_100
 73
     1
 44
1.0
1001
ACAD
1000
MTEXTBEGIN
1070
    73
1070
     1
1070
    44
1040
1.0
1070
    74
1070
     0
1000
MTEXTEND
  0
LEADER
  5
810
330
1F
100
AcDbEntity
  8
寸法引出
  6
Continuous
100
AcDbLeader
  3
1_100
 71
     0
 73
     0
 74
     0
 75
     1
 40
346.6666666666666
 41
3117.142857142858
 76
     3
 10
19964.47048159756
 20
18284.07778458749
 30
0.0
 10
20358.03375584327
 20
18856.27313651643
 30
0.0
 10
20418.03375584327
 20
18856.27313651643
 30
0.0
  0
LINE
  5
811
330
1F
100
AcDbEntity
  8
寸法引出
  6
Continuous
100
AcDbLine
 10
14406.48871956926
 20
17677.72854979951
 30
0.0
 11
15156.60257567299
 21
18531.23018865879
 31
0.0
  0
LEADER
  5
815
330
1F
100
AcDbEntity
  8
寸法引出
  6
Continuous
100
AcDbLeader
  3
1_100
 71
     0
 73
     0
 74
     0
 75
     1
 40
696.6666666666665
 41
3117.142857142857
 76
     3
 10
14590.48464988937
 20
19021.84090882526
 30
0.0
 10
15156.60257567299
 20
18531.23018865879
 30
0.0
 10
15216.60257567299
 20
18531.23018865879
 30
0.0
340
816
  0
MTEXT
  5
816
102
{ACAD_REACTORS
330
815
102
}
330
1F
100
AcDbEntity
  8
寸法文字
  6
Continuous
100
AcDbMText
 10
15316.60257567299
 20
18631.23018865879
 30
0.0
 40
300.0
 41
0.0
 71
     7
 72
     1
  1
筋違\Pメッセンワイヤー38m㎡
  7
1_100
 73
     1
 44
0.7
1001
ACAD
1000
MTEXTBEGIN
1070
    73
1070
     1
1070
    44
1040
0.7
1070
    74
1070
     0
1000
MTEXTEND
  0
LINE
  5
818
330
1F
100
AcDbEntity
  8
画層1
  6
Continuous
100
AcDbLine
 10
31446.93777682839
 20
15824.07778458702
 30
0.0
 11
31446.93777682839
 21
23324.07778458738
 31
0.0
  0
MTEXT
  5
819
330
1F
100
AcDbEntity
  8
寸法文字
  6
Continuous
100
AcDbMText
 10
34256.0283409904
 20
16581.70055613909
 30
0.0
 40
300.0
 41
0.0
 71
     1
 72
     1
  1
（溶融亜鉛メッキ450g/㎡）
  7
1_100
 73
     1
 44
1.0
1001
ACAD
1000
MTEXTBEGIN
1070
    73
1070
     1
1070
    44
1040
1.0
1070
    74
1070
     0
1000
MTEXTEND
  0
LINE
  5
81A
330
1F
100
AcDbEntity
  8
画層1
  6
Continuous
100
AcDbLine
 10
31446.93777682839
 20
18309.07778458749
 30
0.0
 11
31363.78777682848
 21
18309.07778458749
 31
0.0
  0
LINE
  5
81B
330
1F
100
AcDbEntity
  8
画層1
  6
Continuous
100
AcDbLine
 10
31363.78777682848
 20
18259.07778458749
 30
0.0
 11
31446.93777682839
 21
18259.07778458749
 31
0.0
  0
LINE
  5
81C
330
1F
100
AcDbEntity
  8
画層1
  6
Continuous
100
AcDbLine
 10
31363.78777682848
 20
18259.07778458749
 30
0.0
 11
31363.78777682848
 21
18309.07778458749
 31
0.0
  0
LINE
  5
81D
330
1F
100
AcDbEntity
  8
画層1
  6
Continuous
100
AcDbLine
 10
31363.78777682848
 20
15769.07778458726
 30
0.0
 11
31363.78777682848
 21
15819.07778458703
 31
0.0
  0
LINE
  5
81E
330
1F
100
AcDbEntity
  8
画層1
  6
Continuous
100
AcDbLine
 10
31363.78777682848
 20
15769.07778458726
 30
0.0
 11
31472.48777682821
 21
15769.07778458726
 31
0.0
  0
LINE
  5
81F
330
1F
100
AcDbEntity
  8
画層1
  6
Continuous
100
AcDbLine
 10
31472.48777682821
 20
15819.07778458703
 30
0.0
 11
31363.78777682848
 21
15819.07778458703
 31
0.0
  0
MTEXT
  5
820
330
1F
100
AcDbEntity
  8
寸法文字
  6
Continuous
100
AcDbMText
 10
33149.71680048408
 20
24784.11191398823
 30
0.0
 40
300.0
 41
0.0
 71
     1
 72
     1
  1
（溶融亜鉛メッキ450g/㎡）
  7
1_100
 73
     1
 44
1.0
1001
ACAD
1000
MTEXTBEGIN
1070
    73
1070
     1
1070
    44
1040
1.0
1070
    74
1070
     0
1000
MTEXTEND
  0
LEADER
  5
821
330
1F
100
AcDbEntity
  8
寸法引出
  6
Continuous
100
AcDbLeader
  3
1_100
 71
     0
 73
     0
 74
     0
 75
     1
 40
300.0
 41
4699.285714285712
 76
     3
 10
31448.50212771931
 20
22875.77248377747
 30
0.0
 10
32948.39416866211
 20
24875.93065419861
 30
0.0
 10
33008.39416866211
 20
24875.93065419861
 30
0.0
340
822
  0
MTEXT
  5
822
102
{ACAD_REACTORS
330
821
102
}
330
1F
100
AcDbEntity
  8
寸法文字
  6
Continuous
100
AcDbMText
 10
33108.39416866211
 20
24975.93065419861
 30
0.0
 40
300.0
 41
0.0
 71
     7
 72
     1
  1
主柱KSポールφ216.3厚さ3.5mm
  7
1_100
 73
     1
 44
1.0
1001
ACAD
1000
ACAD_MTEXT_DEFINED_HEIGHT_BEGIN
1070
    46
1040
0.0
1000
ACAD_MTEXT_DEFINED_HEIGHT_END
1000
MTEXTBEGIN
1070
    73
1070
     1
1070
    44
1040
1.0
1070
    74
1070
     0
1000
MTEXTEND
  0
LINE
  5
823
330
1F
100
AcDbEntity
  8
画層1
  6
Continuous
100
AcDbLine
 10
31446.93777682839
 20
23289.07778458738
 30
0.0
 11
31363.78777682848
 21
23289.07778458738
 31
0.0
  0
LINE
  5
824
330
1F
100
AcDbEntity
  8
画層1
  6
Continuous
100
AcDbLine
 10
31363.78777682848
 20
23239.07778458738
 30
0.0
 11
31446.93777682839
 21
23239.07778458738
 31
0.0
  0
LINE
  5
825
330
1F
100
AcDbEntity
  8
画層1
  6
Continuous
100
AcDbLine
 10
31363.78777682848
 20
23239.07778458738
 30
0.0
 11
31363.78777682848
 21
23289.07778458738
 31
0.0
  0
LINE
  5
826
330
1F
100
AcDbEntity
  8
画層1
  6
Continuous
100
AcDbLine
 10
31363.78777682848
 20
20749.07778458738
 30
0.0
 11
31363.78777682848
 21
20799.07778458738
 31
0.0
  0
LINE
  5
827
330
1F
100
AcDbEntity
  8
画層1
  6
Continuous
100
AcDbLine
 10
31363.78777682848
 20
20749.07778458738
 30
0.0
 11
31446.93777682839
 21
20749.07778458738
 31
0.0
  0
LINE
  5
828
330
1F
100
AcDbEntity
  8
画層1
  6
Continuous
100
AcDbLine
 10
31446.93777682839
 20
20799.07778458738
 30
0.0
 11
31363.78777682848
 21
20799.07778458738
 31
0.0
  0
DIMENSION
  5
829
330
1F
100
AcDbEntity
  8
寸法
  6
Continuous
100
AcDbDimension
  2
*D28
 10
28157.76096313188
 20
23264.07778458738
 30
0.0
 11
27876.44201945674
 21
23653.44169636057
 31
0.0
 70
   160
 71
     5
 42
60.0
  3
1_100
100
AcDbAlignedDimension
 13
26838.78777682849
 23
23324.07778458738
 33
0.0
 14
26838.78777682849
 24
23264.07778458738
 34
0.0
 50
90.0
100
AcDbRotatedDimension
  0
DIMENSION
  5
82A
330
1F
100
AcDbEntity
  8
寸法
  6
Continuous
100
AcDbDimension
  2
*D29
 10
28157.76096313188
 20
18284.07778458749
 30
0.0
 11
27879.18953456045
 21
19529.0777845875
 31
0.0
 70
    32
 71
     5
 42
2490.0
  3
1_100
100
AcDbAlignedDimension
 13
26838.78777682849
 23
20774.07778458749
 33
0.0
 14
26838.78777682849
 24
18284.07778458749
 34
0.0
 50
90.0
100
AcDbRotatedDimension
  0
DIMENSION
  5
82B
330
1F
100
AcDbEntity
  8
寸法
  6
Continuous
100
AcDbDimension
  2
*D30
 10
28157.76096313188
 20
15794.07778458749
 30
0.0
 11
27879.18953456045
 21
17039.07778458761
 31
0.0
 70
    32
 71
     5
 42
2490.000000000236
  3
1_100
100
AcDbAlignedDimension
 13
26838.78777682849
 23
18284.07778458773
 33
0.0
 14
26838.78777682849
 24
15794.07778458749
 34
0.0
 50
90.0
100
AcDbRotatedDimension
  0
DIMENSION
  5
82C
330
1F
100
AcDbEntity
  8
寸法
  6
Continuous
100
AcDbDimension
  2
*D31
 10
28157.76096313188
 20
20774.07778458749
 30
0.0
 11
27879.18953456045
 21
22019.07778458744
 31
0.0
 70
    32
 71
     5
 42
2489.999999999884
  3
1_100
100
AcDbAlignedDimension
 13
26838.78777682849
 23
23264.07778458738
 33
0.0
 14
26838.78777682849
 24
20774.07778458749
 34
0.0
 50
90.0
100
AcDbRotatedDimension
  0
LINE
  5
82D
330
1F
100
AcDbEntity
  8
画層1
  6
Continuous
100
AcDbLine
 10
31230.63777682858
 20
15824.07778458702
 30
0.0
 11
31230.63777682858
 21
23324.07778458738
 31
0.0
  0
LINE
  5
82E
330
1F
100
AcDbEntity
  8
画層1
  6
Continuous
100
AcDbLine
 10
31313.78777682849
 20
18309.07778458749
 30
0.0
 11
31313.78777682849
 21
18259.07778458749
 31
0.0
  0
LINE
  5
82F
330
1F
100
AcDbEntity
  8
画層1
  6
Continuous
100
AcDbLine
 10
31155.0877768283
 20
18309.07778458749
 30
0.0
 11
31155.0877768283
 21
18259.07778458749
 31
0.0
  0
LINE
  5
830
330
1F
100
AcDbEntity
  8
画層1
  6
Continuous
100
AcDbLine
 10
31155.0877768283
 20
18284.07778458749
 30
0.0
 11
31230.63777682858
 21
18284.07778458749
 31
0.0
  0
LINE
  5
831
330
1F
100
AcDbEntity
  8
画層1
  6
Continuous
100
AcDbLine
 10
31230.63777682858
 20
18259.07778458749
 30
0.0
 11
31313.78777682849
 21
18259.07778458749
 31
0.0
  0
LINE
  5
832
330
1F
100
AcDbEntity
  8
画層1
  6
Continuous
100
AcDbLine
 10
31313.78777682849
 20
18309.07778458749
 30
0.0
 11
31230.63777682858
 21
18309.07778458749
 31
0.0
  0
LINE
  5
833
330
1F
100
AcDbEntity
  8
画層1
  6
Continuous
100
AcDbLine
 10
31313.78777682849
 20
15819.07778458703
 30
0.0
 11
31313.78777682849
 21
15769.07778458726
 31
0.0
  0
LINE
  5
834
330
1F
100
AcDbEntity
  8
画層1
  6
Continuous
100
AcDbLine
 10
31155.0877768283
 20
15819.07778458703
 30
0.0
 11
31155.0877768283
 21
15769.07778458703
 31
0.0
  0
LINE
  5
835
330
1F
100
AcDbEntity
  8
画層1
  6
Continuous
100
AcDbLine
 10
31155.0877768283
 20
15794.07778458703
 30
0.0
 11
31205.0877768283
 21
15794.07778458703
 31
0.0
  0
LINE
  5
836
330
1F
100
AcDbEntity
  8
画層1
  6
Continuous
100
AcDbLine
 10
31205.0877768283
 20
15769.07778458726
 30
0.0
 11
31313.78777682849
 21
15769.07778458726
 31
0.0
  0
LINE
  5
837
330
1F
100
AcDbEntity
  8
画層1
  6
Continuous
100
AcDbLine
 10
31313.78777682849
 20
15819.07778458703
 30
0.0
 11
31205.0877768283
 21
15819.07778458703
 31
0.0
  0
LINE
  5
838
330
1F
100
AcDbEntity
  8
画層1
  6
Continuous
100
AcDbLine
 10
31313.78777682849
 20
23289.07778458738
 30
0.0
 11
31313.78777682849
 21
23239.07778458738
 31
0.0
  0
LINE
  5
839
330
1F
100
AcDbEntity
  8
画層1
  6
Continuous
100
AcDbLine
 10
31155.0877768283
 20
23289.07778458738
 30
0.0
 11
31155.0877768283
 21
23239.07778458738
 31
0.0
  0
LINE
  5
83A
330
1F
100
AcDbEntity
  8
画層1
  6
Continuous
100
AcDbLine
 10
31155.0877768283
 20
23264.07778458738
 30
0.0
 11
31230.63777682858
 21
23264.07778458738
 31
0.0
  0
LINE
  5
83B
330
1F
100
AcDbEntity
  8
画層1
  6
Continuous
100
AcDbLine
 10
31230.63777682858
 20
23239.07778458738
 30
0.0
 11
31313.78777682849
 21
23239.07778458738
 31
0.0
  0
LINE
  5
83C
330
1F
100
AcDbEntity
  8
画層1
  6
Continuous
100
AcDbLine
 10
31313.78777682849
 20
23289.07778458738
 30
0.0
 11
31230.63777682858
 21
23289.07778458738
 31
0.0
  0
LINE
  5
83D
330
1F
100
AcDbEntity
  8
画層1
  6
Continuous
100
AcDbLine
 10
31313.78777682849
 20
20799.07778458738
 30
0.0
 11
31313.78777682849
 21
20749.07778458738
 31
0.0
  0
LINE
  5
83E
330
1F
100
AcDbEntity
  8
画層1
  6
Continuous
100
AcDbLine
 10
31155.0877768283
 20
20799.07778458738
 30
0.0
 11
31155.0877768283
 21
20749.07778458738
 31
0.0
  0
LINE
  5
83F
330
1F
100
AcDbEntity
  8
画層1
  6
Continuous
100
AcDbLine
 10
31155.0877768283
 20
20774.07778458738
 30
0.0
 11
31230.63777682858
 21
20774.07778458738
 31
0.0
  0
LINE
  5
840
330
1F
100
AcDbEntity
  8
画層1
  6
Continuous
100
AcDbLine
 10
31230.63777682858
 20
20749.07778458738
 30
0.0
 11
31313.78777682849
 21
20749.07778458738
 31
0.0
  0
LINE
  5
841
330
1F
100
AcDbEntity
  8
画層1
  6
Continuous
100
AcDbLine
 10
31313.78777682849
 20
20799.07778458738
 30
0.0
 11
31230.63777682858
 21
20799.07778458738
 31
0.0
  0
CIRCLE
  5
842
330
1F
100
AcDbEntity
  8
画層1
  6
Continuous
100
AcDbCircle
 10
31338.78777682848
 20
18284.07778458749
 30
0.0
 40
10.7662971851
  0
LINE
  5
843
330
1F
100
AcDbEntity
  8
画層1
  6
Continuous
100
AcDbLine
 10
31205.0877768283
 20
15824.07778458702
 30
0.0
 11
31472.48777682821
 21
15824.07778458702
 31
0.0
  0
CIRCLE
  5
844
330
1F
100
AcDbEntity
  8
画層1
  6
Continuous
100
AcDbCircle
 10
31338.78777682848
 20
15794.07778458726
 30
0.0
 40
10.7662971851
  0
CIRCLE
  5
845
330
1F
100
AcDbEntity
  8
画層1
  6
Continuous
100
AcDbCircle
 10
31338.78777682848
 20
23264.07778458738
 30
0.0
 40
10.7662971851
  0
LINE
  5
846
330
1F
100
AcDbEntity
  8
画層1
  6
Continuous
100
AcDbLine
 10
31230.63777682858
 20
23324.07778458738
 30
0.0
 11
31446.93777682839
 21
23324.07778458749
 31
0.0
  0
DIMENSION
  5
847
330
1F
100
AcDbEntity
  8
寸法
  6
Continuous
100
AcDbDimension
  2
*D32
 10
31446.93777682839
 20
23924.07778458738
 30
0.0
 11
31338.78777682848
 21
24224.07778458738
 31
0.0
 70
    32
  1
φ<>
 71
     5
 42
216.2999999998137
  3
1_100
100
AcDbAlignedDimension
 13
31230.63777682858
 23
23324.07778458749
 33
0.0
 14
31446.93777682839
 24
23324.07778458749
 34
0.0
100
AcDbRotatedDimension
  0
CIRCLE
  5
848
330
1F
100
AcDbEntity
  8
画層1
  6
Continuous
100
AcDbCircle
 10
31338.78777682848
 20
20774.07778458738
 30
0.0
 40
10.7662971851
  0
LWPOLYLINE
  5
849
330
1F
100
AcDbEntity
  8
図面枠
100
AcDbPolyline
 90
        4
 70
     1
 43
0.0
 10
805.4544434973307
 20
1105.220751825173
 10
39805.4544434973
 20
1105.220751825173
 10
39805.4544434973
 20
26605.22075182517
 10
805.4544434973307
 20
26605.22075182517
  0
LWPOLYLINE
  5
84A
330
1F
100
AcDbEntity
  8
図面枠
100
AcDbPolyline
 90
        4
 70
     1
 43
0.0
 10
805.4544434964091
 20
1105.220751825173
 10
39805.45444349642
 20
1105.220751825173
 10
39805.45444349642
 20
26605.22075182517
 10
805.4544434964091
 20
26605.22075182517
  0
MTEXT
  5
84B
330
1F
100
AcDbEntity
  8
寸法
  6
Continuous
 62
     3
100
AcDbMText
 10
20305.45444349642
 20
25133.59736315854
 30
0.0
 40
500.0
 41
0.0
 71
     8
 72
     1
  1
防球ネット　ＫＳ－Ⅱ型　Ｈ＝１２,０００
  7
MSP明朝
 73
     1
 44
1.0
1001
ACAD
1000
ACAD_MTEXT_DEFINED_HEIGHT_BEGIN
1070
    46
1040
0.0
1000
ACAD_MTEXT_DEFINED_HEIGHT_END
1000
MTEXTBEGIN
1070
    73
1070
     1
1070
    44
1040
1.0
1070
    74
1070
     0
1000
MTEXTEND
  0
LINE
  5
84C
330
1F
100
AcDbEntity
  8
寸法
  6
Continuous
 62
     3
100
AcDbLine
 10
15978.69457689554
 20
24976.04773628983
 30
0.0
 11
24632.2143100991
 21
24976.04773628983
 31
0.0
  0
LINE
  5
84D
330
1F
100
AcDbEntity
  8
寸法
  6
Continuous
 62
     3
100
AcDbLine
 10
15978.69457689554
 20
25036.04773628751
 30
0.0
 11
24632.2143100991
 21
25036.04773628751
 31
0.0
  0
MTEXT
  5
84E
330
1F
100
AcDbEntity
  8
画層1-1
100
AcDbMText
 10
3622.052924267768
 20
5081.644737149624
 30
0.0
 40
300.0
 41
0.0
 71
     1
 72
     5
  1
{\F|c128;・※印表記のネットを使用する場合標準柱スパンは変更になる場合があります}
  7
1_100
 73
     1
 44
1.0
1001
AcDbBlockRepETag
1070
     1
1071
        0
1005
84E
1001
ACAD
1000
MTEXTBEGIN
1070
    73
1070
     1
1070
    44
1040
1.0
1070
    74
1070
     0
1000
MTEXTEND
  0
MTEXT
  5
84F
330
1F
100
AcDbEntity
  8
画層1-1
100
AcDbMText
 10
3622.052924267768
 20
1837.869408145597
 30
0.0
 40
300.0
 41
0.0
 71
     1
 72
     5
  1
・速度圧　q=0.6EVo （N/㎡）　・地表面粗度区分　　　・基礎　普通土質 [B] を選定
  7
1_100
 73
     1
 44
1.0
1001
AcDbBlockRepETag
1070
     1
1071
        1
1005
84F
1001
ACAD
1000
MTEXTBEGIN
1070
    73
1070
     1
1070
    44
1040
1.0
1070
    74
1070
     0
1000
MTEXTEND
  0
MTEXT
  5
850
330
1F
100
AcDbEntity
  8
画層1-1
100
AcDbMText
 10
3622.052924267768
 20
6881.644737149624
 30
0.0
 40
300.0
 41
0.0
 71
     1
 72
     5
  1
・主柱．端末ポール．バンド金具．ボルトは溶融亜鉛メッキ仕上げとする
  7
1_100
 73
     1
 44
1.0
1001
AcDbBlockRepETag
1070
     1
1071
        2
1005
850
1001
ACAD
1000
MTEXTBEGIN
1070
    73
1070
     1
1070
    44
1040
1.0
1070
    74
1070
     0
1000
MTEXTEND
  0
MTEXT
  5
851
330
1F
100
AcDbEntity
  8
画層1-1
100
AcDbMText
 10
3622.052924267768
 20
6281.644737149624
 30
0.0
 40
300.0
 41
0.0
 71
     1
 72
     5
  1
・主柱ポール基礎部（ＧＬ）はＦＲＰ被覆補強とする
  7
1_100
 73
     1
 44
1.0
1001
AcDbBlockRepETag
1070
     1
1071
        3
1005
851
1001
ACAD
1000
MTEXTBEGIN
1070
    73
1070
     1
1070
    44
1040
1.0
1070
    74
1070
     0
1000
MTEXTEND
  0
MTEXT
  5
852
330
1F
100
AcDbEntity
  8
画層1-1
100
AcDbMText
 10
3622.052924267768
 20
3621.286815134248
 30
0.0
 40
300.0
 41
0.0
 71
     1
 72
     5
  1
・構造計算書．材料承認願いを提出後施工のこと
  7
1_100
 73
     1
 44
1.0
1001
AcDbBlockRepETag
1070
     1
1071
        4
1005
852
1001
ACAD
1000
MTEXTBEGIN
1070
    73
1070
     1
1070
    44
1040
1.0
1070
    74
1070
     0
1000
MTEXTEND
  0
MTEXT
  5
853
330
1F
100
AcDbEntity
  8
画層1-1
100
AcDbMText
 10
3622.052924267768
 20
5681.644737149625
 30
0.0
 40
300.0
 41
0.0
 71
     1
 72
     5
  1
・上部（補強ポール・ネット）下り防止金具付きとする
  7
1_100
 73
     1
 44
1.0
1001
AcDbBlockRepETag
1070
     1
1071
        5
1005
853
1001
ACAD
1000
MTEXTBEGIN
1070
    73
1070
     1
1070
    44
1040
1.0
1070
    74
1070
     0
1000
MTEXTEND
  0
POINT
  5
854
330
1F
100
AcDbEntity
  8
画層1-1
100
AcDbPoint
 10
805.454521791597
 20
1099.368123300794
 30
0.0
1001
AcDbBlockRepETag
1070
     1
1071
        6
1005
854
  0
MTEXT
  5
855
330
1F
100
AcDbEntity
  8
画層1-1
100
AcDbMText
 10
3122.052924267768
 20
2883.964299768136
 30
0.0
 40
400.0
 41
0.0
 71
     1
 72
     5
  1
設計条件
  7
1_100
 73
     1
 44
1.0
1001
AcDbBlockRepETag
1070
     1
1071
        7
1005
855
1001
ACAD
1000
MTEXTBEGIN
1070
    73
1070
     1
1070
    44
1040
1.0
1070
    74
1070
     0
1000
MTEXTEND
  0
MTEXT
  5
856
330
1F
100
AcDbEntity
  8
画層1-1
100
AcDbMText
 10
3122.052924267768
 20
4272.309916483296
 30
0.0
 40
400.0
 41
0.0
 71
     1
 72
     5
  1
特記
  7
1_100
 73
     1
 44
1.0
1001
AcDbBlockRepETag
1070
     1
1071
        8
1005
856
1001
ACAD
1000
MTEXTBEGIN
1070
    73
1070
     1
1070
    44
1040
1.0
1070
    74
1070
     0
1000
MTEXTEND
  0
MTEXT
  5
857
330
1F
100
AcDbEntity
  8
画層1-1
100
AcDbMText
 10
3122.052924267768
 20
7553.073705088397
 30
0.0
 40
400.0
 41
0.0
 71
     1
 72
     5
  1
仕様について
  7
1_100
 73
     1
 44
1.0
1001
AcDbBlockRepETag
1070
     1
1071
        9
1005
857
1001
ACAD
1000
MTEXTBEGIN
1070
    73
1070
     1
1070
    44
1040
1.0
1070
    74
1070
     0
1000
MTEXTEND
  0
MTEXT
  5
858
330
1F
100
AcDbEntity
  8
画層1-1
100
AcDbMText
 10
10518.77943497079
 20
1775.69292661776
 30
0.0
 40
300.0
 41
0.0
 71
     1
 72
     5
  1
Ⅲ
  7
STYLE1
 73
     1
 44
1.0
1001
AcDbBlockRepETag
1070
     1
1071
       10
1005
858
1001
ACAD
1000
MTEXTBEGIN
1070
    73
1070
     1
1070
    44
1040
1.0
1070
    74
1070
     0
1000
MTEXTEND
  0
MTEXT
  5
859
330
1F
100
AcDbEntity
  8
画層1-1
100
AcDbMText
 10
6605.530894279795
 20
1802.355833494452
 30
0.0
 40
120.0
 41
0.0
 71
     1
 72
     5
  1
2
  7
1_100
 73
     1
 44
1.0
1001
AcDbBlockRepETag
1070
     1
1071
       11
1005
859
1001
ACAD
1000
MTEXTBEGIN
1070
    73
1070
     1
1070
    44
1040
1.0
1070
    74
1070
     0
1000
MTEXTEND
  0
MTEXT
  5
85A
330
1F
100
AcDbEntity
  8
画層1-1
100
AcDbMText
 10
3622.052924267768
 20
2341.214205025512
 30
0.0
 40
300.0
 41
0.0
 71
     1
 72
     5
  1
・設計荷重。建築基準法・同施工令（平成12年6月）に基づく風圧力に依る、基準風速。
  7
1_100
 73
     1
 44
1.0
1001
AcDbBlockRepETag
1070
     1
1071
       12
1005
85A
1001
ACAD
1000
ACAD_MTEXT_DEFINED_HEIGHT_BEGIN
1070
    46
1040
0.0
1000
ACAD_MTEXT_DEFINED_HEIGHT_END
1000
MTEXTBEGIN
1070
    73
1070
     1
1070
    44
1040
1.0
1070
    74
1070
     0
1000
MTEXTEND
  0
LINE
  5
85B
330
1F
100
AcDbEntity
  8
画層1-1
  6
Continuous
100
AcDbLine
 10
23256.21370389132
 20
18856.27313651643
 30
0.0
 11
26338.78777682848
 21
15721.29270195039
 31
0.0
  0
LWPOLYLINE
  5
85C
330
1F
100
AcDbEntity
  8
寸法引出
  6
Continuous
100
AcDbPolyline
 90
        2
 70
     0
 43
0.0
 10
26332.45929745
 20
6924.077784587608
 10
18838.78777682848
 20
6924.077784587495
1001
ACAD
1000
DSTYLE
1002
{
1070
    41
1040
3.0
1070
   341
1005
0
1002
}
  0
LWPOLYLINE
  5
85D
330
1F
100
AcDbEntity
  8
寸法引出
  6
Continuous
100
AcDbPolyline
 90
        2
 70
     0
 43
0.0
 10
26144.74256131104
 20
7524.077784587371
 10
24838.78777682849
 20
7524.077784587261
1001
ACAD
1000
DSTYLE
1002
{
1070
    41
1040
3.0
1070
   341
1005
0
1002
}
  0
LINE
  5
85E
330
1F
100
AcDbEntity
  8
寸法引出
  6
ByBlock
100
AcDbLine
 10
26032.45929745
 20
7004.462541587606
 30
0.0
 11
26332.45929745
 21
6924.077784587608
 31
0.0
  0
LINE
  5
85F
330
1F
100
AcDbEntity
  8
寸法引出
  6
ByBlock
100
AcDbLine
 10
26332.45929745
 20
6924.077784587608
 30
0.0
 11
26032.45929745
 21
6843.693027587606
 31
0.0
  0
LINE
  5
860
330
1F
100
AcDbEntity
  8
寸法引出
  6
ByBlock
100
AcDbLine
 10
25913.73680879149
 20
7604.462541587351
 30
0.0
 11
26213.7368087915
 21
7524.077784587378
 31
0.0
  0
LINE
  5
861
330
1F
100
AcDbEntity
  8
寸法引出
  6
ByBlock
100
AcDbLine
 10
26213.7368087915
 20
7524.077784587378
 30
0.0
 11
25913.73680879151
 21
7443.693027587352
 31
0.0
  0
DIMENSION
  5
B1B
330
1F
100
AcDbEntity
  8
DEFPOINTS
100
AcDbDimension
  2
*D33
 10
37752.43432239371
 20
23324.07778458738
 30
0.0
 11
37523.86289382227
 21
19574.07778458721
 31
0.0
 70
    32
 71
     5
 42
7500.000000000352
  3
1_100_B
100
AcDbAlignedDimension
 13
31472.48777682821
 23
15824.07778458702
 33
0.0
 14
32838.78777682848
 24
23324.07778458738
 34
0.0
 50
270.0
100
AcDbRotatedDimension
  0
MTEXT
  5
B48
330
1F
100
AcDbEntity
  8
寸法文字
  6
Continuous
100
AcDbMText
 10
12947.96764873261
 20
24043.23235198292
 30
0.0
 40
300.0
 41
0.0
 71
     1
 72
     1
  1
（STK-540鋼管）
  7
1_100
 73
     1
 44
1.0
1001
ACAD
1000
ACAD_MTEXT_DEFINED_HEIGHT_BEGIN
1070
    46
1040
0.0
1000
ACAD_MTEXT_DEFINED_HEIGHT_END
1000
MTEXTBEGIN
1070
    73
1070
     1
1070
    44
1040
1.0
1070
    74
1070
     0
1000
MTEXTEND
  0
MTEXT
  5
B49
102
{ACAD_REACTORS
330
B4A
102
}
330
1F
100
AcDbEntity
  8
寸法文字
  6
Continuous
100
AcDbMText
 10
12262.81082138467
 20
24316.22909500644
 30
0.0
 40
300.0
 41
0.0
 71
     7
 72
     1
  1
端末・コーナー補強ポールφ139.8×3.0mm
  7
1_100
 73
     1
 44
1.0
1001
ACAD
1000
ACAD_MTEXT_DEFINED_HEIGHT_BEGIN
1070
    46
1040
0.0
1000
ACAD_MTEXT_DEFINED_HEIGHT_END
1000
MTEXTBEGIN
1070
    73
1070
     1
1070
    44
1040
1.0
1070
    74
1070
     0
1000
MTEXTEND
  0
LEADER
  5
B4A
330
1F
100
AcDbEntity
  8
寸法引出
  6
Continuous
100
AcDbLeader
  3
1_100
 71
     0
 73
     0
 74
     0
 75
     1
 40
300.0
 41
5880.0
 76
     3
 10
11607.56503678485
 20
23223.18452549105
 30
0.0
 10
12102.81082138467
 20
24216.22909500643
 30
0.0
 10
12162.81082138467
 20
24216.22909500643
 30
0.0
340
B49
  0
MTEXT
  5
EF9
330
1F
100
AcDbEntity
  8
寸法文字
  6
Continuous
100
AcDbMText
 10
11615.86906884089
 20
21998.089016877
 30
0.0
 40
200.0
 41
0.0
 71
     1
 72
     1
  1
※KRP-40　1100D18本40mm目（再生ポリエステル100%）\P※KSP-24　37.5mm目（ｽｰﾊﾟｰﾎﾟﾘｴﾁﾚﾝ）
  7
1_100
 73
     1
 44
1.0
1001
ACAD
1000
MTEXTBEGIN
1070
    73
1070
     1
1070
    44
1040
1.0
1070
    74
1070
     0
1000
MTEXTEND
  0
MTEXT
  5
EFA
330
1F
100
AcDbEntity
  8
寸法文字
  6
Continuous
100
AcDbMText
 10
11591.3002165383
 20
22179.8619350117
 30
0.0
 40
300.0
 41
0.0
 71
     7
 72
     1
  1
ネット\Pクレモナ250D/80本×37.5mm目
  7
1_100
 73
     1
 44
0.6
1001
ACAD
1000
MTEXTBEGIN
1070
    73
1070
     1
1070
    44
1040
0.6
1070
    74
1070
     0
1000
MTEXTEND
  0
LEADER
  5
EFB
330
1F
100
AcDbEntity
  8
寸法引出
100
AcDbLeader
  3
1_50
 71
     0
 76
     3
 10
11065.28881885663
 20
21438.37888704462
 30
0.0
 10
11391.3002165383
 20
22079.8619350117
 30
0.0
 10
17310.40779665267
 20
22079.8619350117
 30
0.0
1001
ACAD
1000
DSTYLE
1002
{
1070
    41
1040
1.0
1070
   341
1005
87
1070
   147
1040
0.625
1070
    77
1070
     0
1002
}
  0
ENDSEC
  0
SECTION
  2
OBJECTS
  0
DICTIONARY
  5
C
330
0
100
AcDbDictionary
281
     1
  3
ACAD_COLOR
350
6B
  3
ACAD_GROUP
350
D
  3
ACAD_LAYOUT
350
1A
  3
ACAD_MATERIAL
350
6A
  3
ACAD_MLINESTYLE
350
17
  3
ACAD_PLOTSETTINGS
350
19
  3
ACAD_PLOTSTYLENAME
350
E
  3
ACAD_TABLESTYLE
350
C04
  3
ACDBHEADERROUNDTRIPXREC
350
F04
  3
AcDbVariableDictionary
350
5E
  3
ADE_QUERY_LIBRARY
350
F00
  3
AEC_CLASSIFICATION_SYSTEM_DEFS
350
EF7
  3
AEC_VARS
350
C31
  3
ASE_INDEX_DICTIONARY
350
EFE
  3
Autodesk_MAP
350
C33
  3
Root
350
C0C
1001
ADE
1000
ADE02C004
1000
[Query]
1000
CaseSensitiveMatch=0
1000
SaveCurrQueryInSession=1
1000
MkSelSetWithQryObj=0
1000
ShowBlockAsInsPt=0
1000
CreateAssociativeHatchObjects=0
1000
ReferenceBoundaryForAreaLocation=1
1000
ShowImageAsBoundary=1
1000
DefaultJoinOperator=2
1000
ColorForAdd=red
1000
ColorForRemove=red
1000
BlockLocnForQuery=1
1000
TextLocnForQuery=1
1000
IncludeAllObjectsInGroups=0
1000
AlwaysUseLibraryDefinitions=0
1000
PreviewDefinitionsFrom=2
1000
[Save Back]
1000
RedefineBlockDefinitions=1
1000
RedefineLayerDefinitions=1
1000
RedefineTextStyleDefinitions=1
1000
RemoveUnusedGroups=1
1000
EraseSavedBackObjects=1
1000
RemoveLockAfterSave=1
1000
CreateHistoryFileOfChanges=0
1000
CreateBackupFileOfSourceDwg=1
1000
DontAddObjectsToSaveSet=0
1000
MarkObjectsForEditingWithoutPrompting=0
1000
[Coordinate Transformation]
1000
RestoreLastActiveDwgsOnStartup=1
1000
ActivateDwgsOnAttach=1
1000
AdjustSizesAndScalesForChangesInUnits=1
1000
AdjustRotationsForMapDistortions=1
1000
AdjustSizesAndScalesForMapDistortions=1
1000
AdjustElevations=1
1000
AdjustZeroRotationObjects=1
1000
ReconnectDbOnWSOpen=1
1000
NoOfSQLConditionsInHistory=10
  0
DICTIONARY
  5
6B
102
{ACAD_REACTORS
330
C
102
}
330
C
100
AcDbDictionary
281
     1
  0
DICTIONARY
  5
D
102
{ACAD_REACTORS
330
C
102
}
330
C
100
AcDbDictionary
281
     1
  0
DICTIONARY
  5
1A
102
{ACAD_REACTORS
330
C
102
}
330
C
100
AcDbDictionary
281
     1
  3
Model
350
22
  3
レイアウト1
350
51
  3
レイアウト2
350
56
  0
DICTIONARY
  5
6A
102
{ACAD_REACTORS
330
C
102
}
330
C
100
AcDbDictionary
281
     1
  0
DICTIONARY
  5
17
102
{ACAD_REACTORS
330
C
102
}
330
C
100
AcDbDictionary
281
     1
  3
Standard
350
18
  0
DICTIONARY
  5
19
102
{ACAD_REACTORS
330
C
102
}
330
C
100
AcDbDictionary
281
     1
  0
ACDBDICTIONARYWDFLT
  5
E
102
{ACAD_REACTORS
330
C
102
}
330
C
100
AcDbDictionary
281
     1
  3
Normal
350
F
100
AcDbDictionaryWithDefault
340
F
  0
DICTIONARY
  5
C04
102
{ACAD_REACTORS
330
C
102
}
330
C
100
AcDbDictionary
281
     1
  3
Legend
350
C37
  3
Standard
350
C05
  0
DICTIONARY
  5
F04
102
{ACAD_REACTORS
330
C
102
}
330
C
100
AcDbDictionary
281
     1
  0
DICTIONARY
  5
5E
102
{ACAD_REACTORS
330
C
102
}
330
C
100
AcDbDictionary
281
     1
  3
CTABLESTYLE
350
F02
  3
DIMASSOC
350
5F
  3
HIDETEXT
350
63
  3
PROJECTNAME
350
B82
  0
DICTIONARY
  5
F00
102
{ACAD_REACTORS
330
C
102
}
330
C
100
AcDbDictionary
281
     1
  3
_CurrQry
350
F01
  0
DICTIONARY
  5
EF7
102
{ACAD_REACTORS
330
C
102
}
330
C
100
AcDbDictionary
281
     1
  0
DICTIONARY
  5
C31
102
{ACAD_REACTORS
330
C
102
}
330
C
100
AcDbDictionary
281
     1
  3
AEC_VARS_DWG_SETUP
350
C32
  0
DICTIONARY
  5
EFE
102
{ACAD_REACTORS
330
C
102
}
330
C
100
AcDbDictionary
281
     1
  3
ASEBlockHierarchyIndexRecord
350
EFF
1001
DCO15
1040
1621576070.37
  0
DICTIONARY
  5
C33
102
{ACAD_REACTORS
330
C
102
}
330
C
100
AcDbDictionary
281
     1
  3
MAP_DISPLAY_MANAGEMENT_DICTIONARY
350
C34
  3
MAP_DISPLAY_STYLELIBRARY_DICTIONARY
350
C35
  0
LAYOUT
  5
22
102
{ACAD_XDICTIONARY
360
F05
102
}
102
{ACAD_REACTORS
330
1A
102
}
330
1A
100
AcDbPlotSettings
  1

  2
EPSON PM-3000C
  4
A4
  6

 40
3.757083177566528
 41
14.7637300491333
 42
3.757080078125
 43
3.757080078125
 44
209.9733276367186
 45
296.9683227539062
 46
0.0
 47
0.0
 48
0.0
 49
0.0
140
0.0
141
0.0
142
1.0
143
143.6294893591053
 70
 11952
 72
     1
 73
     1
 74
     0
  7
2.ctb
 75
     0
147
0.0069623585272226
148
-635.3464430911117
149
1005.732437185854
100
AcDbLayout
  1
Model
 70
     1
 71
     0
 10
0.0
 20
0.0
 11
12.0
 21
9.0
 12
0.0
 22
0.0
 32
0.0
 14
0.0
 24
0.0
 34
0.0
 15
0.0
 25
0.0
 35
0.0
146
0.0
 13
0.0
 23
0.0
 33
0.0
 16
1.0
 26
0.0
 36
0.0
 17
0.0
 27
1.0
 37
0.0
 76
     0
330
1F
  0
LAYOUT
  5
51
102
{ACAD_XDICTIONARY
360
F07
102
}
102
{ACAD_REACTORS
330
1A
102
}
330
1A
100
AcDbPlotSettings
  1

  2
None
  4

  6

 40
0.0
 41
0.0
 42
0.0
 43
0.0
 44
0.0
 45
0.0
 46
0.0
 47
0.0
 48
0.0
 49
0.0
140
0.0
141
0.0
142
1.0
143
1.0
 70
   688
 72
     0
 73
     0
 74
     5
  7

 75
    16
147
1.0
148
0.0
149
0.0
100
AcDbLayout
  1
レイアウト1
 70
     1
 71
     1
 10
0.0
 20
0.0
 11
12.0
 21
9.0
 12
0.0
 22
0.0
 32
0.0
 14
0.0
 24
0.0
 34
0.0
 15
0.0
 25
0.0
 35
0.0
146
0.0
 13
0.0
 23
0.0
 33
0.0
 16
1.0
 26
0.0
 36
0.0
 17
0.0
 27
1.0
 37
0.0
 76
     0
330
50
  0
LAYOUT
  5
56
102
{ACAD_XDICTIONARY
360
F09
102
}
102
{ACAD_REACTORS
330
1A
102
}
330
1A
100
AcDbPlotSettings
  1

  2
None
  4

  6

 40
0.0
 41
0.0
 42
0.0
 43
0.0
 44
0.0
 45
0.0
 46
0.0
 47
0.0
 48
0.0
 49
0.0
140
0.0
141
0.0
142
1.0
143
1.0
 70
   688
 72
     0
 73
     0
 74
     5
  7

 75
    16
147
1.0
148
0.0
149
0.0
100
AcDbLayout
  1
レイアウト2
 70
     1
 71
     2
 10
0.0
 20
0.0
 11
12.0
 21
9.0
 12
0.0
 22
0.0
 32
0.0
 14
0.0
 24
0.0
 34
0.0
 15
0.0
 25
0.0
 35
0.0
146
0.0
 13
0.0
 23
0.0
 33
0.0
 16
1.0
 26
0.0
 36
0.0
 17
0.0
 27
1.0
 37
0.0
 76
     0
330
55
  0
MLINESTYLE
  5
18
102
{ACAD_REACTORS
330
17
102
}
330
17
100
AcDbMlineStyle
  2
STANDARD
 70
     0
  3

 62
   256
 51
90.0
 52
90.0
 71
     2
 49
0.5
 62
   256
  6
BYLAYER
 49
-0.5
 62
   256
  6
BYLAYER
  0
ACDBPLACEHOLDER
  5
F
102
{ACAD_REACTORS
330
E
102
}
330
E
  0
TABLESTYLE
  5
C37
102
{ACAD_REACTORS
330
C04
102
}
330
C04
100
AcDbTableStyle
  3

 70
     0
 71
     1
 40
0.06
 41
0.06
280
     0
281
     0
  7
Standard
140
0.4
170
     4
 62
     0
 63
     7
283
     0
274
    -2
284
     0
 64
     0
275
    -2
285
     0
 65
     0
276
    -2
286
     1
 66
     0
277
    -2
287
     1
 67
     0
278
    -2
288
     0
 68
     0
279
    -2
289
     1
 69
     0
  7
Standard
140
0.5
170
     5
 62
     0
 63
     7
283
     0
274
    -2
284
     1
 64
     0
275
    -2
285
     0
 65
     0
276
    -2
286
     1
 66
     0
277
    -2
287
     1
 67
     0
278
    -2
288
     0
 68
     0
279
    -2
289
     1
 69
     0
  7
Standard
140
0.4
170
     4
 62
     0
 63
     7
283
     0
274
    -2
284
     1
 64
     0
275
    -2
285
     0
 65
     0
276
    -2
286
     1
 66
     0
277
    -2
287
     1
 67
     0
278
    -2
288
     0
 68
     0
279
    -2
289
     1
 69
     0
  0
TABLESTYLE
  5
C05
102
{ACAD_REACTORS
330
C04
102
}
330
C04
100
AcDbTableStyle
  3
Standard
 70
     0
 71
     0
 40
1.5
 41
1.5
280
     0
281
     0
  7
Standard
140
4.5
170
     2
 62
     0
 63
     7
283
     0
274
    -2
284
     1
 64
     0
275
    -2
285
     1
 65
     0
276
    -2
286
     1
 66
     0
277
    -2
287
     1
 67
     0
278
    -2
288
     1
 68
     0
279
    -2
289
     1
 69
     0
  7
Standard
140
6.0
170
     5
 62
     0
 63
     7
283
     0
274
    -2
284
     1
 64
     0
275
    -2
285
     1
 65
     0
276
    -2
286
     1
 66
     0
277
    -2
287
     1
 67
     0
278
    -2
288
     1
 68
     0
279
    -2
289
     1
 69
     0
  7
Standard
140
4.5
170
     5
 62
     0
 63
     7
283
     0
274
    -2
284
     1
 64
     0
275
    -2
285
     1
 65
     0
276
    -2
286
     1
 66
     0
277
    -2
287
     1
 67
     0
278
    -2
288
     1
 68
     0
279
    -2
289
     1
 69
     0
  0
DICTIONARYVAR
  5
F02
102
{ACAD_REACTORS
330
5E
102
}
330
5E
100
DictionaryVariables
280
     0
  1
STANDARD
  0
DICTIONARYVAR
  5
5F
102
{ACAD_REACTORS
330
5E
102
}
330
5E
100
DictionaryVariables
280
     0
  1
2
  0
DICTIONARYVAR
  5
63
102
{ACAD_REACTORS
330
5E
102
}
330
5E
100
DictionaryVariables
280
     0
  1
1
  0
DICTIONARYVAR
  5
B82
102
{ACAD_REACTORS
330
5E
102
}
330
5E
100
DictionaryVariables
280
     0
  1

  0
XRECORD
  5
F01
102
{ACAD_REACTORS
330
F00
102
}
330
F00
100
AcDbXrecord
280
     1
1000
ADE02C001
1070
     1
1070
     0
1002
{
1002
}
1002
{
1002
}
1002
{
1002
}
1000

  0
XRECORD
  5
EFF
102
{ACAD_REACTORS
330
EFE
102
}
330
EFE
100
AcDbXrecord
280
     1
330
9E7
330
9E8
330
9F0
330
9F1
330
9F9
330
9FA
330
A02
330
A03
330
A0B
330
A0C
330
A14
330
A15
330
A1E
330
A1F
330
A27
330
A28
330
A2F
330
A30
330
A38
330
A39
330
A41
330
A42
330
A4A
330
A4B
330
A53
330
A54
330
A5D
330
A5E
330
A65
330
A66
330
A70
330
A71
330
A79
330
A7A
330
A82
330
A83
330
A8E
330
A8F
330
A96
330
A97
330
AA2
330
AA3
330
AAA
330
AAB
330
AB3
330
AB4
330
ABD
330
ABE
330
AC7
330
AC8
330
AD3
330
AD4
330
ADE
330
ADF
330
AE6
330
AE7
330
AEF
330
AF0
330
AF8
330
AF9
330
B04
330
B05
330
B34
330
B35
  0
DMMAPMANAGER
  5
C34
102
{ACAD_REACTORS
330
C33
102
}
330
C33
100
AcDbDictionary
281
     1
  3
DisplayMap1
350
C36
100
AcDbDictionaryWithDefault
340
C36
100
AcMapDMMapManager
 70
     1
340
C36
  0
DMSTYLELIBRARY
  5
C35
102
{ACAD_REACTORS
330
C33
102
}
330
C33
100
AcMapDMStyleLibrary
 70
     1
 70
     1
360
C3B
  0
DICTIONARY
  5
F05
330
22
100
AcDbDictionary
280
     1
281
     1
  3
ACAD_XREC_ROUNDTRIP
360
F06
  0
DICTIONARY
  5
F07
330
51
100
AcDbDictionary
280
     1
281
     1
  3
ACAD_XREC_ROUNDTRIP
360
F08
  0
DICTIONARY
  5
F09
330
56
100
AcDbDictionary
280
     1
281
     1
  3
ACAD_XREC_ROUNDTRIP
360
F0A
  0
DMMAP
  5
C36
102
{ACAD_REACTORS
330
C34
330
C38
102
}
330
C34
100
AcMapDMMap
 70
     1
  1
既定値
 70
     1
330
0
100
AcMapDMMap
 70
     1
 90
        1
360
C38
 90
        1
 40
1.797693134862314E+99
 70
     1
100
AcMapDMMap
 70
     2
 70
     0
 40
1.797693134862314E+99
290
     0
290
     1
 40
1.0
 40
3.0
  1
Legend
 90
        1
 40
1.797693134862314E+99
  1

 70
     0
 40
1.0
 70
     1
 90
        0
 90
        1
360
C39
  0
DMSTYLECATEGORY
  5
C3B
102
{ACAD_REACTORS
330
C35
102
}
330
C35
100
AcMapDMStyleCategory
 70
     1
  1
スタイルを表示
 70
     0
  0
XRECORD
  5
F06
102
{ACAD_REACTORS
330
F05
102
}
330
F05
100
AcDbXrecord
280
     1
102
SHADEPLOT
 70
     0
102
SHADEPLOTRESLEVEL
 70
     2
102
SHADEPLOTCUSTOMDPI
 70
   300
  0
XRECORD
  5
F08
102
{ACAD_REACTORS
330
F07
102
}
330
F07
100
AcDbXrecord
280
     1
102
SHADEPLOT
 70
     0
102
SHADEPLOTRESLEVEL
 70
     2
102
SHADEPLOTCUSTOMDPI
 70
   300
  0
XRECORD
  5
F0A
102
{ACAD_REACTORS
330
F09
102
}
330
F09
100
AcDbXrecord
280
     1
102
SHADEPLOT
 70
     0
102
SHADEPLOTRESLEVEL
 70
     2
102
SHADEPLOTCUSTOMDPI
 70
   300
  0
DMBASEELEMENT
  5
C38
102
{ACAD_REACTORS
330
C36
102
}
330
C36
100
AcMapDMBaseElement
 70
     1
  1
マップ ベース
 70
     1
330
C36
100
AcMapDMBaseElement
 70
     1
  1

 70
     2
  1

 70
     1
 40
1.797693134862314E+99
 70
     1
 70
     1
 70
     1
 70
     1
360
C3A
100
AcMapDMBaseElement
 70
     1
  0
DMDEFAULTSTYLE
  5
C39
102
{ACAD_REACTORS
330
C36
102
}
330
C36
100
AcMapDMDefaultStyle
 70
     1
 90
        1
  1
既定値
100
AcMapDMDefaultStyle
 70
     1
280
   100
 90
     0
  0
DMSTYLEREFERENCE
  5
C3A
330
C38
100
AcMapDMStyleReference
 70
     1
 70
     0
340
C39
330
C36
  0
ENDSEC
  0
EOF
